  0
SECTION
  2
HEADER
  9
$ACADVER
  1
AC1021
  9
$ACADMAINTVER
 70
     1
  9
$DWGCODEPAGE
  3
ANSI_1252
  9
$AUTHOR
  1
‘Created by Cad / Cam Services, Inc. for Amazon Services LLC on November, 2012’
  9
$LASTSAVEDBY
  1
AE18
  9
$INSBASE
 10
0.0
 20
0.0
 30
0.0
  9
$EXTMIN
 10
-0.0005045828716064
 20
-0.0003568121734894
 30
-0.0015258207003583
  9
$EXTMAX
 10
1.250956398351256
 20
0.9479438748675299
 30
0.0000000349246037
  9
$LIMMIN
 10
0.0
 20
0.0
  9
$LIMMAX
 10
16.53543307086614
 20
11.69291338582677
  9
$ORTHOMODE
 70
     1
  9
$REGENMODE
 70
     1
  9
$FILLMODE
 70
     1
  9
$QTEXTMODE
 70
     0
  9
$MIRRTEXT
 70
     1
  9
$LTSCALE
 40
0.25
  9
$ATTMODE
 70
     1
  9
$TEXTSIZE
 40
0.2
  9
$TRACEWID
 40
0.05
  9
$TEXTSTYLE
  7
SLDTEXTSTYLE0
  9
$CLAYER
  8
DIM
  9
$CELTYPE
  6
ByLayer
  9
$CECOLOR
 62
   256
  9
$CELTSCALE
 40
1.0
  9
$DISPSILH
 70
     0
  9
$DIMSCALE
 40
1.0
  9
$DIMASZ
 40
0.015
  9
$DIMEXO
 40
0.01
  9
$DIMDLI
 40
0.38
  9
$DIMRND
 40
0.0
  9
$DIMDLE
 40
0.0
  9
$DIMEXE
 40
0.01
  9
$DIMTP
 40
0.0
  9
$DIMTM
 40
0.0
  9
$DIMTXT
 40
0.015
  9
$DIMCEN
 40
0.09
  9
$DIMTSZ
 40
0.0
  9
$DIMTOL
 70
     0
  9
$DIMLIM
 70
     0
  9
$DIMTIH
 70
     0
  9
$DIMTOH
 70
     0
  9
$DIMSE1
 70
     0
  9
$DIMSE2
 70
     0
  9
$DIMTAD
 70
     1
  9
$DIMZIN
 70
     0
  9
$DIMBLK
  1

  9
$DIMASO
 70
     1
  9
$DIMSHO
 70
     1
  9
$DIMPOST
  1

  9
$DIMAPOST
  1

  9
$DIMALT
 70
     0
  9
$DIMALTD
 70
     2
  9
$DIMALTF
 40
25.4
  9
$DIMLFAC
 40
1.0
  9
$DIMTOFL
 70
     1
  9
$DIMTVP
 40
0.0
  9
$DIMTIX
 70
     0
  9
$DIMSOXD
 70
     0
  9
$DIMSAH
 70
     0
  9
$DIMBLK1
  1

  9
$DIMBLK2
  1

  9
$DIMSTYLE
  2
Standard
  9
$DIMCLRD
 70
     0
  9
$DIMCLRE
 70
     0
  9
$DIMCLRT
 70
     0
  9
$DIMTFAC
 40
1.0
  9
$DIMGAP
 40
0.005
  9
$DIMJUST
 70
     0
  9
$DIMSD1
 70
     0
  9
$DIMSD2
 70
     0
  9
$DIMTOLJ
 70
     1
  9
$DIMTZIN
 70
     0
  9
$DIMALTZ
 70
     0
  9
$DIMALTTZ
 70
     0
  9
$DIMUPT
 70
     0
  9
$DIMDEC
 70
     2
  9
$DIMTDEC
 70
     2
  9
$DIMALTU
 70
     2
  9
$DIMALTTD
 70
     2
  9
$DIMTXSTY
  7
Standard
  9
$DIMAUNIT
 70
     0
  9
$DIMADEC
 70
     0
  9
$DIMALTRND
 40
0.0
  9
$DIMAZIN
 70
     0
  9
$DIMDSEP
 70
    46
  9
$DIMATFIT
 70
     3
  9
$DIMFRAC
 70
     0
  9
$DIMLDRBLK
  1

  9
$DIMLUNIT
 70
     2
  9
$DIMLWD
 70
    -2
  9
$DIMLWE
 70
    -2
  9
$DIMTMOVE
 70
     0
  9
$DIMFXL
 40
1.0
  9
$DIMFXLON
 70
     0
  9
$DIMJOGANG
 40
0.7853981633974483
  9
$DIMTFILL
 70
     0
  9
$DIMTFILLCLR
 70
     0
  9
$DIMARCSYM
 70
     0
  9
$DIMLTYPE
  6

  9
$DIMLTEX1
  6

  9
$DIMLTEX2
  6

  9
$LUNITS
 70
     2
  9
$LUPREC
 70
     2
  9
$SKETCHINC
 40
0.1
  9
$FILLETRAD
 40
0.5
  9
$AUNITS
 70
     0
  9
$AUPREC
 70
     2
  9
$MENU
  1
.
  9
$ELEVATION
 40
0.0
  9
$PELEVATION
 40
0.0
  9
$THICKNESS
 40
0.0
  9
$LIMCHECK
 70
     0
  9
$CHAMFERA
 40
0.5
  9
$CHAMFERB
 40
0.5
  9
$CHAMFERC
 40
1.0
  9
$CHAMFERD
 40
0.0
  9
$SKPOLY
 70
     0
  9
$TDCREATE
 40
2456643.840922303
  9
$TDUCREATE
 40
2456643.611755637
  9
$TDUPDATE
 40
2456643.948082500
  9
$TDUUPDATE
 40
2456643.718915833
  9
$TDINDWG
 40
0.0032852315
  9
$TDUSRTIMER
 40
0.0032852315
  9
$USRTIMER
 70
     1
  9
$ANGBASE
 50
0.0
  9
$ANGDIR
 70
     0
  9
$PDMODE
 70
     0
  9
$PDSIZE
 40
-1.0
  9
$PLINEWID
 40
0.0
  9
$SPLFRAME
 70
     0
  9
$SPLINETYPE
 70
     6
  9
$SPLINESEGS
 70
     8
  9
$HANDSEED
  5
1087
  9
$SURFTAB1
 70
     6
  9
$SURFTAB2
 70
     6
  9
$SURFTYPE
 70
     6
  9
$SURFU
 70
     6
  9
$SURFV
 70
     6
  9
$UCSBASE
  2

  9
$UCSNAME
  2

  9
$UCSORG
 10
0.0
 20
0.0
 30
0.0
  9
$UCSXDIR
 10
1.0
 20
0.0
 30
0.0
  9
$UCSYDIR
 10
0.0
 20
1.0
 30
0.0
  9
$UCSORTHOREF
  2

  9
$UCSORTHOVIEW
 70
     0
  9
$UCSORGTOP
 10
0.0
 20
0.0
 30
0.0
  9
$UCSORGBOTTOM
 10
0.0
 20
0.0
 30
0.0
  9
$UCSORGLEFT
 10
0.0
 20
0.0
 30
0.0
  9
$UCSORGRIGHT
 10
0.0
 20
0.0
 30
0.0
  9
$UCSORGFRONT
 10
0.0
 20
0.0
 30
0.0
  9
$UCSORGBACK
 10
0.0
 20
0.0
 30
0.0
  9
$PUCSBASE
  2

  9
$PUCSNAME
  2

  9
$PUCSORG
 10
0.0
 20
0.0
 30
0.0
  9
$PUCSXDIR
 10
1.0
 20
0.0
 30
0.0
  9
$PUCSYDIR
 10
0.0
 20
1.0
 30
0.0
  9
$PUCSORTHOREF
  2

  9
$PUCSORTHOVIEW
 70
     0
  9
$PUCSORGTOP
 10
0.0
 20
0.0
 30
0.0
  9
$PUCSORGBOTTOM
 10
0.0
 20
0.0
 30
0.0
  9
$PUCSORGLEFT
 10
0.0
 20
0.0
 30
0.0
  9
$PUCSORGRIGHT
 10
0.0
 20
0.0
 30
0.0
  9
$PUCSORGFRONT
 10
0.0
 20
0.0
 30
0.0
  9
$PUCSORGBACK
 10
0.0
 20
0.0
 30
0.0
  9
$USERI1
 70
     0
  9
$USERI2
 70
     0
  9
$USERI3
 70
     0
  9
$USERI4
 70
     0
  9
$USERI5
 70
     0
  9
$USERR1
 40
0.0
  9
$USERR2
 40
0.0
  9
$USERR3
 40
0.0
  9
$USERR4
 40
0.0
  9
$USERR5
 40
0.0
  9
$WORLDVIEW
 70
     1
  9
$SHADEDGE
 70
     3
  9
$SHADEDIF
 70
    70
  9
$TILEMODE
 70
     1
  9
$MAXACTVP
 70
    64
  9
$PINSBASE
 10
0.0
 20
0.0
 30
0.0
  9
$PLIMCHECK
 70
     0
  9
$PEXTMIN
 10
1.000000000000000E+20
 20
1.000000000000000E+20
 30
1.000000000000000E+20
  9
$PEXTMAX
 10
-1.000000000000000E+20
 20
-1.000000000000000E+20
 30
-1.000000000000000E+20
  9
$PLIMMIN
 10
0.0
 20
0.0
  9
$PLIMMAX
 10
12.0
 20
9.0
  9
$UNITMODE
 70
     0
  9
$VISRETAIN
 70
     1
  9
$PLINEGEN
 70
     0
  9
$PSLTSCALE
 70
     1
  9
$TREEDEPTH
 70
  3020
  9
$CMLSTYLE
  2
Standard
  9
$CMLJUST
 70
     0
  9
$CMLSCALE
 40
1.0
  9
$PROXYGRAPHICS
 70
     1
  9
$MEASUREMENT
 70
     0
  9
$CELWEIGHT
370
    -1
  9
$ENDCAPS
280
     0
  9
$JOINSTYLE
280
     0
  9
$LWDISPLAY
290
     1
  9
$INSUNITS
 70
     1
  9
$HYPERLINKBASE
  1

  9
$STYLESHEET
  1

  9
$XEDIT
290
     1
  9
$CEPSNTYPE
380
     0
  9
$PSTYLEMODE
290
     1
  9
$FINGERPRINTGUID
  2
{1FCA9B7F-0074-444F-A5E3-0B4C76BF0B33}
  9
$VERSIONGUID
  2
{F751C3A2-58B4-4DE8-9F9D-6BDD0D6BAAF4}
  9
$EXTNAMES
290
     1
  9
$PSVPSCALE
 40
0.0
  9
$OLESTARTUP
290
     0
  9
$SORTENTS
280
   127
  9
$INDEXCTL
280
     0
  9
$HIDETEXT
280
     0
  9
$XCLIPFRAME
290
     0
  9
$HALOGAP
280
     0
  9
$OBSCOLOR
 70
   257
  9
$OBSLTYPE
280
     0
  9
$INTERSECTIONDISPLAY
280
     0
  9
$INTERSECTIONCOLOR
 70
   257
  9
$DIMASSOC
280
     1
  9
$PROJECTNAME
  1

  9
$CAMERADISPLAY
290
     0
  9
$LENSLENGTH
 40
50.0
  9
$CAMERAHEIGHT
 40
0.0
  9
$STEPSPERSEC
 40
2.0
  9
$STEPSIZE
 40
6.0
  9
$3DDWFPREC
 40
2.0
  9
$PSOLWIDTH
 40
0.25
  9
$PSOLHEIGHT
 40
4.0
  9
$LOFTANG1
 40
1.570796326794896
  9
$LOFTANG2
 40
1.570796326794896
  9
$LOFTMAG1
 40
0.0
  9
$LOFTMAG2
 40
0.0
  9
$LOFTPARAM
 70
     7
  9
$LOFTNORMALS
280
     1
  9
$LATITUDE
 40
37.795
  9
$LONGITUDE
 40
-122.394
  9
$NORTHDIRECTION
 40
0.0
  9
$TIMEZONE
 70
 -8000
  9
$LIGHTGLYPHDISPLAY
280
     1
  9
$TILEMODELIGHTSYNCH
280
     1
  9
$CMATERIAL
347
E8
  9
$SOLIDHIST
280
     1
  9
$SHOWHIST
280
     1
  9
$DWFFRAME
280
     2
  9
$DGNFRAME
280
     0
  9
$REALWORLDSCALE
290
     1
  9
$INTERFERECOLOR
 62
     1
  9
$INTERFEREOBJVS
345
F5
  9
$INTERFEREVPVS
346
F2
  9
$CSHADOW
280
     0
  9
$SHADOWPLANELOCATION
 40
0.0
  0
ENDSEC
  0
SECTION
  2
CLASSES
  0
CLASS
  1
ACDBDICTIONARYWDFLT
  2
AcDbDictionaryWithDefault
  3
ObjectDBX Classes
 90
        0
 91
        1
280
     0
281
     0
  0
CLASS
  1
VISUALSTYLE
  2
AcDbVisualStyle
  3
ObjectDBX Classes
 90
     4095
 91
       16
280
     0
281
     0
  0
CLASS
  1
MATERIAL
  2
AcDbMaterial
  3
ObjectDBX Classes
 90
     1024
 91
        3
280
     0
281
     0
  0
CLASS
  1
TABLESTYLE
  2
AcDbTableStyle
  3
ObjectDBX Classes
 90
     4095
 91
        1
280
     0
281
     0
  0
CLASS
  1
DICTIONARYVAR
  2
AcDbDictionaryVar
  3
ObjectDBX Classes
 90
        0
 91
        1
280
     0
281
     0
  0
CLASS
  1
SORTENTSTABLE
  2
AcDbSortentsTable
  3
ObjectDBX Classes
 90
        0
 91
        1
280
     0
281
     0
  0
CLASS
  1
PLOTSETTINGS
  2
AcDbPlotSettings
  3
ObjectDBX Classes
 90
        0
 91
        2
280
     0
281
     0
  0
ENDSEC
  0
SECTION
  2
TABLES
  0
TABLE
  2
VPORT
  5
8
102
{ACAD_XDICTIONARY
360
4DC
102
}
330
0
100
AcDbSymbolTable
 70
     1
  0
VPORT
  5
29
330
8
100
AcDbSymbolTableRecord
100
AcDbViewportTableRecord
  2
*Active
 70
     0
 10
0.0
 20
0.0
 11
1.0
 21
1.0
 12
0.6252259077398251
 22
0.4737935313470203
 13
0.0
 23
0.0
 14
0.5
 24
0.5
 15
0.5
 25
0.5
 16
0.0
 26
0.0
 36
1.0
 17
0.0
 27
0.0
 37
0.0
 40
0.9577836939114295
 41
1.82804674457429
 42
50.0
 43
0.0
 44
0.0
 50
0.0
 51
0.0
 71
     0
 72
  2000
 73
     1
 74
     3
 75
     0
 76
     0
 77
     0
 78
     0
281
     0
 65
     1
110
0.0
120
0.0
130
0.0
111
1.0
121
0.0
131
0.0
112
0.0
122
1.0
132
0.0
 79
     0
146
0.0
348
F1
 60
     3
 61
     5
292
     1
282
     1
141
0.0
142
0.0
 63
   250
421
  3355443
  0
ENDTAB
  0
TABLE
  2
LTYPE
  5
5
330
0
100
AcDbSymbolTable
 70
     2
  0
LTYPE
  5
14
330
5
100
AcDbSymbolTableRecord
100
AcDbLinetypeTableRecord
  2
ByBlock
 70
     0
  3

 72
    65
 73
     0
 40
0.0
  0
LTYPE
  5
15
330
5
100
AcDbSymbolTableRecord
100
AcDbLinetypeTableRecord
  2
ByLayer
 70
     0
  3

 72
    65
 73
     0
 40
0.0
  0
LTYPE
  5
16
330
5
100
AcDbSymbolTableRecord
100
AcDbLinetypeTableRecord
  2
Continuous
 70
     0
  3
Solid line
 72
    65
 73
     0
 40
0.0
  0
LTYPE
  5
C64
330
5
100
AcDbSymbolTableRecord
100
AcDbLinetypeTableRecord
  2
HIDDEN
 70
     0
  3
Hidden __ __ __ __ __ __ __ __ __ __ __ __ __ __
 72
    65
 73
     2
 40
0.075
 49
0.05
 74
     0
 49
-0.025
 74
     0
  0
ENDTAB
  0
TABLE
  2
LAYER
  5
2
102
{ACAD_XDICTIONARY
360
61E
102
}
330
0
100
AcDbSymbolTable
 70
     4
  0
LAYER
  5
10
330
2
100
AcDbSymbolTableRecord
100
AcDbLayerTableRecord
  2
0
 70
     0
 62
     7
  6
Continuous
370
    -3
390
F
347
EA
  0
LAYER
  5
44
330
2
100
AcDbSymbolTableRecord
100
AcDbLayerTableRecord
  2
FORMAT
 70
     0
 62
     7
  6
Continuous
370
    -3
390
F
347
EA
  0
LAYER
  5
125
330
2
100
AcDbSymbolTableRecord
100
AcDbLayerTableRecord
  2
Defpoints
 70
     0
 62
     7
  6
Continuous
290
     0
370
    -3
390
F
347
EA
  0
LAYER
  5
61C
330
2
100
AcDbSymbolTableRecord
100
AcDbLayerTableRecord
  2
DIM
 70
     0
 62
     8
  6
Continuous
370
    -3
390
F
347
EA
1001
AcAecLayerStandard
1000

1000

  0
ENDTAB
  0
TABLE
  2
STYLE
  5
3
330
0
100
AcDbSymbolTable
 70
     5
  0
STYLE
  5
11
330
3
100
AcDbSymbolTableRecord
100
AcDbTextStyleTableRecord
  2
Standard
 70
     0
 40
0.0
 41
1.0
 50
0.0
 71
     0
 42
0.2
  3
GOTHIC.TTF
  4

1001
ACAD
1000
Century Gothic
1071
       34
  0
STYLE
  5
66
330
3
100
AcDbSymbolTableRecord
100
AcDbTextStyleTableRecord
  2
SLDTEXTSTYLE0
 70
     0
 40
0.0
 41
0.75
 50
0.0
 71
     0
 42
0.2
  3
GOTHIC.TTF
  4

1001
ACAD
1000
Century Gothic
1071
       34
  0
STYLE
  5
6A
330
3
100
AcDbSymbolTableRecord
100
AcDbTextStyleTableRecord
  2
SLDTEXTSTYLE1
 70
     0
 40
0.0
 41
0.6875
 50
0.0
 71
     0
 42
0.2
  3
GOTHIC.TTF
  4

1001
ACAD
1000
Century Gothic
1071
       34
  0
STYLE
  5
412
330
3
100
AcDbSymbolTableRecord
100
AcDbTextStyleTableRecord
  2
style2
 70
     0
 40
0.0
 41
1.0
 50
0.0
 71
     0
 42
0.2
  3

  4

1001
ACAD
1000
Euphemia
1071
       34
  0
STYLE
  5
B37
330
3
100
AcDbSymbolTableRecord
100
AcDbTextStyleTableRecord
  2
style1
 70
     0
 40
0.0
 41
1.0
 50
0.0
 71
     0
 42
0.2
  3

  4

1001
ACAD
1000
@MS PGothic
1071
    32802
  0
ENDTAB
  0
TABLE
  2
VIEW
  5
6
330
0
100
AcDbSymbolTable
 70
     0
  0
ENDTAB
  0
TABLE
  2
UCS
  5
7
330
0
100
AcDbSymbolTable
 70
     0
  0
ENDTAB
  0
TABLE
  2
APPID
  5
9
330
0
100
AcDbSymbolTable
 70
     5
  0
APPID
  5
12
330
9
100
AcDbSymbolTableRecord
100
AcDbRegAppTableRecord
  2
ACAD
 70
     0
  0
APPID
  5
3B8
330
9
100
AcDbSymbolTableRecord
100
AcDbRegAppTableRecord
  2
ACAD_EXEMPT_FROM_CAD_STANDARDS
 70
     0
  0
APPID
  5
413
330
9
100
AcDbSymbolTableRecord
100
AcDbRegAppTableRecord
  2
ACAD_PSEXT
 70
     0
  0
APPID
  5
61D
330
9
100
AcDbSymbolTableRecord
100
AcDbRegAppTableRecord
  2
AcAecLayerStandard
 70
     0
  0
APPID
  5
B19
330
9
100
AcDbSymbolTableRecord
100
AcDbRegAppTableRecord
  2
PE_URL
 70
     0
  0
ENDTAB
  0
TABLE
  2
DIMSTYLE
  5
A
330
0
100
AcDbSymbolTable
 70
     1
100
AcDbDimStyleTable
 71
     1
340
27
  0
DIMSTYLE
105
27
102
{ACAD_REACTORS
330
F72
330
F7F
330
F8C
330
F99
330
FA6
102
}
330
A
100
AcDbSymbolTableRecord
100
AcDbDimStyleTableRecord
  2
Standard
 70
     0
 41
0.015
 42
0.01
 44
0.01
 73
     0
 74
     0
 77
     1
140
0.015
147
0.005
172
     1
271
     2
272
     2
340
11
  0
ENDTAB
  0
TABLE
  2
BLOCK_RECORD
  5
1
330
0
100
AcDbSymbolTable
 70
    10
  0
BLOCK_RECORD
  5
1F
330
1
100
AcDbSymbolTableRecord
100
AcDbBlockTableRecord
  2
*Model_Space
340
22
 70
     0
280
     1
281
     0
  0
BLOCK_RECORD
  5
1B
330
1
100
AcDbSymbolTableRecord
100
AcDbBlockTableRecord
  2
*Paper_Space
340
1E
 70
     0
280
     1
281
     0
  0
BLOCK_RECORD
  5
23
330
1
100
AcDbSymbolTableRecord
100
AcDbBlockTableRecord
  2
*Paper_Space0
340
26
 70
     0
280
     1
281
     0
  0
BLOCK_RECORD
  5
3F9
330
1
100
AcDbSymbolTableRecord
100
AcDbBlockTableRecord
  2
Block3
340
0
102
{BLKREFS
331
407
102
}
 70
     0
280
     1
281
     0
  0
BLOCK_RECORD
  5
405
330
1
100
AcDbSymbolTableRecord
100
AcDbBlockTableRecord
  2
Block2
340
0
102
{BLKREFS
331
44A
102
}
 70
     0
280
     1
281
     0
  0
BLOCK_RECORD
  5
409
102
{ACAD_XDICTIONARY
360
40A
102
}
330
1
100
AcDbSymbolTableRecord
100
AcDbBlockTableRecord
  2
amazon
340
0
310
2800000020000000200000000100080000000000000400000000000000000000000000000000000000000000000080000080000000808000800000008000800080800000C0C0C000C0DCC000F0CAA6000020400000206000002080000020A0000020C0000020E00000400000004020000040400000406000004080000040A0
310
000040C0000040E00000600000006020000060400000606000006080000060A0000060C0000060E00000800000008020000080400000806000008080000080A0000080C0000080E00000A0000000A0200000A0400000A0600000A0800000A0A00000A0C00000A0E00000C0000000C0200000C0400000C0600000C0800000C0
310
A00000C0C00000C0E00000E0000000E0200000E0400000E0600000E0800000E0A00000E0C00000E0E00040000000400020004000400040006000400080004000A0004000C0004000E00040200000402020004020400040206000402080004020A0004020C0004020E000404000004040200040404000404060004040800040
310
40A0004040C0004040E00040600000406020004060400040606000406080004060A0004060C0004060E00040800000408020004080400040806000408080004080A0004080C0004080E00040A0000040A0200040A0400040A0600040A0800040A0A00040A0C00040A0E00040C0000040C0200040C0400040C0600040C08000
310
40C0A00040C0C00040C0E00040E0000040E0200040E0400040E0600040E0800040E0A00040E0C00040E0E00080000000800020008000400080006000800080008000A0008000C0008000E00080200000802020008020400080206000802080008020A0008020C0008020E00080400000804020008040400080406000804080
310
008040A0008040C0008040E00080600000806020008060400080606000806080008060A0008060C0008060E00080800000808020008080400080806000808080008080A0008080C0008080E00080A0000080A0200080A0400080A0600080A0800080A0A00080A0C00080A0E00080C0000080C0200080C0400080C0600080C0
310
800080C0A00080C0C00080C0E00080E0000080E0200080E0400080E0600080E0800080E0A00080E0C00080E0E000C0000000C0002000C0004000C0006000C0008000C000A000C000C000C000E000C0200000C0202000C0204000C0206000C0208000C020A000C020C000C020E000C0400000C0402000C0404000C0406000C0
310
408000C040A000C040C000C040E000C0600000C0602000C0604000C0606000C0608000C060A000C060C000C060E000C0800000C0802000C0804000C0806000C0808000C080A000C080C000C080E000C0A00000C0A02000C0A04000C0A06000C0A08000C0A0A000C0A0C000C0A0E000C0C00000C0C02000C0C04000C0C06000
310
C0C08000C0C0A000F0FBFF00A4A0A000808080000000FF0000FF000000FFFF00FF000000FF00FF00FFFF0000FFFFFF0000000000000000000000000000000000000000000000000000000000000000000000000000000000000000000000000000000000000000000000000000000000000000000000000000000000000000
310
00000000000000000000000000000000000000000000000000000000000000000000000000000000000000000000000000000000000000000000000000000000000000000000000000000000000000000000000000000000000000000000000000000000000000000000000000000000000000000000000000000000000000
310
00000000000000000000000000000000000000000000000000000000000000000000000000000000000000000000000000000000000000000000000000000000000000000000000000000000000000000000000000000000000000000000000000000000000000000000000000000000000000000000000000000000000000
310
0000000000000000000000000000000000000000000000000000000000000000000000000000000000000000000000000000000000000000000000000000000000000000000000000000000000000000000000000000000000FFFFFFFFFF00000000000000000000000000000000000000000000000000FFFFFFFFFFFFFFFF
310
00000000000000000000FC00FC0000FCFC00000000FFFFFFFFFFFFFFFFFFFFFFFFFFFFFFFFFCFCFCFCFCFCFCFCFCFCFCFCFC00000000FFFFFFFFFFFFFFFFFFFFFFFFFFFFFFFCFCFC00FCFCFCFC00FCFCFCFC00000000FFFFFFFFFFFFFFFFFFFFFFFFFFFFFFFCFCFC00FCFCFCFCFCFCFCFCFC00000000000000000000000000
310
00000000000000000000000000000000FC0000000000000000000000000000000000000000000000000000000000000000000000000000000000000000000000000000000000000000000000000000000000000000000000000000000000000000000000000000000000000000000000000000000000000000000000000000
310
00000000000000000000000000000000000000000000000000000000000000000000000000000000000000000000000000000000000000000000000000000000000000000000000000000000000000000000000000000000000000000000000000000000000000000000000000000000000000000000000000000000000000
310
00000000000000000000000000000000000000000000000000000000000000000000000000000000000000000000000000000000000000000000000000000000000000000000000000000000000000000000000000000000000000000000000000000000000000000000000000000000000000000000000000000000000000
310
0000000000000000000000000000000000000000000000000000000000000000000000000000000000000000000000000000000000000000
 70
     1
280
     1
281
     0
  0
BLOCK_RECORD
  5
B30
330
1
100
AcDbSymbolTableRecord
100
AcDbBlockTableRecord
  2
amazon block
340
0
310
2800000020000000200000000100080000000000000400000000000000000000000000000000000000000000000080000080000000808000800000008000800080800000C0C0C000C0DCC000F0CAA6000020400000206000002080000020A0000020C0000020E00000400000004020000040400000406000004080000040A0
310
000040C0000040E00000600000006020000060400000606000006080000060A0000060C0000060E00000800000008020000080400000806000008080000080A0000080C0000080E00000A0000000A0200000A0400000A0600000A0800000A0A00000A0C00000A0E00000C0000000C0200000C0400000C0600000C0800000C0
310
A00000C0C00000C0E00000E0000000E0200000E0400000E0600000E0800000E0A00000E0C00000E0E00040000000400020004000400040006000400080004000A0004000C0004000E00040200000402020004020400040206000402080004020A0004020C0004020E000404000004040200040404000404060004040800040
310
40A0004040C0004040E00040600000406020004060400040606000406080004060A0004060C0004060E00040800000408020004080400040806000408080004080A0004080C0004080E00040A0000040A0200040A0400040A0600040A0800040A0A00040A0C00040A0E00040C0000040C0200040C0400040C0600040C08000
310
40C0A00040C0C00040C0E00040E0000040E0200040E0400040E0600040E0800040E0A00040E0C00040E0E00080000000800020008000400080006000800080008000A0008000C0008000E00080200000802020008020400080206000802080008020A0008020C0008020E00080400000804020008040400080406000804080
310
008040A0008040C0008040E00080600000806020008060400080606000806080008060A0008060C0008060E00080800000808020008080400080806000808080008080A0008080C0008080E00080A0000080A0200080A0400080A0600080A0800080A0A00080A0C00080A0E00080C0000080C0200080C0400080C0600080C0
310
800080C0A00080C0C00080C0E00080E0000080E0200080E0400080E0600080E0800080E0A00080E0C00080E0E000C0000000C0002000C0004000C0006000C0008000C000A000C000C000C000E000C0200000C0202000C0204000C0206000C0208000C020A000C020C000C020E000C0400000C0402000C0404000C0406000C0
310
408000C040A000C040C000C040E000C0600000C0602000C0604000C0606000C0608000C060A000C060C000C060E000C0800000C0802000C0804000C0806000C0808000C080A000C080C000C080E000C0A00000C0A02000C0A04000C0A06000C0A08000C0A0A000C0A0C000C0A0E000C0C00000C0C02000C0C04000C0C06000
310
C0C08000C0C0A000F0FBFF00A4A0A000808080000000FF0000FF000000FFFF00FF000000FF00FF00FFFF0000FFFFFF0000000000000000000000000000000000000000000000000000000000000000000000000000000000000000000000000000000000000000000000000000000000000000000000000000000000000000
310
00000000000000000000000000000000000000000000000000000000000000000000000000000000000000000000000000000000000000000000000000000000000000000000000000000000000000000000000000000000000000000000000000000000000000000000000000000000000000000000000000000000000000
310
00000000000000000000000000000000000000000000000000000000000000000000000000000000000000000000000000000000000000000000000000000000000000000000000000000000000000000000000000000000000000000000000000000000000000000000000000000000000000000000000000000000000000
310
0000000000000000000000000000000000000000000000000000000000000000000000000000000000000000000000000000000000000000000000000000000000000000000000000000000000000000000000000000000000FFFFFFFFFF00000000000000000000000000000000000000000000000000FFFFFFFFFFFFFFFF
310
00000000000000000000E000E0E000E0E0E0000000FFFFFFFFFFFFFFFFFFFFFFFFFFFFFFFFE0E0E0E0E0E0E0E0E0E0E0E0E000000000FFFFFFFFFFFFFFFFFFFFFFFFFFFFFFE0E0E0E0E0E0E0E0E0E0E0E0E000000000FFFFFFFFFFFFFFFFFFFFFFFFFFFFFFE0E0E0E0E0E0E0E0E0E0E0E0E0E0000000000000000000000000
310
00000000000000000000000000000000E00000000000000000000000000000000000000000000000000000000000000000000000000000000000000000000000000000000000000000000000000000000000000000000000000000000000000000000000000000000000000000000000000000000000000000000000000000
310
00000000000000000000000000000000000000000000000000000000000000000000000000000000000000000000000000000000000000000000000000000000000000000000000000000000000000000000000000000000000000000000000000000000000000000000000000000000000000000000000000000000000000
310
00000000000000000000000000000000000000000000000000000000000000000000000000000000000000000000000000000000000000000000000000000000000000000000000000000000000000000000000000000000000000000000000000000000000000000000000000000000000000000000000000000000000000
310
0000000000000000000000000000000000000000000000000000000000000000000000000000000000000000000000000000000000000000
102
{BLKREFS
331
B40
102
}
 70
     1
280
     1
281
     0
  0
BLOCK_RECORD
  5
F73
330
1
100
AcDbSymbolTableRecord
100
AcDbBlockTableRecord
  2
*D5
340
0
 70
     0
280
     1
281
     0
  0
BLOCK_RECORD
  5
F80
330
1
100
AcDbSymbolTableRecord
100
AcDbBlockTableRecord
  2
*D6
340
0
 70
     0
280
     1
281
     0
  0
BLOCK_RECORD
  5
F8D
330
1
100
AcDbSymbolTableRecord
100
AcDbBlockTableRecord
  2
*D7
340
0
 70
     0
280
     1
281
     0
  0
BLOCK_RECORD
  5
F9A
330
1
100
AcDbSymbolTableRecord
100
AcDbBlockTableRecord
  2
*D8
340
0
 70
     0
280
     1
281
     0
  0
BLOCK_RECORD
  5
FA7
330
1
100
AcDbSymbolTableRecord
100
AcDbBlockTableRecord
  2
*D9
340
0
 70
     0
280
     1
281
     0
  0
ENDTAB
  0
ENDSEC
  0
SECTION
  2
BLOCKS
  0
BLOCK
  5
20
330
1F
100
AcDbEntity
  8
0
100
AcDbBlockBegin
  2
*Model_Space
 70
     0
 10
0.0
 20
0.0
 30
0.0
  3
*Model_Space
  1

  0
ENDBLK
  5
21
330
1F
100
AcDbEntity
  8
0
100
AcDbBlockEnd
  0
BLOCK
  5
1C
330
1B
100
AcDbEntity
 67
     1
  8
0
100
AcDbBlockBegin
  2
*Paper_Space
 70
     0
 10
0.0
 20
0.0
 30
0.0
  3
*Paper_Space
  1

  0
ENDBLK
  5
1D
330
1B
100
AcDbEntity
 67
     1
  8
0
100
AcDbBlockEnd
  0
BLOCK
  5
24
330
23
100
AcDbEntity
 67
     1
  8
0
100
AcDbBlockBegin
  2
*Paper_Space0
 70
     0
 10
0.0
 20
0.0
 30
0.0
  3
*Paper_Space0
  1

  0
ENDBLK
  5
25
330
23
100
AcDbEntity
 67
     1
  8
0
100
AcDbBlockEnd
  0
BLOCK
  5
3FA
330
3F9
100
AcDbEntity
  8
0
100
AcDbBlockBegin
  2
Block3
 70
     0
 10
0.0
 20
0.0
 30
0.0
  3
Block3
  1

  0
CIRCLE
  5
3FB
330
3F9
100
AcDbEntity
  8
FORMAT
 62
     7
370
    15
100
AcDbCircle
 10
9.623096090023436
 20
2.115622186524885
 30
0.0
 40
0.0998031496062924
  0
CIRCLE
  5
3FC
330
3F9
100
AcDbEntity
  8
FORMAT
 62
     7
370
    15
100
AcDbCircle
 10
9.623096090023436
 20
2.115622186524885
 30
0.0
 40
0.1996062992125948
  0
LINE
  5
3FD
330
3F9
100
AcDbEntity
  8
FORMAT
 62
     7
370
    15
100
AcDbLine
 10
10.05890680910872
 20
2.020396293772344
 30
0.0
 11
10.05890680910872
 21
2.210848079277426
 31
0.0
  0
LINE
  5
3FE
330
3F9
100
AcDbEntity
  8
FORMAT
 62
     7
370
    15
100
AcDbLine
 10
10.05890680910872
 20
2.210848079277426
 30
0.0
 11
10.55986477488565
 21
2.315228485737483
 31
0.0
  0
LINE
  5
3FF
330
3F9
100
AcDbEntity
  8
FORMAT
 62
     7
370
    15
100
AcDbLine
 10
10.55986477488565
 20
2.315228485737483
 30
0.0
 11
10.55986477488565
 21
1.916015887312285
 31
0.0
  0
LINE
  5
400
330
3F9
100
AcDbEntity
  8
FORMAT
 62
     7
370
    15
100
AcDbLine
 10
10.55986477488565
 20
1.916015887312285
 30
0.0
 11
10.05890680910872
 21
2.020396293772344
 31
0.0
  0
LINE
  5
401
330
3F9
100
AcDbEntity
  8
FORMAT
 62
     7
370
    15
100
AcDbLine
 10
9.987169396213419
 20
2.115622186524885
 30
0.0
 11
10.59626953693931
 21
2.115622186524885
 31
0.0
  0
LINE
  5
402
330
3F9
100
AcDbEntity
  8
FORMAT
 62
     7
370
    15
100
AcDbLine
 10
9.368122674365656
 20
2.115622186524885
 30
0.0
 11
9.87806950568121
 21
2.115622186524885
 31
0.0
  0
LINE
  5
403
330
3F9
100
AcDbEntity
  8
FORMAT
 62
     7
370
    15
100
AcDbLine
 10
9.623096090023436
 20
1.872691387914879
 30
0.0
 11
9.623096090023436
 21
2.382638219230431
 31
0.0
  0
ENDBLK
  5
404
330
3F9
100
AcDbEntity
  8
0
100
AcDbBlockEnd
  0
BLOCK
  5
406
330
405
100
AcDbEntity
  8
0
100
AcDbBlockBegin
  2
Block2
 70
     0
 10
0.0
 20
0.0
 30
0.0
  3
Block2
  1

  0
INSERT
  5
407
330
405
100
AcDbEntity
  8
0
  6
Continuous
 62
     7
100
AcDbBlockReference
  2
Block3
 10
-0.0282699124868556
 20
0.0201145539810274
 30
0.0
  0
ENDBLK
  5
408
330
405
100
AcDbEntity
  8
0
100
AcDbBlockEnd
  0
BLOCK
  5
40C
330
409
100
AcDbEntity
  8
0
100
AcDbBlockBegin
  2
amazon
 70
     0
 10
0.0
 20
0.0
 30
0.0
  3
amazon
  1

  0
HATCH
  5
40D
330
409
100
AcDbEntity
  8
0
100
AcDbHatch
 10
0.0
 20
0.0
 30
0.0
210
0.0
220
0.0
230
0.9999999999999998
  2
SOLID
 70
     1
 71
     0
 91
        1
 92
        5
 93
        1
 72
     4
 94
        3
 73
     0
 74
     0
 95
       18
 96
       14
 40
0.0
 40
0.0
 40
0.0
 40
0.0
 40
0.0596755466403443
 40
0.1035834707990989
 40
0.1695571134872838
 40
0.2000964637947284
 40
0.2237461165360023
 40
0.2565225897680324
 40
0.2756876256135649
 40
0.3018435697278741
 40
0.3302551352352805
 40
0.3457181605243852
 40
0.3618589112597388
 40
0.3618589112597388
 40
0.3618589112597388
 40
0.3618589112597388
 10
0.9280407135556529
 20
0.3678371450737368
 10
1.014164084729102
 20
0.3851494268204694
 10
1.144945011486449
 20
0.4024842103214663
 10
1.481904894757406
 20
0.3990648758382389
 10
1.309526957346704
 20
0.1657833910269666
 10
1.071996456892463
 20
0.0025828528301117
 10
1.213429780952147
 20
0.147260900816045
 10
1.269689397936616
 20
0.2055836989094448
 10
1.328770741103362
 20
0.3426132943554165
 10
1.182110533057802
 20
0.3629915346337151
 10
1.077363991359149
 20
0.3586993230536737
 10
1.01802908590988
 20
0.3618658313307459
 10
0.904746484263093
 20
0.3631546035627498
 10
0.9280407135556529
 20
0.3678371450737368
 97
        0
 75
     0
 76
     1
 47
0.0083360314226261
 98
        1
 10
1.350036184717041
 20
0.3275823953230534
450
        0
451
        0
460
0.0
461
0.0
452
        1
462
1.0
453
        2
463
0.0
 63
     5
421
      255
463
1.0
 63
     7
421
 16777215
470
LINEAR
1001
ACAD
1010
0.0
1020
0.0
1030
0.0
  0
HATCH
  5
40E
330
409
100
AcDbEntity
  8
0
100
AcDbHatch
 10
0.0
 20
0.0
 30
0.0
210
0.0
220
0.0
230
0.9999999999999998
  2
SOLID
 70
     1
 71
     0
 91
        9
 92
        7
 72
     1
 73
     1
 93
       20
 10
-1.397399278738596
 20
0.888299103756417
 42
0.0
 10
-1.517557092146972
 20
0.8521069912840207
 42
0.0
 10
-1.634457615432786
 20
0.8260486703038981
 42
0.113500075695427
 10
-1.796297882939342
 20
0.77249506361993
 42
0.335029435887297
 10
-1.882119182302076
 20
0.5660893728218724
 42
0.2523749963765925
 10
-1.737967057103837
 20
0.4398788302234422
 42
0.1008759599722844
 10
-1.585598263595066
 20
0.4319165654795154
 42
0.1558313267708922
 10
-1.397230403062579
 20
0.516966153393244
 42
0.0
 10
-1.397399278738596
 20
0.5017673425512395
 42
0.1600174655974661
 10
-1.372064800007926
 20
0.4395169090987201
 42
0.0
 10
-1.217886400875514
 20
0.4395169090987201
 42
-0.1096578030042886
 10
-1.250459302100694
 20
0.4735374948229208
 42
-0.1371553684281488
 10
-1.269279200586318
 20
0.540854824021424
 42
0.0
 10
-1.269279200586318
 20
0.9244912162288137
 42
0.267077244638994
 10
-1.391608540743007
 20
1.084460353356798
 42
0.1085027846705916
 10
-1.618171164820246
 20
1.110518674336923
 42
0.3343505200399534
 10
-1.854867580389672
 20
0.9063951599926172
 42
0.0
 10
-1.71371834174733
 20
0.9063951599926172
 42
-0.2815324590939715
 10
-1.623703637535193
 20
0.9970774848409384
 42
-0.1775171235246243
 10
-1.454582816445004
 20
0.984570122933
 42
-0.2483479329952881
 97
        0
 92
       22
 72
     1
 73
     1
 93
        8
 10
-1.397399278738596
 20
0.7768273973414295
 42
0.0
 10
-1.397399278738596
 20
0.658841110681435
 42
-0.2004737922071577
 10
-1.563882996111615
 20
0.5415786662708722
 42
-0.1115040980661369
 10
-1.686936178517754
 20
0.5404929028967014
 42
-0.2738586692622027
 10
-1.742672031725241
 20
0.6002098884761536
 42
-0.289643054085014
 10
-1.707203761502306
 20
0.6928616964054842
 42
-0.1190249358109779
 10
-1.625409587314685
 20
0.7261584398800891
 42
-0.0006545690929014
 10
-1.500908720409647
 20
0.7514929186107651
 42
0.031014715336947
 97
        0
 92
        7
 72
     1
 73
     1
 93
       27
 10
-1.062984159493659
 20
0.4395169090987201
 42
0.0
 10
-0.9348640813413879
 20
0.4395169090987201
 42
0.0
 10
-0.9348640813413879
 20
0.8535546757829193
 42
-0.1716644096531924
 10
-0.8769567013855592
 20
0.9534449062067299
 42
-0.1448545784781812
 10
-0.7799618399595332
 20
0.9997708101713946
 42
-0.1340090766267909
 10
-0.6862242686560336
 20
0.9885512553049524
 42
-0.2563461470910333
 10
-0.6192688605821033
 20
0.8998805797475881
 42
0.0
 10
-0.6192688605821033
 20
0.4395169090987201
 42
0.0
 10
-0.4904249401803611
 20
0.4395169090987201
 42
0.0
 10
-0.4904249401803753
 20
0.8641979875178154
 42
-0.1830801363087423
 10
-0.4212980053581035
 20
0.9621310132001053
 42
-0.1206854715101709
 10
-0.3311796453018374
 20
0.9975992834230517
 42
-0.2157527517618656
 10
-0.216674861049178
 20
0.9774303127070119
 42
-0.2679983488848178
 10
-0.1748297194210906
 20
0.9063951599927708
 42
0.0
 10
-0.1748297194210977
 20
0.4395169090987201
 42
0.0
 10
-0.0467096412688122
 20
0.4395169090987201
 42
0.0
 10
-0.0467096412688122
 20
0.9063951599926172
 42
0.0
 10
-0.0467096412688122
 20
0.9360726922199805
 42
0.2784603970195297
 10
-0.1675912969266093
 20
1.094594144849069
 42
0.1495326253440701
 10
-0.3521710705358245
 20
1.102556409592997
 42
0.1796241607690637
 10
-0.5034541006704388
 20
0.9896370186791244
 42
0.1190036376854939
 10
-0.5809052213613626
 20
1.073602719615081
 42
0.1510696384071214
 10
-0.753179676729971
 20
1.112690201085266
 42
0.122416550902687
 10
-0.8494506959065404
 20
1.081564984359008
 42
0.0903817772246913
 10
-0.9348640813413879
 20
1.001218494670287
 42
0.0
 10
-0.9348640813413879
 20
1.101108725094101
 42
0.0
 10
-1.062984159493659
 20
1.101108725094101
 42
0.0
 97
        0
 92
        7
 72
     1
 73
     1
 93
       20
 10
0.1120662149268909
 20
0.5660893728218764
 42
0.2523749963765703
 10
0.256218340125109
 20
0.4398788302234467
 42
0.100875959972303
 10
0.4085871336339224
 20
0.4319165654795159
 42
0.1558313267708855
 10
0.5969549941663886
 20
0.516966153393244
 42
0.0
 10
0.5967861184903711
 20
0.5017673425512395
 42
0.1600174655974661
 10
0.6221205972210555
 20
0.4395169090987201
 42
0.0
 10
0.7762989963534466
 20
0.4395169090987201
 42
-0.1096578030036369
 10
0.7437260951284089
 20
0.4735374948226645
 42
-0.1371553684287215
 10
0.7249061966426496
 20
0.540854824021424
 42
0.0
 10
0.7249061966426496
 20
0.9244912162288137
 42
0.2670772446390557
 10
0.6025768564859249
 20
1.084460353356814
 42
0.1085027846705556
 10
0.3760142324087567
 20
1.110518674336923
 42
0.3343505200399825
 10
0.1393178168393021
 20
0.9063951599926172
 42
0.0
 10
0.2804670554816368
 20
0.9063951599926172
 42
-0.2815324590939487
 10
0.370481759693746
 20
0.9970774848409313
 42
-0.1775171235246857
 10
0.539602580783992
 20
0.9845701229329858
 42
-0.2483479329952225
 10
0.5967861184903711
 20
0.888299103756417
 42
0.0
 10
0.4766283050820306
 20
0.8521069912840264
 42
0.0
 10
0.359727781796181
 20
0.8260486703038981
 42
0.113500075695427
 10
0.1978875142896257
 20
0.77249506361993
 42
0.335029435887291
 97
        0
 92
       22
 72
     1
 73
     1
 93
        8
 10
0.2869816357266757
 20
0.6928616964054842
 42
-0.1190249358109779
 10
0.3687758099142826
 20
0.7261584398800891
 42
-0.0006545690929014
 10
0.4932766768193205
 20
0.7514929186107651
 42
0.0310147153369478
 10
0.5967861184903711
 20
0.7768273973414419
 42
0.0
 10
0.5967861184903711
 20
0.658841110681435
 42
-0.2004737922071577
 10
0.430302401117352
 20
0.5415786662708722
 42
-0.1115040980661369
 10
0.3072492187112061
 20
0.5404929028967014
 42
-0.2738586692622027
 10
0.251513365503726
 20
0.6002098884761536
 42
-0.289643054085014
 97
        0
 92
        7
 72
     1
 73
     1
 93
       10
 10
1.490731296558529
 20
0.9717250567569255
 42
0.0
 10
1.490731296558529
 20
1.101108725094102
 42
0.0
 10
0.9246866574902696
 20
1.101108725094102
 42
0.0
 10
0.9246866574902767
 20
0.9648744605637409
 42
0.0
 10
1.298313112053691
 20
0.9648744605637409
 42
0.0
 10
0.8993521787595994
 20
0.5408548240214275
 42
0.0
 10
0.8993521787595994
 20
0.4395169090987241
 42
-0.1473109550280885
 10
1.52402804003313
 20
0.4395169090987184
 42
0.0
 10
1.52402804003313
 20
0.581774738538516
 42
0.0747823019347494
 10
1.16328520907988
 20
0.6214717791056393
 42
0.0
 97
        0
 92
        7
 72
     1
 73
     1
 93
        2
 10
1.658662698430447
 20
0.7829800564617493
 42
1.0
 10
2.353551257900427
 20
0.7829800564617493
 42
1.0
 97
        0
 92
       22
 72
     1
 73
     1
 93
        2
 10
2.212041370259932
 20
0.7829800564617493
 42
-1.0
 10
1.800172586070949
 20
0.7829800564617493
 42
-1.0
 97
        0
 92
        7
 72
     1
 73
     1
 93
       15
 10
2.520758817522896
 20
0.4395169090987201
 42
0.0
 10
2.649602737924617
 20
0.4395169090987201
 42
0.0
 10
2.649602737924617
 20
0.7753797128425455
 42
-0.1884880930389393
 10
2.726330016366098
 20
0.9404157457166672
 42
-0.0825504763720134
 10
2.808124190553712
 20
1.002666179169187
 42
-0.1879859195515259
 10
2.9333488997082
 20
1.010628443913113
 42
-0.3400688989443128
 10
3.022381496390295
 20
0.8948632846375158
 42
0.0
 10
3.022381496390295
 20
0.4395169090987201
 42
0.0
 10
3.151225416792009
 20
0.4395169090987201
 42
0.0
 10
3.151225416792023
 20
0.9382442189683235
 42
0.3709832727766776
 10
2.952118968473769
 20
1.109868265359158
 42
0.160618198198489
 10
2.773379762580219
 20
1.083012668857902
 42
0.0920112842116662
 10
2.649602737924617
 20
0.9831224384341012
 42
0.0
 10
2.649602737924631
 20
1.101108725094101
 42
0.0
 10
2.520758817522896
 20
1.1011087250941
 42
0.0
 97
        0
 75
     0
 76
     1
 47
0.0079344138681199
 98
        9
 10
-1.376638647914745
 20
0.8943652481782571
 10
-1.376638647914745
 20
0.8943652481782571
 10
-1.008011843667617
 20
0.7810537369378041
 10
0.2295103337683244
 20
0.706616395506853
 10
0.2295103337683244
 20
0.706616395506853
 10
1.173803717490862
 20
0.7215039733471374
 10
1.736822720547962
 20
0.9152585806937842
 10
1.736822720547962
 20
0.9152585806937842
 10
2.581717008623201
 20
0.8854836988984509
450
        0
451
        0
460
0.0
461
0.0
452
        1
462
1.0
453
        2
463
0.0
 63
     5
421
      255
463
1.0
 63
     7
421
 16777215
470
LINEAR
1001
ACAD
1010
0.0
1020
0.0
1030
0.0
  0
TEXT
  5
40F
330
409
100
AcDbEntity
  8
0
 62
   150
100
AcDbText
 10
3.411151618523078
 20
0.4239129498757777
 30
0.0
 40
1.05
  1
supply
 41
1.08
  7
style2
100
AcDbText
  0
HATCH
  5
410
330
409
100
AcDbEntity
  8
0
100
AcDbHatch
 10
0.0
 20
0.0
 30
0.0
210
0.0
220
0.0
230
0.9999999999999998
  2
SOLID
 70
     1
 71
     0
 91
        1
 92
        7
 72
     1
 73
     1
 93
        2
 10
-1.177902949885989
 20
0.4051926481048067
 42
0.3081272588713221
 10
1.212164975232198
 20
0.2933070771634125
 42
-0.177724595219735
 97
        0
 75
     0
 76
     1
 47
0.0009928164167271
 98
        1
 10
0.1755697210077258
 20
0.0593374821502257
450
        0
451
        0
460
0.0
461
0.0
452
        1
462
1.0
453
        2
463
0.0
 63
     5
421
      255
463
1.0
 63
     7
421
 16777215
470
LINEAR
1001
ACAD
1010
0.0
1020
0.0
1030
0.0
  0
ENDBLK
  5
411
330
409
100
AcDbEntity
  8
0
100
AcDbBlockEnd
  0
BLOCK
  5
B31
330
B30
100
AcDbEntity
  8
0
100
AcDbBlockBegin
  2
amazon block
 70
     0
 10
0.0
 20
0.0
 30
0.0
  3
amazon block
  1

  0
HATCH
  5
B32
330
B30
100
AcDbEntity
  8
0
100
AcDbHatch
 10
0.0
 20
0.0
 30
0.0
210
0.0
220
0.0
230
1.0
  2
SOLID
 70
     1
 71
     0
 91
        1
 92
        7
 72
     1
 73
     1
 93
        2
 10
0.1428560650202613
 20
0.0268249692297831
 42
0.3005568377796329
 10
0.6100026189360293
 20
0.0009915743964171
 42
-0.1486648242730099
 97
        0
 75
     0
 76
     1
 47
0.0083360314226261
 98
        1
 10
0.3681872109149253
 20
-0.0332769951503647
450
        0
451
        0
460
0.0
461
0.0
452
        1
462
1.0
453
        2
463
0.0
 63
     5
421
      255
463
1.0
 63
     7
421
 16777215
470
LINEAR
1001
ACAD
1010
0.0
1020
0.0
1030
0.0
  0
HATCH
  5
B33
330
B30
100
AcDbEntity
  8
0
100
AcDbHatch
 10
0.0
 20
0.0
 30
0.0
210
0.0
220
0.0
230
1.0
  2
SOLID
 70
     1
 71
     0
 91
        1
 92
        5
 93
        1
 72
     4
 94
        3
 73
     0
 74
     0
 95
       18
 96
       14
 40
0.0
 40
0.0
 40
0.0
 40
0.0
 40
0.3060284443094571
 40
0.531197286149225
 40
0.8695236589091486
 40
1.026135711767838
 40
1.14741598223591
 40
1.315500460348882
 40
1.413679231894078
 40
1.543957423309552
 40
1.719337158993241
 40
1.76919128251474
 40
1.852441399548553
 40
1.852441399548553
 40
1.852441399548553
 40
1.852441399548553
 10
0.5476248318910955
 20
0.0189472839500944
 10
0.5671265702171127
 20
0.0228674694218305
 10
0.5967407336623403
 20
0.0267937023518194
 10
0.6730410215606746
 20
0.0260155775369224
 10
0.6340109953118472
 20
-0.0267925718215847
 10
0.5802183818763105
 20
-0.0637796196110996
 10
0.6122605658026537
 20
-0.030937261100445
 10
0.624929189918916
 20
-0.0180757154749651
 10
0.6383573330340191
 20
0.013562833138125
 10
0.6020518241954172
 20
0.0146147000415664
 10
0.5794789444548947
 20
0.0158864032827642
 10
0.5641956865595646
 20
0.0167018526831093
 10
0.5423196975867733
 20
0.017880860532975
 10
0.5476248318910955
 20
0.0189472839500944
 97
        0
 75
     0
 76
     1
 47
0.0083360314226261
 98
        1
 10
0.644363460657651
 20
0.0075847933888076
450
        0
451
        0
460
0.0
461
0.0
452
        1
462
1.0
453
        2
463
0.0
 63
     5
421
      255
463
1.0
 63
     7
421
 16777215
470
LINEAR
1001
ACAD
1010
0.0
1020
0.0
1030
0.0
  0
HATCH
  5
B34
330
B30
100
AcDbEntity
  8
0
100
AcDbHatch
 10
0.0
 20
0.0
 30
0.0
210
0.0
220
0.0
230
1.0
  2
SOLID
 70
     1
 71
     0
 91
        9
 92
        7
 72
     1
 73
     1
 93
       20
 10
0.1000542808940033
 20
0.1169245515333142
 42
0.0
 10
0.076623507279372
 20
0.1098670896011966
 42
0.0
 10
0.0538279052386379
 20
0.1047857170100728
 42
0.113500075695427
 10
0.0222690530748579
 20
0.0943427637066989
 42
0.335029435887297
 10
0.0055338996991239
 20
0.0540936540010777
 42
0.2523749963765925
 10
0.0336435641127828
 20
0.0294825981943836
 42
0.1008759599722844
 10
0.0633554788469937
 20
0.0279299565693179
 42
0.1558313267708922
 10
0.1000872116508269
 20
0.0445146262124951
 42
0.0
 10
0.1000542808940033
 20
0.0415508580983044
 42
0.1600174655974661
 10
0.1049945042464841
 20
0.029412023575063
 42
0.0
 10
0.1350592920773046
 20
0.029412023575063
 42
-0.1096578030042886
 10
0.128707576338396
 20
0.0360460377912819
 42
-0.1371553684281488
 10
0.125037696133699
 20
0.0491729169849902
 42
0.0
 10
0.125037696133699
 20
0.1239820134654312
 42
0.267077244638994
 10
0.1011834748031433
 20
0.1551759952053882
 42
0.1085027846705916
 10
0.0570037631080815
 20
0.1602573677965124
 42
0.3343505200399534
 10
0.0108479620720452
 20
0.1204532824993727
 42
0.0
 10
0.0383720636073015
 20
0.1204532824993727
 42
-0.2815324590939715
 10
0.0559249309286685
 20
0.1381363358447958
 42
-0.1775171235246243
 10
0.0889034910412541
 20
0.1356974002727478
 42
-0.2483479329952881
 97
        0
 92
       22
 72
     1
 73
     1
 93
        8
 10
0.1000542808940033
 20
0.0951875687823911
 42
0.0
 10
0.1000542808940033
 20
0.0721802428836922
 42
-0.2004737922071577
 10
0.0675899560062661
 20
0.0493140662236327
 42
-0.1115040980661369
 10
0.0435945854370701
 20
0.0491023423656691
 42
-0.2738586692622027
 10
0.0327260940616085
 20
0.0607471545536624
 42
-0.289643054085014
 10
0.0396424067550818
 20
0.0788142570998818
 42
-0.1190249358109779
 10
0.0555922707216681
 20
0.0853071220774298
 42
-0.0006545690929014
 10
0.0798699397681482
 20
0.090247345429912
 42
0.031014715336947
 97
        0
 92
        7
 72
     1
 73
     1
 93
       27
 10
0.1652652291467689
 20
0.029412023575063
 42
0.0
 10
0.190248644386461
 20
0.029412023575063
 42
0.0
 10
0.190248644386461
 20
0.1101493880784821
 42
-0.1716644096531924
 10
0.201540583477847
 20
0.1296279830111251
 42
-0.1448545784781812
 10
0.2204545814559218
 20
0.1386615342842345
 42
-0.1340090766267909
 10
0.2387334078601029
 20
0.1364737210852782
 42
-0.2563461470910333
 10
0.251789712434519
 20
0.1191829393515924
 42
0.0
 10
0.251789712434519
 20
0.029412023575063
 42
0.0
 10
0.2769142769128621
 20
0.029412023575063
 42
0.0
 10
0.2769142769128585
 20
0.1122248338667866
 42
-0.1830801363087423
 10
0.290394029203199
 20
0.1313217738748333
 42
-0.1206854715101709
 10
0.3079671094141716
 20
0.1382380865683075
 42
-0.2157527517618656
 10
0.3302955423434426
 20
0.1343051372786799
 42
-0.2679983488848178
 10
0.33845534496092
 20
0.1204532824994029
 42
0.0
 10
0.3384553449609164
 20
0.029412023575063
 42
0.0
 10
0.3634387602006122
 20
0.029412023575063
 42
0.0
 10
0.3634387602006122
 20
0.1204532824993727
 42
0.0
 10
0.3634387602006122
 20
0.1262404012837086
 42
0.2784603970195297
 10
0.3398668373473406
 20
0.1571520845463814
 42
0.1495326253440701
 10
0.3038737814935466
 20
0.1587047261714471
 42
0.1796241607690637
 10
0.2743735906172944
 20
0.1366854449432417
 42
0.1190036376854939
 10
0.259270622082564
 20
0.1530587566257537
 42
0.1510696384071214
 10
0.2256771032856868
 20
0.1606808155124395
 42
0.122416550902687
 10
0.2069042545462558
 20
0.154611398250819
 42
0.0903817772246913
 10
0.190248644386461
 20
0.1389438327615187
 42
0.0
 10
0.190248644386461
 20
0.1584224276941626
 42
0.0
 10
0.1652652291467689
 20
0.1584224276941626
 42
0.0
 97
        0
 92
        7
 72
     1
 73
     1
 93
       20
 10
0.394400052158776
 20
0.0540936540010786
 42
0.2523749963765703
 10
0.4225097165724279
 20
0.0294825981943845
 42
0.100875959972303
 10
0.4522216313066459
 20
0.0279299565693183
 42
0.1558313267708855
 10
0.4889533641104756
 20
0.0445146262124951
 42
0.0
 10
0.4889204333536519
 20
0.0415508580983044
 42
0.1600174655974661
 10
0.4938606567061364
 20
0.029412023575063
 42
0.0
 10
0.5239254445369533
 20
0.029412023575063
 42
-0.1096578030036369
 10
0.5175737287980695
 20
0.0360460377912322
 42
-0.1371553684287215
 10
0.5139038485933476
 20
0.0491729169849902
 42
0.0
 10
0.5139038485933476
 20
0.1239820134654312
 42
0.2670772446390557
 10
0.4900496272627848
 20
0.1551759952053913
 42
0.1085027846705556
 10
0.4458699155677373
 20
0.1602573677965129
 42
0.3343505200399825
 10
0.3997141145316938
 20
0.1204532824993727
 42
0.0
 10
0.4272382160669502
 20
0.1204532824993727
 42
-0.2815324590939487
 10
0.44479108338831
 20
0.138136335844794
 42
-0.1775171235246857
 10
0.4777696435009098
 20
0.1356974002727447
 42
-0.2483479329952225
 10
0.4889204333536519
 20
0.1169245515333142
 42
0.0
 10
0.4654896597390277
 20
0.1098670896011979
 42
0.0
 10
0.4426940576982866
 20
0.1047857170100728
 42
0.113500075695427
 10
0.4111352055345066
 20
0.0943427637066989
 42
0.335029435887291
 97
        0
 92
       22
 72
     1
 73
     1
 93
        8
 10
0.428508559214734
 20
0.0788142570998818
 42
-0.1190249358109779
 10
0.4444584231813167
 20
0.0853071220774298
 42
-0.0006545690929014
 10
0.4687360922277968
 20
0.090247345429912
 42
0.0310147153369478
 10
0.4889204333536519
 20
0.0951875687823938
 42
0.0
 10
0.4889204333536519
 20
0.0721802428836922
 42
-0.2004737922071577
 10
0.4564561084659147
 20
0.0493140662236327
 42
-0.1115040980661369
 10
0.4324607378967152
 20
0.0491023423656691
 42
-0.2738586692622027
 10
0.4215922465212572
 20
0.0607471545536624
 42
-0.289643054085014
 97
        0
 92
        7
 72
     1
 73
     1
 93
       10
 10
0.663239743076943
 20
0.1331926123684131
 42
0.0
 10
0.663239743076943
 20
0.1584224276941626
 42
0.0
 10
0.5528610384586337
 20
0.1584224276941626
 42
0.0
 10
0.5528610384586337
 20
0.131856746110742
 42
0.0
 10
0.6257181970985002
 20
0.131856746110742
 42
0.0
 10
0.5479208151061528
 20
0.0491729169849911
 42
0.0
 10
0.5479208151061528
 20
0.0294120235750635
 42
-0.1473109550280885
 10
0.6697326080544919
 20
0.0294120235750626
 42
0.0
 10
0.6697326080544919
 20
0.0571523003158232
 42
0.0747823019347494
 10
0.5993877560186079
 20
0.0648932232264121
 42
0.0
 97
        0
 92
        7
 72
     1
 73
     1
 93
        2
 10
0.6959863664419679
 20
0.0963873373108535
 42
1.0
 10
0.8314896355386132
 20
0.0963873373108535
 42
1.0
 97
        0
 92
       22
 72
     1
 73
     1
 93
        2
 10
0.8038952074487184
 20
0.0963873373108535
 42
-1.0
 10
0.7235807945318662
 20
0.0963873373108535
 42
-1.0
 97
        0
 92
        7
 72
     1
 73
     1
 93
       15
 10
0.8640951096649978
 20
0.029412023575063
 42
0.0
 10
0.8892196741433302
 20
0.029412023575063
 42
0.0
 10
0.8892196741433302
 20
0.0949052703051088
 42
-0.1884880930389393
 10
0.9041814934394203
 20
0.1270872967155627
 42
-0.0825504763720134
 10
0.9201313574060066
 20
0.1392261312388041
 42
-0.1879859195515259
 10
0.9445501756911305
 20
0.1407787728638694
 42
-0.3400688989443128
 10
0.9619115320441373
 20
0.1182045668051281
 42
0.0
 10
0.9619115320441373
 20
0.029412023575063
 42
0.0
 10
0.9870360965224733
 20
0.029412023575063
 42
0.0
 10
0.9870360965224769
 20
0.1266638489996357
 42
0.3709832727766776
 10
0.9482103391004166
 20
0.1601305380458484
 42
0.160618198198489
 10
0.9133561939511736
 20
0.1548936967281036
 42
0.0920112842116662
 10
0.8892196741433302
 20
0.1354151017954623
 42
0.0
 10
0.8892196741433338
 20
0.1584224276941626
 42
0.0
 10
0.8640951096649978
 20
0.1584224276941621
 42
0.0
 97
        0
 75
     0
 76
     1
 47
0.0079344138681199
 98
        9
 10
0.1041026039046571
 20
0.1181074496955725
 10
0.1041026039046571
 20
0.1181074496955725
 10
0.175984830732844
 20
0.0960117050036842
 10
0.4173016553328531
 20
0.0814964234246487
 10
0.4173016553328531
 20
0.0814964234246487
 10
0.6014388651587482
 20
0.0843995011035044
 10
0.7112275707548826
 20
0.1221816495361003
 10
0.7112275707548826
 20
0.1221816495361003
 10
0.8759819569295572
 20
0.1163755475860104
450
        0
451
        0
460
0.0
461
0.0
452
        1
462
1.0
453
        2
463
0.0
 63
     5
421
      255
463
1.0
 63
     7
421
 16777215
470
LINEAR
1001
ACAD
1010
0.0
1020
0.0
1030
0.0
  0
HATCH
  5
B35
330
B30
100
AcDbEntity
  8
0
 62
   150
100
AcDbHatch
 10
0.0
 20
0.0
 30
0.0
210
0.0
220
0.0
230
1.0
  2
SOLID
 70
     1
 71
     0
 91
        8
 92
        7
 72
     1
 73
     1
 93
       22
 10
1.131716859301388
 20
0.0982802106585603
 42
0.0484183422992068
 10
1.088571435005292
 20
0.1135920246412381
 42
-0.1024497749852004
 10
1.063583383368957
 20
0.125237861247649
 42
-0.5197370575112227
 10
1.065952625421378
 20
0.1500864950045506
 42
-0.1784163181567931
 10
1.097462280584622
 20
0.1562497626075707
 42
-0.1611556671223822
 10
1.130948711999153
 20
0.1417059730721331
 42
0.0
 10
1.143877562730139
 20
0.1560685971400009
 42
0.0879608039459819
 10
1.125754289819187
 20
0.1671964668262178
 42
0.096844267443967
 10
1.086490181797579
 20
0.1727441735534061
 42
0.1289645081611661
 10
1.053342092127955
 20
0.1633533786648891
 42
0.2520599057044872
 10
1.037629278411372
 20
0.1399706628121899
 42
0.2998873610886212
 10
1.050463850241648
 20
0.1096908005921695
 42
0.087968247036807
 10
1.088782354168369
 20
0.0932096049078468
 42
-0.0908267507933147
 10
1.119928772767817
 20
0.0811747820304691
 42
-0.4466858316882535
 10
1.125453128485816
 20
0.0540976492614389
 42
-0.2058443735084833
 10
1.094059901125532
 20
0.0433269295271455
 42
-0.2322683613354944
 10
1.04833474053288
 20
0.0635860005622337
 42
0.0
 10
1.033442870302863
 20
0.0487121861500608
 42
0.0897498636939959
 10
1.054992265021407
 20
0.0336893058402592
 42
0.1162784600455089
 10
1.100093060274716
 20
0.0271838680846326
 42
0.1305494116801128
 10
1.134902795650507
 20
0.0379471166909786
 42
0.2700443324603339
 10
1.150563716135536
 20
0.0687356163070478
 42
0.2747552069495999
 97
        0
 92
        7
 72
     1
 73
     1
 93
       17
 10
1.204964925758659
 20
0.0711619205531866
 42
0.0
 10
1.204964925758659
 20
0.1705032481376225
 42
0.0
 10
1.182530424786222
 20
0.1705032481376221
 42
0.0
 10
1.182530424786222
 20
0.068114123580882
 42
0.231056446390574
 10
1.200275679141658
 20
0.0337787716591849
 42
0.1033983125445035
 10
1.222016181175408
 20
0.0271400549874108
 42
0.1113661879093152
 10
1.256252700835137
 20
0.0321455417860066
 42
0.060456799039856
 10
1.280359576718197
 20
0.0437750658039402
 42
0.0
 10
1.282436740080608
 20
0.0292528824702614
 42
0.0
 10
1.305008011852606
 20
0.0292528824702614
 42
0.0
 10
1.303035750365566
 20
0.045573054697837
 42
0.0
 10
1.303035750365566
 20
0.1704535782767582
 42
0.0
 10
1.280726706724607
 20
0.1704535782767582
 42
0.0
 10
1.280726706724607
 20
0.0603385752977079
 42
-0.0926529444633646
 10
1.271406905425951
 20
0.0542136206901671
 42
-0.0664344377826394
 10
1.252018117536273
 20
0.0470706779667407
 42
-0.0713593701437487
 10
1.22596399727168
 20
0.0462232117768133
 42
-0.3666103947779491
 97
        0
 92
        7
 72
     1
 73
     1
 93
       12
 10
1.34888971452673
 20
-0.0300855190343001
 42
0.0
 10
1.37158389411627
 20
-0.0300855190342997
 42
0.0
 10
1.37158389411627
 20
0.0381322242109672
 42
0.2065475696655794
 10
1.43316687203049
 20
0.0295489681525751
 42
0.2194428372319613
 10
1.471434120104095
 20
0.0681246169490031
 42
0.1323036971285341
 10
1.475462458348772
 20
0.1210354643912233
 42
0.1641390880683366
 10
1.453695611337639
 20
0.1611617476764042
 42
0.205639974219759
 10
1.404711616991345
 20
0.1717914749112652
 42
0.0657328919071964
 10
1.371062306057382
 20
0.1603071107053626
 42
0.0
 10
1.369185970032088
 20
0.1704922854774775
 42
0.0
 10
1.347893491957236
 20
0.1704922854774775
 42
0.0
 10
1.348889714526734
 20
0.1571025974974671
 42
0.0
 97
        0
 92
       22
 72
     1
 73
     1
 93
        8
 10
1.37158389411627
 20
0.1447873628418232
 42
-0.1242339830404592
 10
1.408127279067805
 20
0.1549128436768488
 42
-0.229840994742505
 10
1.439329608924591
 20
0.143501077402358
 42
-0.1934262502536381
 10
1.452032531529923
 20
0.1169919663469652
 42
-0.1013985410677669
 10
1.45007247035501
 20
0.0757878280977211
 42
-0.2083357761076617
 10
1.426144858393048
 20
0.0470888301796872
 42
-0.1496858148879605
 10
1.383365488627418
 20
0.0497243925890185
 42
-0.0899155484976542
 10
1.37158389411627
 20
0.0564933659367366
 42
0.0
 97
        0
 92
        7
 72
     1
 73
     1
 93
       12
 10
1.536384209201344
 20
0.0381322242109672
 42
0.2065475696655794
 10
1.597967187115564
 20
0.0295489681525751
 42
0.2194428372319613
 10
1.63623443518917
 20
0.0681246169490031
 42
0.1323036971285341
 10
1.640262773433846
 20
0.1210354643912233
 42
0.1641390880683366
 10
1.618495926422713
 20
0.1611617476764042
 42
0.205639974219759
 10
1.569511932076419
 20
0.1717914749112652
 42
0.0657328919071964
 10
1.535862621142456
 20
0.1603071107053626
 42
0.0
 10
1.533986285117165
 20
0.1704922854774775
 42
0.0
 10
1.51269380704231
 20
0.1704922854774775
 42
0.0
 10
1.513690029611812
 20
0.1571025974974671
 42
0.0
 10
1.513690029611804
 20
-0.0300855190343001
 42
0.0
 10
1.536384209201344
 20
-0.0300855190342997
 42
0.0
 97
        0
 92
       22
 72
     1
 73
     1
 93
        8
 10
1.53638420920134
 20
0.0564933659367348
 42
0.0
 10
1.536384209201344
 20
0.1447873628418232
 42
-0.1242339830404592
 10
1.572927594152879
 20
0.1549128436768488
 42
-0.229840994742505
 10
1.604129924009665
 20
0.143501077402358
 42
-0.1934262502536381
 10
1.616832846614997
 20
0.1169919663469652
 42
-0.1013985410677669
 10
1.614872785440084
 20
0.0757878280977211
 42
-0.2083357761076617
 10
1.590945173478122
 20
0.0470888301796872
 42
-0.1496858148879605
 10
1.548165803712493
 20
0.0497243925890185
 42
-0.0899155484976689
 97
        0
 92
        7
 72
     1
 73
     1
 93
        9
 10
1.700061888317705
 20
0.2342426883985293
 42
0.0
 10
1.677630680467434
 20
0.2342426883985293
 42
0.0
 10
1.67763068046743
 20
0.0525526462764159
 42
0.3003574180393968
 10
1.689763445472692
 20
0.0294232917661481
 42
0.1772930531369512
 10
1.716213749579594
 20
0.0296692382956376
 42
0.0
 10
1.726340843842322
 20
0.0328930300171466
 42
0.0
 10
1.722947015877874
 20
0.0450847282577249
 42
0.0
 10
1.715478639728772
 20
0.0445718860057287
 42
-0.4033750267256485
 10
1.700061888317705
 20
0.0551463102997136
 42
0.0
 97
        0
 92
        7
 72
     1
 73
     1
 93
       13
 10
1.756550300014353
 20
0.1705037737446156
 42
0.0
 10
1.733158403445031
 20
0.1705037737446147
 42
0.0
 10
1.789004390745333
 20
0.0387212794769898
 42
-0.1248046720339364
 10
1.779651976914252
 20
0.0098440558334927
 42
-0.2041270254703542
 10
1.758338890268429
 20
-0.0108879300937863
 42
-0.1582846410265598
 10
1.728104948139659
 20
-0.0088290148710986
 42
0.0
 10
1.723524002749954
 20
-0.0288461752875353
 42
0.0503996825504031
 10
1.752727303871125
 20
-0.0310194851179708
 42
0.1573307408029109
 10
1.778748174224848
 20
-0.02185783610684
 42
0.1379639421479074
 10
1.7998397718477
 20
0.0061205808064937
 42
0.0
 10
1.863932002621172
 20
0.1705037737446151
 42
0.0
 10
1.84037943355916
 20
0.1705037737446147
 42
0.0
 10
1.801429340670335
 20
0.0575527643750102
 42
0.0
 97
        0
 75
     0
 76
     1
 47
0.0008892483299936
 98
        8
 10
1.136466178840407
 20
0.0806040287034282
 10
1.218376325116423
 20
0.039698608137611
 10
1.365280380260387
 20
0.0654868019383397
 10
1.365280380260387
 20
0.0654868019383397
 10
1.532067085388874
 20
0.0510462190903649
 10
1.532067085388874
 20
0.0510462190903649
 10
1.692326025665067
 20
0.0661634458554534
 10
1.78937173321124
 20
0.0643849607353548
450
        0
451
        0
460
0.0
461
0.0
452
        1
462
1.0
453
        2
463
0.0
 63
     5
421
      255
463
1.0
 63
     7
421
 16777215
470
LINEAR
1001
ACAD
1010
0.0
1020
0.0
1030
0.0
  0
ENDBLK
  5
B36
330
B30
100
AcDbEntity
  8
0
100
AcDbBlockEnd
  0
BLOCK
  5
F7D
330
F73
100
AcDbEntity
  8
0
100
AcDbBlockBegin
  2
*D5
 70
     1
 10
0.0
 20
0.0
 30
0.0
  3
*D5
  1

  0
LINE
  5
105C
330
F73
100
AcDbEntity
  8
DIM
 62
     0
370
    -2
100
AcDbLine
 10
0.1672809456963273
 20
0.4163438144958831
 30
0.0
 11
0.1672809456963273
 21
0.5529295084945871
 31
0.0
  0
LINE
  5
105D
330
F73
100
AcDbEntity
  8
DIM
 62
     0
370
    -2
100
AcDbLine
 10
0.5531077173498682
 20
0.3657251418299672
 30
0.0
 11
0.5531077173498682
 21
0.5529295084945871
 31
0.0
  0
LINE
  5
105E
330
F73
100
AcDbEntity
  8
DIM
 62
     0
370
    -2
100
AcDbLine
 10
0.1822809456963273
 20
0.5429295084945871
 30
0.0
 11
0.5381077173498682
 21
0.5429295084945871
 31
0.0
  0
SOLID
  5
105F
330
F73
100
AcDbEntity
  8
DIM
 62
     0
100
AcDbTrace
 10
0.1822809456963273
 20
0.5454295084945871
 30
0.0
 11
0.1822809456963273
 21
0.5404295084945872
 31
0.0
 12
0.1672809456963273
 22
0.5429295084945871
 32
0.0
 13
0.1672809456963273
 23
0.5429295084945871
 33
0.0
  0
SOLID
  5
1060
330
F73
100
AcDbEntity
  8
DIM
 62
     0
100
AcDbTrace
 10
0.5381077173498682
 20
0.5454295084945871
 30
0.0
 11
0.5381077173498682
 21
0.5404295084945872
 31
0.0
 12
0.5531077173498682
 22
0.5429295084945871
 32
0.0
 13
0.5531077173498682
 23
0.5429295084945871
 33
0.0
  0
MTEXT
  5
1061
330
F73
100
AcDbEntity
  8
DIM
 62
     0
100
AcDbMText
 10
0.3601943315230978
 20
0.555806802852167
 30
0.0
 40
0.015
 41
0.0
 46
0.0
 71
     5
 72
     1
  1
\A1;0.39
 73
     1
 44
1.0
  0
POINT
  5
1062
330
F73
100
AcDbEntity
  8
Defpoints
 62
     0
100
AcDbPoint
 10
0.1672809456963273
 20
0.4063438144958831
 30
0.0
  0
POINT
  5
1063
330
F73
100
AcDbEntity
  8
Defpoints
 62
     0
100
AcDbPoint
 10
0.5531077173498682
 20
0.3557251418299672
 30
0.0
  0
POINT
  5
1064
330
F73
100
AcDbEntity
  8
Defpoints
 62
     0
100
AcDbPoint
 10
0.5531077173498682
 20
0.5429295084945871
 30
0.0
  0
ENDBLK
  5
F7E
330
F73
100
AcDbEntity
  8
0
100
AcDbBlockEnd
  0
BLOCK
  5
F8A
330
F80
100
AcDbEntity
  8
0
100
AcDbBlockBegin
  2
*D6
 70
     1
 10
0.0
 20
0.0
 30
0.0
  3
*D6
  1

  0
LINE
  5
1053
330
F80
100
AcDbEntity
  8
DIM
 62
     0
370
    -2
100
AcDbLine
 10
0.2460211031766422
 20
0.4304045569030826
 30
0.0
 11
0.2460211031766422
 21
0.4870600876204967
 31
0.0
  0
LINE
  5
1054
330
F80
100
AcDbEntity
  8
DIM
 62
     0
370
    -2
100
AcDbLine
 10
0.4035014181372718
 20
0.3910344781629251
 30
0.0
 11
0.4035014181372718
 21
0.4870600876204967
 31
0.0
  0
LINE
  5
1055
330
F80
100
AcDbEntity
  8
DIM
 62
     0
370
    -2
100
AcDbLine
 10
0.2610211031766422
 20
0.4770600876204967
 30
0.0
 11
0.3885014181372718
 21
0.4770600876204967
 31
0.0
  0
SOLID
  5
1056
330
F80
100
AcDbEntity
  8
DIM
 62
     0
100
AcDbTrace
 10
0.2610211031766422
 20
0.4795600876204967
 30
0.0
 11
0.2610211031766422
 21
0.4745600876204967
 31
0.0
 12
0.2460211031766422
 22
0.4770600876204967
 32
0.0
 13
0.2460211031766422
 23
0.4770600876204967
 33
0.0
  0
SOLID
  5
1057
330
F80
100
AcDbEntity
  8
DIM
 62
     0
100
AcDbTrace
 10
0.3885014181372718
 20
0.4795600876204967
 30
0.0
 11
0.3885014181372718
 21
0.4745600876204967
 31
0.0
 12
0.4035014181372718
 22
0.4770600876204967
 32
0.0
 13
0.4035014181372718
 23
0.4770600876204967
 33
0.0
  0
MTEXT
  5
1058
330
F80
100
AcDbEntity
  8
DIM
 62
     0
100
AcDbMText
 10
0.324761260656957
 20
0.4899373819780766
 30
0.0
 40
0.015
 41
0.0
 46
0.0
 71
     5
 72
     1
  1
\A1;0.16
 73
     1
 44
1.0
  0
POINT
  5
1059
330
F80
100
AcDbEntity
  8
Defpoints
 62
     0
100
AcDbPoint
 10
0.2460211031766422
 20
0.4204045569030825
 30
0.0
  0
POINT
  5
105A
330
F80
100
AcDbEntity
  8
Defpoints
 62
     0
100
AcDbPoint
 10
0.4035014181372718
 20
0.3810344781629251
 30
0.0
  0
POINT
  5
105B
330
F80
100
AcDbEntity
  8
Defpoints
 62
     0
100
AcDbPoint
 10
0.4035014181372718
 20
0.4770600876204967
 30
0.0
  0
ENDBLK
  5
F8B
330
F80
100
AcDbEntity
  8
0
100
AcDbBlockEnd
  0
BLOCK
  5
F97
330
F8D
100
AcDbEntity
  8
0
100
AcDbBlockBegin
  2
*D7
 70
     1
 10
0.0
 20
0.0
 30
0.0
  3
*D7
  1

  0
LINE
  5
104A
330
F8D
100
AcDbEntity
  8
DIM
 62
     0
370
    -2
100
AcDbLine
 10
0.4035014181372718
 20
0.3910344781629251
 30
0.0
 11
0.4035014181372718
 21
0.4870600876204967
 31
0.0
  0
LINE
  5
104B
330
F8D
100
AcDbEntity
  8
DIM
 62
     0
370
    -2
100
AcDbLine
 10
0.5531077173498682
 20
0.3657251418299672
 30
0.0
 11
0.5531077173498682
 21
0.4870600876204967
 31
0.0
  0
LINE
  5
104C
330
F8D
100
AcDbEntity
  8
DIM
 62
     0
370
    -2
100
AcDbLine
 10
0.4185014181372719
 20
0.4770600876204967
 30
0.0
 11
0.5381077173498682
 21
0.4770600876204967
 31
0.0
  0
SOLID
  5
104D
330
F8D
100
AcDbEntity
  8
DIM
 62
     0
100
AcDbTrace
 10
0.4185014181372719
 20
0.4795600876204967
 30
0.0
 11
0.4185014181372719
 21
0.4745600876204967
 31
0.0
 12
0.4035014181372718
 22
0.4770600876204967
 32
0.0
 13
0.4035014181372718
 23
0.4770600876204967
 33
0.0
  0
SOLID
  5
104E
330
F8D
100
AcDbEntity
  8
DIM
 62
     0
100
AcDbTrace
 10
0.5381077173498682
 20
0.4795600876204967
 30
0.0
 11
0.5381077173498682
 21
0.4745600876204967
 31
0.0
 12
0.5531077173498682
 22
0.4770600876204967
 32
0.0
 13
0.5531077173498682
 23
0.4770600876204967
 33
0.0
  0
MTEXT
  5
104F
330
F8D
100
AcDbEntity
  8
DIM
 62
     0
100
AcDbMText
 10
0.47830456774357
 20
0.4899373819780766
 30
0.0
 40
0.015
 41
0.0
 46
0.0
 71
     5
 72
     1
  1
\A1;0.15
 73
     1
 44
1.0
  0
POINT
  5
1050
330
F8D
100
AcDbEntity
  8
Defpoints
 62
     0
100
AcDbPoint
 10
0.4035014181372718
 20
0.3810344781629251
 30
0.0
  0
POINT
  5
1051
330
F8D
100
AcDbEntity
  8
Defpoints
 62
     0
100
AcDbPoint
 10
0.5531077173498682
 20
0.3557251418299672
 30
0.0
  0
POINT
  5
1052
330
F8D
100
AcDbEntity
  8
Defpoints
 62
     0
100
AcDbPoint
 10
0.5531077173498682
 20
0.4770600876204967
 30
0.0
  0
ENDBLK
  5
F98
330
F8D
100
AcDbEntity
  8
0
100
AcDbBlockEnd
  0
BLOCK
  5
FA4
330
F9A
100
AcDbEntity
  8
0
100
AcDbBlockBegin
  2
*D8
 70
     1
 10
0.0
 20
0.0
 30
0.0
  3
*D8
  1

  0
LINE
  5
1038
330
F9A
100
AcDbEntity
  8
DIM
 62
     0
370
    -2
100
AcDbLine
 10
0.4135014181372718
 20
0.3810344781629251
 30
0.0
 11
0.6516943448339107
 21
0.3810344781629251
 31
0.0
  0
LINE
  5
1039
330
F9A
100
AcDbEntity
  8
DIM
 62
     0
370
    -2
100
AcDbLine
 10
0.4135014181372718
 20
0.2629242419424529
 30
0.0
 11
0.6516943448339107
 21
0.2629242419424528
 31
0.0
  0
LINE
  5
103A
330
F9A
100
AcDbEntity
  8
DIM
 62
     0
370
    -2
100
AcDbLine
 10
0.6416943448339107
 20
0.366034478162925
 30
0.0
 11
0.6416943448339107
 21
0.2779242419424528
 31
0.0
  0
SOLID
  5
103B
330
F9A
100
AcDbEntity
  8
DIM
 62
     0
100
AcDbTrace
 10
0.6391943448339107
 20
0.366034478162925
 30
0.0
 11
0.6441943448339106
 21
0.366034478162925
 31
0.0
 12
0.6416943448339107
 22
0.3810344781629251
 32
0.0
 13
0.6416943448339107
 23
0.3810344781629251
 33
0.0
  0
SOLID
  5
103C
330
F9A
100
AcDbEntity
  8
DIM
 62
     0
100
AcDbTrace
 10
0.6391943448339107
 20
0.2779242419424528
 30
0.0
 11
0.6441943448339106
 21
0.2779242419424528
 31
0.0
 12
0.6416943448339107
 22
0.2629242419424528
 32
0.0
 13
0.6416943448339107
 23
0.2629242419424528
 33
0.0
  0
MTEXT
  5
103D
330
F9A
100
AcDbEntity
  8
DIM
 62
     0
100
AcDbMText
 10
0.6288170504763306
 20
0.3219793600526891
 30
0.0
 40
0.015
 41
0.0
 46
0.0
 71
     5
 72
     1
  1
\A1;0.12
 11
0.0000000000000001
 21
1.0
 31
0.0
 73
     1
 44
1.0
  0
POINT
  5
103E
330
F9A
100
AcDbEntity
  8
Defpoints
 62
     0
100
AcDbPoint
 10
0.4035014181372718
 20
0.3810344781629251
 30
0.0
  0
POINT
  5
103F
330
F9A
100
AcDbEntity
  8
Defpoints
 62
     0
100
AcDbPoint
 10
0.4035014181372718
 20
0.2629242419424529
 30
0.0
  0
POINT
  5
1040
330
F9A
100
AcDbEntity
  8
Defpoints
 62
     0
100
AcDbPoint
 10
0.6416943448339107
 20
0.2629242419424528
 30
0.0
  0
ENDBLK
  5
FA5
330
F9A
100
AcDbEntity
  8
0
100
AcDbBlockEnd
  0
BLOCK
  5
FB1
330
FA7
100
AcDbEntity
  8
0
100
AcDbBlockBegin
  2
*D9
 70
     1
 10
0.0
 20
0.0
 30
0.0
  3
*D9
  1

  0
LINE
  5
1041
330
FA7
100
AcDbEntity
  8
DIM
 62
     0
370
    -2
100
AcDbLine
 10
0.9115580792799269
 20
0.3451095098168326
 30
0.0
 11
0.9115580792799269
 21
0.4598584234194894
 31
0.0
  0
LINE
  5
1042
330
FA7
100
AcDbEntity
  8
DIM
 62
     0
370
    -2
100
AcDbLine
 10
0.9902982367602417
 20
0.3451095098168326
 30
0.0
 11
0.9902982367602417
 21
0.4598584234194894
 31
0.0
  0
LINE
  5
1043
330
FA7
100
AcDbEntity
  8
DIM
 62
     0
370
    -2
100
AcDbLine
 10
0.9265580792799269
 20
0.4498584234194894
 30
0.0
 11
0.9752982367602417
 21
0.4498584234194894
 31
0.0
  0
SOLID
  5
1044
330
FA7
100
AcDbEntity
  8
DIM
 62
     0
100
AcDbTrace
 10
0.9265580792799269
 20
0.4523584234194894
 30
0.0
 11
0.9265580792799269
 21
0.4473584234194894
 31
0.0
 12
0.9115580792799269
 22
0.4498584234194894
 32
0.0
 13
0.9115580792799269
 23
0.4498584234194894
 33
0.0
  0
SOLID
  5
1045
330
FA7
100
AcDbEntity
  8
DIM
 62
     0
100
AcDbTrace
 10
0.9752982367602417
 20
0.4523584234194894
 30
0.0
 11
0.9752982367602417
 21
0.4473584234194894
 31
0.0
 12
0.9902982367602417
 22
0.4498584234194894
 32
0.0
 13
0.9902982367602417
 23
0.4498584234194894
 33
0.0
  0
MTEXT
  5
1046
330
FA7
100
AcDbEntity
  8
DIM
 62
     0
100
AcDbMText
 10
0.9509281580200843
 20
0.4627357177770693
 30
0.0
 40
0.015
 41
0.0
 46
0.0
 71
     5
 72
     1
  1
\A1;0.08
 73
     1
 44
1.0
  0
POINT
  5
1047
330
FA7
100
AcDbEntity
  8
Defpoints
 62
     0
100
AcDbPoint
 10
0.9115580792799269
 20
0.3351095098168326
 30
0.0
  0
POINT
  5
1048
330
FA7
100
AcDbEntity
  8
Defpoints
 62
     0
100
AcDbPoint
 10
0.9902982367602417
 20
0.3351095098168326
 30
0.0
  0
POINT
  5
1049
330
FA7
100
AcDbEntity
  8
Defpoints
 62
     0
100
AcDbPoint
 10
0.9902982367602417
 20
0.4498584234194894
 30
0.0
  0
ENDBLK
  5
FB2
330
FA7
100
AcDbEntity
  8
0
100
AcDbBlockEnd
  0
ENDSEC
  0
SECTION
  2
ENTITIES
  0
LWPOLYLINE
  5
43D
330
1F
100
AcDbEntity
  8
FORMAT
370
    15
100
AcDbPolyline
 90
        4
 70
     1
 43
0.0
 10
0.0
 20
0.0
 10
1.25080514900472
 20
0.0
 10
1.25080514900472
 20
0.9472116662365884
 10
0.0
 20
0.9472116662365884
  0
LINE
  5
43E
330
1F
100
AcDbEntity
  8
FORMAT
370
    15
100
AcDbLine
 10
0.4931425549362392
 20
0.1472116662365882
 30
0.0
 11
1.25080514900472
 21
0.1472116662365882
 31
0.0
  0
LINE
  5
43F
330
1F
100
AcDbEntity
  8
FORMAT
370
    15
100
AcDbLine
 10
0.0
 20
0.1472116662365882
 30
0.0
 11
0.4931425549362392
 21
0.1472116662365882
 31
0.0
  0
LINE
  5
440
330
1F
100
AcDbEntity
  8
FORMAT
370
    15
100
AcDbLine
 10
0.7255529414676918
 20
0.077197177342249
 30
0.0
 11
0.4931425549362392
 21
0.077197177342249
 31
0.0
  0
LINE
  5
441
330
1F
100
AcDbEntity
  8
FORMAT
370
    15
100
AcDbLine
 10
0.7255529414676918
 20
0.1472116662365882
 30
0.0
 11
0.7255529414676918
 21
0.0
 31
0.0
  0
LINE
  5
442
330
1F
100
AcDbEntity
  8
FORMAT
370
    15
100
AcDbLine
 10
1.065938120044196
 20
0.1472116662365882
 30
0.0
 11
1.065938120044196
 21
0.077197177342249
 31
0.0
  0
LINE
  5
443
330
1F
100
AcDbEntity
  8
FORMAT
370
    15
100
AcDbLine
 10
1.25080514900472
 20
0.0460235972148007
 30
0.0
 11
0.9925347324993802
 21
0.0460235972148007
 31
0.0
  0
LINE
  5
444
330
1F
100
AcDbEntity
  8
FORMAT
370
    15
100
AcDbLine
 10
0.9925347324993802
 20
0.0
 30
0.0
 11
0.9925347324993802
 21
0.077197177342249
 31
0.0
  0
LINE
  5
445
330
1F
100
AcDbEntity
  8
FORMAT
370
    15
100
AcDbLine
 10
1.063704096722219
 20
0.9472116662365884
 30
0.0
 11
1.063704096722219
 21
0.9141620744930079
 31
0.0
  0
LINE
  5
446
330
1F
100
AcDbEntity
  8
FORMAT
370
    15
100
AcDbLine
 10
1.25080514900472
 20
0.077197177342249
 30
0.0
 11
0.7255529414676918
 21
0.077197177342249
 31
0.0
  0
LINE
  5
447
330
1F
100
AcDbEntity
  8
FORMAT
370
    15
100
AcDbLine
 10
1.063704096722219
 20
0.9141620744930079
 30
0.0
 11
1.25080514900472
 21
0.9141620744930079
 31
0.0
  0
LINE
  5
448
330
1F
100
AcDbEntity
  8
FORMAT
370
    15
100
AcDbLine
 10
0.4931425549362392
 20
0.1472116662365882
 30
0.0
 11
0.4931425549362392
 21
0.0
 31
0.0
  0
MTEXT
  5
449
330
1F
100
AcDbEntity
  8
0
  6
Continuous
 62
   160
370
     0
100
AcDbMText
 10
1.006266724094914
 20
0.0721305197128756
 30
0.0
 40
0.010119782758938
 41
0.0
 46
0.0
 71
     1
 72
     1
  1
http://www.amazonsupply.com
  7
SLDTEXTSTYLE0
 73
     1
 44
1.0
1001
PE_URL
1000
http://www.amazonsupply.com/
1002
{
1000
http://www.amazonsupply.com/
1002
{
1071
        1
1002
}
1002
}
  0
INSERT
  5
44A
330
1F
100
AcDbEntity
  8
0
  6
Continuous
 62
     7
100
AcDbBlockReference
  2
Block2
 10
-0.0554900476628983
 20
-0.1469247147633621
 30
0.0
 41
0.1214373931072595
 42
0.1214373931072544
 43
0.1214373931072549
  0
TEXT
  5
44B
330
1F
100
AcDbEntity
  8
FORMAT
 62
     7
100
AcDbText
 10
0.7303014813919566
 20
0.129469309694104
 30
0.0
 40
0.0121437393107255
  1
MATERIAL :
 41
0.9
  7
SLDTEXTSTYLE1
100
AcDbText
  0
TEXT
  5
44C
330
1F
100
AcDbEntity
  8
FORMAT
 62
     7
100
AcDbText
 10
0.5346001211750993
 20
0.0959770537017707
 30
0.0
 40
0.0151796741384069
  1
B00GZXNUNU 
 41
0.9
  7
SLDTEXTSTYLE1
100
AcDbText
  0
TEXT
  5
44D
330
1F
100
AcDbEntity
  8
FORMAT
 62
     7
100
AcDbText
 10
1.091509611111375
 20
0.9217602342880834
 30
0.0
 40
0.0151796741384069
  1
B00GZXNUNU 
  7
SLDTEXTSTYLE1
100
AcDbText
  0
TEXT
  5
44E
330
1F
100
AcDbEntity
  8
FORMAT
 62
     7
100
AcDbText
 10
0.5347509083966841
 20
0.0225018095491611
 30
0.0
 40
0.0151796741384069
  1
Small Parts
 41
0.9
  7
SLDTEXTSTYLE1
100
AcDbText
  0
TEXT
  5
44F
330
1F
100
AcDbEntity
  8
FORMAT
 62
     0
100
AcDbText
 10
0.7892559872080886
 20
0.0995807045180467
 30
0.0
 40
0.015179674138407
  1
Stainless Steel 
 41
0.9
  7
SLDTEXTSTYLE1
100
AcDbText
  0
TEXT
  5
450
330
1F
100
AcDbEntity
  8
FORMAT
 62
     7
100
AcDbText
 10
0.0125082576315595
 20
0.1140533050184055
 30
0.0
 40
0.0121437393107255
  1
ITEM NAME:
 41
0.9
  7
SLDTEXTSTYLE1
100
AcDbText
  0
TEXT
  5
451
330
1F
100
AcDbEntity
  8
FORMAT
 62
     7
100
AcDbText
 10
0.502647449703081
 20
0.1236625626330954
 30
0.0
 40
0.0121437393107255
  1
ASIN :
 41
0.9
  7
SLDTEXTSTYLE1
100
AcDbText
  0
TEXT
  5
453
330
1F
100
AcDbEntity
  8
FORMAT
 62
     0
100
AcDbText
 10
0.7349390196535513
 20
0.0567987788206946
 30
0.0
 40
0.0075898370692035
  1
# UNLESS OTHERWISE SPECIFIED
 41
0.95
  7
SLDTEXTSTYLE1
100
AcDbText
  0
TEXT
  5
454
330
1F
100
AcDbEntity
  8
FORMAT
 62
     0
100
AcDbText
 10
0.7463431239242546
 20
0.0453317945994895
 30
0.0
 40
0.0075898370692035
  1
DIMENSIONS ARE IN INCHES
 41
0.95
  7
SLDTEXTSTYLE1
100
AcDbText
  0
TEXT
  5
455
330
1F
100
AcDbEntity
  8
FORMAT
 62
     0
100
AcDbText
 10
0.7349390196535513
 20
0.0230069278792928
 30
0.0
 40
0.0075898370692035
  1
# INFORMATION IN THIS DRAWING IS PROVIDED FOR
 41
0.95
  7
SLDTEXTSTYLE1
100
AcDbText
  0
TEXT
  5
456
330
1F
100
AcDbEntity
  8
FORMAT
 62
     0
100
AcDbText
 10
0.7463121660572149
 20
0.0115399436580878
 30
0.0
 40
0.0075898370692035
  1
REFERENCE ONLY
 41
0.95
  7
SLDTEXTSTYLE1
100
AcDbText
  0
TEXT
  5
457
330
1F
100
AcDbEntity
  8
FORMAT
 62
     7
100
AcDbText
 10
0.4998680116024926
 20
0.0523878918163504
 30
0.0
 40
0.0121437393107255
  1
BRAND :
 41
0.9
  7
SLDTEXTSTYLE1
100
AcDbText
  0
MTEXT
  5
50B
330
1F
100
AcDbEntity
  8
FORMAT
 62
     7
100
AcDbMText
 10
0.0462586519672839
 20
0.101235278753157
 30
0.0
 40
0.0151796741384069
 41
0.4402527798079888
 46
0.0
 71
     1
 72
     1
  1
{\fCalibri|b0|i0|c0|p34;\H0.9167x;\C256;303 Stainless Steel, Plain Finish, Hex Socket Drive, Standard Tolerance, Meets AMPG 2013 ZS.02, 3 mm Shoulder Diameter, 4 mm Shoulder Length, M2 x 0.4 Threads, 3.8 mm Thread Length, Made in US, (Pack of 1) }
  7
SLDTEXTSTYLE1
 73
     1
 44
1.0
  0
INSERT
  5
B40
330
1F
100
AcDbEntity
  8
0
100
AcDbBlockReference
  2
amazon block
 10
1.005916194604759
 20
0.0125818391968823
 30
0.0
 41
0.1234768595606249
 42
0.1234768595606249
 43
0.1234768595606249
  0
CIRCLE
  5
D99
330
1F
100
AcDbEntity
  8
0
  6
Continuous
 62
     7
370
    15
100
AcDbCircle
 10
0.9509281580200843
 20
0.3123791842581849
 30
0.0
 40
0.0843644544431932
  0
LINE
  5
D9A
330
1F
100
AcDbEntity
  8
0
  6
Continuous
 62
     7
370
    15
100
AcDbLine
 10
0.9115580792799269
 20
0.3351095098168326
 30
0.0
 11
0.9115580792799269
 21
0.2896488586995372
 31
0.0
  0
LINE
  5
D9B
330
1F
100
AcDbEntity
  8
0
  6
Continuous
 62
     7
370
    15
100
AcDbLine
 10
0.9115580792799269
 20
0.2896488586995372
 30
0.0
 11
0.9509281580200843
 21
0.2669185331408912
 31
0.0
  0
LINE
  5
D9C
330
1F
100
AcDbEntity
  8
0
  6
Continuous
 62
     7
370
    15
100
AcDbLine
 10
0.9509281580200843
 20
0.2669185331408912
 30
0.0
 11
0.9902982367602417
 21
0.2896488586995372
 31
0.0
  0
LINE
  5
D9D
330
1F
100
AcDbEntity
  8
0
  6
Continuous
 62
     7
370
    15
100
AcDbLine
 10
0.9902982367602417
 20
0.2896488586995372
 30
0.0
 11
0.9902982367602417
 21
0.3351095098168326
 31
0.0
  0
LINE
  5
D9E
330
1F
100
AcDbEntity
  8
0
  6
Continuous
 62
     7
370
    15
100
AcDbLine
 10
0.9509281580200843
 20
0.3578398353754768
 30
0.0
 11
0.9115580792799269
 21
0.3351095098168326
 31
0.0
  0
LINE
  5
D9F
330
1F
100
AcDbEntity
  8
0
  6
Continuous
 62
     7
370
    15
100
AcDbLine
 10
0.9902982367602417
 20
0.3351095098168326
 30
0.0
 11
0.9509281580200843
 21
0.3578398353754768
 31
0.0
  0
CIRCLE
  5
DA0
330
1F
100
AcDbEntity
  8
0
  6
Continuous
 62
     7
370
    15
100
AcDbCircle
 10
0.9509281580200843
 20
0.3123791842581849
 30
0.0
 40
0.0984251968503944
  0
ARC
  5
DA1
330
1F
100
AcDbEntity
  8
0
  6
Continuous
 62
     7
370
    15
100
AcDbCircle
 10
0.9509281580200843
 20
0.3123791842581849
 30
0.0
 40
0.0393700787401578
100
AcDbArc
 50
180.0
 51
239.9999999999995
  0
ARC
  5
DA2
330
1F
100
AcDbEntity
  8
0
  6
Continuous
 62
     7
370
    15
100
AcDbCircle
 10
0.9509281580200843
 20
0.3123791842581849
 30
0.0
 40
0.0393700787401578
100
AcDbArc
 50
60.00000000000106
 51
120.0000000000011
  0
ARC
  5
DA3
330
1F
100
AcDbEntity
  8
0
  6
Continuous
 62
     7
370
    15
100
AcDbCircle
 10
0.9509281580200843
 20
0.3123791842581849
 30
0.0
 40
0.0393700787401574
100
AcDbArc
 50
0.0
 51
60.00000000000106
  0
ARC
  5
DA4
330
1F
100
AcDbEntity
  8
0
  6
Continuous
 62
     7
370
    15
100
AcDbCircle
 10
0.9509281580200843
 20
0.3123791842581849
 30
0.0
 40
0.0393700787401578
100
AcDbArc
 50
120.0000000000011
 51
180.0
  0
ARC
  5
DA5
330
1F
100
AcDbEntity
  8
0
  6
Continuous
 62
     7
370
    15
100
AcDbCircle
 10
0.9509281580200843
 20
0.3123791842581849
 30
0.0
 40
0.0393700787401574
100
AcDbArc
 50
299.9999999999998
 51
0.0
  0
ARC
  5
DA6
330
1F
100
AcDbEntity
  8
0
  6
Continuous
 62
     7
370
    15
100
AcDbCircle
 10
0.9509281580200843
 20
0.3123791842581849
 30
0.0
 40
0.0393700787401578
100
AcDbArc
 50
239.9999999999995
 51
299.9999999999998
  0
LINE
  5
DA7
330
1F
100
AcDbEntity
  8
0
  6
Continuous
 62
     7
370
    15
100
AcDbLine
 10
0.181341688103525
 20
0.4204045569030825
 30
0.0
 11
0.1672809456963273
 21
0.4063438144958831
 31
0.0
  0
LINE
  5
DA8
330
1F
100
AcDbEntity
  8
0
  6
Continuous
 62
     7
370
    15
100
AcDbLine
 10
0.1672809456963273
 20
0.2376149056094967
 30
0.0
 11
0.181341688103525
 21
0.2235541632022955
 31
0.0
  0
LINE
  5
DA9
330
1F
100
AcDbEntity
  8
0
  6
Continuous
 62
     7
370
    15
100
AcDbLine
 10
0.181341688103525
 20
0.2235541632022955
 30
0.0
 11
0.2460211031766422
 21
0.2235541632022955
 31
0.0
  0
LINE
  5
DAA
330
1F
100
AcDbEntity
  8
0
  6
Continuous
 62
     7
370
    15
100
AcDbLine
 10
0.2460211031766422
 20
0.4204045569030825
 30
0.0
 11
0.181341688103525
 21
0.4204045569030825
 31
0.0
  0
LINE
  5
DAB
330
1F
100
AcDbEntity
  8
0
  6
Continuous
 62
     7
370
    15
100
AcDbLine
 10
0.2775171661687681
 20
0.2629242419424529
 30
0.0
 11
0.4035014181372718
 21
0.2629242419424529
 31
0.0
  0
LINE
  5
DAC
330
1F
100
AcDbEntity
  8
0
  6
Continuous
 62
     7
370
    15
100
AcDbLine
 10
0.4035014181372718
 20
0.3810344781629251
 30
0.0
 11
0.2775171661687681
 21
0.3810344781629251
 31
0.0
  0
LINE
  5
DAD
330
1F
100
AcDbEntity
  8
0
  6
Continuous
 62
     7
370
    15
100
AcDbLine
 10
0.2775171661687681
 20
0.3810344781629251
 30
0.0
 11
0.2696431504207348
 21
0.3731604624148936
 31
0.0
  0
LINE
  5
DAE
330
1F
100
AcDbEntity
  8
0
  6
Continuous
 62
     7
370
    15
100
AcDbLine
 10
0.2696431504207348
 20
0.2707982576904861
 30
0.0
 11
0.2775171661687681
 21
0.2629242419424529
 31
0.0
  0
ARC
  5
DAF
330
1F
100
AcDbEntity
  8
0
  6
Continuous
 62
     7
370
    15
100
AcDbCircle
 10
0.2489738590821533
 20
0.267845501784975
 30
0.0
 40
0.0029527559055111
100
AcDbArc
 50
90.0
 51
180.0
  0
ARC
  5
DB0
330
1F
100
AcDbEntity
  8
0
  6
Continuous
 62
     7
370
    15
100
AcDbCircle
 10
0.2489738590821533
 20
0.3761132183204048
 30
0.0
 40
0.0029527559055111
100
AcDbArc
 50
180.0
 51
270.0000000000008
  0
LINE
  5
DB1
330
1F
100
AcDbEntity
  8
0
  6
Continuous
 62
     7
370
    15
100
AcDbLine
 10
0.2489738590821533
 20
0.2707982576904861
 30
0.0
 11
0.2696431504207348
 21
0.2707982576904861
 31
0.0
  0
LINE
  5
DB2
330
1F
100
AcDbEntity
  8
0
  6
Continuous
 62
     7
370
    15
100
AcDbLine
 10
0.2696431504207348
 20
0.3731604624148936
 30
0.0
 11
0.2489738590821533
 21
0.3731604624148936
 31
0.0
  0
LINE
  5
DB3
330
1F
100
AcDbEntity
  8
0
  6
Continuous
 62
     7
370
    15
100
AcDbLine
 10
0.4336323822020658
 20
0.3579370957710257
 30
0.0
 11
0.4268085047514445
 21
0.3511132183204062
 31
0.0
  0
LINE
  5
DB4
330
1F
100
AcDbEntity
  8
0
  6
Continuous
 62
     7
370
    15
100
AcDbLine
 10
0.4268085047514445
 20
0.2928455017849718
 30
0.0
 11
0.4286434042954222
 21
0.2910106022409977
 31
0.0
  0
LINE
  5
DB5
330
1F
100
AcDbEntity
  8
0
  6
Continuous
 62
     7
370
    15
100
AcDbLine
 10
0.5524680318055469
 20
0.3559717992131806
 30
0.0
 11
0.5502191712570168
 21
0.3521106695175142
 31
0.0
  0
SPLINE
  5
DB6
330
1F
100
AcDbEntity
  8
0
  6
Continuous
 62
     7
370
    15
100
AcDbSpline
210
0.0
220
0.0
230
1.0
 70
     8
 71
     3
 72
     9
 73
     5
 74
     0
 42
0.0000000001
 43
0.0000000001
 40
0.0
 40
0.0
 40
0.0
 40
0.0
 40
0.5004073791078666
 40
1.0
 40
1.0
 40
1.0
 40
1.0
 10
0.5397510034151241
 20
0.3611754577755193
 30
0.0
 10
0.5388725767333371
 20
0.3596653696453693
 30
0.0
 10
0.5371171536151716
 20
0.3566476520952311
 30
0.0
 10
0.5353575571347671
 20
0.3536295237372979
 30
0.0
 10
0.5344784757174077
 20
0.3521216890807708
 30
0.0
  0
SPLINE
  5
DB7
330
1F
100
AcDbEntity
  8
0
  6
Continuous
 62
     7
370
    15
100
AcDbSpline
210
0.0
220
0.0
230
1.0
 70
     8
 71
     3
 72
     9
 73
     5
 74
     0
 42
0.0000000001
 43
0.0000000001
 40
0.0
 40
0.0
 40
0.0
 40
0.0
 40
0.5003811086495182
 40
1.0
 40
1.0
 40
1.0
 40
1.0
 10
0.5240048688620194
 20
0.3611781312881128
 30
0.0
 10
0.5231269022403682
 20
0.3596687603679431
 30
0.0
 10
0.5213723063803864
 20
0.3566523177123735
 30
0.0
 10
0.5196138070892511
 20
0.3536358350454691
 30
0.0
 10
0.5187352276229733
 20
0.3521287433196527
 30
0.0
  0
SPLINE
  5
DB8
330
1F
100
AcDbEntity
  8
0
  6
Continuous
 62
     7
370
    15
100
AcDbSpline
210
0.0
220
0.0
230
1.0
 70
     8
 71
     3
 72
     9
 73
     5
 74
     0
 42
0.0000000001
 43
0.0000000001
 40
0.0
 40
0.0
 40
0.0
 40
0.0
 40
0.5003555483204842
 40
1.0
 40
1.0
 40
1.0
 40
1.0
 10
0.5082561430616055
 20
0.3611771551674174
 30
0.0
 10
0.5073786420330935
 20
0.3596684427230532
 30
0.0
 10
0.5056248870653315
 20
0.3566531619903259
 30
0.0
 10
0.5038674921723887
 20
0.3536383307857112
 30
0.0
 10
0.5029894195647211
 20
0.3521319871015749
 30
0.0
  0
SPLINE
  5
DB9
330
1F
100
AcDbEntity
  8
0
  6
Continuous
 62
     7
370
    15
100
AcDbSpline
210
0.0
220
0.0
230
1.0
 70
     8
 71
     3
 72
     9
 73
     5
 74
     0
 42
0.0000000001
 43
0.0000000001
 40
0.0
 40
0.0
 40
0.0
 40
0.0
 40
0.5003313694953967
 40
1.0
 40
1.0
 40
1.0
 40
1.0
 10
0.4925047869679196
 20
0.3611724424351526
 30
0.0
 10
0.4916277443058883
 20
0.3596643322913497
 30
0.0
 10
0.4898748207126405
 20
0.3566501096466184
 30
0.0
 10
0.4881185071850292
 20
0.3536369203351584
 30
0.0
 10
0.4872409324099492
 20
0.3521313241584505
 30
0.0
  0
SPLINE
  5
DBA
330
1F
100
AcDbEntity
  8
0
  6
Continuous
 62
     7
370
    15
100
AcDbSpline
210
0.0
220
0.0
230
1.0
 70
     8
 71
     3
 72
     9
 73
     5
 74
     0
 42
0.0000000001
 43
0.0000000001
 40
0.0
 40
0.0
 40
0.0
 40
0.0
 40
0.5003090146782947
 40
1.0
 40
1.0
 40
1.0
 40
1.0
 10
0.4767508268128405
 20
0.361163879446255
 30
0.0
 10
0.4758742252092683
 20
0.3596563266893871
 30
0.0
 10
0.4741221048639384
 20
0.3566430834484333
 30
0.0
 10
0.4723668263407311
 20
0.3536315300944548
 30
0.0
 10
0.4714897294859553
 20
0.3521266840316592
 30
0.0
  0
SPLINE
  5
DBB
330
1F
100
AcDbEntity
  8
0
  6
Continuous
 62
     7
370
    15
100
AcDbSpline
210
0.0
220
0.0
230
1.0
 70
     8
 71
     3
 72
     9
 73
     5
 74
     0
 42
0.0000000001
 43
0.0000000001
 40
0.0
 40
0.0
 40
0.0
 40
0.0
 40
0.5002887318545862
 40
1.0
 40
1.0
 40
1.0
 40
1.0
 10
0.4609943411355788
 20
0.3611513162973445
 30
0.0
 10
0.4601181558307923
 20
0.3596442932955981
 30
0.0
 10
0.4583667965676393
 20
0.3566319867897907
 30
0.0
 10
0.4566124899600093
 20
0.3536220818466795
 30
0.0
 10
0.4557358431803947
 20
0.3521179984305622
 30
0.0
  0
SPLINE
  5
DBC
330
1F
100
AcDbEntity
  8
0
  6
Continuous
 62
     7
370
    15
100
AcDbSpline
210
0.0
220
0.0
230
1.0
 70
     8
 71
     3
 72
     9
 73
     5
 74
     0
 42
0.0000000001
 43
0.0000000001
 40
0.0
 40
0.0
 40
0.0
 40
0.0
 40
0.5002706167217013
 40
1.0
 40
1.0
 40
1.0
 40
1.0
 10
0.4452354483252732
 20
0.3611345674008366
 30
0.0
 10
0.4443596494938662
 20
0.3596280673815688
 30
0.0
 10
0.4426089993414602
 20
0.3566166971972902
 30
0.0
 10
0.4408555906660903
 20
0.3536084818151697
 30
0.0
 10
0.4399793608301108
 20
0.3521051881974959
 30
0.0
  0
SPLINE
  5
DBD
330
1F
100
AcDbEntity
  8
0
  6
Continuous
 62
     7
370
    15
100
AcDbSpline
210
0.0
220
0.0
230
1.0
 70
     8
 71
     3
 72
     9
 73
     5
 74
     0
 42
0.0000000001
 43
0.0000000001
 40
0.0
 40
0.0
 40
0.0
 40
0.0
 40
0.4997376293468144
 40
1.0
 40
1.0
 40
1.0
 40
1.0
 10
0.4321001851113105
 20
0.2918615126366177
 30
0.0
 10
0.4329762199290075
 20
0.2903586294751854
 30
0.0
 10
0.4347292094304001
 20
0.2873512850744924
 30
0.0
 10
0.4364795265555097
 20
0.2843403968595208
 30
0.0
 10
0.4373551443499109
 20
0.2828341627833286
 30
0.0
  0
SPLINE
  5
DBE
330
1F
100
AcDbEntity
  8
0
  6
Continuous
 62
     7
370
    15
100
AcDbSpline
210
0.0
220
0.0
230
1.0
 70
     8
 71
     3
 72
     9
 73
     5
 74
     0
 42
0.0000000001
 43
0.0000000001
 40
0.0
 40
0.0
 40
0.0
 40
0.0
 40
0.4997205978741171
 40
1.0
 40
1.0
 40
1.0
 40
1.0
 10
0.4478579192829751
 20
0.2918466056765407
 30
0.0
 10
0.4487343532113473
 20
0.2903429127229284
 30
0.0
 10
0.4504882011257659
 20
0.2873338453360532
 30
0.0
 10
0.4522391988755432
 20
0.2843220042675771
 30
0.0
 10
0.4531151869829264
 20
0.2828152422185408
 30
0.0
  0
SPLINE
  5
DBF
330
1F
100
AcDbEntity
  8
0
  6
Continuous
 62
     7
370
    15
100
AcDbSpline
210
0.0
220
0.0
230
1.0
 70
     8
 71
     3
 72
     9
 73
     5
 74
     0
 42
0.0000000001
 43
0.0000000001
 40
0.0
 40
0.0
 40
0.0
 40
0.0
 40
0.4997013947767605
 40
1.0
 40
1.0
 40
1.0
 40
1.0
 10
0.4636131174216294
 20
0.2918358685837419
 30
0.0
 10
0.4644899853703058
 20
0.2903314014502432
 30
0.0
 10
0.4662447692429188
 20
0.287320669142461
 30
0.0
 10
0.4679965030700802
 20
0.2843078970591997
 30
0.0
 10
0.4688728930605324
 20
0.2828006113880879
 30
0.0
  0
SPLINE
  5
DC0
330
1F
100
AcDbEntity
  8
0
  6
Continuous
 62
     7
370
    15
100
AcDbSpline
210
0.0
220
0.0
230
1.0
 70
     8
 71
     3
 72
     9
 73
     5
 74
     0
 42
0.0000000001
 43
0.0000000001
 40
0.0
 40
0.0
 40
0.0
 40
0.0
 40
0.4996800554910801
 40
1.0
 40
1.0
 40
1.0
 40
1.0
 10
0.4793656698477085
 20
0.2918292147449411
 30
0.0
 10
0.4802430026114175
 20
0.2903239928131136
 30
0.0
 10
0.4819987916489597
 20
0.2873116213660485
 30
0.0
 10
0.4837513091204438
 20
0.2842978962045006
 30
0.0
 10
0.4846281285645242
 20
0.2827900693989076
 30
0.0
  0
SPLINE
  5
DC1
330
1F
100
AcDbEntity
  8
0
  6
Continuous
 62
     7
370
    15
100
AcDbSpline
210
0.0
220
0.0
230
1.0
 70
     8
 71
     3
 72
     9
 73
     5
 74
     0
 42
0.0000000001
 43
0.0000000001
 40
0.0
 40
0.0
 40
0.0
 40
0.0
 40
0.4996567464625478
 40
1.0
 40
1.0
 40
1.0
 40
1.0
 10
0.4951155149496005
 20
0.2918265714574784
 30
0.0
 10
0.4959933367606775
 20
0.2903206015813595
 30
0.0
 10
0.4977501864725875
 20
0.2873065926906915
 30
0.0
 10
0.4995035232913603
 20
0.2842918527230911
 30
0.0
 10
0.5003807935398124
 20
0.2827834479191325
 30
0.0
  0
SPLINE
  5
DC2
330
1F
100
AcDbEntity
  8
0
  6
Continuous
 62
     7
370
    15
100
AcDbSpline
210
0.0
220
0.0
230
1.0
 70
     8
 71
     3
 72
     9
 73
     5
 74
     0
 42
0.0000000001
 43
0.0000000001
 40
0.0
 40
0.0
 40
0.0
 40
0.0
 40
0.4996318079062938
 40
1.0
 40
1.0
 40
1.0
 40
1.0
 10
0.510862653112338
 20
0.2918278716130243
 30
0.0
 10
0.511740978821373
 20
0.2903211538490471
 30
0.0
 10
0.5134989247630353
 20
0.2873054976395466
 30
0.0
 10
0.5152531003312264
 20
0.2842896499325687
 30
0.0
 10
0.5161308339888953
 20
0.2827806156677977
 30
0.0
  0
SPLINE
  5
DC3
330
1F
100
AcDbEntity
  8
0
  6
Continuous
 62
     7
370
    15
100
AcDbSpline
210
0.0
220
0.0
230
1.0
 70
     8
 71
     3
 72
     9
 73
     5
 74
     0
 42
0.0000000001
 43
0.0000000001
 40
0.0
 40
0.0
 40
0.0
 40
0.0
 40
0.4996057933934601
 40
1.0
 40
1.0
 40
1.0
 40
1.0
 10
0.5266071606758845
 20
0.2918330354950342
 30
0.0
 10
0.5274859927172626
 20
0.2903255709226677
 30
0.0
 10
0.5292450436590253
 20
0.2873082628924195
 30
0.0
 10
0.5310000564659765
 20
0.2842911967149242
 30
0.0
 10
0.5318782547070962
 20
0.2827814742787542
 30
0.0
  0
SPLINE
  5
DC4
330
1F
100
AcDbEntity
  8
0
  6
Continuous
 62
     7
370
    15
100
AcDbSpline
210
0.0
220
0.0
230
1.0
 70
     8
 71
     3
 72
     9
 73
     5
 74
     0
 42
0.0000000001
 43
0.0000000001
 40
0.0
 40
0.0
 40
0.0
 40
0.0
 40
0.5095475594010816
 40
1.0
 40
1.0
 40
1.0
 40
1.0
 10
0.5423492023036962
 20
0.2918419416718578
 30
0.0
 10
0.5432285348699546
 20
0.2903337411135134
 30
0.0
 10
0.5449542473182563
 20
0.2873738592918464
 30
0.0
 10
0.5466757362030857
 20
0.2844145105054363
 30
0.0
 10
0.5475200446281124
 20
0.2829630906705571
 30
0.0
  0
LINE
  5
DC5
330
1F
100
AcDbEntity
  8
0
  6
Continuous
 62
     7
370
    15
100
AcDbLine
 10
0.5321234652869942
 20
0.2826092813125325
 30
0.0
 11
0.5340919692240016
 21
0.2826092813125325
 31
0.0
  0
LINE
  5
DC6
330
1F
100
AcDbEntity
  8
0
  6
Continuous
 62
     7
370
    15
100
AcDbLine
 10
0.5163754337909312
 20
0.2826092813125325
 30
0.0
 11
0.5183439377279387
 21
0.2826092813125325
 31
0.0
  0
LINE
  5
DC7
330
1F
100
AcDbEntity
  8
0
  6
Continuous
 62
     7
370
    15
100
AcDbLine
 10
0.5006274022948683
 20
0.2826092813125325
 30
0.0
 11
0.5025959062318775
 21
0.2826092813125325
 31
0.0
  0
LINE
  5
DC8
330
1F
100
AcDbEntity
  8
0
  6
Continuous
 62
     7
370
    15
100
AcDbLine
 10
0.4848793707988053
 20
0.2826092813125325
 30
0.0
 11
0.4868478747358127
 21
0.2826092813125325
 31
0.0
  0
LINE
  5
DC9
330
1F
100
AcDbEntity
  8
0
  6
Continuous
 62
     7
370
    15
100
AcDbLine
 10
0.4691313393027424
 20
0.2826092813125325
 30
0.0
 11
0.4710998432397516
 21
0.2826092813125325
 31
0.0
  0
LINE
  5
DCA
330
1F
100
AcDbEntity
  8
0
  6
Continuous
 62
     7
370
    15
100
AcDbLine
 10
0.4533833078066794
 20
0.2826092813125325
 30
0.0
 11
0.4553518117436868
 21
0.2826092813125325
 31
0.0
  0
LINE
  5
DCB
330
1F
100
AcDbEntity
  8
0
  6
Continuous
 62
     7
370
    15
100
AcDbLine
 10
0.4376352763028431
 20
0.2826092813125325
 30
0.0
 11
0.4396037802476256
 21
0.2826092813125325
 31
0.0
  0
LINE
  5
DCC
330
1F
100
AcDbEntity
  8
0
  6
Continuous
 62
     7
370
    15
100
AcDbLine
 10
0.4474777959956571
 20
0.3613494387928473
 30
0.0
 11
0.4455092920586497
 21
0.3613494387928473
 31
0.0
  0
LINE
  5
DCD
330
1F
100
AcDbEntity
  8
0
  6
Continuous
 62
     7
370
    15
100
AcDbLine
 10
0.4632258274917201
 20
0.3613494387928473
 30
0.0
 11
0.4612573235547126
 21
0.3613494387928473
 31
0.0
  0
LINE
  5
DCE
330
1F
100
AcDbEntity
  8
0
  6
Continuous
 62
     7
370
    15
100
AcDbLine
 10
0.478973858987783
 20
0.3613494387928473
 30
0.0
 11
0.4770053550507738
 21
0.3613494387928473
 31
0.0
  0
LINE
  5
DCF
330
1F
100
AcDbEntity
  8
0
  6
Continuous
 62
     7
370
    15
100
AcDbLine
 10
0.494721890483846
 20
0.3613494387928473
 30
0.0
 11
0.4927533865468386
 21
0.3613494387928473
 31
0.0
  0
LINE
  5
DD0
330
1F
100
AcDbEntity
  8
0
  6
Continuous
 62
     7
370
    15
100
AcDbLine
 10
0.510469921979909
 20
0.3613494387928473
 30
0.0
 11
0.5085014180428998
 21
0.3613494387928473
 31
0.0
  0
LINE
  5
DD1
330
1F
100
AcDbEntity
  8
0
  6
Continuous
 62
     7
370
    15
100
AcDbLine
 10
0.5262179534759719
 20
0.3613494387928473
 30
0.0
 11
0.5242494495389645
 21
0.3613494387928473
 31
0.0
  0
LINE
  5
DD2
330
1F
100
AcDbEntity
  8
0
  6
Continuous
 62
     7
370
    15
100
AcDbLine
 10
0.5419659849720349
 20
0.3613494387928473
 30
0.0
 11
0.5399974810350275
 21
0.3613494387928473
 31
0.0
  0
SPLINE
  5
DD3
330
1F
100
AcDbEntity
  8
0
  6
Continuous
 62
     7
370
    15
100
AcDbSpline
210
0.0
220
0.0
230
1.0
 70
     8
 71
     3
 72
     9
 73
     5
 74
     0
 42
0.0000000001
 43
0.0000000001
 40
0.0
 40
0.0
 40
0.0
 40
0.0
 40
0.4996272412033166
 40
1.0
 40
1.0
 40
1.0
 40
1.0
 10
0.5475223539878025
 20
0.3520630221875465
 30
0.0
 10
0.5466439843320386
 20
0.3535694051775426
 30
0.0
 10
0.5448859343633297
 20
0.3565844189033112
 30
0.0
 10
0.5431316852668937
 20
0.3596019484138229
 30
0.0
 10
0.5422539068068942
 20
0.36111183797975
 30
0.0
  0
SPLINE
  5
DD4
330
1F
100
AcDbEntity
  8
0
  6
Continuous
 62
     7
370
    15
100
AcDbSpline
210
0.0
220
0.0
230
1.0
 70
     8
 71
     3
 72
     9
 73
     5
 74
     0
 42
0.0000000001
 43
0.0000000001
 40
0.0
 40
0.0
 40
0.0
 40
0.0
 40
0.4995768043612021
 40
1.0
 40
1.0
 40
1.0
 40
1.0
 10
0.5317883248504005
 20
0.3520394030156198
 30
0.0
 10
0.5309090059752526
 20
0.3535472419716747
 30
0.0
 10
0.5291488784683898
 20
0.3565654744894566
 30
0.0
 10
0.5273930656793669
 20
0.3595859636229488
 30
0.0
 10
0.5265144162325415
 20
0.3610974864475243
 30
0.0
  0
SPLINE
  5
DD5
330
1F
100
AcDbEntity
  8
0
  6
Continuous
 62
     7
370
    15
100
AcDbSpline
210
0.0
220
0.0
230
1.0
 70
     8
 71
     3
 72
     9
 73
     5
 74
     0
 42
0.0000000001
 43
0.0000000001
 40
0.0
 40
0.0
 40
0.0
 40
0.0
 40
0.4996319883865592
 40
1.0
 40
1.0
 40
1.0
 40
1.0
 10
0.5160448884340161
 20
0.3520314573869048
 30
0.0
 10
0.5151666337045109
 20
0.3535373408856615
 30
0.0
 10
0.5134088304614837
 20
0.3565513262464066
 30
0.0
 10
0.51165477217645
 20
0.3595689581119459
 30
0.0
 10
0.5107770975201147
 20
0.3610788845682891
 30
0.0
  0
SPLINE
  5
DD6
330
1F
100
AcDbEntity
  8
0
  6
Continuous
 62
     7
370
    15
100
AcDbSpline
210
0.0
220
0.0
230
1.0
 70
     8
 71
     3
 72
     9
 73
     5
 74
     0
 42
0.0000000001
 43
0.0000000001
 40
0.0
 40
0.0
 40
0.0
 40
0.0
 40
0.4996402437587709
 40
1.0
 40
1.0
 40
1.0
 40
1.0
 10
0.5002803132126746
 20
0.3520596138275807
 30
0.0
 10
0.4994022044767421
 20
0.3535655223564966
 30
0.0
 10
0.4976447224746368
 20
0.356579508014627
 30
0.0
 10
0.4958909067109963
 20
0.359596389163028
 30
0.0
 10
0.4950133678830087
 20
0.3611059150790521
 30
0.0
  0
SPLINE
  5
DD7
330
1F
100
AcDbEntity
  8
0
  6
Continuous
 62
     7
370
    15
100
AcDbSpline
210
0.0
220
0.0
230
1.0
 70
     8
 71
     3
 72
     9
 73
     5
 74
     0
 42
0.0000000001
 43
0.0000000001
 40
0.0
 40
0.0
 40
0.0
 40
0.0
 40
0.4995809667487084
 40
1.0
 40
1.0
 40
1.0
 40
1.0
 10
0.4845419105877698
 20
0.3520433777155116
 30
0.0
 10
0.4836626664487201
 20
0.3535511143369281
 30
0.0
 10
0.481902703204379
 20
0.3565691168665854
 30
0.0
 10
0.4801470127917229
 20
0.3595893276521089
 30
0.0
 10
0.4792684318927316
 20
0.3611006986136165
 30
0.0
  0
SPLINE
  5
DD8
330
1F
100
AcDbEntity
  8
0
  6
Continuous
 62
     7
370
    15
100
AcDbSpline
210
0.0
220
0.0
230
1.0
 70
     8
 71
     3
 72
     9
 73
     5
 74
     0
 42
0.0000000001
 43
0.0000000001
 40
0.0
 40
0.0
 40
0.0
 40
0.0
 40
0.4997039151654028
 40
1.0
 40
1.0
 40
1.0
 40
1.0
 10
0.4687423229120436
 20
0.3521254034134931
 30
0.0
 10
0.4678655087856792
 20
0.3536298103006097
 30
0.0
 10
0.4661108414721911
 20
0.3566404068588096
 30
0.0
 10
0.4643591987568039
 20
0.3596530096595469
 30
0.0
 10
0.4634828587642686
 20
0.3611602030459189
 30
0.0
  0
SPLINE
  5
DD9
330
1F
100
AcDbEntity
  8
0
  6
Continuous
 62
     7
370
    15
100
AcDbSpline
210
0.0
220
0.0
230
1.0
 70
     8
 71
     3
 72
     9
 73
     5
 74
     0
 42
0.0000000001
 43
0.0000000001
 40
0.0
 40
0.0
 40
0.0
 40
0.0
 40
0.4996040504919736
 40
1.0
 40
1.0
 40
1.0
 40
1.0
 10
0.4529923433253602
 20
0.3521282667096977
 30
0.0
 10
0.4521134757886687
 20
0.3536357897602305
 30
0.0
 10
0.4503543476634518
 20
0.356653225365583
 30
0.0
 10
0.4485992764327991
 20
0.3596702749919498
 30
0.0
 10
0.4477210458978833
 20
0.3611799944044514
 30
0.0
  0
SPLINE
  5
DDA
330
1F
100
AcDbEntity
  8
0
  6
Continuous
 62
     7
370
    15
100
AcDbSpline
210
0.0
220
0.0
230
1.0
 70
     8
 71
     3
 72
     9
 73
     5
 74
     0
 42
0.0000000001
 43
0.0000000001
 40
0.0
 40
0.0
 40
0.0
 40
0.0
 40
0.7758880112977267
 40
1.0
 40
1.0
 40
1.0
 40
1.0
 10
0.4372918714747636
 20
0.3520534513354232
 30
0.0
 10
0.4364124398118508
 20
0.3535611557698275
 30
0.0
 10
0.4352789880119668
 20
0.3555043542887539
 30
0.0
 10
0.4341482833826982
 20
0.3574487595578308
 30
0.0
 10
0.4338948789195998
 20
0.3578845240895252
 30
0.0
  0
LINE
  5
DDB
330
1F
100
AcDbEntity
  8
0
  6
Continuous
 62
     7
370
    15
100
AcDbLine
 10
0.4289350191830446
 20
0.2910768087789173
 30
0.0
 11
0.4294188343699555
 21
0.2919069160910486
 31
0.0
  0
SPLINE
  5
DDC
330
1F
100
AcDbEntity
  8
0
  6
Continuous
 62
     7
370
    15
100
AcDbSpline
210
0.0
220
0.0
230
1.0
 70
     8
 71
     3
 72
     9
 73
     5
 74
     0
 42
0.0000000001
 43
0.0000000001
 40
0.0
 40
0.0
 40
0.0
 40
0.0
 40
0.5003764528495451
 40
1.0
 40
1.0
 40
1.0
 40
1.0
 10
0.4398913757689309
 20
0.2828463422351473
 30
0.0
 10
0.4407692209287424
 20
0.2843563403287057
 30
0.0
 10
0.4425235903736083
 20
0.28737406445413
 30
0.0
 10
0.4442817987021011
 20
0.2903893447110317
 30
0.0
 10
0.4451602409838112
 20
0.2918958497286355
 30
0.0
  0
SPLINE
  5
DDD
330
1F
100
AcDbEntity
  8
0
  6
Continuous
 62
     7
370
    15
100
AcDbSpline
210
0.0
220
0.0
230
1.0
 70
     8
 71
     3
 72
     9
 73
     5
 74
     0
 42
0.0000000001
 43
0.0000000001
 40
0.0
 40
0.0
 40
0.0
 40
0.0
 40
0.5003425715072274
 40
1.0
 40
1.0
 40
1.0
 40
1.0
 10
0.4555963025597931
 20
0.2827804627003581
 30
0.0
 10
0.4564735616312357
 20
0.2842888096715044
 30
0.0
 10
0.4582268785013133
 20
0.2873034381621438
 30
0.0
 10
0.4599837019914235
 20
0.290317436680229
 30
0.0
 10
0.4608615118988082
 20
0.2918234034292546
 30
0.0
  0
SPLINE
  5
DDE
330
1F
100
AcDbEntity
  8
0
  6
Continuous
 62
     7
370
    15
100
AcDbSpline
210
0.0
220
0.0
230
1.0
 70
     8
 71
     3
 72
     9
 73
     5
 74
     0
 42
0.0000000001
 43
0.0000000001
 40
0.0
 40
0.0
 40
0.0
 40
0.0
 40
0.5002587357220384
 40
1.0
 40
1.0
 40
1.0
 40
1.0
 10
0.4713800312957402
 20
0.2828342531199308
 30
0.0
 10
0.4722555704188176
 20
0.2843403592530127
 30
0.0
 10
0.4740057430006362
 20
0.2873510135915265
 30
0.0
 10
0.475758550742337
 20
0.2903580817196876
 30
0.0
 10
0.4766345010992117
 20
0.291860837747824
 30
0.0
  0
SPLINE
  5
DDF
330
1F
100
AcDbEntity
  8
0
  6
Continuous
 62
     7
370
    15
100
AcDbSpline
210
0.0
220
0.0
230
1.0
 70
     8
 71
     3
 72
     9
 73
     5
 74
     0
 42
0.0000000001
 43
0.0000000001
 40
0.0
 40
0.0
 40
0.0
 40
0.0
 40
0.5003975583352018
 40
1.0
 40
1.0
 40
1.0
 40
1.0
 10
0.4871374669589566
 20
0.282849655512883
 30
0.0
 10
0.4880156833752923
 20
0.2843603155519603
 30
0.0
 10
0.4897707207484876
 20
0.287379235236741
 30
0.0
 10
0.4915298127164834
 20
0.2903959111608476
 30
0.0
 10
0.4924086593588095
 20
0.2919030498182427
 30
0.0
  0
SPLINE
  5
DE0
330
1F
100
AcDbEntity
  8
0
  6
Continuous
 62
     7
370
    15
100
AcDbSpline
210
0.0
220
0.0
230
1.0
 70
     8
 71
     3
 72
     9
 73
     5
 74
     0
 42
0.0000000001
 43
0.0000000001
 40
0.0
 40
0.0
 40
0.0
 40
0.0
 40
0.5624415366143333
 40
1.0
 40
1.0
 40
1.0
 40
1.0
 10
0.5028973527164285
 20
0.2828698042653166
 30
0.0
 10
0.5038832008969285
 20
0.284565636758445
 30
0.0
 10
0.5056360020617126
 20
0.2875807634564762
 30
0.0
 10
0.5073925172295591
 20
0.2905926118014961
 30
0.0
 10
0.5081610953073126
 20
0.2919104715352951
 30
0.0
  0
SPLINE
  5
DE1
330
1F
100
AcDbEntity
  8
0
  6
Continuous
 62
     7
370
    15
100
AcDbSpline
210
0.0
220
0.0
230
1.0
 70
     8
 71
     3
 72
     9
 73
     5
 74
     0
 42
0.0000000001
 43
0.0000000001
 40
0.0
 40
0.0
 40
0.0
 40
0.0
 40
0.5004472165010472
 40
1.0
 40
1.0
 40
1.0
 40
1.0
 10
0.5186448708203289
 20
0.2828689146871277
 30
0.0
 10
0.5195239154086435
 20
0.2843812155169865
 30
0.0
 10
0.5212804334975259
 20
0.287403114290709
 30
0.0
 10
0.5230415107268743
 20
0.290422856233657
 30
0.0
 10
0.5239212617587521
 20
0.291931376726706
 30
0.0
  0
SPLINE
  5
DE2
330
1F
100
AcDbEntity
  8
0
  6
Continuous
 62
     7
370
    15
100
AcDbSpline
210
0.0
220
0.0
230
1.0
 70
     8
 71
     3
 72
     9
 73
     5
 74
     0
 42
0.0000000001
 43
0.0000000001
 40
0.0
 40
0.0
 40
0.0
 40
0.0
 40
0.5004145175491037
 40
1.0
 40
1.0
 40
1.0
 40
1.0
 10
0.5343802117765195
 20
0.2828474133614638
 30
0.0
 10
0.5352587220977699
 20
0.2843585525692618
 30
0.0
 10
0.5370142873150874
 20
0.2873783274854695
 30
0.0
 10
0.5387740817232194
 20
0.2903961968310125
 30
0.0
 10
0.5396532494616198
 20
0.291903880543978
 30
0.0
  0
LINE
  5
DE3
330
1F
100
AcDbEntity
  8
0
  6
Continuous
 62
     7
370
    15
100
AcDbLine
 10
0.5520505084138039
 20
0.287710704094841
 30
0.0
 11
0.5531346901039642
 21
0.2895352673007576
 31
0.0
  0
ARC
  5
DE4
330
1F
100
AcDbEntity
  8
0
  6
Continuous
 62
     7
370
    15
100
AcDbCircle
 10
0.4094069299482941
 20
0.2869399899739495
 30
0.0
 40
0.0059055118110241
100
AcDbArc
 50
90.0
 51
180.0
  0
ARC
  5
DE5
330
1F
100
AcDbEntity
  8
0
  6
Continuous
 62
     7
370
    15
100
AcDbCircle
 10
0.4094069299482941
 20
0.3570187301314303
 30
0.0
 40
0.0059055118110241
100
AcDbArc
 50
180.0
 51
270.0000000000008
  0
LINE
  5
DE6
330
1F
100
AcDbEntity
  8
0
  6
Continuous
 62
     7
370
    15
100
AcDbLine
 10
0.5477547281147635
 20
0.2828805890403061
 30
0.0
 11
0.5530687032716282
 21
0.288194564197169
 31
0.0
  0
LINE
  5
DE7
330
1F
100
AcDbEntity
  8
0
  6
Continuous
 62
     7
370
    15
100
AcDbLine
 10
0.5531077173498682
 20
0.3557251418299672
 30
0.0
 11
0.5527693137219148
 21
0.3560635454579224
 31
0.0
  0
SPLINE
  5
DE8
330
1F
100
AcDbEntity
  8
0
  6
Continuous
 62
     7
370
    15
100
AcDbSpline
210
0.0
220
0.0
230
1.0
 70
     8
 71
     3
 72
    13
 73
     9
 74
     0
 42
0.0000000001
 43
0.0000000001
 40
0.0
 40
0.0
 40
0.0
 40
0.0
 40
0.2568473140261744
 40
0.4312386862333353
 40
0.5234263459700622
 40
0.5769788366702921
 40
0.7458413149912577
 40
1.0
 40
1.0
 40
1.0
 40
1.0
 10
0.5501793389798762
 20
0.352046577568099
 30
0.0
 10
0.5500641113833469
 20
0.3518976716885345
 30
0.0
 10
0.5498706478171274
 20
0.3516476633280476
 30
0.0
 10
0.5492770160899392
 20
0.3514096022930844
 30
0.0
 10
0.548841177094773
 20
0.3513722437187099
 30
0.0
 10
0.5483214565156809
 20
0.3514369958703469
 30
0.0
 10
0.5478076397624756
 20
0.3516887513402687
 30
0.0
 10
0.5476309547763423
 20
0.3519200146534047
 30
0.0
 10
0.5475247992748474
 20
0.3520589617904577
 30
0.0
  0
SPLINE
  5
DE9
330
1F
100
AcDbEntity
  8
0
  6
Continuous
 62
     7
370
    15
100
AcDbSpline
210
0.0
220
0.0
230
1.0
 70
     8
 71
     3
 72
    11
 73
     7
 74
     0
 42
0.0000000001
 43
0.0000000001
 40
0.0
 40
0.0
 40
0.0
 40
0.0
 40
0.2306832365994252
 40
0.4742990888732998
 40
0.7308826402859651
 40
1.0
 40
1.0
 40
1.0
 40
1.0
 10
0.5344267870379538
 20
0.3520388482543411
 30
0.0
 10
0.5343229751840264
 20
0.3519041421545428
 30
0.0
 10
0.5341095315525833
 20
0.3516271780311755
 30
0.0
 10
0.5332329279012287
 20
0.3512925878226938
 30
0.0
 10
0.5322088345639893
 20
0.3515273139155675
 30
0.0
 10
0.5319344033478091
 20
0.3518596116919472
 30
0.0
 10
0.5317939162328758
 20
0.3520297219168385
 30
0.0
  0
SPLINE
  5
DEA
330
1F
100
AcDbEntity
  8
0
  6
Continuous
 62
     7
370
    15
100
AcDbSpline
210
0.0
220
0.0
230
1.0
 70
     8
 71
     3
 72
    13
 73
     9
 74
     0
 42
0.0000000001
 43
0.0000000001
 40
0.0
 40
0.0
 40
0.0
 40
0.0
 40
0.2559276427300819
 40
0.4282855454022468
 40
0.5172809909285235
 40
0.5678675852260425
 40
0.7371847157925745
 40
1.0
 40
1.0
 40
1.0
 40
1.0
 10
0.5186838110797476
 20
0.3520474863365994
 30
0.0
 10
0.518568938056192
 20
0.351898809302017
 30
0.0
 10
0.5183767022546144
 20
0.3516500037249213
 30
0.0
 10
0.5177928228216233
 20
0.3514139450605971
 30
0.0
 10
0.5173726541039363
 20
0.3513733361285685
 30
0.0
 10
0.516862853678366
 20
0.351426068745986
 30
0.0
 10
0.5163329653431026
 20
0.3516682258462265
 30
0.0
 10
0.5161439575406002
 20
0.3519109134105751
 30
0.0
 10
0.5160290063413067
 20
0.3520585116906798
 30
0.0
  0
SPLINE
  5
DEB
330
1F
100
AcDbEntity
  8
0
  6
Continuous
 62
     7
370
    15
100
AcDbSpline
210
0.0
220
0.0
230
1.0
 70
     8
 71
     3
 72
    11
 73
     7
 74
     0
 42
0.0000000001
 43
0.0000000001
 40
0.0
 40
0.0
 40
0.0
 40
0.0
 40
0.2309256455419135
 40
0.4746149563441135
 40
0.7311182381648602
 40
1.0
 40
1.0
 40
1.0
 40
1.0
 10
0.5029301203418095
 20
0.3520378089583283
 30
0.0
 10
0.5028264733071941
 20
0.3519034337118054
 30
0.0
 10
0.5026134504846569
 20
0.3516272560633127
 30
0.0
 10
0.5017371507487498
 20
0.3512926316435305
 30
0.0
 10
0.5007129972574989
 20
0.3515271461527398
 30
0.0
 10
0.5004383373937858
 20
0.3518596796954487
 30
0.0
 10
0.5002977718619866
 20
0.3520298638411738
 30
0.0
  0
SPLINE
  5
DEC
330
1F
100
AcDbEntity
  8
0
  6
Continuous
 62
     7
370
    15
100
AcDbSpline
210
0.0
220
0.0
230
1.0
 70
     8
 71
     3
 72
    13
 73
     9
 74
     0
 42
0.0000000001
 43
0.0000000001
 40
0.0
 40
0.0
 40
0.0
 40
0.0
 40
0.2549883586802514
 40
0.4252959175331686
 40
0.5110826725908061
 40
0.5586880221815593
 40
0.7284732523635507
 40
1.0
 40
1.0
 40
1.0
 40
1.0
 10
0.4871882816566897
 20
0.3520483912202164
 30
0.0
 10
0.4870737770802807
 20
0.3518999506567646
 30
0.0
 10
0.4868827945227272
 20
0.3516523661554196
 30
0.0
 10
0.4863086168392377
 20
0.3514183556017845
 30
0.0
 10
0.4859044310475787
 20
0.3513748513717279
 30
0.0
 10
0.4854057132127716
 20
0.3514157317596382
 30
0.0
 10
0.4848592286066671
 20
0.3516473423672928
 30
0.0
 10
0.4846574142549552
 20
0.351901583506
 30
0.0
 10
0.4845332436062977
 20
0.3520580108702671
 30
0.0
  0
SPLINE
  5
DED
330
1F
100
AcDbEntity
  8
0
  6
Continuous
 62
     7
370
    15
100
AcDbSpline
210
0.0
220
0.0
230
1.0
 70
     8
 71
     3
 72
    11
 73
     7
 74
     0
 42
0.0000000001
 43
0.0000000001
 40
0.0
 40
0.0
 40
0.0
 40
0.0
 40
0.2311675282424098
 40
0.4749305637187838
 40
0.7313540608309125
 40
0.9999999999999998
 40
0.9999999999999998
 40
0.9999999999999998
 40
0.9999999999999998
 10
0.47143349168707
 20
0.3520368336441149
 30
0.0
 10
0.471330003924142
 20
0.3519027725432349
 30
0.0
 10
0.4711173897133163
 20
0.3516273458226362
 30
0.0
 10
0.4702413777806181
 20
0.351292671979601
 30
0.0
 10
0.4692171478598058
 20
0.3515269811438675
 30
0.0
 10
0.468942245930518
 20
0.3518597858356565
 30
0.0
 10
0.4688015954148535
 20
0.3520300616559695
 30
0.0
  0
SPLINE
  5
DEE
330
1F
100
AcDbEntity
  8
0
  6
Continuous
 62
     7
370
    15
100
AcDbSpline
210
0.0
220
0.0
230
1.0
 70
     8
 71
     3
 72
    15
 73
    11
 74
     0
 42
0.0000000001
 43
0.0000000001
 40
0.0
 40
0.0
 40
0.0
 40
0.0
 40
0.2539023360757855
 40
0.4220605922069614
 40
0.4740417748698159
 40
0.5046333934771609
 40
0.5492253579452904
 40
0.7194045486927965
 40
0.845838624869444
 40
1.0
 40
1.0
 40
1.0
 40
1.0
 10
0.455692748388203
 20
0.35204928829985
 30
0.0
 10
0.4555791458823828
 20
0.3519014663816773
 30
0.0
 10
0.4553903050011856
 20
0.3516557427412803
 30
0.0
 10
0.4548560277946381
 20
0.3514350514727724
 30
0.0
 10
0.4545371646864203
 20
0.3513900541953128
 30
0.0
 10
0.4543507891577781
 20
0.3513814032333198
 30
0.0
 10
0.4539494378815787
 20
0.3514072249477576
 30
0.0
 10
0.4535768800428804
 20
0.3515512771901907
 30
0.0
 10
0.4531994044738399
 20
0.3518200221971093
 30
0.0
 10
0.4530949162306035
 20
0.3519732675265612
 30
0.0
 10
0.4530375095578032
 20
0.3520574617307475
 30
0.0
  0
SPLINE
  5
DEF
330
1F
100
AcDbEntity
  8
0
  6
Continuous
 62
     7
370
    15
100
AcDbSpline
210
0.0
220
0.0
230
1.0
 70
     8
 71
     3
 72
    11
 73
     7
 74
     0
 42
0.0000000001
 43
0.0000000001
 40
0.0
 40
0.0
 40
0.0
 40
0.0
 40
0.2314088369994235
 40
0.4752458462458963
 40
0.7315900599447664
 40
1.0
 40
1.0
 40
1.0
 40
1.0
 10
0.4399369008252956
 20
0.3520359221765859
 30
0.0
 10
0.43983356672116
 20
0.3519021584230935
 30
0.0
 10
0.4396213487937759
 20
0.3516274469252505
 30
0.0
 10
0.4387456083820008
 20
0.3512927087696476
 30
0.0
 10
0.4377212857230833
 20
0.3515268193768108
 30
0.0
 10
0.4374461283245763
 20
0.3518599309723076
 30
0.0
 10
0.4373053862641081
 20
0.3520303164046858
 30
0.0
  0
SPLINE
  5
DF0
330
1F
100
AcDbEntity
  8
0
  6
Continuous
 62
     7
370
    15
100
AcDbSpline
210
0.0
220
0.0
230
1.0
 70
     8
 71
     3
 72
    14
 73
    10
 74
     0
 42
0.0000000001
 43
0.0000000001
 40
0.0
 40
0.0
 40
0.0
 40
0.0
 40
0.3468173774356135
 40
0.4710431179981521
 40
0.497112731037865
 40
0.5134879048248254
 40
0.5547634194057404
 40
0.7212936589906201
 40
1.0
 40
1.0
 40
1.0
 40
1.0
 10
0.4294176081994801
 20
0.2919048528054262
 30
0.0
 10
0.4295803183328007
 20
0.2921144145590671
 30
0.0
 10
0.4298013092447795
 20
0.2923990387684345
 30
0.0
 10
0.4305069036666831
 20
0.2925731906710045
 30
0.0
 10
0.4307834585333988
 20
0.2925749278835632
 30
0.0
 10
0.4309150233840624
 20
0.2925675511636883
 30
0.0
 10
0.4311826742848455
 20
0.2925333378154182
 30
0.0
 10
0.4317400799239559
 20
0.2923311025738819
 30
0.0
 10
0.4319371817770703
 20
0.2920824645343309
 30
0.0
 10
0.4320605623317713
 20
0.2919268236879582
 30
0.0
  0
SPLINE
  5
DF1
330
1F
100
AcDbEntity
  8
0
  6
Continuous
 62
     7
370
    15
100
AcDbSpline
210
0.0
220
0.0
230
1.0
 70
     8
 71
     3
 72
    12
 73
     8
 74
     0
 42
0.0000000001
 43
0.0000000001
 40
0.0
 40
0.0
 40
0.0
 40
0.0
 40
0.2795809409984782
 40
0.4463542652260085
 40
0.4874990135313912
 40
0.6533485502301819
 40
1.0
 40
1.0
 40
1.0
 40
1.0
 10
0.4451752345171061
 20
0.2919211809182134
 30
0.0
 10
0.4453015802776479
 20
0.2920792378839228
 30
0.0
 10
0.4455032927724654
 20
0.2923315776912869
 30
0.0
 10
0.4460467787151759
 20
0.2925309168859578
 30
0.0
 10
0.4465185948212929
 20
0.2925944203123418
 30
0.0
 10
0.4474755509744979
 20
0.2924331292604727
 30
0.0
 10
0.4476840722772098
 20
0.2921143467128513
 30
0.0
 10
0.4478251143703967
 20
0.2918987248209703
 30
0.0
  0
SPLINE
  5
DF2
330
1F
100
AcDbEntity
  8
0
  6
Continuous
 62
     7
370
    15
100
AcDbSpline
210
0.0
220
0.0
230
1.0
 70
     8
 71
     3
 72
    14
 73
    10
 74
     0
 42
0.0000000001
 43
0.0000000001
 40
0.0
 40
0.0
 40
0.0
 40
0.0
 40
0.3471101034301245
 40
0.4713842166327096
 40
0.4974569066951454
 40
0.5138443948494977
 40
0.5551165281283901
 40
0.7215379133613113
 40
1.0
 40
1.0
 40
1.0
 40
1.0
 10
0.4609142925043353
 20
0.2919058974373911
 30
0.0
 10
0.4610767622468713
 20
0.2921150055828552
 30
0.0
 10
0.4612974002275996
 20
0.2923989796831965
 30
0.0
 10
0.4620028917039117
 20
0.2925731782832621
 30
0.0
 10
0.4622794586474841
 20
0.2925749263629129
 30
0.0
 10
0.46241099493274
 20
0.2925675576666997
 30
0.0
 10
0.4626787085072666
 20
0.2925333631536724
 30
0.0
 10
0.463235965520501
 20
0.2923312173046384
 30
0.0
 10
0.4634330333459369
 20
0.2920827606358796
 30
0.0
 10
0.4635563823156064
 20
0.2919272462893236
 30
0.0
  0
SPLINE
  5
DF3
330
1F
100
AcDbEntity
  8
0
  6
Continuous
 62
     7
370
    15
100
AcDbSpline
210
0.0
220
0.0
230
1.0
 70
     8
 71
     3
 72
    12
 73
     8
 74
     0
 42
0.0000000001
 43
0.0000000001
 40
0.0
 40
0.0
 40
0.0
 40
0.0
 40
0.27951203563235
 40
0.4462221895606878
 40
0.4873348098311542
 40
0.6531096710365678
 40
0.9999999999999998
 40
0.9999999999999998
 40
0.9999999999999998
 40
0.9999999999999998
 10
0.4766709066125303
 20
0.2919205075085209
 30
0.0
 10
0.4767973496201288
 20
0.292078797688512
 30
0.0
 10
0.476999207388352
 20
0.2923314973282338
 30
0.0
 10
0.4775428112481857
 20
0.292530918894186
 30
0.0
 10
0.4780148148494812
 20
0.2925944337635749
 30
0.0
 10
0.4789725765590172
 20
0.2924327500777697
 30
0.0
 10
0.4791805764852901
 20
0.2921141018196878
 30
0.0
 10
0.4793213177804523
 20
0.2918984913175724
 30
0.0
  0
SPLINE
  5
DF4
330
1F
100
AcDbEntity
  8
0
  6
Continuous
 62
     7
370
    15
100
AcDbSpline
210
0.0
220
0.0
230
1.0
 70
     8
 71
     3
 72
    14
 73
    10
 74
     0
 42
0.0000000001
 43
0.0000000001
 40
0.0
 40
0.0
 40
0.0
 40
0.0
 40
0.3474525589295776
 40
0.4717777078291565
 40
0.4978521171324565
 40
0.5142510688759349
 40
0.5555164764322429
 40
0.7218124909419607
 40
1.0
 40
1.0
 40
1.0
 40
1.0
 10
0.4924110229838706
 20
0.2919070216621347
 30
0.0
 10
0.4925732146409656
 20
0.2921156321506466
 30
0.0
 10
0.4927934415647455
 20
0.2923988874485837
 30
0.0
 10
0.4934988517771766
 20
0.2925731633629873
 30
0.0
 10
0.4937754470050609
 20
0.2925749249446288
 30
0.0
 10
0.4939069577689841
 20
0.2925675650721093
 30
0.0
 10
0.4941747411354589
 20
0.2925333905110208
 30
0.0
 10
0.4947318570307795
 20
0.2923313312327214
 30
0.0
 10
0.4949289011522007
 20
0.292083032437682
 30
0.0
 10
0.4950522245385712
 20
0.2919276304494602
 30
0.0
  0
SPLINE
  5
DF5
330
1F
100
AcDbEntity
  8
0
  6
Continuous
 62
     7
370
    15
100
AcDbSpline
210
0.0
220
0.0
230
1.0
 70
     8
 71
     3
 72
    12
 73
     8
 74
     0
 42
0.0000000001
 43
0.0000000001
 40
0.0
 40
0.0
 40
0.0
 40
0.0
 40
0.2791047213377491
 40
0.4455869291871945
 40
0.4866427298450937
 40
0.6524938338724779
 40
1.0
 40
1.0
 40
1.0
 40
1.0
 10
0.5081657244797358
 20
0.2919183671364778
 30
0.0
 10
0.5082924513640182
 20
0.2920773735424167
 30
0.0
 10
0.5084947691282649
 20
0.2923312251283161
 30
0.0
 10
0.5090387693329719
 20
0.2925309289448628
 30
0.0
 10
0.5095115048443022
 20
0.2925944823315423
 30
0.0
 10
0.510469434836069
 20
0.2924322761370999
 30
0.0
 10
0.5106769834759862
 20
0.2921138676783646
 30
0.0
 10
0.5108174790651896
 20
0.2918983279184542
 30
0.0
  0
SPLINE
  5
DF6
330
1F
100
AcDbEntity
  8
0
  6
Continuous
 62
     7
370
    15
100
AcDbSpline
210
0.0
220
0.0
230
1.0
 70
     8
 71
     3
 72
    14
 73
    10
 74
     0
 42
0.0000000001
 43
0.0000000001
 40
0.0
 40
0.0
 40
0.0
 40
0.0
 40
0.3478444858037454
 40
0.472223336226477
 40
0.4982981177922865
 40
0.5147076873505273
 40
0.5559630364667815
 40
0.7221172424253848
 40
1.0
 40
1.0
 40
1.0
 40
1.0
 10
0.5239077996358992
 20
0.2919082258970971
 30
0.0
 10
0.5240696758654062
 20
0.2921162946661469
 30
0.0
 10
0.524289434223733
 20
0.2923987626433455
 30
0.0
 10
0.5249947845347239
 20
0.2925731460173317
 30
0.0
 10
0.5252714241915131
 20
0.2925749236505297
 30
0.0
 10
0.5254029124970563
 20
0.2925675733515363
 30
0.0
 10
0.5256707728262571
 20
0.2925334196897531
 30
0.0
 10
0.5262277552435171
 20
0.2923314437119189
 30
0.0
 10
0.5264247861029068
 20
0.2920832785992176
 30
0.0
 10
0.5265480899785553
 20
0.291927974398184
 30
0.0
  0
SPLINE
  5
DF7
330
1F
100
AcDbEntity
  8
0
  6
Continuous
 62
     7
370
    15
100
AcDbSpline
210
0.0
220
0.0
230
1.0
 70
     8
 71
     3
 72
    12
 73
     8
 74
     0
 42
0.0000000001
 43
0.0000000001
 40
0.0
 40
0.0
 40
0.0
 40
0.0
 40
0.2790590720165325
 40
0.4454861923178186
 40
0.4865096514859268
 40
0.6522491649417657
 40
0.9999999999999998
 40
0.9999999999999998
 40
0.9999999999999998
 40
0.9999999999999998
 10
0.5396616082055994
 20
0.291918059559346
 30
0.0
 10
0.539788393823625
 20
0.2920771861891709
 30
0.0
 10
0.5399907926985544
 20
0.2923312138253469
 30
0.0
 10
0.5405348432460544
 20
0.2925309400548575
 30
0.0
 10
0.5410076949579024
 20
0.2925944892317187
 30
0.0
 10
0.5419666685277714
 20
0.2924318241276815
 30
0.0
 10
0.5421735158471508
 20
0.292113685927988
 30
0.0
 10
0.5423135989631272
 20
0.2918982333397786
 30
0.0
  0
LINE
  5
DF8
330
1F
100
AcDbEntity
  8
0
  6
Continuous
 62
     7
370
    15
100
AcDbLine
 10
0.4094069299482941
 20
0.2928455017849718
 30
0.0
 11
0.4268085047514445
 21
0.2928455017849718
 31
0.0
  0
LINE
  5
DF9
330
1F
100
AcDbEntity
  8
0
  6
Continuous
 62
     7
370
    15
100
AcDbLine
 10
0.4268085047514445
 20
0.3511132183204062
 30
0.0
 11
0.4094069299482941
 21
0.3511132183204062
 31
0.0
  0
LINE
  5
DFA
330
1F
100
AcDbEntity
  8
0
  6
Continuous
 62
     7
370
    15
100
AcDbLine
 10
0.1672809456963273
 20
0.2376149056094967
 30
0.0
 11
0.1672809456963273
 21
0.4063438144958831
 31
0.0
  0
LINE
  5
DFB
330
1F
100
AcDbEntity
  8
0
  6
Continuous
 62
     7
370
    15
100
AcDbLine
 10
0.181341688103525
 20
0.4204045569030825
 30
0.0
 11
0.181341688103525
 21
0.2235541632022955
 31
0.0
  0
LINE
  5
DFC
330
1F
100
AcDbEntity
  8
0
  6
Continuous
 62
     7
370
    15
100
AcDbLine
 10
0.2460211031766422
 20
0.3219793600526899
 30
0.0
 11
0.2460211031766422
 21
0.4204045569030825
 31
0.0
  0
LINE
  5
DFD
330
1F
100
AcDbEntity
  8
0
  6
Continuous
 62
     7
370
    15
100
AcDbLine
 10
0.2460211031766422
 20
0.2235541632022955
 30
0.0
 11
0.2460211031766422
 21
0.3219793600526899
 31
0.0
  0
LINE
  5
DFE
330
1F
100
AcDbEntity
  8
0
  6
Continuous
 62
     7
370
    15
100
AcDbLine
 10
0.2775171661687681
 20
0.3219793600526899
 30
0.0
 11
0.2775171661687681
 21
0.3810344781629251
 31
0.0
  0
LINE
  5
DFF
330
1F
100
AcDbEntity
  8
0
  6
Continuous
 62
     7
370
    15
100
AcDbLine
 10
0.2775171661687681
 20
0.2629242419424529
 30
0.0
 11
0.2775171661687681
 21
0.3219793600526899
 31
0.0
  0
LINE
  5
E00
330
1F
100
AcDbEntity
  8
0
  6
Continuous
 62
     7
370
    15
100
AcDbLine
 10
0.4035014181372718
 20
0.3219793600526899
 30
0.0
 11
0.4035014181372718
 21
0.3810344781629251
 31
0.0
  0
LINE
  5
E01
330
1F
100
AcDbEntity
  8
0
  6
Continuous
 62
     7
370
    15
100
AcDbLine
 10
0.4035014181372718
 20
0.2629242419424529
 30
0.0
 11
0.4035014181372718
 21
0.3219793600526899
 31
0.0
  0
LINE
  5
E02
330
1F
100
AcDbEntity
  8
0
  6
Continuous
 62
     7
370
    15
100
AcDbLine
 10
0.2696431504207348
 20
0.3219793600526899
 30
0.0
 11
0.2696431504207348
 21
0.3731604624148936
 31
0.0
  0
LINE
  5
E03
330
1F
100
AcDbEntity
  8
0
  6
Continuous
 62
     7
370
    15
100
AcDbLine
 10
0.2696431504207348
 20
0.2707982576904861
 30
0.0
 11
0.2696431504207348
 21
0.3219793600526899
 31
0.0
  0
SPLINE
  5
E04
330
1F
100
AcDbEntity
  8
0
  6
Continuous
 62
     7
370
    15
100
AcDbSpline
210
0.0
220
0.0
230
1.0
 70
     8
 71
     3
 72
    24
 73
    20
 74
     0
 42
0.0000000001
 43
0.0000000001
 40
0.0
 40
0.0
 40
0.0
 40
0.0
 40
0.0156249999999995
 40
0.0156249999999995
 40
0.0234374999999995
 40
0.0234374999999995
 40
0.0312499999999996
 40
0.0312499999999996
 40
0.0468749999999997
 40
0.0468749999999997
 40
0.0624999999999998
 40
0.0624999999999998
 40
0.1249999999999998
 40
0.1249999999999998
 40
0.2499999999999998
 40
0.2499999999999998
 40
0.4999999999999999
 40
0.4999999999999999
 40
1.0
 40
1.0
 40
1.0
 40
1.0
 10
0.4280640602111073
 20
0.3276743714262438
 30
0.0
 10
0.428021017058275
 20
0.3278853940500224
 30
0.0
 10
0.4279740924806293
 20
0.3280936426979288
 30
0.0
 10
0.4278838933264391
 20
0.3283898745734295
 30
0.0
 10
0.4278508867903286
 20
0.3284868560089962
 30
0.0
 10
0.4277643965926315
 20
0.3286589910555062
 30
0.0
 10
0.4276908332555634
 20
0.3287587406582102
 30
0.0
 10
0.4274692067603701
 20
0.3285565451937462
 30
0.0
 10
0.427452246712055
 20
0.3282780598381205
 30
0.0
 10
0.4273761667183829
 20
0.3278282656944917
 30
0.0
 10
0.4273491285358775
 20
0.3276017409634193
 30
0.0
 10
0.4272325661151024
 20
0.326471044937999
 30
0.0
 10
0.4271944205586147
 20
0.3255615942714158
 30
0.0
 10
0.4270998948669176
 20
0.3228366954649815
 30
0.0
 10
0.4270846050705002
 20
0.3210256919201868
 30
0.0
 10
0.4270723664865228
 20
0.31561602018554
 30
0.0
 10
0.4271310992235327
 20
0.3120571015702016
 30
0.0
 10
0.4274094361076193
 20
0.3021940426293306
 30
0.0
 10
0.4276933758260748
 20
0.2968304377139515
 30
0.0
 10
0.428064060211109
 20
0.2937723044105998
 30
0.0
  0
SPLINE
  5
E05
330
1F
100
AcDbEntity
  8
0
  6
Continuous
 62
     7
370
    15
100
AcDbSpline
210
0.0
220
0.0
230
1.0
 70
     8
 71
     3
 72
    10
 73
     6
 74
     0
 42
0.0000000001
 43
0.0000000001
 40
0.0
 40
0.0
 40
0.0
 40
0.0
 40
0.4400779918575556
 40
0.8929182801735901
 40
1.0
 40
1.0
 40
1.0
 40
1.0
 10
0.4280640602111073
 20
0.2937723044105998
 30
0.0
 10
0.4281527264059433
 20
0.2931407640699686
 30
0.0
 10
0.4283326301222532
 20
0.2918593686690347
 30
0.0
 10
0.428543860647296
 20
0.2910433952602258
 30
0.0
 10
0.4286604192290975
 20
0.2910488626900165
 30
0.0
 10
0.4286827103575357
 20
0.2910499083031113
 30
0.0
  0
SPLINE
  5
E06
330
1F
100
AcDbEntity
  8
0
  6
Continuous
 62
     7
370
    15
100
AcDbSpline
210
0.0
220
0.0
230
1.0
 70
     8
 71
     3
 72
    20
 73
    16
 74
     0
 42
0.0000000001
 43
0.0000000001
 40
0.0
 40
0.0
 40
0.0
 40
0.0
 40
0.00667088625364
 40
0.0859274240754335
 40
0.1674824018011312
 40
0.2467283641323461
 40
0.3281008061510697
 40
0.4103707921349665
 40
0.4949879053214075
 40
0.5779001419181745
 40
0.6632168358506468
 40
0.7461260745736033
 40
0.8313069079976864
 40
0.9145420641837146
 40
1.0
 40
1.0
 40
1.0
 40
1.0
 10
0.4338771712692245
 20
0.3578742404613735
 30
0.0
 10
0.4338848950472683
 20
0.357874449426862
 30
0.0
 10
0.4339843847291851
 20
0.3578771411031127
 30
0.0
 10
0.4341720149201214
 20
0.3569207645916184
 30
0.0
 10
0.4344273388333955
 20
0.3549725759212621
 30
0.0
 10
0.4346638486644788
 20
0.3519580992742608
 30
0.0
 10
0.4349251920322362
 20
0.3481508011959005
 30
0.0
 10
0.4351996793128175
 20
0.3434985701421447
 30
0.0
 10
0.4354785071448442
 20
0.3381781101699179
 30
0.0
 10
0.435754018146139
 20
0.3322940517074102
 30
0.0
 10
0.4360164363901129
 20
0.3261156073533737
 30
0.0
 10
0.43625374169853
 20
0.3197230281136953
 30
0.0
 10
0.4365064709485518
 20
0.3134129641779861
 30
0.0
 10
0.4367737406403185
 20
0.3071914174104109
 30
0.0
 10
0.4369536070279496
 20
0.3033792724169697
 30
0.0
 10
0.4370447252238856
 20
0.3014480846113241
 30
0.0
  0
LINE
  5
E07
330
1F
100
AcDbEntity
  8
0
  6
Continuous
 62
     7
370
    15
100
AcDbLine
 10
0.4370447252238856
 20
0.2836187786484008
 30
0.0
 11
0.4370447252238856
 21
0.3014480846113117
 31
0.0
  0
SPLINE
  5
E08
330
1F
100
AcDbEntity
  8
0
  6
Continuous
 62
     7
370
    15
100
AcDbSpline
210
0.0
220
0.0
230
1.0
 70
     8
 71
     3
 72
    14
 73
    10
 74
     0
 42
0.0000000001
 43
0.0000000001
 40
0.0
 40
0.0
 40
0.0
 40
0.0
 40
0.25
 40
0.25
 40
0.5000000000000001
 40
0.5000000000000001
 40
0.75
 40
0.75
 40
1.0
 40
1.0
 40
1.0
 40
1.0
 10
0.4370447252238856
 20
0.2836187786484008
 30
0.0
 10
0.4363511615958098
 20
0.2853099226450066
 30
0.0
 10
0.4357151490463922
 20
0.2876314528901365
 30
0.0
 10
0.4343754579052411
 20
0.2936876520682887
 30
0.0
 10
0.4336545693175192
 20
0.2972615121533544
 30
0.0
 10
0.4320802158094006
 20
0.3054518434352531
 30
0.0
 10
0.4312658213855239
 20
0.3098649003214053
 30
0.0
 10
0.4296515379039639
 20
0.3188892115465081
 30
0.0
 10
0.4289265942536558
 20
0.3234457268037929
 30
0.0
 10
0.4280640602111073
 20
0.3276743714262438
 30
0.0
  0
LINE
  5
E09
330
1F
100
AcDbEntity
  8
0
  6
Continuous
 62
     7
370
    15
100
AcDbLine
 10
0.4268085047514445
 20
0.3219793600526899
 30
0.0
 11
0.4268085047514445
 21
0.3511132183204062
 31
0.0
  0
LINE
  5
E0A
330
1F
100
AcDbEntity
  8
0
  6
Continuous
 62
     7
370
    15
100
AcDbLine
 10
0.4268085047514445
 20
0.2928455017849718
 30
0.0
 11
0.4268085047514445
 21
0.3219793600526899
 31
0.0
  0
SPLINE
  5
E0B
330
1F
100
AcDbEntity
  8
0
  6
Continuous
 62
     7
370
    15
100
AcDbSpline
210
0.0
220
0.0
230
1.0
 70
     8
 71
     3
 72
    27
 73
    23
 74
     0
 42
0.0000000001
 43
0.0000000001
 40
0.0
 40
0.0
 40
0.0
 40
0.0
 40
0.0523266098027343
 40
0.1033599087285255
 40
0.1533628131563627
 40
0.204807635998008
 40
0.256401105905472
 40
0.3084407557788417
 40
0.3602563500295345
 40
0.411194786877886
 40
0.4606679431867159
 40
0.5101410994955482
 40
0.5610795363438993
 40
0.6128951305945919
 40
0.6649347804679611
 40
0.7165282503754246
 40
0.7670392081686578
 40
0.8161279406068132
 40
0.8661491982534895
 40
0.9174494634604497
 40
0.9694142119793374
 40
0.9999999999999998
 40
0.9999999999999998
 40
0.9999999999999998
 40
0.9999999999999998
 10
0.5474834203869614
 20
0.2830420083452936
 30
0.0
 10
0.547344590194089
 20
0.2834533006515951
 30
0.0
 10
0.5470703611523425
 20
0.2842657197133367
 30
0.0
 10
0.5466865339174954
 20
0.2866844049475283
 30
0.0
 10
0.5463320943661634
 20
0.2898821855829443
 30
0.0
 10
0.545939764107648
 20
0.2939007828918207
 30
0.0
 10
0.5455274815832257
 20
0.2986783404153794
 30
0.0
 10
0.5451061365723869
 20
0.3040637999573434
 30
0.0
 10
0.5446909788330965
 20
0.3098826651633051
 30
0.0
 10
0.5442941685275385
 20
0.3159048356564036
 30
0.0
 10
0.5439344912989315
 20
0.3219793223093508
 30
0.0
 10
0.5435748142891646
 20
0.3280538157370814
 30
0.0
 10
0.5431780033036704
 20
0.3340759705090079
 30
0.0
 10
0.5427628481182927
 20
0.3398949091336114
 30
0.0
 10
0.5423414935445506
 20
0.3452801165795176
 30
0.0
 10
0.5419317289166133
 20
0.3500298614291311
 30
0.0
 10
0.5415438788880218
 20
0.3540027411337416
 30
0.0
 10
0.5411957640166998
 20
0.3571744102993144
 30
0.0
 10
0.5408203160343286
 20
0.3595417815593163
 30
0.0
 10
0.5404168691167622
 20
0.3609852912293576
 30
0.0
 10
0.5400547206495867
 20
0.3615360548265063
 30
0.0
 10
0.5398329001648863
 20
0.3611827842873432
 30
0.0
 10
0.5397507134873907
 20
0.36105189406812
 30
0.0
  0
SPLINE
  5
E0C
330
1F
100
AcDbEntity
  8
0
  6
Continuous
 62
     7
370
    15
100
AcDbSpline
210
0.0
220
0.0
230
1.0
 70
     8
 71
     3
 72
    28
 73
    24
 74
     0
 42
0.0000000001
 43
0.0000000001
 40
0.0
 40
0.0
 40
0.0
 40
0.0
 40
0.0495922257006014
 40
0.0985503059984319
 40
0.1462877736038079
 40
0.1931352917351538
 40
0.2413401015462721
 40
0.2905779998764857
 40
0.3402417072061261
 40
0.3896915884839528
 40
0.4383043601997838
 40
0.4855187507956886
 40
0.5327331413915913
 40
0.5813459131074227
 40
0.6307957943852499
 40
0.6804595017148906
 40
0.7296974000451046
 40
0.7779022098562233
 40
0.8247497279875691
 40
0.8724871955929447
 40
0.921445275890775
 40
0.9710375015913758
 40
1.0
 40
1.0
 40
1.0
 40
1.0
 10
0.532123467713002
 20
0.2826092813125502
 30
0.0
 10
0.531983127713116
 20
0.2827068783455797
 30
0.0
 10
0.5317042422681278
 20
0.2829008244194615
 30
0.0
 10
0.5313005936055779
 20
0.2844357350140509
 30
0.0
 10
0.5309251979279681
 20
0.2867793960964129
 30
0.0
 10
0.5305770693325523
 20
0.289957274093138
 30
0.0
 10
0.5301892230772696
 20
0.2939284353920091
 30
0.0
 10
0.5297794574054829
 20
0.2986786454956196
 30
0.0
 10
0.5293581031164285
 20
0.3040637182547112
 30
0.0
 10
0.5289429478518608
 20
0.3098826866251134
 30
0.0
 10
0.5285461368989166
 20
0.3159048301299443
 30
0.0
 10
0.5281864598379125
 20
0.3219793237717952
 30
0.0
 10
0.5278267827834205
 20
0.3280538153271355
 30
0.0
 10
0.5274299718102365
 20
0.3340759706432401
 30
0.0
 10
0.5270148166216915
 20
0.3398949090175798
 30
0.0
 10
0.5265934620479742
 20
0.3452801169076871
 30
0.0
 10
0.5261836974230869
 20
0.350029860254476
 30
0.0
 10
0.525795847382649
 20
0.3540027453586039
 30
0.0
 10
0.5254477325546328
 20
0.3571743948939166
 30
0.0
 10
0.5250722844071581
 20
0.359541840965693
 30
0.0
 10
0.524668838126428
 20
0.3609850620794852
 30
0.0
 10
0.5243073307171189
 20
0.3615357908811518
 30
0.0
 10
0.5240861480946438
 20
0.3611839335141795
 30
0.0
 10
0.5240045998310104
 20
0.3610542065175324
 30
0.0
  0
SPLINE
  5
E0D
330
1F
100
AcDbEntity
  8
0
  6
Continuous
 62
     7
370
    15
100
AcDbSpline
210
0.0
220
0.0
230
1.0
 70
     8
 71
     3
 72
    28
 73
    24
 74
     0
 42
0.0000000001
 43
0.0000000001
 40
0.0
 40
0.0
 40
0.0
 40
0.0
 40
0.0495883199416931
 40
0.0985425444243117
 40
0.1462762523468598
 40
0.1931200808855594
 40
0.2413210942071555
 40
0.2905551146843934
 40
0.3402149106254126
 40
0.38966089735502
 40
0.4382698404512743
 40
0.4854805125605783
 40
0.5326911846698823
 40
0.5813001277661366
 40
0.630746114495744
 40
0.6804059104367634
 40
0.7296399309140026
 40
0.7778409442355974
 40
0.824684772774297
 40
0.8724184806968452
 40
0.9213727051794634
 40
0.9709610251211579
 40
1.0
 40
1.0
 40
1.0
 40
1.0
 10
0.5163754362169409
 20
0.2826092813125502
 30
0.0
 10
0.516235096217053
 20
0.2827068783455797
 30
0.0
 10
0.5159562107720648
 20
0.2829008244194615
 30
0.0
 10
0.5155525621095132
 20
0.2844357350140509
 30
0.0
 10
0.5151771664319052
 20
0.2867793960964129
 30
0.0
 10
0.5148290378364893
 20
0.289957274093138
 30
0.0
 10
0.5144411915812049
 20
0.2939284353920091
 30
0.0
 10
0.5140314259094199
 20
0.2986786454956178
 30
0.0
 10
0.5136100716203638
 20
0.3040637182547219
 30
0.0
 10
0.5131949163557979
 20
0.3098826866250708
 30
0.0
 10
0.5127981054028537
 20
0.3159048301300935
 30
0.0
 10
0.5124384283418495
 20
0.3219793237712605
 30
0.0
 10
0.5120787512873522
 20
0.3280538153291517
 30
0.0
 10
0.5116819403141913
 20
0.3340759706354064
 30
0.0
 10
0.5112667851255646
 20
0.3398949090474084
 30
0.0
 10
0.5108454305521564
 20
0.3452801167963166
 30
0.0
 10
0.5104356659261234
 20
0.3500298606624252
 30
0.0
 10
0.5100478158898297
 20
0.3540027438888942
 30
0.0
 10
0.509699701046741
 20
0.3571744002536541
 30
0.0
 10
0.5093242529567102
 20
0.3595418202972678
 30
0.0
 10
0.5089208064544133
 20
0.3609851418044319
 30
0.0
 10
0.508559076469493
 20
0.3615358823929384
 30
0.0
 10
0.5083376723803435
 20
0.3611835343463465
 30
0.0
 10
0.5082559024581111
 20
0.3610534036316004
 30
0.0
  0
SPLINE
  5
E0E
330
1F
100
AcDbEntity
  8
0
  6
Continuous
 62
     7
370
    15
100
AcDbSpline
210
0.0
220
0.0
230
1.0
 70
     8
 71
     3
 72
    28
 73
    24
 74
     0
 42
0.0000000001
 43
0.0000000001
 40
0.0
 40
0.0
 40
0.0
 40
0.0
 40
0.0495690335797787
 40
0.0985042183189311
 40
0.146219361192944
 40
0.1930449707834778
 40
0.2412272373076699
 40
0.2904421092205174
 40
0.3400825910004958
 40
0.3895093467257782
 40
0.4380993843686935
 40
0.4852916948535348
 40
0.5324840053383758
 40
0.5810740429812908
 40
0.6305007987065731
 40
0.6801412804865512
 40
0.7293561523993999
 40
0.7775384189235905
 40
0.8243640285141241
 40
0.872079171388137
 40
0.9210143561272893
 40
0.9705833897070695
 40
1.0
 40
1.0
 40
1.0
 40
1.0
 10
0.5006274047208761
 20
0.2826092813125502
 30
0.0
 10
0.5004870647209901
 20
0.2827068783455797
 30
0.0
 10
0.5002081792760018
 20
0.2829008244194615
 30
0.0
 10
0.499804530613452
 20
0.2844357350140509
 30
0.0
 10
0.4994291349358422
 20
0.2867793960964129
 30
0.0
 10
0.4990810063404263
 20
0.289957274093138
 30
0.0
 10
0.4986931600851437
 20
0.2939284353920126
 30
0.0
 10
0.4982833944133569
 20
0.2986786454956036
 30
0.0
 10
0.4978620401243026
 20
0.3040637182547752
 30
0.0
 10
0.4974468848597349
 20
0.3098826866248718
 30
0.0
 10
0.4970500739067889
 20
0.3159048301308165
 30
0.0
 10
0.4966903968457919
 20
0.3219793237686421
 30
0.0
 10
0.4963307197912679
 20
0.3280538153390531
 30
0.0
 10
0.4959339088182118
 20
0.33407597059695
 30
0.0
 10
0.4955187536291766
 20
0.3398949091937997
 30
0.0
 10
0.4950973990573014
 20
0.3452801162496784
 30
0.0
 10
0.4946876344256426
 20
0.3500298626647595
 30
0.0
 10
0.4942997844096882
 20
0.354002736675141
 30
0.0
 10
0.4939516694926179
 20
0.3571744265607635
 30
0.0
 10
0.4935762216845357
 20
0.3595417188507508
 30
0.0
 10
0.4931727740947319
 20
0.3609855331171616
 30
0.0
 10
0.4928099445228247
 20
0.361536336512269
 30
0.0
 10
0.4925874463343645
 20
0.3611815647655707
 30
0.0
 10
0.4925045813708105
 20
0.3610494371825841
 30
0.0
  0
SPLINE
  5
E0F
330
1F
100
AcDbEntity
  8
0
  6
Continuous
 62
     7
370
    15
100
AcDbSpline
210
0.0
220
0.0
230
1.0
 70
     8
 71
     3
 72
    28
 73
    24
 74
     0
 42
0.0000000001
 43
0.0000000001
 40
0.0
 40
0.0
 40
0.0
 40
0.0
 40
0.0495345501765162
 40
0.0984356924583677
 40
0.1461176416145566
 40
0.1929106763037475
 40
0.241059424148904
 40
0.2902400590360898
 40
0.3398460077088488
 40
0.3892383790084817
 40
0.4377946143005828
 40
0.4849540947833892
 40
0.5321135752661933
 40
0.5806698105582945
 40
0.6300621818579275
 40
0.6796681305306867
 40
0.7288487654178741
 40
0.7769975132630295
 40
0.8237905479522204
 40
0.8714724971084091
 40
0.9203736393902605
 40
0.9699081895667783
 40
1.0
 40
1.0
 40
1.0
 40
1.0
 10
0.4848793732248149
 20
0.2826092813125502
 30
0.0
 10
0.4847390332249271
 20
0.2827068783455797
 30
0.0
 10
0.4844601477799389
 20
0.2829008244194615
 30
0.0
 10
0.4840564991173873
 20
0.2844357350140509
 30
0.0
 10
0.4836811034397793
 20
0.2867793960964129
 30
0.0
 10
0.4833329748443634
 20
0.2899572740931362
 30
0.0
 10
0.4829451285890789
 20
0.2939284353920197
 30
0.0
 10
0.482535362917294
 20
0.298678645495577
 30
0.0
 10
0.4821140086282379
 20
0.3040637182548729
 30
0.0
 10
0.4816988533636737
 20
0.3098826866245183
 30
0.0
 10
0.4813020424107224
 20
0.3159048301320955
 30
0.0
 10
0.4809423653497396
 20
0.3219793237640272
 30
0.0
 10
0.4805826882951659
 20
0.3280538153565129
 30
0.0
 10
0.4801858773222998
 20
0.3340759705291429
 30
0.0
 10
0.4797707221325452
 20
0.3398949094519363
 30
0.0
 10
0.4793493675633665
 20
0.3452801152857934
 30
0.0
 10
0.478939602921785
 20
0.3500298661954784
 30
0.0
 10
0.4785517529416988
 20
0.3540027239551169
 30
0.0
 10
0.4782036378941799
 20
0.3571744729481463
 30
0.0
 10
0.4778281905832609
 20
0.3595415399698958
 30
0.0
 10
0.4774247410758479
 20
0.3609862231197003
 30
0.0
 10
0.4770599433018896
 20
0.3615371576374706
 30
0.0
 10
0.4768354867717184
 20
0.3611780492197927
 30
0.0
 10
0.4767506618054034
 20
0.3610423375993321
 30
0.0
  0
SPLINE
  5
E10
330
1F
100
AcDbEntity
  8
0
  6
Continuous
 62
     7
370
    15
100
AcDbSpline
210
0.0
220
0.0
230
1.0
 70
     8
 71
     3
 72
    28
 73
    24
 74
     0
 42
0.0000000001
 43
0.0000000001
 40
0.0
 40
0.0
 40
0.0
 40
0.0
 40
0.0494853849188373
 40
0.09833799062869
 40
0.145972613316615
 40
0.1927192038249286
 40
0.2408201618832329
 40
0.289951982789502
 40
0.3395086953383796
 40
0.3888520424992314
 40
0.4373600835549551
 40
0.484472756143036
 40
0.5315854287311157
 40
0.5800934697868393
 40
0.6294368169476912
 40
0.6789935294965688
 40
0.7281253504028386
 40
0.7762263084611423
 40
0.8229728989694558
 40
0.8706075216573809
 40
0.9194601273672335
 40
0.9689455122860717
 40
1.0
 40
1.0
 40
1.0
 40
1.0
 10
0.4691313417287502
 20
0.2826092813125502
 30
0.0
 10
0.4689910017288659
 20
0.2827068783455797
 30
0.0
 10
0.4687121162838759
 20
0.2829008244194615
 30
0.0
 10
0.4683084676213243
 20
0.2844357350140509
 30
0.0
 10
0.4679330719437163
 20
0.2867793960964164
 30
0.0
 10
0.4675849433483004
 20
0.2899572740931344
 30
0.0
 10
0.4671970970930177
 20
0.2939284353920286
 30
0.0
 10
0.466787331421231
 20
0.2986786454955415
 30
0.0
 10
0.4663659771321749
 20
0.3040637182550061
 30
0.0
 10
0.4659508218676108
 20
0.3098826866240263
 30
0.0
 10
0.4655540109146559
 20
0.3159048301338754
 30
0.0
 10
0.4651943338536891
 20
0.3219793237575861
 30
0.0
 10
0.4648346567990496
 20
0.3280538153808792
 30
0.0
 10
0.4644378458264447
 20
0.3340759704345146
 30
0.0
 10
0.4640226906356882
 20
0.3398949098121762
 30
0.0
 10
0.46360133607027
 20
0.3452801139406436
 30
0.0
 10
0.4631915714148489
 20
0.3500298711227636
 30
0.0
 10
0.4628037214848116
 20
0.3540027062037148
 30
0.0
 10
0.4624556062552463
 20
0.3571745376839506
 30
0.0
 10
0.4620801596381421
 20
0.3595412903331401
 30
0.0
 10
0.461676707454612
 20
0.3609871860511344
 30
0.0
 10
0.461309098652678
 20
0.3615383482806564
 30
0.0
 10
0.4610818452587724
 20
0.3611730496465981
 30
0.0
 10
0.4609942211106555
 20
0.3610321981456928
 30
0.0
  0
SPLINE
  5
E11
330
1F
100
AcDbEntity
  8
0
  6
Continuous
 62
     7
370
    15
100
AcDbSpline
210
0.0
220
0.0
230
1.0
 70
     8
 71
     3
 72
    28
 73
    24
 74
     0
 42
0.0000000001
 43
0.0000000001
 40
0.0
 40
0.0
 40
0.0
 40
0.0
 40
0.0494223057579163
 40
0.0982126389123055
 40
0.1457865416111897
 40
0.192473544107608
 40
0.2405131877378483
 40
0.2895823801722488
 40
0.3390759226386723
 40
0.388356371694537
 40
0.4368025794123419
 40
0.4838551973426584
 40
0.5309078152729746
 40
0.5793540229907799
 40
0.6286344720466449
 40
0.6781280145130686
 40
0.7271972069474689
 40
0.7752368505777091
 40
0.8219238530741273
 40
0.8694977557730119
 40
0.9182880889274013
 40
0.9677103946853172
 40
1.0
 40
1.0
 40
1.0
 40
1.0
 10
0.4533833102326872
 20
0.2826092813125502
 30
0.0
 10
0.4532429702328012
 20
0.2827068783455797
 30
0.0
 10
0.452964084787813
 20
0.2829008244194615
 30
0.0
 10
0.4525604361252631
 20
0.2844357350140509
 30
0.0
 10
0.4521850404476533
 20
0.2867793960964164
 30
0.0
 10
0.4518369118522374
 20
0.2899572740931309
 30
0.0
 10
0.451449065596953
 20
0.293928435392041
 30
0.0
 10
0.451039299925168
 20
0.2986786454954988
 30
0.0
 10
0.4506179456361119
 20
0.3040637182551713
 30
0.0
 10
0.4502027903715496
 20
0.3098826866234134
 30
0.0
 10
0.4498059794185876
 20
0.3159048301360994
 30
0.0
 10
0.4494463023576456
 20
0.3219793237495534
 30
0.0
 10
0.4490866253029191
 20
0.3280538154112638
 30
0.0
 10
0.4486898143306428
 20
0.3340759703165042
 30
0.0
 10
0.448274659138634
 20
0.3398949102614275
 30
0.0
 10
0.447853304577909
 20
0.3452801122631233
 30
0.0
 10
0.4474435399052235
 20
0.3500298772675265
 30
0.0
 10
0.4470556900376055
 20
0.3540026840661448
 30
0.0
 10
0.4467075745810112
 20
0.3571746184152247
 30
0.0
 10
0.4463321288291544
 20
0.3595409790140078
 30
0.0
 10
0.4459286733082708
 20
0.3609883869118537
 30
0.0
 10
0.4455574496105088
 20
0.3615399091285643
 30
0.0
 10
0.4453265996709162
 20
0.3611666558936613
 30
0.0
 10
0.4452353760862691
 20
0.3610191596537693
 30
0.0
  0
SPLINE
  5
E12
330
1F
100
AcDbEntity
  8
0
  6
Continuous
 62
     7
370
    15
100
AcDbSpline
210
0.0
220
0.0
230
1.0
 70
     8
 71
     3
 72
     8
 73
     4
 74
     0
 42
0.0000000001
 43
0.0000000001
 40
0.0
 40
0.0
 40
0.0
 40
0.0
 40
1.0
 40
1.0
 40
1.0
 40
1.0
 10
0.4370447252238856
 20
0.2836187786484008
 30
0.0
 10
0.4372365288469871
 20
0.2829544059999371
 30
0.0
 10
0.4374358710149826
 20
0.2826092785299707
 30
0.0
 10
0.4376352787366243
 20
0.2826092813125502
 30
0.0
  0
LINE
  5
E13
330
1F
100
AcDbEntity
  8
0
  6
Continuous
 62
     7
370
    15
100
AcDbLine
 10
0.5474834203869792
 20
0.2830420083452882
 30
0.0
 11
0.5477297001133535
 21
0.2829056170417161
 31
0.0
  0
SPLINE
  5
E14
330
1F
100
AcDbEntity
  8
0
  6
Continuous
 62
     7
370
    15
100
AcDbSpline
210
0.0
220
0.0
230
1.0
 70
     8
 71
     3
 72
     9
 73
     5
 74
     0
 42
0.0000000001
 43
0.0000000001
 40
0.0
 40
0.0
 40
0.0
 40
0.0
 40
0.550513263681739
 40
1.0
 40
1.0
 40
1.0
 40
1.0
 10
0.5527217308500072
 20
0.3560159625860149
 30
0.0
 10
0.5527930161834798
 20
0.3559378088342922
 30
0.0
 10
0.5529225050408338
 20
0.3557958435868056
 30
0.0
 10
0.5530502828979165
 20
0.3551108621466021
 30
0.0
 10
0.5531077173498682
 20
0.354802972074608
 30
0.0
  0
SPLINE
  5
E15
330
1F
100
AcDbEntity
  8
0
  6
Continuous
 62
     7
370
    15
100
AcDbSpline
210
0.0
220
0.0
230
1.0
 70
    24
 71
     3
 72
    10
 73
     6
 74
     0
 42
0.0000000001
 43
0.0000000001
 40
0.0
 40
0.0
 40
0.0
 40
0.0
 40
0.5
 40
0.5
 40
1.0
 40
1.0
 40
1.0
 40
1.0
 10
0.5531077173498682
 20
0.3379443268188915
 30
0.0
 10
0.5531077173498682
 20
0.34186584774674
 30
0.0
 10
0.5531077173498718
 20
0.3453624414206022
 30
0.0
 10
0.5531077173498718
 20
0.3510803311034973
 30
0.0
 10
0.5531077173498682
 20
0.3532990960218403
 30
0.0
 10
0.5531077173498682
 20
0.3548029720746062
 30
0.0
  0
LINE
  5
E16
330
1F
100
AcDbEntity
  8
0
  6
Continuous
 62
     7
370
    15
100
AcDbLine
 10
0.4320785596177688
 20
0.2920224146697017
 30
0.0
 11
0.4321016342632485
 21
0.2919955697546517
 31
0.0
  0
LINE
  5
E17
330
1F
100
AcDbEntity
  8
0
  6
Continuous
 62
     7
370
    15
100
AcDbLine
 10
0.4399556689707529
 20
0.3519399045185836
 30
0.0
 11
0.439980828524452
 21
0.3519691750043397
 31
0.0
  0
LINE
  5
E18
330
1F
100
AcDbEntity
  8
0
  6
Continuous
 62
     7
370
    15
100
AcDbLine
 10
0.4478418716936235
 20
0.2920046373276073
 30
0.0
 11
0.4478594036347135
 21
0.2919842407642161
 31
0.0
  0
LINE
  5
E19
330
1F
100
AcDbEntity
  8
0
  6
Continuous
 62
     7
370
    15
100
AcDbLine
 10
0.4557115221573929
 20
0.3519490042301829
 30
0.0
 11
0.4557373425661942
 21
0.3519790435511088
 31
0.0
  0
LINE
  5
E1A
330
1F
100
AcDbEntity
  8
0
  6
Continuous
 62
     7
370
    15
100
AcDbLine
 10
0.4635743635593288
 20
0.2920227160476998
 30
0.0
 11
0.4636146304345799
 21
0.2919758697875292
 31
0.0
  0
LINE
  5
E1B
330
1F
100
AcDbEntity
  8
0
  6
Continuous
 62
     7
370
    15
100
AcDbLine
 10
0.4714522757833715
 20
0.3519405371963391
 30
0.0
 11
0.4714912548918991
 21
0.3519858852758191
 31
0.0
  0
LINE
  5
E1C
330
1F
100
AcDbEntity
  8
0
  6
Continuous
 62
     7
370
    15
100
AcDbLine
 10
0.4793380873132707
 20
0.2920044597615938
 30
0.0
 11
0.4793672065435404
 21
0.2919705826099979
 31
0.0
  0
LINE
  5
E1D
330
1F
100
AcDbEntity
  8
0
  6
Continuous
 62
     7
370
    15
100
AcDbLine
 10
0.4872070116715177
 20
0.3519483370490459
 30
0.0
 11
0.4872424793841974
 21
0.3519895999899962
 31
0.0
  0
LINE
  5
E1E
330
1F
100
AcDbEntity
  8
0
  6
Continuous
 62
     7
370
    15
100
AcDbLine
 10
0.4950701901407664
 20
0.2920229910865892
 30
0.0
 11
0.4951170712454856
 21
0.2919684498684039
 31
0.0
  0
LINE
  5
E1F
330
1F
100
AcDbEntity
  8
0
  6
Continuous
 62
     7
370
    15
100
AcDbLine
 10
0.5029489216653405
 20
0.3519412153271617
 30
0.0
 11
0.5029909842458205
 21
0.3519901507008758
 31
0.0
  0
LINE
  5
E20
330
1F
100
AcDbEntity
  8
0
  6
Continuous
 62
     7
370
    15
100
AcDbLine
 10
0.5108342612325663
 20
0.2920043307095359
 30
0.0
 11
0.5108642252309119
 21
0.2919694707594254
 31
0.0
  0
LINE
  5
E21
330
1F
100
AcDbEntity
  8
0
  6
Continuous
 62
     7
370
    15
100
AcDbLine
 10
0.5187024966584604
 20
0.3519476646010073
 30
0.0
 11
0.518736806190959
 21
0.3519875801215353
 31
0.0
  0
LINE
  5
E22
330
1F
100
AcDbEntity
  8
0
  6
Continuous
 62
     7
370
    15
100
AcDbLine
 10
0.5265660404257675
 20
0.2920232385488835
 30
0.0
 11
0.5266087446385983
 21
0.2919735567036394
 31
0.0
  0
LINE
  5
E23
330
1F
100
AcDbEntity
  8
0
  6
Continuous
 62
     7
370
    15
100
AcDbLine
 10
0.5344456068256909
 20
0.3519419391542382
 30
0.0
 11
0.5344800639300589
 21
0.3519820263590649
 31
0.0
  0
LINE
  5
E24
330
1F
100
AcDbEntity
  8
0
  6
Continuous
 62
     7
370
    15
100
AcDbLine
 10
0.5423303942146634
 20
0.292004249283589
 30
0.0
 11
0.5423507935108712
 21
0.2919805168550973
 31
0.0
  0
LINE
  5
E25
330
1F
100
AcDbEntity
  8
0
  6
Continuous
 62
     7
370
    15
100
AcDbLine
 10
0.5501979799681687
 20
0.351946990201687
 30
0.0
 11
0.5502205493210868
 21
0.3519732472621631
 31
0.0
  0
SPLINE
  5
E26
330
1F
100
AcDbEntity
  8
0
  6
Continuous
 62
     7
370
    15
100
AcDbSpline
210
0.0
220
0.0
230
1.0
 70
     8
 71
     3
 72
    15
 73
    11
 74
     0
 42
0.0000000001
 43
0.0000000001
 40
0.0
 40
0.0
 40
0.0
 40
0.0
 40
0.1071026542418902
 40
0.2132570119270152
 40
0.350977460699387
 40
0.4848201466512912
 40
0.6212054054590654
 40
0.7610779371850564
 40
0.9027622132120583
 40
1.0
 40
1.0
 40
1.0
 40
1.0
 10
0.4370447252238856
 20
0.3014480846113117
 30
0.0
 10
0.437150675366639
 20
0.3001198574728303
 30
0.0
 10
0.4373616375600316
 20
0.2974751634387005
 30
0.0
 10
0.4377018936428856
 20
0.2936015159066383
 30
0.0
 10
0.4380574213584501
 20
0.2899544736475683
 30
0.0
 10
0.4384054935326161
 20
0.2867843866830129
 30
0.0
 10
0.438780950057903
 20
0.2844179848447255
 30
0.0
 10
0.4391844063960493
 20
0.2829688772022305
 30
0.0
 10
0.4395602504411267
 20
0.2824167637516599
 30
0.0
 10
0.4397956961582148
 20
0.2828001834765523
 30
0.0
 10
0.4398915191231128
 20
0.2829562296994077
 30
0.0
  0
SPLINE
  5
E27
330
1F
100
AcDbEntity
  8
0
  6
Continuous
 62
     7
370
    15
100
AcDbSpline
210
0.0
220
0.0
230
1.0
 70
     8
 71
     3
 72
    28
 73
    24
 74
     0
 42
0.0000000001
 43
0.0000000001
 40
0.0
 40
0.0
 40
0.0
 40
0.0
 40
0.0495930162123697
 40
0.0985518769135415
 40
0.1462901054654046
 40
0.1931383703572334
 40
0.2413439485643846
 40
0.2905826317583052
 40
0.3402471307391482
 40
0.38969780025974
 40
0.4383113468746122
 40
0.4855264900790318
 40
0.5327416332834506
 40
0.5813551798983228
 40
0.6308058494189145
 40
0.6804703483997576
 40
0.7297090315936795
 40
0.7779146098008302
 40
0.8247628746926588
 40
0.8725011032445218
 40
0.9214599639456935
 40
0.9710529801580637
 40
1.0
 40
1.0
 40
1.0
 40
1.0
 10
0.4474777984216632
 20
0.3613494387928295
 30
0.0
 10
0.4476181384215474
 20
0.3612518378428089
 30
0.0
 10
0.4478970238665374
 20
0.3610578839850327
 30
0.0
 10
0.4483006725290873
 20
0.3595229621299307
 30
0.0
 10
0.4486760682066953
 20
0.3571792905536182
 30
0.0
 10
0.449024196802113
 20
0.3540014029047083
 30
0.0
 10
0.4494120430573974
 20
0.3500302328823353
 30
0.0
 10
0.4498218087291841
 20
0.3452800151777808
 30
0.0
 10
0.4502431630182367
 20
0.339894936270942
 30
0.0
 10
0.4506583182828062
 20
0.3340759634497072
 30
0.0
 10
0.4510551292357486
 20
0.3280538173045493
 30
0.0
 10
0.4514148062967545
 20
0.3219793227974226
 30
0.0
 10
0.4517744833512447
 20
0.3159048321077382
 30
0.0
 10
0.4521712943244323
 20
0.3098826794299996
 30
0.0
 10
0.4525864495129613
 20
0.3040637455141095
 30
0.0
 10
0.4530078040867407
 20
0.2986785437431536
 30
0.0
 10
0.4534175687113953
 20
0.2939288081025151
 30
0.0
 10
0.4538054187526735
 20
0.2899559313414983
 30
0.0
 10
0.4541535335776361
 20
0.2867842928419269
 30
0.0
 10
0.4545289817367513
 20
0.2844168519911403
 30
0.0
 10
0.4549324279725804
 20
0.2829736624762209
 30
0.0
 10
0.4552938903377291
 20
0.2824229461107717
 30
0.0
 10
0.4555150281403817
 20
0.2827747103437119
 30
0.0
 10
0.4555965315453046
 20
0.2829043579316466
 30
0.0
  0
SPLINE
  5
E28
330
1F
100
AcDbEntity
  8
0
  6
Continuous
 62
     7
370
    15
100
AcDbSpline
210
0.0
220
0.0
230
1.0
 70
     8
 71
     3
 72
    28
 73
    24
 74
     0
 42
0.0000000001
 43
0.0000000001
 40
0.0
 40
0.0
 40
0.0
 40
0.0
 40
0.0493855656939832
 40
0.0981396285867583
 40
0.1456781653066599
 40
0.1923304611371255
 40
0.2403343925610819
 40
0.289367107432578
 40
0.3388238568783888
 40
0.3880676713252205
 40
0.4364778646009317
 40
0.4834955040703188
 40
0.5305131435397069
 40
0.5789233368154179
 40
0.6281671512622494
 40
0.6776239007080599
 40
0.7266566155795557
 40
0.7746605470035108
 40
0.8213128428339761
 40
0.8688513795538778
 40
0.917605442446653
 40
0.9669910081406374
 40
1.0
 40
1.0
 40
1.0
 40
1.0
 10
0.4632258299177261
 20
0.3613494387928295
 30
0.0
 10
0.4633661699176122
 20
0.3612518378428089
 30
0.0
 10
0.4636450553626004
 20
0.3610578839850327
 30
0.0
 10
0.4640487040251502
 20
0.3595229621299307
 30
0.0
 10
0.46442409970276
 20
0.3571792905536164
 30
0.0
 10
0.4647722282981759
 20
0.3540014029047171
 30
0.0
 10
0.4651600745534604
 20
0.3500302328822962
 30
0.0
 10
0.4655698402252471
 20
0.34528001517793
 30
0.0
 10
0.4659911945143032
 20
0.3398949362703842
 30
0.0
 10
0.4664063497788638
 20
0.3340759634517643
 30
0.0
 10
0.4668031607318293
 20
0.3280538172971028
 30
0.0
 10
0.4671628377927588
 20
0.3219793228243344
 30
0.0
 10
0.4675225148475315
 20
0.3159048320059388
 30
0.0
 10
0.4679193258196231
 20
0.3098826798253615
 30
0.0
 10
0.468334481012346
 20
0.3040637440090113
 30
0.0
 10
0.4687558355704012
 20
0.2986785493632447
 30
0.0
 10
0.4691656002528939
 20
0.2939287875161007
 30
0.0
 10
0.4695534500850523
 20
0.2899560055076062
 30
0.0
 10
0.469901565670619
 20
0.286784022372996
 30
0.0
 10
0.4702770109309489
 20
0.2844178949840981
 30
0.0
 10
0.4706804683477026
 20
0.2829696393078607
 30
0.0
 10
0.4710538018486412
 20
0.2824178838800606
 30
0.0
 10
0.471286750813932
 20
0.2827957833416825
 30
0.0
 10
0.4713800750664961
 20
0.282947177810237
 30
0.0
  0
SPLINE
  5
E29
330
1F
100
AcDbEntity
  8
0
  6
Continuous
 62
     7
370
    15
100
AcDbSpline
210
0.0
220
0.0
230
1.0
 70
     8
 71
     3
 72
    28
 73
    24
 74
     0
 42
0.0000000001
 43
0.0000000001
 40
0.0
 40
0.0
 40
0.0
 40
0.0
 40
0.0493302643372382
 40
0.0980297330224364
 40
0.1455150366662087
 40
0.1921150918223307
 40
0.2400652690268195
 40
0.2890430776596364
 40
0.3384444460380012
 40
0.3876331178594129
 40
0.4359891019885686
 40
0.4829540916762429
 40
0.529919081363916
 40
0.5782750654930718
 40
0.6274637373144837
 40
0.6768651056928486
 40
0.7258429143256658
 40
0.7737930915301536
 40
0.8203931466862755
 40
0.8678784503300478
 40
0.9165779190152461
 40
0.9659081833524856
 40
1.0
 40
1.0
 40
1.0
 40
1.0
 10
0.4789738614137891
 20
0.3613494387928295
 30
0.0
 10
0.4791142014136734
 20
0.3612518378428089
 30
0.0
 10
0.4793930868586634
 20
0.3610578839850327
 30
0.0
 10
0.4797967355212132
 20
0.3595229621299325
 30
0.0
 10
0.480172131198823
 20
0.3571792905536164
 30
0.0
 10
0.4805202597942407
 20
0.3540014029047189
 30
0.0
 10
0.4809081060495233
 20
0.3500302328822873
 30
0.0
 10
0.4813178717213083
 20
0.3452800151779656
 30
0.0
 10
0.4817392260103662
 20
0.3398949362702457
 30
0.0
 10
0.482154381274925
 20
0.3340759634522776
 30
0.0
 10
0.4825511922278958
 20
0.3280538172952465
 30
0.0
 10
0.4829108692888058
 20
0.321979322831049
 30
0.0
 10
0.4832705463436513
 20
0.3159048319805422
 30
0.0
 10
0.4836673573154693
 20
0.3098826799240044
 30
0.0
 10
0.4840825125092368
 20
0.3040637436334894
 30
0.0
 10
0.4845038670633679
 20
0.2986785507654581
 30
0.0
 10
0.4849136317602918
 20
0.293928782379788
 30
0.0
 10
0.4853014815402768
 20
0.2899560240120629
 30
0.0
 10
0.4856495973156117
 20
0.2867839548909548
 30
0.0
 10
0.4860250418526962
 20
0.2844181552110065
 30
0.0
 10
0.4864285020590922
 20
0.2829686355267154
 30
0.0
 10
0.4868050172721868
 20
0.2824164679535326
 30
0.0
 10
0.487041131606202
 20
0.2828013606036752
 30
0.0
 10
0.4871376236438989
 20
0.2829586533672075
 30
0.0
  0
SPLINE
  5
E2A
330
1F
100
AcDbEntity
  8
0
  6
Continuous
 62
     7
370
    15
100
AcDbSpline
210
0.0
220
0.0
230
1.0
 70
     8
 71
     3
 72
    28
 73
    24
 74
     0
 42
0.0000000001
 43
0.0000000001
 40
0.0
 40
0.0
 40
0.0
 40
0.0
 40
0.0492622872380982
 40
0.0978946480604995
 40
0.145314516960776
 40
0.1918503572457264
 40
0.239734459111001
 40
0.2886447763286021
 40
0.3379780696264655
 40
0.3870989594632094
 40
0.4353883090512508
 40
0.4822885809880068
 40
0.5291888529247616
 40
0.5774782025128027
 40
0.6265990923495465
 40
0.6759323856474099
 40
0.7248427028650112
 40
0.7727268047302845
 40
0.8192626450152348
 40
0.8666825139155113
 40
0.9153148747379125
 40
0.964577161976012
 40
1.0
 40
1.0
 40
1.0
 40
1.0
 10
0.4947218929098521
 20
0.3613494387928295
 30
0.0
 10
0.4948622329097381
 20
0.3612518378428089
 30
0.0
 10
0.4951411183547281
 20
0.3610578839850327
 30
0.0
 10
0.4955447670172762
 20
0.3595229621299325
 30
0.0
 10
0.495920162694886
 20
0.3571792905536146
 30
0.0
 10
0.4962682912903018
 20
0.3540014029047243
 30
0.0
 10
0.4966561375455863
 20
0.3500302328822766
 30
0.0
 10
0.497065903217373
 20
0.34528001517801
 30
0.0
 10
0.4974872575064291
 20
0.3398949362700787
 30
0.0
 10
0.4979024127709879
 20
0.3340759634528905
 30
0.0
 10
0.4982992237239623
 20
0.3280538172930296
 30
0.0
 10
0.498658900784851
 20
0.3219793228390586
 30
0.0
 10
0.4990185778397818
 20
0.3159048319502429
 30
0.0
 10
0.4994153888112729
 20
0.3098826800416721
 30
0.0
 10
0.4998305440062874
 20
0.3040637431855402
 30
0.0
 10
0.5002518985557396
 20
0.2986785524381184
 30
0.0
 10
0.5006616632698764
 20
0.2939287762528278
 30
0.0
 10
0.5010495129876249
 20
0.2899560460854975
 30
0.0
 10
0.5013976289893316
 20
0.2867838743935576
 30
0.0
 10
0.5017730726636751
 20
0.2844184656282362
 30
0.0
 10
0.5021765361977524
 20
0.2829674381449252
 30
0.0
 10
0.5025569723541788
 20
0.2824146916098329
 30
0.0
 10
0.5027969873476766
 20
0.2828081960623188
 30
0.0
 10
0.50289738292732
 20
0.2829727945610412
 30
0.0
  0
SPLINE
  5
E2B
330
1F
100
AcDbEntity
  8
0
  6
Continuous
 62
     7
370
    15
100
AcDbSpline
210
0.0
220
0.0
230
1.0
 70
     8
 71
     3
 72
    28
 73
    24
 74
     0
 42
0.0000000001
 43
0.0000000001
 40
0.0
 40
0.0
 40
0.0
 40
0.0
 40
0.0492644730162994
 40
0.0978989916669323
 40
0.1453209645969151
 40
0.1918588696870335
 40
0.2397450961801292
 40
0.288657583558947
 40
0.3379930657855661
 40
0.3871161351266787
 40
0.4354076273234703
 40
0.4823099802353036
 40
0.5292123331471363
 40
0.5775038253439275
 40
0.6266268946850397
 40
0.6759623769116584
 40
0.7248748642904782
 40
0.7727610907835737
 40
0.8192989958736918
 40
0.8667209688036749
 40
0.9153554874543083
 40
0.9646199604706081
 40
1.0
 40
1.0
 40
1.0
 40
1.0
 10
0.510469924405915
 20
0.3613494387928295
 30
0.0
 10
0.5106102644058011
 20
0.3612518378428089
 30
0.0
 10
0.5108891498507893
 20
0.3610578839850327
 30
0.0
 10
0.5112927985133391
 20
0.3595229621299325
 30
0.0
 10
0.5116681941909489
 20
0.3571792905536146
 30
0.0
 10
0.512016322786363
 20
0.3540014029047243
 30
0.0
 10
0.5124041690416492
 20
0.3500302328822766
 30
0.0
 10
0.5128139347134342
 20
0.34528001517801
 30
0.0
 10
0.5132352890024921
 20
0.339894936270084
 30
0.0
 10
0.5136504442670509
 20
0.3340759634528727
 30
0.0
 10
0.5140472552200271
 20
0.3280538172931007
 30
0.0
 10
0.5144069322809158
 20
0.3219793228388046
 30
0.0
 10
0.5147666093358412
 20
0.3159048319512021
 30
0.0
 10
0.515163420307343
 20
0.3098826800379471
 30
0.0
 10
0.5155785755023202
 20
0.3040637431997155
 30
0.0
 10
0.5159999300519198
 20
0.2986785523851847
 30
0.0
 10
0.5164096947655113
 20
0.2939287764467278
 30
0.0
 10
0.5167975444852298
 20
0.2899560453869399
 30
0.0
 10
0.5171456604797724
 20
0.2867838769410611
 30
0.0
 10
0.5175211041814168
 20
0.2844184558044518
 30
0.0
 10
0.5179245676101863
 20
0.2829674760385015
 30
0.0
 10
0.518304877519161
 20
0.2824147493288323
 30
0.0
 10
0.5185447669206953
 20
0.2828079765992257
 30
0.0
 10
0.5186450368171576
 20
0.2829723392489971
 30
0.0
  0
SPLINE
  5
E2C
330
1F
100
AcDbEntity
  8
0
  6
Continuous
 62
     7
370
    15
100
AcDbSpline
210
0.0
220
0.0
230
1.0
 70
     8
 71
     3
 72
    28
 73
    24
 74
     0
 42
0.0000000001
 43
0.0000000001
 40
0.0
 40
0.0
 40
0.0
 40
0.0
 40
0.0493379919053241
 40
0.0980450893446971
 40
0.1455378315441292
 40
0.1921451865820549
 40
0.2401028751644772
 40
0.2890883561533209
 40
0.3384974632381935
 40
0.3876938404472743
 40
0.4360573995238729
 40
0.4830297462602146
 40
0.5300020929965516
 40
0.5783656520731504
 40
0.6275620292822315
 40
0.6769711363671044
 40
0.7259566173559512
 40
0.7739143059383739
 40
0.8205216609762997
 40
0.8680144031757315
 40
0.9167215006151041
 40
0.9660594925204277
 40
1.0
 40
1.0
 40
1.0
 40
1.0
 10
0.526217955901978
 20
0.3613494387928295
 30
0.0
 10
0.526358295901864
 20
0.3612518378428089
 30
0.0
 10
0.526637181346854
 20
0.3610578839850327
 30
0.0
 10
0.5270408300094021
 20
0.3595229621299307
 30
0.0
 10
0.5274162256870119
 20
0.3571792905536164
 30
0.0
 10
0.5277643542824278
 20
0.3540014029047189
 30
0.0
 10
0.5281522005377122
 20
0.3500302328822891
 30
0.0
 10
0.528561966209499
 20
0.345280015177962
 30
0.0
 10
0.528983320498555
 20
0.3398949362702652
 30
0.0
 10
0.5293984757631139
 20
0.3340759634522084
 30
0.0
 10
0.5297952867160847
 20
0.3280538172955041
 30
0.0
 10
0.5301549637769983
 20
0.3219793228301218
 30
0.0
 10
0.5305146408318331
 20
0.3159048319840505
 30
0.0
 10
0.5309114518036866
 20
0.3098826799103815
 30
0.0
 10
0.5313266069973102
 20
0.3040637436853537
 30
0.0
 10
0.5317479615519849
 20
0.2986785505717944
 30
0.0
 10
0.5321577262469157
 20
0.2939287830891744
 30
0.0
 10
0.5325455760341074
 20
0.2899560214563774
 30
0.0
 10
0.5328936917832339
 20
0.2867839642110248
 30
0.0
 10
0.5332691364202047
 20
0.2844181192705808
 30
0.0
 10
0.5336725962413178
 20
0.2829687741608098
 30
0.0
 10
0.5340486664202695
 20
0.2824166674055555
 30
0.0
 10
0.5342843380125233
 20
0.2828005821757842
 30
0.0
 10
0.5343803869747257
 20
0.2829570482771999
 30
0.0
  0
SPLINE
  5
E2D
330
1F
100
AcDbEntity
  8
0
  6
Continuous
 62
     7
370
    15
100
AcDbSpline
210
0.0
220
0.0
230
1.0
 70
     8
 71
     3
 72
    18
 73
    14
 74
     0
 42
0.0000000001
 43
0.0000000001
 40
0.0
 40
0.0
 40
0.0
 40
0.0
 40
0.125
 40
0.125
 40
0.25
 40
0.25
 40
0.5
 40
0.5
 40
0.625
 40
0.625
 40
0.75
 40
0.75
 40
1.0
 40
1.0
 40
1.0
 40
1.0
 10
0.541965987398041
 20
0.3613494387928295
 30
0.0
 10
0.5422116133077522
 20
0.3613494353653135
 30
0.0
 10
0.5424570557679571
 20
0.3608226268743728
 30
0.0
 10
0.5429201950352747
 20
0.3588330167547895
 30
0.0
 10
0.5431307413735463
 20
0.3573942571237201
 30
0.0
 10
0.5437380076981997
 20
0.3519916079830445
 30
0.0
 10
0.5442346804635579
 20
0.3464512928741492
 30
0.0
 10
0.5449701107369913
 20
0.3366151512602216
 30
0.0
 10
0.5452123509105081
 20
0.3331120171390574
 30
0.0
 10
0.5456647975413143
 20
0.326076210327414
 30
0.0
 10
0.5458607076066935
 20
0.322625170766057
 30
0.0
 10
0.5464906271523314
 20
0.3121527083678963
 30
0.0
 10
0.5469960158429652
 20
0.3048708869389991
 30
0.0
 10
0.5474834203869188
 20
0.298914666763211
 30
0.0
  0
LINE
  5
E2E
330
1F
100
AcDbEntity
  8
0
  6
Continuous
 62
     7
370
    15
100
AcDbLine
 10
0.5474834203869792
 20
0.2830420083452882
 30
0.0
 11
0.5474834203869899
 21
0.2989146667630778
 31
0.0
  0
LINE
  5
E2F
330
1F
100
AcDbEntity
  8
0
  6
Continuous
 62
     7
370
    15
100
AcDbLine
 10
0.4529907550634525
 20
0.3519872113945237
 30
0.0
 11
0.4530152734981217
 21
0.351958686254924
 31
0.0
  0
LINE
  5
E30
330
1F
100
AcDbEntity
  8
0
  6
Continuous
 62
     7
370
    15
100
AcDbLine
 10
0.4608599523332844
 20
0.2919659028161441
 30
0.0
 11
0.460897649700967
 21
0.2920097605374938
 31
0.0
  0
LINE
  5
E31
330
1F
100
AcDbEntity
  8
0
  6
Continuous
 62
     7
370
    15
100
AcDbLine
 10
0.468740808393199
 20
0.3519848591608305
 30
0.0
 11
0.4687850509919765
 21
0.3519333866127916
 31
0.0
  0
LINE
  5
E32
330
1F
100
AcDbEntity
  8
0
  6
Continuous
 62
     7
370
    15
100
AcDbLine
 10
0.4766330536443784
 20
0.2919950694404882
 30
0.0
 11
0.4766527376191645
 21
0.2920179700920251
 31
0.0
  0
SPLINE
  5
E33
330
1F
100
AcDbEntity
  8
0
  6
Continuous
 62
     7
370
    15
100
AcDbSpline
210
0.0
220
0.0
230
1.0
 70
    24
 71
     3
 72
    11
 73
     7
 74
     0
 42
0.0000000001
 43
0.0000000001
 40
0.0
 40
0.0
 40
0.0
 40
0.0
 40
0.2037085639879309
 40
0.4905238925153747
 40
0.7860365286070128
 40
1.0
 40
1.0
 40
1.0
 40
1.0
 10
0.5531077173498718
 20
0.2895501219523375
 30
0.0
 10
0.5531077173498682
 20
0.2899625050531942
 30
0.0
 10
0.5531077173498682
 20
0.290955510746618
 30
0.0
 10
0.5531077173498807
 20
0.2934905874759128
 30
0.0
 10
0.5531077173498682
 20
0.2966617952917681
 30
0.0
 10
0.5531077173498682
 20
0.2991913835263606
 30
0.0
 10
0.5531077173498718
 20
0.3002537286921456
 30
0.0
  0
SPLINE
  5
E34
330
1F
100
AcDbEntity
  8
0
  6
Continuous
 62
     7
370
    15
100
AcDbSpline
210
0.0
220
0.0
230
1.0
 70
     8
 71
     3
 72
    14
 73
    10
 74
     0
 42
0.0000000001
 43
0.0000000001
 40
0.0
 40
0.0
 40
0.0
 40
0.0
 40
0.1260750895153695
 40
0.2869968360873972
 40
0.4525820997697299
 40
0.6135199086107383
 40
0.7781160685889283
 40
0.8885331798253149
 40
1.0
 40
1.0
 40
1.0
 40
1.0
 10
0.5530603419770275
 20
0.2882029254917697
 30
0.0
 10
0.5527966656465173
 20
0.2879865503503638
 30
0.0
 10
0.5521964338886188
 20
0.2874939948326152
 30
0.0
 10
0.5512953120563795
 20
0.2877289120846698
 30
0.0
 10
0.5503841136384269
 20
0.2888753573993423
 30
0.0
 10
0.5495624896002563
 20
0.2910006537474168
 30
0.0
 10
0.5487860973339336
 20
0.2935416893568086
 30
0.0
 10
0.5480879439961859
 20
0.2962295992592161
 30
0.0
 10
0.5476855627974003
 20
0.2980168258697067
 30
0.0
 10
0.5474834203869899
 20
0.2989146667630778
 30
0.0
  0
LINE
  5
E35
330
1F
100
AcDbEntity
  8
0
  6
Continuous
 62
     7
370
    15
100
AcDbLine
 10
0.5531077173498682
 20
0.3557251418299672
 30
0.0
 11
0.5531077173498682
 21
0.354802972074608
 31
0.0
  0
SPLINE
  5
E36
330
1F
100
AcDbEntity
  8
0
  6
Continuous
 62
     7
370
    15
100
AcDbSpline
210
0.0
220
0.0
230
1.0
 70
    24
 71
     3
 72
    14
 73
    10
 74
     0
 42
0.0000000001
 43
0.0000000001
 40
0.0
 40
0.0
 40
0.0
 40
0.0
 40
0.25
 40
0.25
 40
0.5
 40
0.5
 40
0.75
 40
0.75
 40
1.0
 40
1.0
 40
1.0
 40
1.0
 10
0.5531077173498682
 20
0.3002537286921456
 30
0.0
 10
0.5531077173498682
 20
0.3029294834526308
 30
0.0
 10
0.5531077173498718
 20
0.3057677801048044
 30
0.0
 10
0.5531077173498718
 20
0.3118363628828196
 30
0.0
 10
0.5531077173498718
 20
0.3151234447098752
 30
0.0
 10
0.5531077173498718
 20
0.3217278299503417
 30
0.0
 10
0.5531077173498682
 20
0.3250827204243276
 30
0.0
 10
0.5531077173498682
 20
0.3317002251498018
 30
0.0
 10
0.5531077173498718
 20
0.3348543078994457
 30
0.0
 10
0.5531077173498682
 20
0.3379443268188915
 30
0.0
  0
LINE
  5
E37
330
1F
100
AcDbEntity
  8
0
  6
Continuous
 62
     8
370
    15
100
AcDbLine
 10
0.2489738590821533
 20
0.3219793600526899
 30
0.0
 11
0.2489738590821533
 21
0.3731604624148936
 31
0.0
  0
LINE
  5
E38
330
1F
100
AcDbEntity
  8
0
  6
Continuous
 62
     8
370
    15
100
AcDbLine
 10
0.2489738590821533
 20
0.2707982576904861
 30
0.0
 11
0.2489738590821533
 21
0.3219793600526899
 31
0.0
  0
SPLINE
  5
E39
330
1F
100
AcDbEntity
  8
0
  6
Continuous
 62
     8
370
    15
100
AcDbSpline
210
0.0
220
0.0
230
1.0
 70
     8
 71
     3
 72
    16
 73
    12
 74
     0
 42
0.0000000001
 43
0.0000000001
 40
0.0
 40
0.0
 40
0.0
 40
0.0
 40
0.11658463416919
 40
0.2351582460208506
 40
0.3576941230572235
 40
0.4818907494550513
 40
0.6052513613140961
 40
0.7253784575419122
 40
0.8428426500150397
 40
0.9642960327514948
 40
0.9999999999999998
 40
0.9999999999999998
 40
0.9999999999999998
 40
0.9999999999999998
 10
0.4280640602111073
 20
0.3276743714262562
 30
0.0
 10
0.4282144111184829
 20
0.3257790875628015
 30
0.0
 10
0.4285176779762319
 20
0.3219561855807591
 30
0.0
 10
0.4289676367069158
 20
0.3160843912463023
 30
0.0
 10
0.429476341373996
 20
0.3103295544464963
 30
0.0
 10
0.4300009575582644
 20
0.3049545666198157
 30
0.0
 10
0.4305168334600067
 20
0.3002947304656065
 30
0.0
 10
0.4309951104978725
 20
0.296524055816078
 30
0.0
 10
0.4314329583036463
 20
0.2938022747078979
 30
0.0
 10
0.4318069775995861
 20
0.2922755618772712
 30
0.0
 10
0.432028282270184
 20
0.2920692792236601
 30
0.0
 10
0.4320785596177688
 20
0.2920224146697017
 30
0.0
  0
SPLINE
  5
E3A
330
1F
100
AcDbEntity
  8
0
  6
Continuous
 62
     8
370
    15
100
AcDbSpline
210
0.0
220
0.0
230
1.0
 70
     8
 71
     3
 72
    24
 73
    20
 74
     0
 42
0.0000000001
 43
0.0000000001
 40
0.0
 40
0.0
 40
0.0
 40
0.0
 40
0.0420106617198931
 40
0.1058793913611278
 40
0.1684784927435652
 40
0.2290214988563489
 40
0.2909370100270862
 40
0.3545191291445142
 40
0.4185321441142549
 40
0.4816891811333927
 40
0.5428040005179657
 40
0.6039188199025386
 40
0.6670758569216761
 40
0.7310888718914163
 40
0.7946709910088446
 40
0.8565865021795817
 40
0.9171295082923652
 40
0.9797286096748026
 40
1.0
 40
1.0
 40
1.0
 40
1.0
 10
0.439980828524452
 20
0.3519691750043397
 30
0.0
 10
0.440095189254298
 20
0.3521478468321277
 30
0.0
 10
0.4403834123856614
 20
0.3525981531021316
 30
0.0
 10
0.440846028173465
 20
0.3519358840725613
 30
0.0
 10
0.4413420071657593
 20
0.3502172115399926
 30
0.0
 10
0.4417793812022497
 20
0.3474181712841038
 30
0.0
 10
0.4422577990319754
 20
0.3436685816903762
 30
0.0
 10
0.4427735904503303
 20
0.3390026598303273
 30
0.0
 10
0.4432984003194856
 20
0.3336301729418161
 30
0.0
 10
0.443806430957662
 20
0.3278715476168934
 30
0.0
 10
0.4442613131225537
 20
0.3219793531307886
 30
0.0
 10
0.4447161945199243
 20
0.3160870291250906
 30
0.0
 10
0.4452242275487537
 20
0.3103288137161215
 30
0.0
 10
0.4457490284961532
 20
0.3049548143493237
 30
0.0
 10
0.4462648527463822
 20
0.3002944851747558
 30
0.0
 10
0.446743152216258
 20
0.296524768196796
 30
0.0
 10
0.4471809609280522
 20
0.2937996867019763
 30
0.0
 10
0.4475600255306996
 20
0.2922625496910058
 30
0.0
 10
0.4477864779634766
 20
0.2920553271355193
 30
0.0
 10
0.4478418716936235
 20
0.2920046373276073
 30
0.0
  0
SPLINE
  5
E3B
330
1F
100
AcDbEntity
  8
0
  6
Continuous
 62
     8
370
    15
100
AcDbSpline
210
0.0
220
0.0
230
1.0
 70
     8
 71
     3
 72
    24
 73
    20
 74
     0
 42
0.0000000001
 43
0.0000000001
 40
0.0
 40
0.0
 40
0.0
 40
0.0
 40
0.0410939008468585
 40
0.1051508397086397
 40
0.1679344089542126
 40
0.2286558240012908
 40
0.290753788622452
 40
0.3545232723727291
 40
0.4187249217449378
 40
0.4820680707593535
 40
0.5433629841051634
 40
0.6046578974509735
 40
0.6680010464653897
 40
0.7322026958375992
 40
0.7959721795878757
 40
0.8580701442090362
 40
0.9187915592561141
 40
0.9815751285016867
 40
1.0
 40
1.0
 40
1.0
 40
1.0
 10
0.4557373425661942
 20
0.3519790435511088
 30
0.0
 10
0.4558488808454415
 20
0.3521526741240539
 30
0.0
 10
0.4561342843598562
 20
0.3525969590463369
 30
0.0
 10
0.4565940622484677
 20
0.3519349920756565
 30
0.0
 10
0.4570900380022467
 20
0.350217439673677
 30
0.0
 10
0.4575274128767833
 20
0.3474181095494313
 30
0.0
 10
0.4580058304783803
 20
0.3436685988908927
 30
0.0
 10
0.458521621959755
 20
0.3390026551136913
 30
0.0
 10
0.4590464318127597
 20
0.3336301742609902
 30
0.0
 10
0.4595544624517105
 20
0.3278715470271092
 30
0.0
 10
0.4600093446289551
 20
0.3219793541874616
 30
0.0
 10
0.4604642259759553
 20
0.3160870254175585
 30
0.0
 10
0.4609722592009407
 20
0.3103288280674168
 30
0.0
 10
0.461497059403027
 20
0.3049547602179417
 30
0.0
 10
0.462012886399573
 20
0.3002946833526618
 30
0.0
 10
0.4624911759679664
 20
0.2965240567157779
 30
0.0
 10
0.4629290210430997
 20
0.2938023159540724
 30
0.0
 10
0.4633029555843545
 20
0.2922757817682726
 30
0.0
 10
0.4635241729458679
 20
0.292069514686401
 30
0.0
 10
0.4635743635593288
 20
0.2920227160476998
 30
0.0
  0
SPLINE
  5
E3C
330
1F
100
AcDbEntity
  8
0
  6
Continuous
 62
     8
370
    15
100
AcDbSpline
210
0.0
220
0.0
230
1.0
 70
     8
 71
     3
 72
    24
 73
    20
 74
     0
 42
0.0000000001
 43
0.0000000001
 40
0.0
 40
0.0
 40
0.0
 40
0.0
 40
0.0403239634647236
 40
0.1043038977929613
 40
0.1670119932561483
 40
0.2276604134907224
 40
0.289683728512875
 40
0.3533765532869706
 40
0.4175010241653201
 40
0.4807680267117704
 40
0.5419892558276622
 40
0.6032104849435572
 40
0.6664774874900057
 40
0.7306019583683533
 40
0.7942947831424485
 40
0.856318098164602
 40
0.916966518399176
 40
0.979674613862363
 40
1.0
 40
1.0
 40
1.0
 40
1.0
 10
0.4714912548918991
 20
0.3519858852758191
 30
0.0
 10
0.4716008363745817
 20
0.3521560316278383
 30
0.0
 10
0.4718842850931014
 20
0.3525961403420095
 30
0.0
 10
0.4723420955653746
 20
0.3519343622881543
 30
0.0
 10
0.4728380690326146
 20
0.3502176007451123
 30
0.0
 10
0.473275444498877
 20
0.3474180659644273
 30
0.0
 10
0.4737538619392874
 20
0.3436686110263072
 30
0.0
 10
0.4742696534656235
 20
0.3390026518177696
 30
0.0
 10
0.4747944633054635
 20
0.3336301750645518
 30
0.0
 10
0.4753024939513937
 20
0.3278715470741258
 30
0.0
 10
0.475757376114161
 20
0.3219793532654152
 30
0.0
 10
0.4762122575125494
 20
0.316087029120353
 30
0.0
 10
0.4767202905393538
 20
0.3103288135898936
 30
0.0
 10
0.4772450914939244
 20
0.3049548148643038
 30
0.0
 10
0.4777609157178651
 20
0.3002944832792835
 30
0.0
 10
0.4782392152824828
 20
0.2965247750043176
 30
0.0
 10
0.4786770236463421
 20
0.2937996615443581
 30
0.0
 10
0.4790561386224015
 20
0.2922624191861118
 30
0.0
 10
0.4792826424720263
 20
0.2920551871449899
 30
0.0
 10
0.4793380873132707
 20
0.2920044597615938
 30
0.0
  0
SPLINE
  5
E3D
330
1F
100
AcDbEntity
  8
0
  6
Continuous
 62
     8
370
    15
100
AcDbSpline
210
0.0
220
0.0
230
1.0
 70
     8
 71
     3
 72
    24
 73
    20
 74
     0
 42
0.0000000001
 43
0.0000000001
 40
0.0
 40
0.0
 40
0.0
 40
0.0
 40
0.0400265236993241
 40
0.1041567051113299
 40
0.167012060939363
 40
0.2278029047067378
 40
0.2899718719916745
 40
0.3538142696166917
 40
0.4180893270007757
 40
0.4815049024198169
 40
0.5428699002225007
 40
0.604234898025185
 40
0.6676504734442256
 40
0.7319255308283087
 40
0.7957679284533274
 40
0.8579368957382659
 40
0.9187277395056405
 40
0.9815830953336737
 40
1.0
 40
1.0
 40
1.0
 40
1.0
 10
0.4872424793841974
 20
0.3519895999899962
 30
0.0
 10
0.4873509984132954
 20
0.3521578583760221
 30
0.0
 10
0.4876333857771771
 20
0.3525956990245753
 30
0.0
 10
0.4880901280616011
 20
0.3519340163538385
 30
0.0
 10
0.488586100272884
 20
0.3502176892201547
 30
0.0
 10
0.489023476064145
 20
0.3474180420216328
 30
0.0
 10
0.4895018934161266
 20
0.3436686177003125
 30
0.0
 10
0.4900176849667313
 20
0.3390026499758509
 30
0.0
 10
0.4905424948009634
 20
0.3336301756236442
 30
0.0
 10
0.491050525444801
 20
0.3278715466732252
 30
0.0
 10
0.4915054076209815
 20
0.321979354294933
 30
0.0
 10
0.491960288967527
 20
0.3160870253343806
 30
0.0
 10
0.4924683221954825
 20
0.3103288282985368
 30
0.0
 10
0.4929931223859568
 20
0.3049547593706141
 30
0.0
 10
0.4935089494253875
 20
0.3002946864484273
 30
0.0
 10
0.4939872388391349
 20
0.2965240456032501
 30
0.0
 10
0.4944250844822174
 20
0.2938023570195825
 30
0.0
 10
0.4947989409567404
 20
0.2922759822069072
 30
0.0
 10
0.4950200786732362
 20
0.2920697294993026
 30
0.0
 10
0.4950701901407664
 20
0.2920229910865892
 30
0.0
  0
SPLINE
  5
E3E
330
1F
100
AcDbEntity
  8
0
  6
Continuous
 62
     8
370
    15
100
AcDbSpline
210
0.0
220
0.0
230
1.0
 70
     8
 71
     3
 72
    24
 73
    20
 74
     0
 42
0.0000000001
 43
0.0000000001
 40
0.0
 40
0.0
 40
0.0
 40
0.0
 40
0.0398921274688652
 40
0.1038999450603681
 40
0.1666353695033836
 40
0.2273102210853135
 40
0.2893605666513312
 40
0.3530811495627228
 40
0.4172335666951906
 40
0.4805281418002326
 40
0.5417760519008239
 40
0.6030239620014171
 40
0.6663185371064582
 40
0.7304709542389248
 40
0.7941915371503159
 40
0.8562418827163343
 40
0.9169167342982639
 40
0.9796521587412794
 40
1.0
 40
1.0
 40
1.0
 40
1.0
 10
0.5029909842458205
 20
0.3519901507008758
 30
0.0
 10
0.5030993457642224
 20
0.3521581294235674
 30
0.0
 10
0.5033815757810958
 20
0.3525956337926346
 30
0.0
 10
0.50383815970664
 20
0.3519339648267679
 30
0.0
 10
0.5043341317308423
 20
0.350217702398145
 30
0.0
 10
0.5047715075705339
 20
0.3474180384569199
 30
0.0
 10
0.5052499249092586
 20
0.3436686186882742
 30
0.0
 10
0.5057657164638015
 20
0.3390026497251271
 30
0.0
 10
0.5062905262959801
 20
0.3336301756186384
 30
0.0
 10
0.5067985569439513
 20
0.327871546933568
 30
0.0
 10
0.5072534391061057
 20
0.3219793532962474
 30
0.0
 10
0.5077083205049844
 20
0.3160870291355196
 30
0.0
 10
0.5082163535303872
 20
0.3103288134930626
 30
0.0
 10
0.5087411544901484
 20
0.3049548152397954
 30
0.0
 10
0.5092569786949968
 20
0.3002944819019266
 30
0.0
 10
0.509735278328443
 20
0.2965247799498585
 30
0.0
 10
0.5101730864395338
 20
0.2937996432681083
 30
0.0
 10
0.5105522380260022
 20
0.2922623243308628
 30
0.0
 10
0.5107787792445367
 20
0.2920550853945312
 30
0.0
 10
0.5108342612325663
 20
0.2920043307095359
 30
0.0
  0
SPLINE
  5
E3F
330
1F
100
AcDbEntity
  8
0
  6
Continuous
 62
     8
370
    15
100
AcDbSpline
210
0.0
220
0.0
230
1.0
 70
     8
 71
     3
 72
    24
 73
    20
 74
     0
 42
0.0000000001
 43
0.0000000001
 40
0.0
 40
0.0
 40
0.0
 40
0.0
 40
0.0402322185817036
 40
0.1043504035081421
 40
0.1671940013253231
 40
0.2279734732789312
 40
0.2901308109520059
 40
0.3539612659256101
 40
0.4182242997229643
 40
0.4816280123339097
 40
0.5429815309189459
 40
0.6043350495039796
 40
0.6677387621149276
 40
0.732001795912284
 40
0.7958322508858874
 40
0.8579895885589586
 40
0.9187690605125665
 40
0.981612658329748
 40
1.0
 40
1.0
 40
1.0
 40
1.0
 10
0.518736806190959
 20
0.3519875801215353
 30
0.0
 10
0.5188459029280504
 20
0.3521568647512023
 30
0.0
 10
0.5191288674012578
 20
0.3525959387082491
 30
0.0
 10
0.5195861905088722
 20
0.3519342048065746
 30
0.0
 10
0.5200821634043598
 20
0.3502176410222877
 30
0.0
 10
0.5205195390185624
 20
0.3474180550640569
 30
0.0
 10
0.5209979564187562
 20
0.3436686140675136
 30
0.0
 10
0.5215137479559849
 20
0.3390026509678414
 30
0.0
 10
0.5220385577938603
 20
0.3336301753617328
 30
0.0
 10
0.5225465884366907
 20
0.3278715467369626
 30
0.0
 10
0.5230014706133064
 20
0.3219793542907834
 30
0.0
 10
0.5234563519590756
 20
0.3160870252875203
 30
0.0
 10
0.5239643851898093
 20
0.3103288284989081
 30
0.0
 10
0.524489185369796
 20
0.3049547586097365
 30
0.0
 10
0.5250050124478501
 20
0.3002946892353713
 30
0.0
 10
0.5254833017223506
 20
0.2965240355974672
 30
0.0
 10
0.5259211478768214
 20
0.2938023939956793
 30
0.0
 10
0.5262949341113741
 20
0.292276162525906
 30
0.0
 10
0.5265160001683578
 20
0.2920699227470849
 30
0.0
 10
0.5265660404257675
 20
0.2920232385488835
 30
0.0
  0
SPLINE
  5
E40
330
1F
100
AcDbEntity
  8
0
  6
Continuous
 62
     8
370
    15
100
AcDbSpline
210
0.0
220
0.0
230
1.0
 70
     8
 71
     3
 72
    24
 73
    20
 74
     0
 42
0.0000000001
 43
0.0000000001
 40
0.0
 40
0.0
 40
0.0
 40
0.0
 40
0.0407129176016322
 40
0.104665443862598
 40
0.167346676095665
 40
0.2279691154348352
 40
0.2899658605767866
 40
0.3536314002771394
 40
0.4177284011708737
 40
0.4809683010595902
 40
0.5421633038971457
 40
0.6033583067346939
 40
0.6665982066234135
 40
0.730695207517151
 40
0.7943607472175043
 40
0.8563574923594536
 40
0.9169799316986235
 40
0.9796611639316898
 40
1.0
 40
1.0
 40
1.0
 40
1.0
 10
0.5344800639300589
 20
0.3519820263590649
 30
0.0
 10
0.5345907491018265
 20
0.3521541368016934
 30
0.0
 10
0.5348753003773093
 20
0.3525966011823514
 30
0.0
 10
0.5353342205192649
 20
0.3519347186670576
 30
0.0
 10
0.5358301952803873
 20
0.3502175095991522
 30
0.0
 10
0.5362675704118205
 20
0.347418090628721
 30
0.0
 10
0.5367459879433989
 20
0.3436686041562045
 30
0.0
 10
0.5372617794444539
 20
0.3390026536944586
 30
0.0
 10
0.5377865892911454
 20
0.3336301745664294
 30
0.0
 10
0.5382946199353081
 20
0.3278715472049012
 30
0.0
 10
0.5387495020983915
 20
0.3219793532206883
 30
0.0
 10
0.5392043834972294
 20
0.3160870291714801
 30
0.0
 10
0.5397124165218435
 20
0.3103288134247031
 30
0.0
 10
0.5402372174848518
 20
0.304954815478591
 30
0.0
 10
0.5407530416776654
 20
0.3002944810326309
 30
0.0
 10
0.5412313413545223
 20
0.2965247830694715
 30
0.0
 10
0.5416691493061779
 20
0.2937996317400249
 30
0.0
 10
0.5420483239920762
 20
0.2922622644787502
 30
0.0
 10
0.5422748887886728
 20
0.2920550211913373
 30
0.0
 10
0.5423303942146634
 20
0.292004249283589
 30
0.0
  0
SPLINE
  5
E41
330
1F
100
AcDbEntity
  8
0
  6
Continuous
 62
     8
370
    15
100
AcDbSpline
210
0.0
220
0.0
230
1.0
 70
     8
 71
     3
 72
    14
 73
    10
 74
     0
 42
0.0000000001
 43
0.0000000001
 40
0.0
 40
0.0
 40
0.0
 40
0.0
 40
0.1135792081045838
 40
0.2880312814095795
 40
0.4590154717095751
 40
0.6243836103874625
 40
0.7935006314108584
 40
0.8962901444319156
 40
1.0
 40
1.0
 40
1.0
 40
1.0
 10
0.5502205493210868
 20
0.3519732472621631
 30
0.0
 10
0.5503337455516251
 20
0.3521498304259023
 30
0.0
 10
0.5506208056207767
 20
0.3525976366377546
 30
0.0
 10
0.5510822455529559
 20
0.3519356616750209
 30
0.0
 10
0.5515782421670901
 20
0.3502167938760554
 30
0.0
 10
0.5520155480238112
 20
0.3474200017483426
 30
0.0
 10
0.552427459199401
 20
0.3441856660048181
 30
0.0
 10
0.5527969295272
 20
0.3409455687263094
 30
0.0
 10
0.553003814055928
 20
0.3389477088607677
 30
0.0
 10
0.5531077173498718
 20
0.3379443268188915
 30
0.0
  0
SPLINE
  5
E42
330
1F
100
AcDbEntity
  8
0
  6
Continuous
 62
     8
370
    15
100
AcDbSpline
210
0.0
220
0.0
230
1.0
 70
     8
 71
     3
 72
    10
 73
     6
 74
     0
 42
0.0000000001
 43
0.0000000001
 40
0.0
 40
0.0
 40
0.0
 40
0.0
 40
0.3592479277044598
 40
0.7252205908596837
 40
1.0
 40
1.0
 40
1.0
 40
1.0
 10
0.4280640602111073
 20
0.2937723044106033
 30
0.0
 10
0.4282207459987477
 20
0.2931649742775637
 30
0.0
 10
0.428537050563727
 20
0.2919389454435415
 30
0.0
 10
0.4289999917944991
 20
0.2913740337135409
 30
0.0
 10
0.4292921212469816
 20
0.2918318331257013
 30
0.0
 10
0.4294173977178924
 20
0.2920281553186623
 30
0.0
  0
SPLINE
  5
E43
330
1F
100
AcDbEntity
  8
0
  6
Continuous
 62
     8
370
    15
100
AcDbSpline
210
0.0
220
0.0
230
1.0
 70
     8
 71
     3
 72
    24
 73
    20
 74
     0
 42
0.0000000001
 43
0.0000000001
 40
0.0
 40
0.0
 40
0.0
 40
0.0
 40
0.0179103611094193
 40
0.0804533025221864
 40
0.1409419932644303
 40
0.2028019577395654
 40
0.2663270349857468
 40
0.3302826215116311
 40
0.3933829980163985
 40
0.4544429890355918
 40
0.515502980054785
 40
0.5786033565595518
 40
0.6425589430854357
 40
0.7060840203316174
 40
0.7679439848067524
 40
0.828432675548996
 40
0.8909756169617629
 40
0.9547870476028478
 40
1.0
 40
1.0
 40
1.0
 40
1.0
 10
0.4372903776056108
 20
0.3519317699231952
 30
0.0
 10
0.4373393521598575
 20
0.351885899127667
 30
0.0
 10
0.4375593457493041
 20
0.3516798476155334
 30
0.0
 10
0.4379320807035052
 20
0.3501557476760422
 30
0.0
 10
0.4383699345556371
 20
0.3474348035565431
 30
0.0
 10
0.4388482217341077
 20
0.3436639487954249
 30
0.0
 10
0.4393640493935563
 20
0.3390039256520467
 30
0.0
 10
0.4398888494156497
 20
0.3336298359736347
 30
0.0
 10
0.4403968826883462
 20
0.3278716396489412
 30
0.0
 10
0.4408517640218675
 20
0.3219793091310212
 30
0.0
 10
0.4413066462070399
 20
0.316087116032713
 30
0.0
 10
0.4418146768270282
 20
0.3103284981679508
 30
0.0
 10
0.4423394867488648
 20
0.3049559989513881
 30
0.0
 10
0.4428552779774675
 20
0.3002901497400263
 30
0.0
 10
0.4433336964901687
 20
0.2965403325253721
 30
0.0
 10
0.4437710680187222
 20
0.2937421693929878
 30
0.0
 10
0.4442670567023504
 20
0.2920201554620025
 30
0.0
 10
0.4447385434537319
 20
0.2913567385217768
 30
0.0
 10
0.4450355798368913
 20
0.2918258542873915
 30
0.0
 10
0.4451587622982603
 20
0.2920203989221648
 30
0.0
  0
SPLINE
  5
E44
330
1F
100
AcDbEntity
  8
0
  6
Continuous
 62
     8
370
    15
100
AcDbSpline
210
0.0
220
0.0
230
1.0
 70
     8
 71
     3
 72
    24
 73
    20
 74
     0
 42
0.0000000001
 43
0.0000000001
 40
0.0
 40
0.0
 40
0.0
 40
0.0
 40
0.0207977891521921
 40
0.0835224353914832
 40
0.144186862784574
 40
0.2062265478462354
 40
0.2699361832996293
 40
0.3340775787832056
 40
0.397361279620142
 40
0.4585986670780881
 40
0.5198360545360343
 40
0.5831197553729716
 40
0.6472611508565488
 40
0.7109707863099418
 40
0.7730104713716026
 40
0.8336748987646931
 40
0.896399545003984
 40
0.9603963657893915
 40
1.0
 40
1.0
 40
1.0
 40
1.0
 10
0.4530152734981217
 20
0.351958686254924
 30
0.0
 10
0.4530719945343736
 20
0.3519070233815633
 30
0.0
 10
0.4532997821636729
 20
0.3516995489730654
 30
0.0
 10
0.4536801547930738
 20
0.3501596607789008
 30
0.0
 10
0.4541179545258105
 20
0.3474337446636089
 30
0.0
 10
0.4545962564406248
 20
0.3436642437395332
 30
0.0
 10
0.4551120800127011
 20
0.3390038451005435
 30
0.0
 10
0.4556368811441987
 20
0.3336298572878971
 30
0.0
 10
0.4561449141243595
 20
0.3278716342930903
 30
0.0
 10
0.4565997955350048
 20
0.3219793101203756
 30
0.0
 10
0.457054677693713
 20
0.3160871173650233
 30
0.0
 10
0.457562708343823
 20
0.3103284915258133
 30
0.0
 10
0.4580875181709283
 20
0.3049560244039899
 30
0.0
 10
0.4586033097433467
 20
0.3002900564529256
 30
0.0
 10
0.4590817270178329
 20
0.2965406674629538
 30
0.0
 10
0.4595191030933945
 20
0.2937409316364026
 30
0.0
 10
0.4600150742061393
 20
0.2920249950680038
 30
0.0
 10
0.4604708893475645
 20
0.2913634008610988
 30
0.0
 10
0.4607523554884141
 20
0.2917992786144812
 30
0.0
 10
0.4608599523332844
 20
0.2919659028161441
 30
0.0
  0
SPLINE
  5
E45
330
1F
100
AcDbEntity
  8
0
  6
Continuous
 62
     8
370
    15
100
AcDbSpline
210
0.0
220
0.0
230
1.0
 70
     8
 71
     3
 72
    24
 73
    20
 74
     0
 42
0.0000000001
 43
0.0000000001
 40
0.0
 40
0.0
 40
0.0
 40
0.0
 40
0.018125316068684
 40
0.0808244217151474
 40
0.141464147407518
 40
0.2034785707828979
 40
0.2671622645697245
 40
0.3312775425801284
 40
0.3945354751850767
 40
0.4557479276410286
 40
0.5169603800969839
 40
0.5802183127019303
 40
0.6443335907123325
 40
0.7080172844991587
 40
0.7700317078745397
 40
0.8306714335669102
 40
0.8933705392133736
 40
0.9573413013943877
 40
1.0
 40
1.0
 40
1.0
 40
1.0
 10
0.4687850509919765
 20
0.3519333866127916
 30
0.0
 10
0.4688344907362501
 20
0.3518871595697217
 30
0.0
 10
0.469054952477463
 20
0.3516810239078911
 30
0.0
 10
0.4694281463482115
 20
0.350155991370783
 30
0.0
 10
0.4698659968299693
 20
0.347434737612516
 30
0.0
 10
0.4703442849261732
 20
0.3436639671626012
 30
0.0
 10
0.470860112331061
 20
0.3390039206392157
 30
0.0
 10
0.4713849124222938
 20
0.3336298372874069
 30
0.0
 10
0.4718929456765891
 20
0.3278716393647312
 30
0.0
 10
0.472347827015569
 20
0.3219793090150589
 30
0.0
 10
0.4728027091966363
 20
0.3160871167885155
 30
0.0
 10
0.4733107398280199
 20
0.3103284951344805
 30
0.0
 10
0.4738355497077995
 20
0.3049560104222746
 30
0.0
 10
0.4743513410910394
 20
0.3002901077369569
 30
0.0
 10
0.4748297590463073
 20
0.2965404833230381
 30
0.0
 10
0.4752671326220197
 20
0.2937416121252199
 30
0.0
 10
0.4757631133948204
 20
0.2920223343681887
 30
0.0
 10
0.476227315703345
 20
0.2913598916432492
 30
0.0
 10
0.4765171150956684
 20
0.2918135690567756
 30
0.0
 10
0.4766330536443784
 20
0.2919950694404882
 30
0.0
  0
SPLINE
  5
E46
330
1F
100
AcDbEntity
  8
0
  6
Continuous
 62
     8
370
    15
100
AcDbSpline
210
0.0
220
0.0
230
1.0
 70
     8
 71
     3
 72
    24
 73
    20
 74
     0
 42
0.0000000001
 43
0.0000000001
 40
0.0
 40
0.0
 40
0.0
 40
0.0
 40
0.0171852129327232
 40
0.0797407048481637
 40
0.1402415338662502
 40
0.2021139117909596
 40
0.265651736625179
 40
0.3296201571294713
 40
0.3927331959975065
 40
0.453805439935465
 40
0.514877683873424
 40
0.5779907227414585
 40
0.64195914324575
 40
0.7054969680799711
 40
0.7673693460046822
 40
0.8278701750227686
 40
0.8904256669382091
 40
0.9542499026299143
 40
1.0
 40
1.0
 40
1.0
 40
1.0
 10
0.4845404343994462
 20
0.3519248332813085
 30
0.0
 10
0.4845874131267296
 20
0.3518805037423569
 30
0.0
 10
0.4848053980211278
 20
0.3516748112848174
 30
0.0
 10
0.4851761636668508
 20
0.3501546888786138
 30
0.0
 10
0.4856140321624709
 20
0.3474350900692091
 30
0.0
 10
0.4860923153536208
 20
0.34366386898975
 30
0.0
 10
0.4866081441190149
 20
0.3390039474491975
 30
0.0
 10
0.487132943840952
 20
0.3336298302000185
 30
0.0
 10
0.487640977192716
 20
0.3278716411215197
 30
0.0
 10
0.4880958585056794
 20
0.3219793087790752
 30
0.0
 10
0.488550740696847
 20
0.3160871159914322
 30
0.0
 10
0.4890587713132009
 20
0.310328498722231
 30
0.0
 10
0.4895835812435143
 20
0.3049559967546369
 30
0.0
 10
0.4900993724422955
 20
0.3002901578100101
 30
0.0
 10
0.4905777910621501
 20
0.2965403035462082
 30
0.0
 10
0.4910151621972796
 20
0.2937422764862838
 30
0.0
 10
0.4915111524011815
 20
0.2920197367287767
 30
0.0
 10
0.4919840847918602
 20
0.2913561018503892
 30
0.0
 10
0.492282557332378
 20
0.2918282792624283
 30
0.0
 10
0.4924071772813142
 20
0.292025425455088
 30
0.0
  0
SPLINE
  5
E47
330
1F
100
AcDbEntity
  8
0
  6
Continuous
 62
     8
370
    15
100
AcDbSpline
210
0.0
220
0.0
230
1.0
 70
     8
 71
     3
 72
    24
 73
    20
 74
     0
 42
0.0000000001
 43
0.0000000001
 40
0.0
 40
0.0
 40
0.0
 40
0.0
 40
0.0183285954173569
 40
0.0807766371115505
 40
0.1411735451585992
 40
0.2029396462322519
 40
0.2663683335131255
 40
0.3302268768391629
 40
0.3932315077995579
 40
0.454198849259376
 40
0.515166190719196
 40
0.5781708216795902
 40
0.6420293650056263
 40
0.7054580522864997
 40
0.7672241533601531
 40
0.8276210614072013
 40
0.8900691031013952
 40
0.9537837092779927
 40
1.0
 40
1.0
 40
1.0
 40
1.0
 10
0.5002788531306548
 20
0.3519360169259038
 30
0.0
 10
0.5003290497529962
 20
0.3518892126340181
 30
0.0
 10
0.5005502731612657
 20
0.3516829396919363
 30
0.0
 10
0.5009242136294239
 20
0.3501563854132048
 30
0.0
 10
0.5013620586614609
 20
0.3474346309834797
 30
0.0
 10
0.5018403482415801
 20
0.3436639968647015
 30
0.0
 10
0.502356175234902
 20
0.3390039125210109
 30
0.0
 10
0.5028809754377557
 20
0.3336298394591755
 30
0.0
 10
0.5033890086629365
 20
0.327871638733096
 30
0.0
 10
0.5038438900084552
 20
0.3219793094469552
 30
0.0
 10
0.5042987721914587
 20
0.3160871156637033
 30
0.0
 10
0.5048068028080595
 20
0.3103284993677271
 30
0.0
 10
0.5053316127459562
 20
0.3049559944874318
 30
0.0
 10
0.5058474039145322
 20
0.30029016606684
 30
0.0
 10
0.5063258226438743
 20
0.2965402739143343
 30
0.0
 10
0.5067631933767585
 20
0.2937423859868595
 30
0.0
 10
0.5072591851350952
 20
0.2920193085845277
 30
0.0
 10
0.5077336114869047
 20
0.2913554402392624
 30
0.0
 10
0.5080335681679538
 20
0.2918307809045786
 30
0.0
 10
0.508159673617528
 20
0.292030619921632
 30
0.0
  0
SPLINE
  5
E48
330
1F
100
AcDbEntity
  8
0
  6
Continuous
 62
     8
370
    15
100
AcDbSpline
210
0.0
220
0.0
230
1.0
 70
     8
 71
     3
 72
    24
 73
    20
 74
     0
 42
0.0000000001
 43
0.0000000001
 40
0.0
 40
0.0
 40
0.0
 40
0.0
 40
0.0163131637345532
 40
0.0787955296898261
 40
0.1392256346023639
 40
0.2010256851117693
 40
0.2644892356607791
 40
0.3283828785232284
 40
0.3914221396712745
 40
0.4524229915325252
 40
0.5134238433937732
 40
0.5764631045418219
 40
0.6403567474042735
 40
0.7038202979532825
 40
0.7656203484626843
 40
0.826050453375222
 40
0.8885328193304951
 40
0.9522824459291577
 40
1.0
 40
1.0
 40
1.0
 40
1.0
 10
0.5160434759786848
 20
0.3519167142812887
 30
0.0
 10
0.516088118980588
 20
0.3518742155760048
 30
0.0
 10
0.5163037527496793
 20
0.3516689391472021
 30
0.0
 10
0.5166722128665749
 20
0.3501534217586155
 30
0.0
 10
0.5171100988868505
 20
0.3474354329542451
 30
0.0
 10
0.5175883773061552
 20
0.3436637734825283
 30
0.0
 10
0.5181042073951004
 20
0.3390039735329584
 30
0.0
 10
0.5186290067577959
 20
0.3336298232981296
 30
0.0
 10
0.5191370402042859
 20
0.3278716428558888
 30
0.0
 10
0.5195919214922755
 20
0.3219793084584712
 30
0.0
 10
0.5200468036920123
 20
0.3160871155609126
 30
0.0
 10
0.5205548342986229
 20
0.3103285008695338
 30
0.0
 10
0.5210796442595625
 20
0.3049559885259836
 30
0.0
 10
0.5215954353471917
 20
0.3002901879691493
 30
0.0
 10
0.5220738543673536
 20
0.2965401952629592
 30
0.0
 10
0.5225112240324643
 20
0.293742676645331
 30
0.0
 10
0.5230072199169245
 20
0.2920181721140829
 30
0.0
 10
0.5234856914666866
 20
0.2913536305929754
 30
0.0
 10
0.5237896666463895
 20
0.2918375327584368
 30
0.0
 10
0.5239197942048924
 20
0.2920446845640783
 30
0.0
  0
SPLINE
  5
E49
330
1F
100
AcDbEntity
  8
0
  6
Continuous
 62
     8
370
    15
100
AcDbSpline
210
0.0
220
0.0
230
1.0
 70
     8
 71
     3
 72
    24
 73
    20
 74
     0
 42
0.0000000001
 43
0.0000000001
 40
0.0
 40
0.0
 40
0.0
 40
0.0
 40
0.0169049634234998
 40
0.079474525745017
 40
0.1399889630204473
 40
0.2018752577005981
 40
0.2654273738938847
 40
0.3294101826097469
 40
0.3925374172911055
 40
0.4536233980129384
 40
0.514709378734764
 40
0.5778366134161256
 40
0.641819422131991
 40
0.7053715383252781
 40
0.767257833005427
 40
0.8277722702808569
 40
0.8903418326023736
 40
0.9541804240746255
 40
1.0
 40
1.0
 40
1.0
 40
1.0
 10
0.531786852890499
 20
0.3519221294991557
 30
0.0
 10
0.5318330537410647
 20
0.3518784063985738
 30
0.0
 10
0.5320502556713996
 20
0.3516728530001061
 30
0.0
 10
0.5324202535987342
 20
0.350154270286857
 30
0.0
 10
0.5328581278836078
 20
0.3474352033409762
 30
0.0
 10
0.5333364094983831
 20
0.343663837438805
 30
0.0
 10
0.5338522387010079
 20
0.3390039560668534
 30
0.0
 10
0.5343770383042808
 20
0.3336298279165792
 30
0.0
 10
0.5348850716872926
 20
0.3278716417068239
 30
0.0
 10
0.5353399529921701
 20
0.3219793086286906
 30
0.0
 10
0.5357948351855529
 20
0.3160871160177223
 30
0.0
 10
0.5363028658010736
 20
0.3103284987754631
 30
0.0
 10
0.5368276757324475
 20
0.3049559965121855
 30
0.0
 10
0.5373434669278768
 20
0.3002901587084701
 30
0.0
 10
0.5378218855596773
 20
0.2965403003178892
 30
0.0
 10
0.5382592566509752
 20
0.2937422884171472
 30
0.0
 10
0.5387552470242456
 20
0.2920196900791236
 30
0.0
 10
0.539228341412124
 20
0.2913560302874931
 30
0.0
 10
0.5395269748860097
 20
0.29182855074163
 30
0.0
 10
0.53965175591651
 20
0.2920259887194707
 30
0.0
  0
SPLINE
  5
E4A
330
1F
100
AcDbEntity
  8
0
  6
Continuous
 62
     8
370
    15
100
AcDbSpline
210
0.0
220
0.0
230
1.0
 70
     8
 71
     3
 72
    20
 73
    16
 74
     0
 42
0.0000000001
 43
0.0000000001
 40
0.0
 40
0.0
 40
0.0
 40
0.0
 40
0.0262523041097491
 40
0.1144818314002308
 40
0.199813420705989
 40
0.2870794702482842
 40
0.37669449969712
 40
0.4669168499624119
 40
0.555932752718316
 40
0.6420702771502108
 40
0.728207801582105
 40
0.8172237043380123
 40
0.9074460546033071
 40
0.9970610840521382
 40
0.9999999999999998
 40
0.9999999999999998
 40
0.9999999999999998
 40
0.9999999999999998
 10
0.5475208778553134
 20
0.3519384249219464
 30
0.0
 10
0.5475717674111112
 20
0.3518910947062281
 30
0.0
 10
0.5477936881050925
 20
0.3516846956887065
 30
0.0
 10
0.5481683120162453
 20
0.3501567435116908
 30
0.0
 10
0.5486061520925043
 20
0.3474345341177216
 30
0.0
 10
0.5490844430326485
 20
0.3436640237044284
 30
0.0
 10
0.5496002696078924
 20
0.3390039057357026
 30
0.0
 10
0.5501250700777592
 20
0.3336298392192998
 30
0.0
 10
0.5506331026723848
 20
0.3278716461840514
 30
0.0
 10
0.5510879862016341
 20
0.3219792809537669
 30
0.0
 10
0.551542860224477
 20
0.3160872240897679
 30
0.0
 10
0.5520509224294346
 20
0.3103280770537353
 30
0.0
 10
0.5525756123954447
 20
0.3049575881081499
 30
0.0
 10
0.552928865804458
 20
0.3017597238043053
 30
0.0
 10
0.5531022129629273
 20
0.3003000776337352
 30
0.0
 10
0.5531077173498718
 20
0.3002537286921456
 30
0.0
  0
LINE
  5
E4B
330
1F
100
AcDbEntity
  8
0
  6
Continuous
 62
     8
370
    15
100
AcDbLine
 10
0.4094069299482941
 20
0.3219793600526899
 30
0.0
 11
0.4094069299482941
 21
0.3511132183204062
 31
0.0
  0
LINE
  5
E4C
330
1F
100
AcDbEntity
  8
0
  6
Continuous
 62
     8
370
    15
100
AcDbLine
 10
0.4094069299482941
 20
0.2928455017849718
 30
0.0
 11
0.4094069299482941
 21
0.3219793600526899
 31
0.0
  0
SPLINE
  5
E4D
330
1F
100
AcDbEntity
  8
0
  6
HIDDEN
 62
     7
370
     0
100
AcDbSpline
210
0.0
220
0.0
230
1.0
 70
     8
 71
     3
 72
    26
 73
    22
 74
     0
 42
0.0000000001
 43
0.0000000001
 40
0.0
 40
0.0
 40
0.0
 40
0.0
 40
0.0475122276528204
 40
0.0985925739819694
 40
0.151132093035984
 40
0.2029956284633739
 40
0.2562510078974746
 40
0.3100647901241756
 40
0.3654391779289609
 40
0.4192529311519142
 40
0.4746222731923769
 40
0.5287938468032817
 40
0.584401001157458
 40
0.6409485794510685
 40
0.6991360448479826
 40
0.7556835705171613
 40
0.8138709729125507
 40
0.8704016903246991
 40
0.9284181338364309
 40
0.9876621506343672
 40
1.0
 40
1.0
 40
1.0
 40
1.0
 10
0.4289172570904177
 20
0.2910871434189819
 30
0.0
 10
0.4290009046942212
 20
0.2912841172891032
 30
0.0
 10
0.429174481749512
 20
0.2916928575612812
 30
0.0
 10
0.429423393578877
 20
0.2933917173427283
 30
0.0
 10
0.4296579272721397
 20
0.2958725656912897
 30
0.0
 10
0.4299188204547173
 20
0.2991224915052044
 30
0.0
 10
0.4301895341989175
 20
0.3030403110441153
 30
0.0
 10
0.4304688698144519
 20
0.3076088377948853
 30
0.0
 10
0.4307428274721757
 20
0.3126416385244692
 30
0.0
 10
0.4310082767864403
 20
0.3180276939995157
 30
0.0
 10
0.4312441663238476
 20
0.3235294699581399
 30
0.0
 10
0.4314972113922968
 20
0.3290853543595464
 30
0.0
 10
0.4317650783487333
 20
0.3345345737358418
 30
0.0
 10
0.4320438165737324
 20
0.3398110768700768
 30
0.0
 10
0.4323207040240691
 20
0.3446550975848208
 30
0.0
 10
0.4325907633918798
 20
0.3489406320640402
 30
0.0
 10
0.4328352410785188
 20
0.35245563140803
 30
0.0
 10
0.433078042723154
 20
0.3552108612090159
 30
0.0
 10
0.4333428543179432
 20
0.3570387001568769
 30
0.0
 10
0.4335449880028373
 20
0.3579444700281773
 30
0.0
 10
0.4336556444789581
 20
0.3579020689881951
 30
0.0
 10
0.4336747172275049
 20
0.3578947607455867
 30
0.0
  0
SPLINE
  5
E4E
330
1F
100
AcDbEntity
  8
0
  6
HIDDEN
 62
     7
370
     0
100
AcDbSpline
210
0.0
220
0.0
230
1.0
 70
     8
 71
     3
 72
    27
 73
    23
 74
     0
 42
0.0000000001
 43
0.0000000001
 40
0.0
 40
0.0
 40
0.0
 40
0.0
 40
0.0216625942700844
 40
0.073643457942963
 40
0.1243283455159234
 40
0.1740683361075501
 40
0.2252494206583663
 40
0.277527378966207
 40
0.330257436690839
 40
0.3827604662562496
 40
0.4343747012088679
 40
0.4845042158065306
 40
0.5346337304041937
 40
0.5862479653568125
 40
0.6387509949222235
 40
0.6914810526468561
 40
0.743759010954697
 40
0.7949400955055107
 40
0.8446800860971379
 40
0.8953649736700981
 40
0.9473458373429767
 40
1.0
 40
1.0
 40
1.0
 40
1.0
 10
0.5397507134873907
 20
0.36105189406812
 30
0.0
 10
0.5396930717746047
 20
0.3610001558733746
 30
0.0
 10
0.5394971148638926
 20
0.360824268372496
 30
0.0
 10
0.539174817658652
 20
0.3594978341402275
 30
0.0
 10
0.5387991596583364
 20
0.3571858461535158
 30
0.0
 10
0.5384510998929324
 20
0.3539996575553232
 30
0.0
 10
0.5380632347138095
 20
0.3500307811377443
 30
0.0
 10
0.5376534742759552
 20
0.3452799390883989
 30
0.0
 10
0.53723211856384
 20
0.3398950381348442
 30
0.0
 10
0.5368169636789349
 20
0.3340760239837117
 30
0.0
 10
0.5364201526263211
 20
0.3280538922954712
 30
0.0
 10
0.5360604755923922
 20
0.3219793961717461
 30
0.0
 10
0.5357007985258991
 20
0.3159049031151533
 30
0.0
 10
0.5353039875744719
 20
0.3098827565687892
 30
0.0
 10
0.5348888323094867
 20
0.3040637838580047
 30
0.0
 10
0.5344674780205461
 20
0.2986787049213266
 30
0.0
 10
0.5340577123487309
 20
0.2939284872246806
 30
0.0
 10
0.5336698660934518
 20
0.2899573172002505
 30
0.0
 10
0.5333217374980342
 20
0.2867794295518735
 30
0.0
 10
0.5329463418204279
 20
0.2844357579754189
 30
0.0
 10
0.5325426931578763
 20
0.2829008361203524
 30
0.0
 10
0.5322638077128863
 20
0.2827068822625727
 30
0.0
 10
0.532123467713002
 20
0.2826092813125502
 30
0.0
  0
SPLINE
  5
E4F
330
1F
100
AcDbEntity
  8
0
  6
HIDDEN
 62
     7
370
     0
100
AcDbSpline
210
0.0
220
0.0
230
1.0
 70
     8
 71
     3
 72
    27
 73
    23
 74
     0
 42
0.0000000001
 43
0.0000000001
 40
0.0
 40
0.0
 40
0.0
 40
0.0
 40
0.0218981792556647
 40
0.0738665258654651
 40
0.1245392084481649
 40
0.1742672215820172
 40
0.2254359816576625
 40
0.2777013513616311
 40
0.3304187116162331
 40
0.382909098380305
 40
0.4345109045545433
 40
0.4846283478965184
 40
0.5347457912384934
 40
0.5863475974127313
 40
0.6388379841768029
 40
0.691555344431405
 40
0.743820714135376
 40
0.7949894742110183
 40
0.8447174873448705
 40
0.8953901699275704
 40
0.9473585165373709
 40
1.0
 40
1.0
 40
1.0
 40
1.0
 10
0.5240045998310104
 20
0.3610542065175324
 30
0.0
 10
0.5239463161177503
 20
0.3610020259918489
 30
0.0
 10
0.5237497145938184
 20
0.3608260116253057
 30
0.0
 10
0.5234267837988336
 20
0.3594981195422442
 30
0.0
 10
0.5230511287752444
 20
0.3571857721430665
 30
0.0
 10
0.5227030682287852
 20
0.353999677849955
 30
0.0
 10
0.5223152032644025
 20
0.3500307755045295
 30
0.0
 10
0.5219054427671575
 20
0.3452799406262674
 30
0.0
 10
0.5214840870711877
 20
0.3398950377229906
 30
0.0
 10
0.5210689321819766
 20
0.3340760240918972
 30
0.0
 10
0.5206721211304873
 20
0.3280538922676144
 30
0.0
 10
0.5203124440962688
 20
0.3219793961791091
 30
0.0
 10
0.5199527670298521
 20
0.3159049031131176
 30
0.0
 10
0.5195559560784036
 20
0.3098827565693523
 30
0.0
 10
0.5191408008134255
 20
0.3040637838578519
 30
0.0
 10
0.5187194465244831
 20
0.2986787049213675
 30
0.0
 10
0.5183096808526662
 20
0.2939284872246699
 30
0.0
 10
0.5179218345973906
 20
0.2899573172002541
 30
0.0
 10
0.517573706001973
 20
0.2867794295518717
 30
0.0
 10
0.5171983103243632
 20
0.2844357579754189
 30
0.0
 10
0.5167946616618134
 20
0.2829008361203524
 30
0.0
 10
0.5165157762168251
 20
0.2827068822625727
 30
0.0
 10
0.5163754362169409
 20
0.2826092813125502
 30
0.0
  0
SPLINE
  5
E50
330
1F
100
AcDbEntity
  8
0
  6
HIDDEN
 62
     7
370
     0
100
AcDbSpline
210
0.0
220
0.0
230
1.0
 70
     8
 71
     3
 72
    27
 73
    23
 74
     0
 42
0.0000000001
 43
0.0000000001
 40
0.0
 40
0.0
 40
0.0
 40
0.0
 40
0.0218163966514688
 40
0.0737890885212735
 40
0.1244660080288575
 40
0.17419817910039
 40
0.2253712175797364
 40
0.277640957378876
 40
0.3303627255212016
 40
0.3828575011949287
 40
0.4344636219814093
 40
0.4845852558227235
 40
0.5347068896640364
 40
0.586313010450517
 40
0.638807786124244
 40
0.6915295542665697
 40
0.7437992940657095
 40
0.7949723325450558
 40
0.8447045036165883
 40
0.8953814231241722
 40
0.9473541149939769
 40
1.0
 40
1.0
 40
1.0
 40
1.0
 10
0.5082559024581111
 20
0.3610534036316004
 30
0.0
 10
0.508197841650234
 20
0.3610013764608777
 30
0.0
 10
0.5080014639366946
 20
0.3608254061772744
 30
0.0
 10
0.5076787531215361
 20
0.3594980206836447
 30
0.0
 10
0.5073030970668571
 20
0.3571857977790771
 30
0.0
 10
0.5069550367909424
 20
0.3539996708202253
 30
0.0
 10
0.5065671717521783
 20
0.3500307774557829
 30
0.0
 10
0.5061574112755052
 20
0.3452799400935753
 30
0.0
 10
0.5057360555739452
 20
0.3398950378656498
 30
0.0
 10
0.5053209006862227
 20
0.3340760240544249
 30
0.0
 10
0.5049240896343444
 20
0.3280538922772636
 30
0.0
 10
0.5045644126002271
 20
0.3219793961765582
 30
0.0
 10
0.5042047355337838
 20
0.3159049031138228
 30
0.0
 10
0.5038079245823442
 20
0.3098827565691569
 30
0.0
 10
0.5033927693173626
 20
0.304063783857907
 30
0.0
 10
0.5029714150284202
 20
0.2986787049213533
 30
0.0
 10
0.502561649356605
 20
0.2939284872246735
 30
0.0
 10
0.5021738031013259
 20
0.2899573172002541
 30
0.0
 10
0.50182567450591
 20
0.2867794295518717
 30
0.0
 10
0.5014502788283002
 20
0.2844357579754189
 30
0.0
 10
0.5010466301657504
 20
0.2829008361203524
 30
0.0
 10
0.5007677447207604
 20
0.2827068822625727
 30
0.0
 10
0.5006274047208761
 20
0.2826092813125502
 30
0.0
  0
SPLINE
  5
E51
330
1F
100
AcDbEntity
  8
0
  6
HIDDEN
 62
     7
370
     0
100
AcDbSpline
210
0.0
220
0.0
230
1.0
 70
     8
 71
     3
 72
    27
 73
    23
 74
     0
 42
0.0000000001
 43
0.0000000001
 40
0.0
 40
0.0
 40
0.0
 40
0.0
 40
0.0214121702206625
 40
0.0734063393833415
 40
0.1241042007163932
 40
0.1738569232037743
 40
0.2250511085257248
 40
0.2773424483703833
 40
0.3300860033552699
 40
0.3826024720687638
 40
0.4342299186655952
 40
0.4843722648650849
 40
0.5345146110645731
 40
0.5861420576614047
 40
0.6386585263748984
 40
0.6914020813597852
 40
0.7436934212044451
 40
0.7948876065263956
 40
0.8446403290137766
 40
0.8953381903468283
 40
0.9473323595095072
 40
1.0
 40
1.0
 40
1.0
 40
1.0
 10
0.4925045813708105
 20
0.3610494371825841
 30
0.0
 10
0.4924476217400314
 20
0.3609981711163563
 30
0.0
 10
0.4922523497080454
 20
0.3608224180648201
 30
0.0
 10
0.4919307257006631
 20
0.3594975286412574
 30
0.0
 10
0.4915550645140146
 20
0.3571859253755101
 30
0.0
 10
0.4912070055846636
 20
0.3539996358316195
 30
0.0
 10
0.4908191401756801
 20
0.3500307871676302
 30
0.0
 10
0.4904093798013998
 20
0.3452799374422402
 30
0.0
 10
0.4899880240720007
 20
0.3398950385756969
 30
0.0
 10
0.4895728691917052
 20
0.3340760238679092
 30
0.0
 10
0.4891760581378835
 20
0.3280538923252891
 30
0.0
 10
0.488816381104269
 20
0.3219793961638626
 30
0.0
 10
0.4884567040376924
 20
0.3159049031173347
 30
0.0
 10
0.4880598930862883
 20
0.309882756568187
 30
0.0
 10
0.4876447378212961
 20
0.3040637838581699
 30
0.0
 10
0.4872233835323572
 20
0.2986787049212822
 30
0.0
 10
0.486813617860542
 20
0.2939284872246912
 30
0.0
 10
0.4864257716052647
 20
0.2899573172002487
 30
0.0
 10
0.4860776430098471
 20
0.2867794295518735
 30
0.0
 10
0.485702247332239
 20
0.2844357579754171
 30
0.0
 10
0.4852985986696874
 20
0.2829008361203524
 30
0.0
 10
0.4850197132246992
 20
0.2827068822625727
 30
0.0
 10
0.4848793732248114
 20
0.2826092813125502
 30
0.0
  0
SPLINE
  5
E52
330
1F
100
AcDbEntity
  8
0
  6
HIDDEN
 62
     7
370
     0
100
AcDbSpline
210
0.0
220
0.0
230
1.0
 70
     8
 71
     3
 72
    27
 73
    23
 74
     0
 42
0.0000000001
 43
0.0000000001
 40
0.0
 40
0.0
 40
0.0
 40
0.0
 40
0.0206878068684217
 40
0.0727204627867352
 40
0.1234558513316212
 40
0.1732454014268544
 40
0.224477481346067
 40
0.2768075279159374
 40
0.3295901243615241
 40
0.3821454664435266
 40
0.4338111283432123
 40
0.4839905905550587
 40
0.5341700527669037
 40
0.5858357146665893
 40
0.6383910567485918
 40
0.6911736531941786
 40
0.7435036997640504
 40
0.7947357796832631
 40
0.8445253297784962
 40
0.8952607183233823
 40
0.9472933742416957
 40
0.9999999999999998
 40
0.9999999999999998
 40
0.9999999999999998
 40
0.9999999999999998
 10
0.4767506618054034
 20
0.3610423375993321
 30
0.0
 10
0.476695673059095
 20
0.3609924486260347
 30
0.0
 10
0.4765023801158153
 20
0.3608170820804528
 30
0.0
 10
0.4761827016269864
 20
0.3594966324553994
 30
0.0
 10
0.4758070310931802
 20
0.3571861577744244
 30
0.0
 10
0.4754589746163989
 20
0.3539995721048073
 30
0.0
 10
0.4750711085331157
 20
0.3500308048563891
 30
0.0
 10
0.4746613483453333
 20
0.3452799326132088
 30
0.0
 10
0.4742399925652281
 20
0.3398950398689451
 30
0.0
 10
0.473824837698456
 20
0.3340760235281988
 30
0.0
 10
0.4734280266410958
 20
0.3280538924127587
 30
0.0
 10
0.4730683496083979
 20
0.321979396140738
 30
0.0
 10
0.4727086725415762
 20
0.3159049031237313
 30
0.0
 10
0.4723118615902396
 20
0.3098827565664195
 30
0.0
 10
0.4718967063252295
 20
0.3040637838586495
 30
0.0
 10
0.4714753520362942
 20
0.2986787049211561
 30
0.0
 10
0.4710655863644773
 20
0.2939284872247232
 30
0.0
 10
0.4706777401092018
 20
0.2899573172002399
 30
0.0
 10
0.4703296115137841
 20
0.2867794295518771
 30
0.0
 10
0.4699542158361743
 20
0.2844357579754171
 30
0.0
 10
0.4695505671736245
 20
0.2829008361203542
 30
0.0
 10
0.4692716817286362
 20
0.2827068822625727
 30
0.0
 10
0.4691313417287502
 20
0.2826092813125502
 30
0.0
  0
SPLINE
  5
E53
330
1F
100
AcDbEntity
  8
0
  6
HIDDEN
 62
     7
370
     0
100
AcDbSpline
210
0.0
220
0.0
230
1.0
 70
     8
 71
     3
 72
    27
 73
    23
 74
     0
 42
0.0000000001
 43
0.0000000001
 40
0.0
 40
0.0
 40
0.0
 40
0.0
 40
0.0196514272149231
 40
0.071739147888163
 40
0.1225282283249393
 40
0.172370469356768
 40
0.2236567668029432
 40
0.2760421928482373
 40
0.3288806476905626
 40
0.3814916076721465
 40
0.433211945946897
 40
0.483444511728804
 40
0.5336770775107103
 40
0.5853974157854608
 40
0.6380083757670447
 40
0.6908468306093702
 40
0.7432322566546649
 40
0.7945185541008387
 40
0.8443607951326674
 40
0.8951498755694435
 40
0.9472375962426834
 40
1.0
 40
1.0
 40
1.0
 40
1.0
 10
0.4609942211106555
 20
0.3610321981456928
 30
0.0
 10
0.4609420468522716
 20
0.3609843099236916
 30
0.0
 10
0.4607515804399745
 20
0.3608094900389791
 30
0.0
 10
0.4604346810263005
 20
0.3594953169371149
 30
0.0
 10
0.4600589967717293
 20
0.3571864989146249
 30
0.0
 10
0.459710943895094
 20
0.3539994785597156
 30
0.0
 10
0.4593230768219998
 20
0.3500308308218589
 30
0.0
 10
0.4589133169079789
 20
0.3452799255246355
 30
0.0
 10
0.4584919610534408
 20
0.3398950417673128
 30
0.0
 10
0.4580768062065231
 20
0.3340760230295328
 30
0.0
 10
0.4576799951439705
 20
0.3280538925411556
 30
0.0
 10
0.4573203181126156
 20
0.3219793961067936
 30
0.0
 10
0.456960641045435
 20
0.3159049031331229
 30
0.0
 10
0.4565638300941979
 20
0.3098827565638225
 30
0.0
 10
0.4561486748291613
 20
0.3040637838593529
 30
0.0
 10
0.4557273205402348
 20
0.2986787049209678
 30
0.0
 10
0.4553175548684143
 20
0.2939284872247747
 30
0.0
 10
0.4549297086131388
 20
0.2899573172002274
 30
0.0
 10
0.4545815800177193
 20
0.2867794295518806
 30
0.0
 10
0.4542061843401131
 20
0.2844357579754171
 30
0.0
 10
0.4538025356775615
 20
0.2829008361203542
 30
0.0
 10
0.4535236502325733
 20
0.2827068822625727
 30
0.0
 10
0.4533833102326872
 20
0.2826092813125502
 30
0.0
  0
SPLINE
  5
E54
330
1F
100
AcDbEntity
  8
0
  6
HIDDEN
 62
     7
370
     0
100
AcDbSpline
210
0.0
220
0.0
230
1.0
 70
     8
 71
     3
 72
    27
 73
    23
 74
     0
 42
0.0000000001
 43
0.0000000001
 40
0.0
 40
0.0
 40
0.0
 40
0.0
 40
0.0183155010428627
 40
0.070474201927858
 40
0.1213324929124881
 40
0.1712426542291186
 40
0.2225988397833891
 40
0.27505565172512
 40
0.327966109808614
 40
0.3806487630229194
 40
0.4324395808754933
 40
0.4827405988397972
 40
0.5330416168041018
 40
0.5848324346566755
 40
0.6375150878709812
 40
0.690425545954475
 40
0.7428823578962053
 40
0.7942385434504751
 40
0.8441487047671055
 40
0.8950069957517357
 40
0.9471656966367307
 40
1.0
 40
1.0
 40
1.0
 40
1.0
 10
0.4452353760862691
 20
0.3610191596537693
 30
0.0
 10
0.4451868205132153
 20
0.360973905985323
 30
0.0
 10
0.4449999888643222
 20
0.3607997793719904
 30
0.0
 10
0.444686664076099
 20
0.3594935606555645
 30
0.0
 10
0.444310961503633
 20
0.3571869543535524
 30
0.0
 10
0.4439629134333716
 20
0.353999353672424
 30
0.0
 10
0.443575045038835
 20
0.3500308654870363
 30
0.0
 10
0.4431652854902959
 20
0.3452799160610429
 30
0.0
 10
0.4427439295363885
 20
0.3398950443017281
 30
0.0
 10
0.4423287747159739
 20
0.3340760223637915
 30
0.0
 10
0.4419319636464865
 20
0.328053892712574
 30
0.0
 10
0.4415722866169292
 20
0.3219793960614752
 30
0.0
 10
0.441212609549269
 20
0.3159049031456587
 30
0.0
 10
0.4408157985981651
 20
0.3098827565603568
 30
0.0
 10
0.4404006433330894
 20
0.3040637838602926
 30
0.0
 10
0.4399792890441719
 20
0.2986787049207191
 30
0.0
 10
0.4395695233723496
 20
0.2939284872248369
 30
0.0
 10
0.4391816771170758
 20
0.2899573172002097
 30
0.0
 10
0.4388335485216582
 20
0.286779429551886
 30
0.0
 10
0.4384581528440484
 20
0.2844357579754135
 30
0.0
 10
0.4380545041814985
 20
0.2829008361203542
 30
0.0
 10
0.4377756187365103
 20
0.2827068822625727
 30
0.0
 10
0.4376352787366243
 20
0.2826092813125502
 30
0.0
  0
SPLINE
  5
E55
330
1F
100
AcDbEntity
  8
0
  6
HIDDEN
 62
     7
370
     0
100
AcDbSpline
210
0.0
220
0.0
230
1.0
 70
     8
 71
     3
 72
    25
 73
    21
 74
     0
 42
0.0000000001
 43
0.0000000001
 40
0.0
 40
0.0
 40
0.0
 40
0.0
 40
0.0606704160446105
 40
0.1196309700756051
 40
0.1803014941009578
 40
0.2392261097636231
 40
0.3000208690265135
 40
0.3564784651631375
 40
0.4145733394577275
 40
0.4710308690842535
 40
0.5291256685976972
 40
0.58559909310053
 40
0.6438688922014543
 40
0.6979198990555055
 40
0.7535442813334518
 40
0.8074990044297935
 40
0.863018416030613
 40
0.9169851376680995
 40
0.9726648545171443
 40
1.0
 40
1.0
 40
1.0
 40
1.0
 10
0.5477581679333712
 20
0.2828898513790741
 30
0.0
 10
0.5478530574998013
 20
0.2831332946881766
 30
0.0
 10
0.5480401623792846
 20
0.283613320393042
 30
0.0
 10
0.5483172783928217
 20
0.2857344102861348
 30
0.0
 10
0.5485691410502627
 20
0.2887743972062104
 30
0.0
 10
0.5488282669967335
 20
0.292836608560225
 30
0.0
 10
0.5491055102966529
 20
0.297648033021628
 30
0.0
 10
0.5493902048476658
 20
0.3031099782648028
 30
0.0
 10
0.5496702199588386
 20
0.3089318445528122
 30
0.0
 10
0.549948130774351
 20
0.3151375731312289
 30
0.0
 10
0.5502046072301594
 20
0.3214404142343217
 30
0.0
 10
0.550459509155945
 20
0.3277814643220342
 30
0.0
 10
0.5507360110251148
 20
0.3337555770485239
 30
0.0
 10
0.551020274621858
 20
0.3392990954829884
 30
0.0
 10
0.551300956710386
 20
0.3441722740243709
 30
0.0
 10
0.5515798216178718
 20
0.3484073613591427
 30
0.0
 10
0.551840273267211
 20
0.3518301221319071
 30
0.0
 10
0.5520922071140424
 20
0.3543349087970526
 30
0.0
 10
0.5523249774151795
 20
0.3557225999291618
 30
0.0
 10
0.5524720128603891
 20
0.3558871060904842
 30
0.0
 10
0.5525204287123584
 20
0.3559412747023007
 30
0.0
  0
SPLINE
  5
E56
330
1F
100
AcDbEntity
  8
0
  6
HIDDEN
 62
     7
370
     0
100
AcDbSpline
210
0.0
220
0.0
230
1.0
 70
     8
 71
     3
 72
    27
 73
    23
 74
     0
 42
0.0000000001
 43
0.0000000001
 40
0.0
 40
0.0
 40
0.0
 40
0.0
 40
0.0166030815911063
 40
0.0688527664674641
 40
0.1197997730494758
 40
0.169796996076024
 40
0.2212427657392472
 40
0.2737910816878573
 40
0.3267938351042401
 40
0.3795683862758117
 40
0.4314495463961987
 40
0.4818383078684195
 40
0.5322270693406395
 40
0.5841082294610263
 40
0.6368827806325978
 40
0.6898855340489806
 40
0.7424338499975914
 40
0.7938796196608131
 40
0.8438768426873613
 40
0.8948238492693729
 40
0.9470735341457308
 40
1.0
 40
1.0
 40
1.0
 40
1.0
 10
0.4398915191231128
 20
0.2829562296994077
 30
0.0
 10
0.4399354514585179
 20
0.2829980100886094
 30
0.0
 10
0.44011763829013
 20
0.2831712728269065
 30
0.0
 10
0.4404263935590551
 20
0.2844675396456033
 30
0.0
 10
0.440802120717394
 20
0.2867711879291559
 30
0.0
 10
0.4411501623366485
 20
0.2899595771608923
 30
0.0
 10
0.4415380325047975
 20
0.2939278599226942
 30
0.0
 10
0.4419477915627939
 20
0.298678876178099
 30
0.0
 10
0.4423691476500738
 20
0.3040637379817543
 30
0.0
 10
0.4427843024349132
 20
0.3098827686656815
 30
0.0
 10
0.443181113513707
 20
0.3159048998336467
 30
0.0
 10
0.4435407905408555
 20
0.3219793976407825
 30
0.0
 10
0.4439004676091587
 20
0.3280538896138083
 30
0.0
 10
0.444297278560085
 20
0.3340760335802237
 30
0.0
 10
0.4447124338252069
 20
0.3398950018235542
 30
0.0
 10
0.445133788114112
 20
0.3452800746169722
 30
0.0
 10
0.4455435537859378
 20
0.3500302847114878
 30
0.0
 10
0.4459314000412116
 20
0.3540014460127232
 30
0.0
 10
0.446279528636631
 20
0.3571793240088337
 30
0.0
 10
0.4466549243142391
 20
0.3595229850913644
 30
0.0
 10
0.4470585729767907
 20
0.3610578956859094
 30
0.0
 10
0.4473374584217789
 20
0.3612518417597947
 30
0.0
 10
0.4474777984216632
 20
0.3613494387928295
 30
0.0
  0
SPLINE
  5
E57
330
1F
100
AcDbEntity
  8
0
  6
HIDDEN
 62
     7
370
     0
100
AcDbSpline
210
0.0
220
0.0
230
1.0
 70
     8
 71
     3
 72
    27
 73
    23
 74
     0
 42
0.0000000001
 43
0.0000000001
 40
0.0
 40
0.0
 40
0.0
 40
0.0
 40
0.0219147285338325
 40
0.0738821958500813
 40
0.1245540210615939
 40
0.1742811928078682
 40
0.2254490871187965
 40
0.2777135725036445
 40
0.3304300407915408
 40
0.3829195394292507
 40
0.4345204725117247
 40
0.4846370678770454
 40
0.5347536632423645
 40
0.5863545963248384
 40
0.6388440949625483
 40
0.6915605632504444
 40
0.7438250486352941
 40
0.7949929429462217
 40
0.8447201146924959
 40
0.8953919399040085
 40
0.9473594072202574
 40
1.0
 40
1.0
 40
1.0
 40
1.0
 10
0.4555965315453046
 20
0.2829043579316466
 30
0.0
 10
0.4556548603697897
 20
0.2829565710920889
 30
0.0
 10
0.4558515071878278
 20
0.2831325998729082
 30
0.0
 10
0.4561744825012833
 20
0.2844606035420345
 30
0.0
 10
0.4565501373165182
 20
0.2867729865995223
 30
0.0
 10
0.4568981979176466
 20
0.2899590839420238
 30
0.0
 10
0.4572860628669977
 20
0.2939279968262956
 30
0.0
 10
0.4576958233684012
 20
0.2986788388034161
 30
0.0
 10
0.4581171790632377
 20
0.3040637479909531
 30
0.0
 10
0.4585323339527525
 20
0.3098827660364567
 30
0.0
 10
0.458929145004162
 20
0.3159049005106305
 30
0.0
 10
0.4592888220384
 20
0.3219793974618093
 30
0.0
 10
0.4596484991048131
 20
0.3280538896633207
 30
0.0
 10
0.4600453100562616
 20
0.3340760335665387
 30
0.0
 10
0.4604604653212414
 20
0.3398950018272668
 30
0.0
 10
0.4608818196101839
 20
0.3452800746159845
 30
0.0
 10
0.461291585281999
 20
0.3500302847117453
 30
0.0
 10
0.4616794315372763
 20
0.3540014460126575
 30
0.0
 10
0.462027560132694
 20
0.3571793240088514
 30
0.0
 10
0.462402955810302
 20
0.359522985091359
 30
0.0
 10
0.4628066044728536
 20
0.3610578956859094
 30
0.0
 10
0.4630854899178419
 20
0.3612518417597983
 30
0.0
 10
0.4632258299177261
 20
0.3613494387928295
 30
0.0
  0
SPLINE
  5
E58
330
1F
100
AcDbEntity
  8
0
  6
HIDDEN
 62
     7
370
     0
100
AcDbSpline
210
0.0
220
0.0
230
1.0
 70
     8
 71
     3
 72
    27
 73
    23
 74
     0
 42
0.0000000001
 43
0.0000000001
 40
0.0
 40
0.0
 40
0.0
 40
0.0
 40
0.0175341425735641
 40
0.0697343584694691
 40
0.120633129421377
 40
0.1705830160543289
 40
0.2219800778683098
 40
0.2744786420984045
 40
0.3274312135437593
 40
0.3801557988017281
 40
0.4319878388536987
 40
0.4823288932313759
 40
0.5326699476090516
 40
0.5845019876610222
 40
0.6372265729189909
 40
0.6901791443643458
 40
0.7426777085944419
 40
0.7940747704084228
 40
0.8440246570413744
 40
0.8949234279932825
 40
0.9471236438891875
 40
1.0
 40
1.0
 40
1.0
 40
1.0
 10
0.4713800750664961
 20
0.282947177810237
 30
0.0
 10
0.4714265189783378
 20
0.2829908614367842
 30
0.0
 10
0.4716112292590653
 20
0.2831645938939122
 30
0.0
 10
0.4719224672924165
 20
0.2844662427387672
 30
0.0
 10
0.4722981809241036
 20
0.286771524243034
 30
0.0
 10
0.4726462260925724
 20
0.2899594849392397
 30
0.0
 10
0.4730340952849135
 20
0.2939278855208169
 30
0.0
 10
0.4734438546127971
 20
0.2986788691898117
 30
0.0
 10
0.4738652106266992
 20
0.3040637398532653
 30
0.0
 10
0.4742803654311106
 20
0.3098827681740712
 30
0.0
 10
0.4746771765047848
 20
0.3159048999602281
 30
0.0
 10
0.4750368535332586
 20
0.3219793976073195
 30
0.0
 10
0.4753965306012083
 20
0.3280538896230649
 30
0.0
 10
0.4757933415522322
 20
0.3340760335776658
 30
0.0
 10
0.4762084968173293
 20
0.3398950018242488
 30
0.0
 10
0.4766298511062397
 20
0.3452800746167892
 30
0.0
 10
0.4770396167780638
 20
0.3500302847115357
 30
0.0
 10
0.4774274630333375
 20
0.3540014460127125
 30
0.0
 10
0.477775591628757
 20
0.357179324008839
 30
0.0
 10
0.478150987306365
 20
0.3595229850913644
 30
0.0
 10
0.4785546359689166
 20
0.3610578956859094
 30
0.0
 10
0.4788335214139048
 20
0.3612518417597983
 30
0.0
 10
0.4789738614137891
 20
0.3613494387928295
 30
0.0
  0
SPLINE
  5
E59
330
1F
100
AcDbEntity
  8
0
  6
HIDDEN
 62
     7
370
     0
100
AcDbSpline
210
0.0
220
0.0
230
1.0
 70
     8
 71
     3
 72
    27
 73
    23
 74
     0
 42
0.0000000001
 43
0.0000000001
 40
0.0
 40
0.0
 40
0.0
 40
0.0
 40
0.0163534879126551
 40
0.0686164341596782
 40
0.1195763714826153
 40
0.16958628418774
 40
0.2210451111817831
 40
0.2736067642959148
 40
0.326622970217533
 40
0.3794109159748605
 40
0.4313052439315039
 40
0.4817067944577601
 40
0.5321083449840164
 40
0.5840026729406598
 40
0.6367906186979871
 40
0.6898068246196054
 40
0.7423684777337384
 40
0.7938273047277802
 40
0.8438372174329046
 40
0.894797154755842
 40
0.9470601010028651
 40
1.0
 40
1.0
 40
1.0
 40
1.0
 10
0.4871376236438989
 20
0.2829586533672075
 30
0.0
 10
0.4871808835515923
 20
0.2829999176795213
 30
0.0
 10
0.4873623947144603
 20
0.2831730556660006
 30
0.0
 10
0.4876704851150758
 20
0.2844678936781133
 30
0.0
 10
0.4880462159659525
 20
0.286771096121446
 30
0.0
 10
0.4883942566163322
 20
0.2899596023357642
 30
0.0
 10
0.4887821270508619
 20
0.2939278529348634
 30
0.0
 10
0.4891918860351821
 20
0.2986788780857765
 30
0.0
 10
0.4896132421424939
 20
0.3040637374708635
 30
0.0
 10
0.4900283969219919
 20
0.3098827687998817
 30
0.0
 10
0.4904252080021801
 20
0.315904899799093
 30
0.0
 10
0.4907848850289698
 20
0.3219793976499183
 30
0.0
 10
0.4911445620973689
 20
0.3280538896112823
 30
0.0
 10
0.4915413730482685
 20
0.3340760335809219
 30
0.0
 10
0.4919565283133993
 20
0.3398950018233642
 30
0.0
 10
0.4923778826022991
 20
0.3452800746170237
 30
0.0
 10
0.4927876482741267
 20
0.3500302847114736
 30
0.0
 10
0.4931754945294005
 20
0.3540014460127285
 30
0.0
 10
0.4935236231248199
 20
0.3571793240088337
 30
0.0
 10
0.493899018802428
 20
0.3595229850913644
 30
0.0
 10
0.4943026674649778
 20
0.3610578956859094
 30
0.0
 10
0.4945815529099678
 20
0.3612518417597947
 30
0.0
 10
0.4947218929098521
 20
0.3613494387928295
 30
0.0
  0
SPLINE
  5
E5A
330
1F
100
AcDbEntity
  8
0
  6
HIDDEN
 62
     7
370
     0
100
AcDbSpline
210
0.0
220
0.0
230
1.0
 70
     8
 71
     3
 72
    27
 73
    23
 74
     0
 42
0.0000000001
 43
0.0000000001
 40
0.0
 40
0.0
 40
0.0
 40
0.0
 40
0.0148946723459738
 40
0.0672351281440487
 40
0.1182706425660048
 40
0.1683547234181681
 40
0.2198898673989926
 40
0.2725294730670456
 40
0.325624305675725
 40
0.3784905395945591
 40
0.430461830415926
 40
0.4809381299151026
 40
0.5314144294142765
 40
0.5833857202356434
 40
0.6362519541544776
 40
0.6893467867631572
 40
0.7419863924312105
 40
0.7935215364120353
 40
0.8436056172641984
 40
0.8946411316861542
 40
0.9469815874842291
 40
1.0
 40
1.0
 40
1.0
 40
1.0
 10
0.50289738292732
 20
0.2829727945610412
 30
0.0
 10
0.502936719943361
 20
0.283010990744333
 30
0.0
 10
0.5031142887580958
 20
0.2831834097958297
 30
0.0
 10
0.5034184990088227
 20
0.2844700189982803
 30
0.0
 10
0.5037942520266486
 20
0.2867705449834237
 30
0.0
 10
0.5041422868607138
 20
0.289959753464996
 30
0.0
 10
0.5045301588943554
 20
0.2939278109856656
 30
0.0
 10
0.5049399174363965
 20
0.2986788895379064
 30
0.0
 10
0.505361273663957
 20
0.3040637344039034
 30
0.0
 10
0.5057764284113811
 20
0.3098827696055111
 30
0.0
 10
0.5061732394999626
 20
0.3159048995916553
 30
0.0
 10
0.506532916524578
 20
0.3219793977047562
 30
0.0
 10
0.506892593593558
 20
0.3280538895961105
 30
0.0
 10
0.507289404544296
 20
0.3340760335851158
 30
0.0
 10
0.5077045598094694
 20
0.3398950018222273
 30
0.0
 10
0.5081259140983621
 20
0.3452800746173275
 30
0.0
 10
0.5085356797701915
 20
0.3500302847113954
 30
0.0
 10
0.5089235260254635
 20
0.3540014460127481
 30
0.0
 10
0.5092716546208829
 20
0.3571793240088283
 30
0.0
 10
0.5096470502984909
 20
0.3595229850913661
 30
0.0
 10
0.5100506989610425
 20
0.3610578956859094
 30
0.0
 10
0.5103295844060308
 20
0.3612518417597947
 30
0.0
 10
0.510469924405915
 20
0.3613494387928295
 30
0.0
  0
SPLINE
  5
E5B
330
1F
100
AcDbEntity
  8
0
  6
HIDDEN
 62
     7
370
     0
100
AcDbSpline
210
0.0
220
0.0
230
1.0
 70
     8
 71
     3
 72
    27
 73
    23
 74
     0
 42
0.0000000001
 43
0.0000000001
 40
0.0
 40
0.0
 40
0.0
 40
0.0
 40
0.0149417100729427
 40
0.0672796666701709
 40
0.1183127442008369
 40
0.1683944335916465
 40
0.2199271168244033
 40
0.2725642090075231
 40
0.325656506394669
 40
0.3785202160073128
 40
0.4304890252550663
 40
0.4809629145648652
 40
0.5314368038746636
 40
0.5834056131224165
 40
0.6362693227350598
 40
0.6893616201222052
 40
0.7419987123053246
 40
0.7935313955380811
 40
0.8436130849288902
 40
0.8946461624595563
 40
0.9469841190567846
 40
0.9999999999999998
 40
0.9999999999999998
 40
0.9999999999999998
 40
0.9999999999999998
 10
0.5186450368171576
 20
0.2829723392489971
 30
0.0
 10
0.5186845001278533
 20
0.283010635777811
 30
0.0
 10
0.5188621958786337
 20
0.2831830777326296
 30
0.0
 10
0.5191665310851539
 20
0.2844699489361784
 30
0.0
 10
0.5195422833722363
 20
0.2867705631519286
 30
0.0
 10
0.5198903183980397
 20
0.2899597484829546
 30
0.0
 10
0.5202781903789644
 20
0.293927812368538
 30
0.0
 10
0.5206879489355858
 20
0.2986788891603826
 30
0.0
 10
0.5211093051591833
 20
0.3040637345050083
 30
0.0
 10
0.5215244599076643
 20
0.3098827695789545
 30
0.0
 10
0.5219212709959687
 20
0.3159048995984943
 30
0.0
 10
0.5222809480206552
 20
0.3219793977029479
 30
0.0
 10
0.5226406250896174
 20
0.3280538895966096
 30
0.0
 10
0.5230374360403589
 20
0.3340760335849791
 30
0.0
 10
0.5234525913055342
 20
0.3398950018222646
 30
0.0
 10
0.5238739455944251
 20
0.3452800746173168
 30
0.0
 10
0.5242837112662544
 20
0.3500302847113972
 30
0.0
 10
0.5246715575215264
 20
0.3540014460127481
 30
0.0
 10
0.5250196861169459
 20
0.3571793240088283
 30
0.0
 10
0.5253950817945539
 20
0.3595229850913661
 30
0.0
 10
0.5257987304571037
 20
0.3610578956859094
 30
0.0
 10
0.5260776159020937
 20
0.3612518417597947
 30
0.0
 10
0.526217955901978
 20
0.3613494387928295
 30
0.0
  0
SPLINE
  5
E5C
330
1F
100
AcDbEntity
  8
0
  6
HIDDEN
 62
     7
370
     0
100
AcDbSpline
210
0.0
220
0.0
230
1.0
 70
     8
 71
     3
 72
    27
 73
    23
 74
     0
 42
0.0000000001
 43
0.0000000001
 40
0.0
 40
0.0
 40
0.0
 40
0.0
 40
0.0165187971416294
 40
0.0687729602056267
 40
0.1197243333260335
 40
0.1697258414874435
 40
0.2211760204367763
 40
0.2737288401679363
 40
0.326736136315549
 40
0.3795152106597163
 40
0.4314008173824234
 40
0.4817938975472729
 40
0.5321869777121197
 40
0.5840725844348266
 40
0.6368516587789937
 40
0.6898589549266063
 40
0.7424117746577663
 40
0.793861953607099
 40
0.8438634617685091
 40
0.8948148348889159
 40
0.9470689979529131
 40
1.0
 40
1.0
 40
1.0
 40
1.0
 10
0.5343803869747257
 20
0.2829570482771999
 30
0.0
 10
0.5344240921995338
 20
0.2829986546760843
 30
0.0
 10
0.5346060508288959
 20
0.2831718752314469
 30
0.0
 10
0.5349145815478105
 20
0.284467658891985
 30
0.0
 10
0.5352903099498834
 20
0.2867711570061833
 30
0.0
 10
0.5356383512427963
 20
0.2899595856403743
 30
0.0
 10
0.5360262215006673
 20
0.2939278575690303
 30
0.0
 10
0.5364359805338497
 20
0.2986788768206499
 30
0.0
 10
0.5368573366278762
 20
0.3040637378096733
 30
0.0
 10
0.537272491410918
 20
0.3098827687108809
 30
0.0
 10
0.5376693024901807
 20
0.315904899822008
 30
0.0
 10
0.5380289795172084
 20
0.3219793976438592
 30
0.0
 10
0.5383886565855436
 20
0.3280538896129574
 30
0.0
 10
0.538785467536461
 20
0.33407603358046
 30
0.0
 10
0.5392006228015865
 20
0.3398950018234903
 30
0.0
 10
0.5396219770904898
 20
0.3452800746169899
 30
0.0
 10
0.5400317427623156
 20
0.3500302847114824
 30
0.0
 10
0.5404195890175894
 20
0.354001446012725
 30
0.0
 10
0.5407677176130088
 20
0.3571793240088337
 30
0.0
 10
0.5411431132906169
 20
0.3595229850913644
 30
0.0
 10
0.5415467619531685
 20
0.3610578956859094
 30
0.0
 10
0.5418256473981567
 20
0.3612518417597947
 30
0.0
 10
0.541965987398041
 20
0.3613494387928295
 30
0.0
  0
SPLINE
  5
E5D
330
1F
100
AcDbEntity
  8
0
  6
HIDDEN
 62
     7
370
     0
100
AcDbSpline
210
0.0
220
0.0
230
1.0
 70
    24
 71
     3
 72
     9
 73
     5
 74
     0
 42
0.0000000001
 43
0.0000000001
 40
0.0
 40
0.0
 40
0.0
 40
0.0
 40
0.8244096283277182
 40
0.9999999999999998
 40
0.9999999999999998
 40
0.9999999999999998
 40
0.9999999999999998
 10
0.5531077173500778
 20
0.2882346103450193
 30
0.0
 10
0.5531077173499801
 20
0.2884606316591498
 30
0.0
 10
0.5531077173498611
 20
0.288734793078864
 30
0.0
 10
0.5531077173498682
 20
0.2894283415232188
 30
0.0
 10
0.5531077173498718
 20
0.2895501219523375
 30
0.0
  0
LINE
  5
E5E
330
1F
100
AcDbEntity
  8
0
  6
HIDDEN
 62
     7
370
     0
100
AcDbLine
 10
0.5531077173500778
 20
0.2882346103450193
 30
0.0
 11
0.5530603419770275
 21
0.2882029254917697
 31
0.0
  0
LINE
  5
E5F
330
1F
100
AcDbEntity
  8
0
  6
HIDDEN
 62
     7
370
     0
100
AcDbLine
 10
0.2223990559325459
 20
0.2992490344940422
 30
0.0
 11
0.1672809456963273
 21
0.2992490344940422
 31
0.0
  0
LINE
  5
E60
330
1F
100
AcDbEntity
  8
0
  6
HIDDEN
 62
     7
370
     0
100
AcDbLine
 10
0.2223990559325459
 20
0.3219793600526899
 30
0.0
 11
0.2223990559325459
 21
0.3447096856113376
 31
0.0
  0
LINE
  5
E61
330
1F
100
AcDbEntity
  8
0
  6
HIDDEN
 62
     7
370
     0
100
AcDbLine
 10
0.2223990559325459
 20
0.3447096856113376
 30
0.0
 11
0.2223990559325459
 21
0.3560748483906597
 31
0.0
  0
LINE
  5
E62
330
1F
100
AcDbEntity
  8
0
  6
HIDDEN
 62
     7
370
     0
100
AcDbLine
 10
0.2223990559325459
 20
0.3447096856113376
 30
0.0
 11
0.1672809456963273
 21
0.3447096856113376
 31
0.0
  0
LINE
  5
E63
330
1F
100
AcDbEntity
  8
0
  6
HIDDEN
 62
     7
370
     0
100
AcDbLine
 10
0.2223990559325459
 20
0.2992490344940422
 30
0.0
 11
0.2223990559325459
 21
0.3219793600526899
 31
0.0
  0
LINE
  5
E64
330
1F
100
AcDbEntity
  8
0
  6
HIDDEN
 62
     7
370
     0
100
AcDbLine
 10
0.2223990559325459
 20
0.2878838717147201
 30
0.0
 11
0.2223990559325459
 21
0.2992490344940422
 31
0.0
  0
LINE
  5
E65
330
1F
100
AcDbEntity
  8
0
  6
HIDDEN
 62
     7
370
     0
100
AcDbLine
 10
0.2223990559325459
 20
0.2765187089353962
 30
0.0
 11
0.2223990559325459
 21
0.2878838717147201
 31
0.0
  0
LINE
  5
E66
330
1F
100
AcDbEntity
  8
0
  6
HIDDEN
 62
     7
370
     0
100
AcDbLine
 10
0.2223990559325459
 20
0.3560748483906597
 30
0.0
 11
0.2223990559325459
 21
0.3674400111699818
 31
0.0
  0
LINE
  5
E67
330
1F
100
AcDbEntity
  8
0
  6
HIDDEN
 62
     7
370
     0
100
AcDbLine
 10
0.2223990559325459
 20
0.2765187089353962
 30
0.0
 11
0.1672809456963273
 21
0.2765187089353962
 31
0.0
  0
LINE
  5
E68
330
1F
100
AcDbEntity
  8
0
  6
HIDDEN
 62
     7
370
     0
100
AcDbLine
 10
0.2223990559325459
 20
0.3674400111699818
 30
0.0
 11
0.1672809456963273
 21
0.3674400111699818
 31
0.0
  0
LINE
  5
E69
330
1F
100
AcDbEntity
  8
0
  6
HIDDEN
 62
     7
370
     0
100
AcDbLine
 10
0.2223990559325459
 20
0.2826092813125325
 30
0.0
 11
0.2451293814911937
 21
0.3219793600526899
 31
0.0
  0
LINE
  5
E6A
330
1F
100
AcDbEntity
  8
0
  6
HIDDEN
 62
     7
370
     0
100
AcDbLine
 10
0.2451293814911937
 20
0.3219793600526899
 30
0.0
 11
0.2223990559325459
 21
0.3613494387928473
 31
0.0
  0
LINE
  5
E6B
330
1F
100
AcDbEntity
  8
0
  6
HIDDEN
 62
     7
370
     0
100
AcDbLine
 10
0.2489738590821533
 20
0.3731604624148936
 30
0.0
 11
0.2489738590821533
 21
0.2707982576904861
 31
0.0
  0
SPLINE
  5
E6C
330
1F
100
AcDbEntity
  8
0
  6
HIDDEN
 62
     7
370
     0
100
AcDbSpline
210
0.0
220
0.0
230
1.0
 70
     8
 71
     3
 72
    23
 73
    19
 74
     0
 42
0.0000000001
 43
0.0000000001
 40
0.0
 40
0.0
 40
0.0
 40
0.0
 40
0.0172822779211331
 40
0.0842159786591752
 40
0.1498191234522304
 40
0.2132675038364589
 40
0.2781542538786819
 40
0.3447875900543381
 40
0.4118725001722032
 40
0.4780603551536056
 40
0.5421079893295882
 40
0.6061556235055709
 40
0.6723434784869732
 40
0.7394283886048383
 40
0.8060617247804941
 40
0.8709484748227163
 40
0.9343968552069449
 40
1.0
 40
1.0
 40
1.0
 40
1.0
 10
0.4323154607646212
 20
0.291746805184464
 30
0.0
 10
0.4323603761676696
 20
0.2916850187802844
 30
0.0
 10
0.4325792474670225
 20
0.2913839356406964
 30
0.0
 10
0.4329720975164469
 20
0.2920522670463435
 30
0.0
 10
0.4334679696550703
 20
0.2937339814272868
 30
0.0
 10
0.4339053713437524
 20
0.2965425856328558
 30
0.0
 10
0.4343837816414693
 20
0.3002895712602165
 30
0.0
 10
0.4348995751586111
 20
0.3049562144796234
 30
0.0
 10
0.4354243844218014
 20
0.310328508937123
 30
0.0
 10
0.4359324153522204
 20
0.3160871727372723
 30
0.0
 10
0.4363872969629936
 20
0.3219794012591202
 30
0.0
 10
0.4368421803029206
 20
0.3278715513020753
 30
0.0
 10
0.4373502058474133
 20
0.3336304530551157
 30
0.0
 10
0.4378750352105323
 20
0.3390018421862522
 30
0.0
 10
0.4383907547603707
 20
0.3436717901896735
 30
0.0
 10
0.438869431712317
 20
0.3474068275709172
 30
0.0
 10
0.4393058541161503
 20
0.3502592704296863
 30
0.0
 10
0.4396348657436855
 20
0.3512550576240792
 30
0.0
 10
0.4398021182996717
 20
0.3517612645163031
 30
0.0
  0
SPLINE
  5
E6D
330
1F
100
AcDbEntity
  8
0
  6
HIDDEN
 62
     7
370
     0
100
AcDbSpline
210
0.0
220
0.0
230
1.0
 70
     8
 71
     3
 72
    23
 73
    19
 74
     0
 42
0.0000000001
 43
0.0000000001
 40
0.0
 40
0.0
 40
0.0
 40
0.0
 40
0.0160541196008378
 40
0.0830714711977415
 40
0.148756603978095
 40
0.2122842794177887
 40
0.2772521221279764
 40
0.3439687337797882
 40
0.4111374837314896
 40
0.4774080574458212
 40
0.5415357355988703
 40
0.6056634137519187
 40
0.6719339874662501
 40
0.7391027374179514
 40
0.8058193490697636
 40
0.8707871917799527
 40
0.9343148672196463
 40
1.0
 40
1.0
 40
1.0
 40
1.0
 10
0.4480732301360862
 20
0.2917354761940285
 30
0.0
 10
0.4481149030056218
 20
0.2916786507340412
 30
0.0
 10
0.4483305377876876
 20
0.2913846094113179
 30
0.0
 10
0.4487201344879593
 20
0.2920541608788512
 30
0.0
 10
0.4492159997507548
 20
0.2937334970687193
 30
0.0
 10
0.4496534032187603
 20
0.2965427167012582
 30
0.0
 10
0.4501318130319776
 20
0.3002895347521346
 30
0.0
 10
0.4506476066835044
 20
0.3049562244513393
 30
0.0
 10
0.4511724159102224
 20
0.3103285062945293
 30
0.0
 10
0.4516804468502445
 20
0.3160871734159525
 30
0.0
 10
0.4521353284585397
 20
0.321979401080003
 30
0.0
 10
0.4525902117991274
 20
0.3278715513518382
 30
0.0
 10
0.4530982373434372
 20
0.333630453041388
 30
0.0
 10
0.4536230667066059
 20
0.3390018421899257
 30
0.0
 10
0.4541387862564302
 20
0.3436717901887196
 30
0.0
 10
0.45461746320838
 20
0.3474068275711624
 30
0.0
 10
0.4550538856122133
 20
0.3502592704296241
 30
0.0
 10
0.4553828972397485
 20
0.3512550576240578
 30
0.0
 10
0.4555501497957346
 20
0.3517612645163031
 30
0.0
  0
SPLINE
  5
E6E
330
1F
100
AcDbEntity
  8
0
  6
HIDDEN
 62
     7
370
     0
100
AcDbSpline
210
0.0
220
0.0
230
1.0
 70
     8
 71
     3
 72
    23
 73
    19
 74
     0
 42
0.0000000001
 43
0.0000000001
 40
0.0
 40
0.0
 40
0.0
 40
0.0
 40
0.0151446610039134
 40
0.082223956563149
 40
0.1479698019394763
 40
0.2115561958429814
 40
0.276584088159814
 40
0.343362365800817
 40
0.4105931996519543
 40
0.4769250270837813
 40
0.5411119782815759
 40
0.6052989294793715
 40
0.6716307569111982
 40
0.7388615907623352
 40
0.8056398684033366
 40
0.870667760720169
 40
0.9342541546236734
 40
1.0
 40
1.0
 40
1.0
 40
1.0
 10
0.4638284569359544
 20
0.2917271052173416
 30
0.0
 10
0.4638677337872795
 20
0.2916739058572404
 30
0.0
 10
0.4640809771287105
 20
0.2913850739135573
 30
0.0
 10
0.4644681701501421
 20
0.2920556018442586
 30
0.0
 10
0.4649640301813074
 20
0.2937331285335223
 30
0.0
 10
0.4654014350031526
 20
0.296542816427624
 30
0.0
 10
0.4658798444477297
 20
0.3002895069741325
 30
0.0
 10
0.4663956382015018
 20
0.3049562320385502
 30
0.0
 10
0.4669204474004732
 20
0.3103285042838533
 30
0.0
 10
0.4674284783477996
 20
0.316087173932343
 30
0.0
 10
0.4678833599542083
 20
0.3219794009437156
 30
0.0
 10
0.4683382432953005
 20
0.3278715513896995
 30
0.0
 10
0.4688462688394717
 20
0.3336304530309466
 30
0.0
 10
0.469371098202676
 20
0.3390018421927217
 30
0.0
 10
0.4698868177524913
 20
0.3436717901879949
 30
0.0
 10
0.4703654947044429
 20
0.3474068275713489
 30
0.0
 10
0.4708019171082763
 20
0.3502592704295744
 30
0.0
 10
0.4711309287358115
 20
0.3512550576240401
 30
0.0
 10
0.4712981812917976
 20
0.3517612645163031
 30
0.0
  0
SPLINE
  5
E6F
330
1F
100
AcDbEntity
  8
0
  6
HIDDEN
 62
     7
370
     0
100
AcDbSpline
210
0.0
220
0.0
230
1.0
 70
     8
 71
     3
 72
    23
 73
    19
 74
     0
 42
0.0000000001
 43
0.0000000001
 40
0.0
 40
0.0
 40
0.0
 40
0.0
 40
0.0145693727089451
 40
0.0816878516203355
 40
0.1474721014341365
 40
0.2110956383643208
 40
0.276161515737249
 40
0.3429788008953602
 40
0.4102489066174458
 40
0.476619480779269
 40
0.5408439258101696
 40
0.6050683708410714
 40
0.6714389450028943
 40
0.7387090507249795
 40
0.8055263358830892
 40
0.8705922132560147
 40
0.934215750186199
 40
1.0
 40
1.0
 40
1.0
 40
1.0
 10
0.4795810330449131
 20
0.2917218180398102
 30
0.0
 10
0.4796187964995271
 20
0.291670890983281
 30
0.0
 10
0.4798305293955752
 20
0.2913853521395506
 30
0.0
 10
0.4802162043322502
 20
0.292056530885904
 30
0.0
 10
0.4807120609903999
 20
0.2937328909257719
 30
0.0
 10
0.4811494666851113
 20
0.2965428807247623
 30
0.0
 10
0.4816278758920137
 20
0.3002894890646683
 30
0.0
 10
0.4821436697117081
 20
0.3049562369302905
 30
0.0
 10
0.482668478892788
 20
0.3103285029874983
 30
0.0
 10
0.4831765098448253
 20
0.3160871742652767
 30
0.0
 10
0.4836313914500173
 20
0.3219794008558481
 30
0.0
 10
0.4840862747914346
 20
0.3278715514141119
 30
0.0
 10
0.4845943003355134
 20
0.3336304530242125
 30
0.0
 10
0.4851191296987443
 20
0.3390018421945247
 30
0.0
 10
0.4856348492485525
 20
0.3436717901875259
 30
0.0
 10
0.4861135262005077
 20
0.3474068275714679
 30
0.0
 10
0.4865499486043392
 20
0.3502592704295442
 30
0.0
 10
0.4868789602318744
 20
0.3512550576240312
 30
0.0
 10
0.4870462127878623
 20
0.3517612645163031
 30
0.0
  0
SPLINE
  5
E70
330
1F
100
AcDbEntity
  8
0
  6
HIDDEN
 62
     7
370
     0
100
AcDbSpline
210
0.0
220
0.0
230
1.0
 70
     8
 71
     3
 72
    23
 73
    19
 74
     0
 42
0.0000000001
 43
0.0000000001
 40
0.0
 40
0.0
 40
0.0
 40
0.0
 40
0.0143371226461847
 40
0.0814714202976357
 40
0.1472711743952757
 40
0.2109097063642148
 40
0.275990918712211
 40
0.3428239516238831
 40
0.4101099118220133
 40
0.4764961284548395
 40
0.5407357101488177
 40
0.6049752918427948
 40
0.6713615084756226
 40
0.7386474686737545
 40
0.8054805015854267
 40
0.8705617139334243
 40
0.9342002459023616
 40
1.0
 40
1.0
 40
1.0
 40
1.0
 10
0.4953308977468583
 20
0.2917196852982162
 30
0.0
 10
0.4953680507158707
 20
0.2916696708103974
 30
0.0
 10
0.4955791743303069
 20
0.2913854609686759
 30
0.0
 10
0.4959642369240838
 20
0.2920569098879089
 30
0.0
 10
0.4964600922062124
 20
0.2937327939938286
 30
0.0
 10
0.4968974982570105
 20
0.2965429069547405
 30
0.0
 10
0.4973759073669522
 20
0.3002894817585109
 30
0.0
 10
0.4978917012135407
 20
0.3049562389258746
 30
0.0
 10
0.4984165103873215
 20
0.310328502458652
 30
0.0
 10
0.4989245413412809
 20
0.3160871744010969
 30
0.0
 10
0.4993794229459754
 20
0.321979400820003
 30
0.0
 10
0.4998343062875259
 20
0.3278715514240702
 30
0.0
 10
0.5003423318315692
 20
0.3336304530214662
 30
0.0
 10
0.500867161194809
 20
0.3390018421952583
 30
0.0
 10
0.5013828807446155
 20
0.3436717901873358
 30
0.0
 10
0.5018615576965689
 20
0.3474068275715176
 30
0.0
 10
0.5022979801004022
 20
0.3502592704295317
 30
0.0
 10
0.5026269917279374
 20
0.3512550576240276
 30
0.0
 10
0.5027942442839235
 20
0.3517612645163031
 30
0.0
  0
SPLINE
  5
E71
330
1F
100
AcDbEntity
  8
0
  6
HIDDEN
 62
     7
370
     0
100
AcDbSpline
210
0.0
220
0.0
230
1.0
 70
     8
 71
     3
 72
    23
 73
    19
 74
     0
 42
0.0000000001
 43
0.0000000001
 40
0.0
 40
0.0
 40
0.0
 40
0.0
 40
0.0144483087054366
 40
0.0815750333842518
 40
0.1473673650502188
 40
0.2109987183805477
 40
0.2760725893507808
 40
0.3428980832734876
 40
0.4101764533909442
 40
0.4765551814371713
 40
0.5407875166921265
 40
0.6050198519470797
 40
0.6713985799933051
 40
0.7386769501107601
 40
0.8055024440334683
 40
0.870576315003699
 40
0.9342076683340303
 40
1.0
 40
1.0
 40
1.0
 40
1.0
 10
0.5110780517322882
 20
0.2917207061892377
 30
0.0
 10
0.5111154969266094
 20
0.2916702551692947
 30
0.0
 10
0.5113269121890563
 20
0.2913854091212216
 30
0.0
 10
0.5117122678947413
 20
0.2920567281614883
 30
0.0
 10
0.5122081238366514
 20
0.2937328404714077
 30
0.0
 10
0.5126455297167114
 20
0.2965428943778143
 30
0.0
 10
0.5131239388731439
 20
0.3002894852617139
 30
0.0
 10
0.5136397327068379
 20
0.3049562379690205
 30
0.0
 10
0.5141645418841181
 20
0.3103285027122269
 30
0.0
 10
0.5146725728371573
 20
0.3160871743359739
 30
0.0
 10
0.5151274544420881
 20
0.3219794008371892
 30
0.0
 10
0.5155823377835747
 20
0.3278715514192954
 30
0.0
 10
0.5160903633276357
 20
0.3336304530227807
 30
0.0
 10
0.516615192690872
 20
0.3390018421949066
 30
0.0
 10
0.5171309122406785
 20
0.3436717901874264
 30
0.0
 10
0.5176095891926318
 20
0.3474068275714945
 30
0.0
 10
0.5180460115964652
 20
0.3502592704295389
 30
0.0
 10
0.5183750232240003
 20
0.3512550576240294
 30
0.0
 10
0.5185422757799865
 20
0.3517612645163031
 30
0.0
  0
SPLINE
  5
E72
330
1F
100
AcDbEntity
  8
0
  6
HIDDEN
 62
     7
370
     0
100
AcDbSpline
210
0.0
220
0.0
230
1.0
 70
     8
 71
     3
 72
    23
 73
    19
 74
     0
 42
0.0000000001
 43
0.0000000001
 40
0.0
 40
0.0
 40
0.0
 40
0.0
 40
0.0148930611698494
 40
0.0819894933977539
 40
0.1477521347878014
 40
0.2113547730325014
 40
0.2763992779484341
 40
0.3431946153574124
 40
0.4104426245905272
 40
0.4767913977362201
 40
0.5409947466988781
 40
0.6051980956615319
 40
0.6715468688072236
 40
0.7387948780403376
 40
0.8055902154493177
 40
0.8706347203652471
 40
0.9342373586099498
 40
1.0
 40
1.0
 40
1.0
 40
1.0
 10
0.526822571139971
 20
0.2917247921334518
 30
0.0
 10
0.5268611859013755
 20
0.2916725886216629
 30
0.0
 10
0.5270737684382434
 20
0.2913851971017991
 30
0.0
 10
0.5274602973042155
 20
0.2920560064588955
 30
0.0
 10
0.5279561558663711
 20
0.2937330250509984
 30
0.0
 10
0.5283935610683637
 20
0.2965428444302056
 30
0.0
 10
0.5288719704094307
 20
0.3002894991742313
 30
0.0
 10
0.5293877641919141
 20
0.3049562341689935
 30
0.0
 10
0.5299125733830908
 20
0.3103285037192667
 30
0.0
 10
0.5304206043324707
 20
0.3160871740773417
 30
0.0
 10
0.5308754859383483
 20
0.3219794009054475
 30
0.0
 10
0.5313303692795844
 20
0.3278715514003327
 30
0.0
 10
0.5318383948237129
 20
0.3336304530280139
 30
0.0
 10
0.5323632241869314
 20
0.339001842193505
 30
0.0
 10
0.5328789437367414
 20
0.3436717901877906
 30
0.0
 10
0.5333576206886948
 20
0.3474068275714004
 30
0.0
 10
0.5337940430925281
 20
0.3502592704295619
 30
0.0
 10
0.5341230547200633
 20
0.3512550576240365
 30
0.0
 10
0.5342903072760495
 20
0.3517612645163031
 30
0.0
  0
SPLINE
  5
E73
330
1F
100
AcDbEntity
  8
0
  6
HIDDEN
 62
     7
370
     0
100
AcDbSpline
210
0.0
220
0.0
230
1.0
 70
     8
 71
     3
 72
    23
 73
    19
 74
     0
 42
0.0000000001
 43
0.0000000001
 40
0.0
 40
0.0
 40
0.0
 40
0.0
 40
0.0156497457276115
 40
0.0826946395568434
 40
0.1484067670653446
 40
0.2119605505793587
 40
0.2769550932318075
 40
0.3436991235203543
 40
0.4108954779248219
 40
0.4771932869669392
 40
0.5413473197784212
 40
0.6055013525899026
 40
0.6717991616320165
 40
0.7389955160364805
 40
0.8057395463250301
 40
0.8707340889774791
 40
0.9342878724914955
 40
1.0
 40
1.0
 40
1.0
 40
1.0
 10
0.5425646200122456
 20
0.2917317522849097
 30
0.0
 10
0.5426052270024089
 20
0.2916765441726021
 30
0.0
 10
0.5428197979272911
 20
0.2913848196278412
 30
0.0
 10
0.5432083253047653
 20
0.2920547974405363
 30
0.0
 10
0.5437041882564318
 20
0.2937333342644035
 30
0.0
 10
0.54414159232251
 20
0.2965427607564355
 30
0.0
 10
0.544620001972878
 20
0.3002895224809106
 30
0.0
 10
0.5451357956695704
 20
0.3049562278030706
 30
0.0
 10
0.5456606048840334
 20
0.3103285054062923
 30
0.0
 10
0.5461686358272831
 20
0.316087173644074
 30
0.0
 10
0.5466235174347434
 20
0.3219794010197969
 30
0.0
 10
0.547078400775555
 20
0.3278715513685644
 30
0.0
 10
0.5475864263198025
 20
0.3336304530367748
 30
0.0
 10
0.5481112556829873
 20
0.3390018421911602
 30
0.0
 10
0.5486269752328079
 20
0.3436717901883999
 30
0.0
 10
0.5491056521847577
 20
0.3474068275712459
 30
0.0
 10
0.5495420745885911
 20
0.3502592704296028
 30
0.0
 10
0.5498710862161263
 20
0.3512550576240507
 30
0.0
 10
0.5500383387721124
 20
0.3517612645163031
 30
0.0
  0
SPLINE
  5
E74
330
1F
100
AcDbEntity
  8
0
  6
HIDDEN
 62
     7
370
     0
100
AcDbSpline
210
0.0
220
0.0
230
1.0
 70
     8
 71
     3
 72
    24
 73
    20
 74
     0
 42
0.0000000001
 43
0.0000000001
 40
0.0
 40
0.0
 40
0.0
 40
0.0
 40
0.0177737979780608
 40
0.0802816390749181
 40
0.1407363823867076
 40
0.2025616298458832
 40
0.2660510555824115
 40
0.3299707489884564
 40
0.3930357123338921
 40
0.4540614352977974
 40
0.5150871582617031
 40
0.5781521216071388
 40
0.6420718150131835
 40
0.7055612407497116
 40
0.7673864882088865
 40
0.8278412315206759
 40
0.8903490726175331
 40
0.9541246910418664
 40
1.0
 40
1.0
 40
1.0
 40
1.0
 10
0.4294173977178924
 20
0.2920281553186623
 30
0.0
 10
0.4294660255112382
 20
0.292073759831694
 30
0.0
 10
0.4296856701228871
 20
0.2922797487295103
 30
0.0
 10
0.4300580629699882
 20
0.2938031548375222
 30
0.0
 10
0.4304959193448826
 20
0.2965238671888806
 30
0.0
 10
0.4309742058364217
 20
0.3002947850585305
 30
0.0
 10
0.4314900336864041
 20
0.3049547906990651
 30
0.0
 10
0.4320148336567736
 20
0.3103288851229895
 30
0.0
 10
0.4325228669431392
 20
0.316087080215165
 30
0.0
 10
0.4329777482729514
 20
0.32197941099028
 30
0.0
 10
0.4334326304597776
 20
0.327871604249194
 30
0.0
 10
0.4339406610767407
 20
0.3336302211822837
 30
0.0
 10
0.4344654710091414
 20
0.3390027240216267
 30
0.0
 10
0.4349812621990639
 20
0.3436685598617644
 30
0.0
 10
0.4354596808511682
 20
0.3474184252903492
 30
0.0
 10
0.435897051867781
 20
0.3502164113548656
 30
0.0
 10
0.4363930425296916
 20
0.3519391095286732
 30
0.0
 10
0.4368664134389429
 20
0.352602812073074
 30
0.0
 10
0.4371653216176919
 20
0.3521297060828676
 30
0.0
 10
0.4372903776056108
 20
0.3519317699231952
 30
0.0
  0
SPLINE
  5
E75
330
1F
100
AcDbEntity
  8
0
  6
HIDDEN
 62
     7
370
     0
100
AcDbSpline
210
0.0
220
0.0
230
1.0
 70
     8
 71
     3
 72
    24
 73
    20
 74
     0
 42
0.0000000001
 43
0.0000000001
 40
0.0
 40
0.0
 40
0.0
 40
0.0
 40
0.0191850913832605
 40
0.0837006947914735
 40
0.1460972545703525
 40
0.2099083393190659
 40
0.2754370560297589
 40
0.3414098606794819
 40
0.4065004811960833
 40
0.4694863605890086
 40
0.5324722399819331
 40
0.5975628604985343
 40
0.6635356651482571
 40
0.7290643818589509
 40
0.7928754666076654
 40
0.8552720263865445
 40
0.9197876297947576
 40
0.9856117317502569
 40
1.0
 40
1.0
 40
1.0
 40
1.0
 10
0.4451587622982621
 20
0.2920203989221648
 30
0.0
 10
0.4452096220013014
 20
0.2920677065302908
 30
0.0
 10
0.4454315126556745
 20
0.2922741001090323
 30
0.0
 10
0.4458061071238051
 20
0.2938019919601491
 30
0.0
 10
0.4462439474157174
 20
0.2965241818614175
 30
0.0
 10
0.446722238286605
 20
0.3002946974261242
 30
0.0
 10
0.4472380649216712
 20
0.3049548145684977
 30
0.0
 10
0.4477628652226651
 20
0.3103288790448186
 30
0.0
 10
0.4482708984186746
 20
0.3160870808790446
 30
0.0
 10
0.4487257797837439
 20
0.3219794140356662
 30
0.0
 10
0.4491806619164676
 20
0.3278715912002312
 30
0.0
 10
0.4496886927214066
 20
0.3336302724235403
 30
0.0
 10
0.4502135019457159
 20
0.3390025305492366
 30
0.0
 10
0.450729295743181
 20
0.3436692682256706
 30
0.0
 10
0.4512077049945545
 20
0.3474158821711335
 30
0.0
 10
0.4516451105353694
 20
0.350225809362388
 30
0.0
 10
0.4521409677856214
 20
0.3519023635026894
 30
0.0
 10
0.452526907356071
 20
0.3525734185331626
 30
0.0
 10
0.4527389035593475
 20
0.3522873008951184
 30
0.0
 10
0.4527769308390904
 20
0.3522359779219066
 30
0.0
  0
SPLINE
  5
E76
330
1F
100
AcDbEntity
  8
0
  6
HIDDEN
 62
     7
370
     0
100
AcDbSpline
210
0.0
220
0.0
230
1.0
 70
     8
 71
     3
 72
    23
 73
    19
 74
     0
 42
0.0000000001
 43
0.0000000001
 40
0.0
 40
0.0
 40
0.0
 40
0.0
 40
0.065760464102107
 40
0.129360996572855
 40
0.1944033479771079
 40
0.2611964739073569
 40
0.3284422566745571
 40
0.3947888331264954
 40
0.4589900564266994
 40
0.5231912797269044
 40
0.5895378561788424
 40
0.6567836389460423
 40
0.7235767648762897
 40
0.7886191162805427
 40
0.8522196487512898
 40
0.9179801128533961
 40
0.98507432363384
 40
0.9999999999999998
 40
0.9999999999999998
 40
0.9999999999999998
 40
0.9999999999999998
 10
0.4610589903546769
 20
0.2921974668381673
 30
0.0
 10
0.4612262429106649
 20
0.2927036773149692
 30
0.0
 10
0.4615552545382018
 20
0.293699471560781
 30
0.0
 10
0.4619916769420316
 20
0.2965519240880294
 30
0.0
 10
0.462470353893985
 20
0.3002869700449768
 30
0.0
 10
0.4629860734437985
 20
0.3049569252050663
 30
0.0
 10
0.4635109028070135
 20
0.3103283197048896
 30
0.0
 10
0.4640189283511491
 20
0.3160872245409145
 30
0.0
 10
0.4644738116923657
 20
0.3219793760840066
 30
0.0
 10
0.4649286932983126
 20
0.327871601881401
 30
0.0
 10
0.4654367242474243
 20
0.3336302689405077
 30
0.0
 10
0.4659615334396153
 20
0.3390025335068618
 30
0.0
 10
0.4664773272183665
 20
0.3436692600430178
 30
0.0
 10
0.4669557365728894
 20
0.3474159108751469
 30
0.0
 10
0.4673931417254638
 20
0.3502257034659497
 30
0.0
 10
0.4678890004785865
 20
0.351902777503587
 30
0.0
 10
0.468275615419878
 20
0.3525735417528211
 30
0.0
 10
0.4684882835985436
 20
0.3522859589460581
 30
0.0
 10
0.4685269841688369
 20
0.3522336256882153
 30
0.0
  0
SPLINE
  5
E77
330
1F
100
AcDbEntity
  8
0
  6
HIDDEN
 62
     7
370
     0
100
AcDbSpline
210
0.0
220
0.0
230
1.0
 70
     8
 71
     3
 72
    23
 73
    19
 74
     0
 42
0.0000000001
 43
0.0000000001
 40
0.0
 40
0.0
 40
0.0
 40
0.0
 40
0.0635918022096783
 40
0.1250949034504197
 40
0.1879922750281128
 40
0.2525826837351962
 40
0.3176108214704621
 40
0.381769407098294
 40
0.4438533894647627
 40
0.5059373718312324
 40
0.5700959574590639
 40
0.6351240951943297
 40
0.6997145039014116
 40
0.7626118754791019
 40
0.8241149767198436
 40
0.8877067789295217
 40
0.9525883432496843
 40
1.0
 40
1.0
 40
1.0
 40
1.0
 10
0.4768070218507417
 20
0.2921974668381673
 30
0.0
 10
0.4769742744067261
 20
0.292703677314557
 30
0.0
 10
0.4773032860342612
 20
0.2936994715595518
 30
0.0
 10
0.4777397084381088
 20
0.2965519240928025
 30
0.0
 10
0.4782183853899947
 20
0.3002869700263979
 30
0.0
 10
0.4787341049400676
 20
0.3049569252766624
 30
0.0
 10
0.479258934302302
 20
0.3103283194374342
 30
0.0
 10
0.4797669598500152
 20
0.3160872255105247
 30
0.0
 10
0.480221843178339
 20
0.3219793725939291
 30
0.0
 10
0.4806767248326081
 20
0.3278716151053491
 30
0.0
 10
0.4811847555946196
 20
0.3336302174501349
 30
0.0
 10
0.4817095654974298
 20
0.3390027278037462
 30
0.0
 10
0.482225356657767
 20
0.3436685486905102
 30
0.0
 10
0.4827037754526176
 20
0.3474184647161682
 30
0.0
 10
0.4831411459354511
 20
0.3502162658384098
 30
0.0
 10
0.4836371386626697
 20
0.3519396784424693
 30
0.0
 10
0.4841125046083877
 20
0.3526036978493352
 30
0.0
 10
0.4844133946956904
 20
0.3521263681017761
 30
0.0
 10
0.4845404343994462
 20
0.3519248332813085
 30
0.0
  0
SPLINE
  5
E78
330
1F
100
AcDbEntity
  8
0
  6
HIDDEN
 62
     7
370
     0
100
AcDbSpline
210
0.0
220
0.0
230
1.0
 70
     8
 71
     3
 72
    24
 73
    20
 74
     0
 42
0.0000000001
 43
0.0000000001
 40
0.0
 40
0.0
 40
0.0
 40
0.0
 40
0.0180632474209489
 40
0.0805810453873443
 40
0.1410454185308725
 40
0.2028805141292925
 40
0.2663800530919042
 40
0.3303099282613387
 40
0.3933849372202739
 40
0.4544203809672272
 40
0.5154558247141795
 40
0.5785308336731163
 40
0.6424607088425525
 40
0.7059602478051642
 40
0.7677953434035855
 40
0.8282597165471122
 40
0.890777514513506
 40
0.9545632917515366
 40
1.0
 40
1.0
 40
1.0
 40
1.0
 10
0.4924071772813142
 20
0.292025425455088
 30
0.0
 10
0.4924565905637595
 20
0.2920716322633556
 30
0.0
 10
0.4926770256750475
 20
0.2922777631338136
 30
0.0
 10
0.4930501934417526
 20
0.2938027425658654
 30
0.0
 10
0.4934880441148027
 20
0.2965239787503766
 30
0.0
 10
0.4939663321589168
 20
0.300294753984111
 30
0.0
 10
0.4944821595782676
 20
0.3049547991860113
 30
0.0
 10
0.4950069596655178
 20
0.3103288828762463
 30
0.0
 10
0.4955149929210761
 20
0.3160870807835796
 30
0.0
 10
0.49596987425896
 20
0.3219794108711469
 30
0.0
 10
0.4964247564432052
 20
0.3278716041652683
 30
0.0
 10
0.4969327870625416
 20
0.333630221662305
 30
0.0
 10
0.4974575969879967
 20
0.3390027221693217
 30
0.0
 10
0.497973388202964
 20
0.3436685666539969
 30
0.0
 10
0.4984518067649076
 20
0.3474184009027141
 30
0.0
 10
0.4988891781125995
 20
0.3502165014792109
 30
0.0
 10
0.4993851674951282
 20
0.351938757144038
 30
0.0
 10
0.4998573169519363
 20
0.3526022730086844
 30
0.0
 10
0.5001550116964273
 20
0.3521317536455986
 30
0.0
 10
0.5002788531306548
 20
0.3519360169259038
 30
0.0
  0
SPLINE
  5
E79
330
1F
100
AcDbEntity
  8
0
  6
HIDDEN
 62
     7
370
     0
100
AcDbSpline
210
0.0
220
0.0
230
1.0
 70
     8
 71
     3
 72
    24
 73
    20
 74
     0
 42
0.0000000001
 43
0.0000000001
 40
0.0
 40
0.0
 40
0.0
 40
0.0
 40
0.0174919513005336
 40
0.0799172805822693
 40
0.1402922222161281
 40
0.2020358588997829
 40
0.2654414771064634
 40
0.3292767950192534
 40
0.3922585111351448
 40
0.4532036787145994
 40
0.5141488462940522
 40
0.577130562409942
 40
0.6409658803227304
 40
0.7043714985294121
 40
0.7661151352130645
 40
0.8264900768469258
 40
0.8889154061286639
 40
0.9526068392420922
 40
1.0
 40
1.0
 40
1.0
 40
1.0
 10
0.508159673617528
 20
0.292030619921632
 30
0.0
 10
0.5082075922774818
 20
0.2920756779267084
 30
0.0
 10
0.5084265231975858
 20
0.2922815390780642
 30
0.0
 10
0.5087982163679543
 20
0.2938035298864154
 30
0.0
 10
0.5092360779298888
 20
0.2965237657000401
 30
0.0
 10
0.5097143630090324
 20
0.3002948133268835
 30
0.0
 10
0.5102301912507708
 20
0.304954782980132
 30
0.0
 10
0.5107549911147898
 20
0.3103288871603269
 30
0.0
 10
0.5112630244292662
 20
0.3160870797218227
 30
0.0
 10
0.5117179057514223
 20
0.3219794110131595
 30
0.0
 10
0.5121727879417799
 20
0.3278716046494889
 30
0.0
 10
0.512680818552
 20
0.3336302194842375
 30
0.0
 10
0.5132056285081293
 20
0.3390027304663949
 30
0.0
 10
0.5137214196111204
 20
0.3436685362567442
 30
0.0
 10
0.5141998385765066
 20
0.3474185100376748
 30
0.0
 10
0.5146372084426228
 20
0.3502160981735269
 30
0.0
 10
0.515133203550378
 20
0.3519403340617597
 30
0.0
 10
0.5156109046420037
 20
0.3526047428281107
 30
0.0
 10
0.5159141144607427
 20
0.3521224709037363
 30
0.0
 10
0.5160434759786848
 20
0.3519167142812887
 30
0.0
  0
SPLINE
  5
E7A
330
1F
100
AcDbEntity
  8
0
  6
HIDDEN
 62
     7
370
     0
100
AcDbSpline
210
0.0
220
0.0
230
1.0
 70
     8
 71
     3
 72
    24
 73
    20
 74
     0
 42
0.0000000001
 43
0.0000000001
 40
0.0
 40
0.0
 40
0.0
 40
0.0
 40
0.0160502160692574
 40
0.0786032934933079
 40
0.1391017873250459
 40
0.2009717771249253
 40
0.2645071495520693
 40
0.3284731010293302
 40
0.3915837038860059
 40
0.4526535905823799
 40
0.51372347727875
 40
0.5768340801354246
 40
0.6408000316126845
 40
0.7043354040398306
 40
0.7662053938397069
 40
0.8267038876714474
 40
0.8892569650955003
 40
0.9530787373253616
 40
1.0
 40
1.0
 40
1.0
 40
1.0
 10
0.5239197942048924
 20
0.2920446845640783
 30
0.0
 10
0.5239636666409427
 20
0.2920865726870911
 30
0.0
 10
0.5241785246809885
 20
0.292291712880391
 30
0.0
 10
0.5245462239903782
 20
0.2938057231787152
 30
0.0
 10
0.5249841158862063
 20
0.296523172190674
 30
0.0
 10
0.5254623927056406
 20
0.3002949786444955
 30
0.0
 10
0.5259782232383304
 20
0.3049547378249457
 30
0.0
 10
0.526503022480612
 20
0.3103288991297834
 30
0.0
 10
0.5270110559587478
 20
0.3160870766371364
 30
0.0
 10
0.5274659372387776
 20
0.3219794118654911
 30
0.0
 10
0.5279208194398449
 20
0.3278716042678795
 30
0.0
 10
0.5284288500491466
 20
0.3336302201548744
 30
0.0
 10
0.5289536599977352
 20
0.3390027281536778
 30
0.0
 10
0.5294694511314413
 20
0.3436685446673728
 30
0.0
 10
0.5299478699853255
 20
0.3474184798568942
 30
0.0
 10
0.5303852402611336
 20
0.3502162097017003
 30
0.0
 10
0.5308812337856717
 20
0.3519398979899002
 30
0.0
 10
0.5313573773732268
 20
0.352604044872961
 30
0.0
 10
0.5316590399749073
 20
0.3521250691048074
 30
0.0
 10
0.531786852890499
 20
0.3519221294991557
 30
0.0
  0
SPLINE
  5
E7B
330
1F
100
AcDbEntity
  8
0
  6
HIDDEN
 62
     7
370
     0
100
AcDbSpline
210
0.0
220
0.0
230
1.0
 70
     8
 71
     3
 72
    24
 73
    20
 74
     0
 42
0.0000000001
 43
0.0000000001
 40
0.0
 40
0.0
 40
0.0
 40
0.0
 40
0.0180097266304083
 40
0.0805470339468593
 40
0.1410302756471817
 40
0.2028846675510585
 40
0.2664040222265461
 40
0.330353847399893
 40
0.3934485395925614
 40
0.454503030105021
 40
0.51555752061748
 40
0.578652212810145
 40
0.6426020379834886
 40
0.7061213926589788
 40
0.7679757845628556
 40
0.8284590262631803
 40
0.8909963335796341
 40
0.9548020158542628
 40
1.0
 40
1.0
 40
1.0
 40
1.0
 10
0.53965175591651
 20
0.2920259887194707
 30
0.0
 10
0.5397010071228197
 20
0.2920720715128031
 30
0.0
 10
0.5399212791273938
 20
0.292278173048657
 30
0.0
 10
0.5402942870069376
 20
0.2938028273629698
 30
0.0
 10
0.540732138852758
 20
0.2965239558040864
 30
0.0
 10
0.5412104265775346
 20
0.3002947603757147
 30
0.0
 10
0.5417262540854582
 20
0.3049547974398632
 30
0.0
 10
0.5422510541486725
 20
0.3103288833403444
 30
0.0
 10
0.5427590874105422
 20
0.3160870806594744
 30
0.0
 10
0.5432139687468629
 20
0.321979410921535
 30
0.0
 10
0.5436688509312786
 20
0.3278716040844583
 30
0.0
 10
0.5441768815515156
 20
0.3336302219454403
 30
0.0
 10
0.5447016914731285
 20
0.3390027211093447
 30
0.0
 10
0.5452174827023635
 20
0.3436685705325548
 30
0.0
 10
0.5456959012128389
 20
0.3474183869787819
 30
0.0
 10
0.5461332727495565
 20
0.3502165529344563
 30
0.0
 10
0.5466292614016384
 20
0.3519385559550756
 30
0.0
 10
0.5471007183178314
 20
0.3526019684810084
 30
0.0
 10
0.5473977250612672
 20
0.3521329159092492
 30
0.0
 10
0.5475208778553134
 20
0.3519384249219464
 30
0.0
  0
LINE
  5
E7C
330
1F
100
AcDbEntity
  8
0
  6
HIDDEN
 62
     7
370
     0
100
AcDbLine
 10
0.4094069299482941
 20
0.3511132183204062
 30
0.0
 11
0.4094069299482941
 21
0.2928455017849718
 31
0.0
  0
LINE
  5
F19
330
1F
100
AcDbEntity
  8
0
100
AcDbLine
 10
0.818771789014411
 20
0.7404120816620522
 30
0.0
 11
0.818771789014411
 21
0.7289327775025657
 31
0.0
  0
LINE
  5
F1A
330
1F
100
AcDbEntity
  8
0
100
AcDbLine
 10
0.8784167712794541
 20
0.6256134429378902
 30
0.0
 11
0.8883576016569598
 21
0.6198728580032656
 31
0.0
  0
LINE
  5
F1B
330
1F
100
AcDbEntity
  8
0
100
AcDbLine
 10
0.9375775121939948
 20
0.6149934873419694
 30
0.0
 11
0.9833127651953752
 21
0.6413958869087891
 31
0.0
  0
LINE
  5
F1C
330
1F
100
AcDbEntity
  8
0
100
AcDbLine
 10
0.8848955671012763
 20
0.8118779464325436
 30
0.0
 11
0.8391603140998959
 21
0.785475546865724
 31
0.0
  0
LINE
  5
F1D
330
1F
100
AcDbEntity
  8
0
100
AcDbLine
 10
1.003002603559234
 20
0.6982220083774687
 30
0.0
 11
1.07498472418861
 21
0.7397764021066669
 31
0.0
  0
LINE
  5
F1E
330
1F
100
AcDbEntity
  8
0
100
AcDbLine
 10
1.015934405332149
 20
0.8420656378209192
 30
0.0
 11
0.9439522847027763
 21
0.8005112440917228
 31
0.0
  0
LINE
  5
F1F
330
1F
100
AcDbEntity
  8
0
100
AcDbLine
 10
1.165852517267886
 20
0.8149629723398009
 30
0.0
 11
1.166953654538794
 21
0.8155986453556154
 31
0.0
  0
LINE
  5
F20
330
1F
100
AcDbEntity
  8
0
100
AcDbLine
 10
1.15471697740668
 20
0.8085345620104893
 30
0.0
 11
1.156108919889332
 21
0.8093381133016508
 31
0.0
  0
LINE
  5
F21
330
1F
100
AcDbEntity
  8
0
100
AcDbLine
 10
1.143581437545474
 20
0.802106151681176
 30
0.0
 11
1.144973380028126
 21
0.8029097029723393
 31
0.0
  0
LINE
  5
F22
330
1F
100
AcDbEntity
  8
0
100
AcDbLine
 10
1.13244589768427
 20
0.7956777413518611
 30
0.0
 11
1.13383784016692
 21
0.7964812926430261
 31
0.0
  0
LINE
  5
F23
330
1F
100
AcDbEntity
  8
0
100
AcDbLine
 10
1.121310357823064
 20
0.7892493310225513
 30
0.0
 11
1.122702300305716
 21
0.7900528823137128
 31
0.0
  0
LINE
  5
F24
330
1F
100
AcDbEntity
  8
0
100
AcDbLine
 10
1.11017481796186
 20
0.7828209206932362
 30
0.0
 11
1.111566760444508
 21
0.7836244719844013
 31
0.0
  0
LINE
  5
F25
330
1F
100
AcDbEntity
  8
0
100
AcDbLine
 10
1.099039278100653
 20
0.7763925103639247
 30
0.0
 11
1.100431220583303
 21
0.777196061655088
 31
0.0
  0
LINE
  5
F26
330
1F
100
AcDbEntity
  8
0
100
AcDbLine
 10
1.088861704283569
 20
0.770517122060477
 30
0.0
 11
1.089295701649287
 21
0.7707676634067847
 31
0.0
  0
LINE
  5
F27
330
1F
100
AcDbEntity
  8
0
100
AcDbLine
 10
1.05549657141506
 20
0.8421746802999352
 30
0.0
 11
1.054104628932408
 21
0.8413711290087702
 31
0.0
  0
LINE
  5
F28
330
1F
100
AcDbEntity
  8
0
100
AcDbLine
 10
1.066632111276268
 20
0.8486030906292468
 30
0.0
 11
1.065240168793616
 21
0.8477995393380835
 31
0.0
  0
LINE
  5
F29
330
1F
100
AcDbEntity
  8
0
100
AcDbLine
 10
1.077767651137472
 20
0.8550315009585601
 30
0.0
 11
1.076375708654822
 21
0.854227949667395
 31
0.0
  0
LINE
  5
F2A
330
1F
100
AcDbEntity
  8
0
100
AcDbLine
 10
1.088903190998678
 20
0.8614599112878734
 30
0.0
 11
1.087511248516026
 21
0.8606563599967083
 31
0.0
  0
LINE
  5
F2B
330
1F
100
AcDbEntity
  8
0
100
AcDbLine
 10
1.100038730859882
 20
0.8678883216171849
 30
0.0
 11
1.098646788377232
 21
0.8670847703260198
 31
0.0
  0
LINE
  5
F2C
330
1F
100
AcDbEntity
  8
0
100
AcDbLine
 10
1.111174270721088
 20
0.8743167319464982
 30
0.0
 11
1.109782328238438
 21
0.8735131806553349
 31
0.0
  0
LINE
  5
F2D
330
1F
100
AcDbEntity
  8
0
100
AcDbLine
 10
1.122309810582294
 20
0.8807451422758097
 30
0.0
 11
1.120917868099642
 21
0.8799415909846482
 31
0.0
  0
LINE
  5
F2E
330
1F
100
AcDbEntity
  8
0
100
AcDbLine
 10
1.151251071666969
 20
0.8795434869267511
 30
0.0
 11
1.151012097933604
 21
0.8796814883774766
 31
0.0
  0
LWPOLYLINE
  5
F2F
330
1F
100
AcDbEntity
  8
0
100
AcDbPolyline
 90
      101
 70
   128
 43
0.0
 10
0.818771789014411
 20
0.7289327775025657
 10
0.818889503894292
 20
0.7245393703663846
 10
0.8192421839670736
 20
0.7200273912936462
 10
0.8198284373656381
 20
0.7154146470044259
 10
0.8206459504156544
 20
0.7107193418930658
 10
0.8216914967665989
 20
0.7059600061837655
 10
0.8229609501246901
 20
0.7011554228002302
 10
0.8244493005374824
 20
0.6963245532380745
 10
0.8261506741658575
 20
0.6914864627324418
 10
0.8280583564653891
 20
0.6866602450162452
 10
0.8301648186855761
 20
0.6818649469659233
 10
0.8324617475823892
 20
0.6771194934321157
 10
0.8349400782268379
 20
0.6724426125519292
 10
0.8375900297801095
 20
0.667852761837535
 10
0.8404011440940752
 20
0.6633680553327997
 10
0.843362326984808
 20
0.6590061921254299
 10
0.8464618920162774
 20
0.6547843864967574
 10
0.8496876066213605
 20
0.6507192999848409
 10
0.8530267403781994
 20
0.6468269756289791
 10
0.8564661152513579
 20
0.6431227746551736
 10
0.859992157599521
 20
0.6396213158523806
 10
0.8635909517444257
 20
0.6363364178788265
 10
0.8672482948897215
 20
0.6332810447260896
 10
0.8709497531728924
 20
0.6304672545561319
 10
0.8746807186291327
 20
0.6279061521132617
 10
0.8784264668422974
 20
0.6256078448987593
 10
0.8821722150554656
 20
0.6235814032812071
 10
0.8859031805117041
 20
0.6218348246998743
 10
0.8896046387948768
 20
0.6203750021024844
 10
0.8932619819401708
 20
0.6192076967419043
 10
0.8968607760850773
 20
0.6183375154390978
 10
0.9003868184332368
 20
0.6177678924021189
 10
0.9038261933063989
 20
0.6175010756728624
 10
0.9071653270632378
 20
0.6175381182550569
 10
0.9103910416683209
 20
0.6178788739585562
 10
0.9134906066997885
 20
0.6185219979762734
 10
0.916451789590523
 20
0.6194649521915262
 10
0.9192629039044852
 20
0.6207040151948247
 10
0.9219128554577586
 20
0.622234296970566
 10
0.9243911861022073
 20
0.624049758195701
 10
0.9266881149990204
 20
0.6261432340741811
 10
0.9287945772192092
 20
0.6285064626131279
 10
0.930702259518739
 20
0.6311301172291602
 10
0.9324036331471141
 20
0.6340038435561385
 10
0.9338919835599046
 20
0.637116300309131
 10
0.9351614369179976
 20
0.6404552040432828
 10
0.9362069832689421
 20
0.6440073776309506
 10
0.9370244963189566
 20
0.647758802265823
 10
0.937610749717523
 20
0.6516946727887233
 10
0.9379634297903063
 20
0.6557994561168295
 10
0.9380811446701837
 20
0.6600569525456431
 10
0.9379634297903063
 20
0.6644503596818242
 10
0.937610749717523
 20
0.6689623387545608
 10
0.9370244963189566
 20
0.6735750830437829
 10
0.9362069832689421
 20
0.6782703881551394
 10
0.9351614369179959
 20
0.6830297238644432
 10
0.9338919835599046
 20
0.687834307247975
 10
0.9324036331471141
 20
0.6926651768101343
 10
0.930702259518739
 20
0.6975032673157669
 10
0.9287945772192092
 20
0.7023294850319635
 10
0.9266881149990204
 20
0.7071247830822854
 10
0.9243911861022073
 20
0.7118702366160913
 10
0.9219128554577586
 20
0.7165471174962777
 10
0.9192629039044852
 20
0.7211369682106719
 10
0.916451789590523
 20
0.7256216747154073
 10
0.9134906066997885
 20
0.7299835379227789
 10
0.9103910416683174
 20
0.7342053435514514
 10
0.907165327063236
 20
0.7382704300633679
 10
0.9038261933063989
 20
0.7421627544192261
 10
0.9003868184332368
 20
0.7458669553930316
 10
0.8968607760850773
 20
0.7493684141958264
 10
0.8932619819401708
 20
0.7526533121693804
 10
0.8896046387948732
 20
0.7557086853221174
 10
0.8859031805117041
 20
0.7585224754920733
 10
0.8821722150554638
 20
0.761083577934947
 10
0.8784264668422974
 20
0.7633818851494495
 10
0.8746807186291327
 20
0.7654083267670016
 10
0.8709497531728924
 20
0.7671549053483345
 10
0.8672482948897215
 20
0.7686147279457208
 10
0.863590951744424
 20
0.7697820333063027
 10
0.8599921575995175
 20
0.7706522146091091
 10
0.8564661152513579
 20
0.7712218376460863
 10
0.8530267403781977
 20
0.7714886543753446
 10
0.8496876066213605
 20
0.7714516117931519
 10
0.8464618920162774
 20
0.7711108560896508
 10
0.843362326984808
 20
0.7704677320719336
 10
0.8404011440940735
 20
0.7695247778566808
 10
0.8375900297801095
 20
0.7682857148533822
 10
0.8349400782268379
 20
0.766755433077641
 10
0.8324617475823892
 20
0.7649399718525041
 10
0.8301648186855761
 20
0.7628464959740276
 10
0.8280583564653891
 20
0.7604832674350791
 10
0.8261506741658557
 20
0.7578596128190468
 10
0.8244493005374824
 20
0.7549858864920703
 10
0.8229609501246901
 20
0.751873429739076
 10
0.8216914967665989
 20
0.748534526004926
 10
0.8206459504156544
 20
0.7449823524172564
 10
0.8198284373656381
 20
0.7412309277823857
 10
0.8192421839670736
 20
0.7372950572594837
 10
0.818889503894292
 20
0.7331902739313757
 10
0.818771789014411
 20
0.7289327775025657
  0
LWPOLYLINE
  5
F30
330
1F
100
AcDbEntity
  8
0
100
AcDbPolyline
 90
       83
 70
   128
 43
0.0
 10
0.818771789014411
 20
0.7404120816620522
 10
0.81888953633322
 20
0.7450171022476705
 10
0.819242379869987
 20
0.7494705927407564
 10
0.8198291257138734
 20
0.7537574839391964
 10
0.8206477885026774
 20
0.7578632703601647
 10
0.8216955981406606
 20
0.7617740593220644
 10
0.8229690091716825
 20
0.7654766179529807
 10
0.8244637127759091
 20
0.7689584179665231
 10
0.8261746513494738
 20
0.7722076780535828
 10
0.8280960356178326
 20
0.7752134037465569
 10
0.8302213642248208
 20
0.7779654246211399
 10
0.8325434457311882
 20
0.7804544287098237
 10
0.835054422948156
 20
0.7826719940106449
 10
0.8377457995236525
 20
0.7846106169845813
 10
0.8406084686912826
 20
0.7862637379451466
 10
0.8436327440847382
 20
0.7876257632542936
 10
0.8468083925133971
 20
0.788692084249515
 10
0.8501246685882097
 20
0.789459092838097
 10
0.8535703510806804
 20
0.7899241937057669
 10
0.8571337808919547
 20
0.7900858130984128
 10
0.8608029005035344
 20
0.7899434041471717
 10
0.8645652947760833
 20
0.7894974487188565
 10
0.8684082329583393
 20
0.7887494557854672
 10
0.8723187117639543
 20
0.7877019563183259
 10
0.8762834993704728
 20
0.7863584947240464
 10
0.8802891801916654
 20
0.7847236168514014
 10
0.8843222002715993
 20
0.7828028546096063
 10
0.8883689131469463
 20
0.7806027072500806
 10
0.8924156260222932
 20
0.7781306193750533
 10
0.8964486461022289
 20
0.7753949557473677
 10
0.9004543269234197
 20
0.7724049729867913
 10
0.9044191145299418
 20
0.7691707882485249
 10
0.9083295933355515
 20
0.7657033449899656
 10
0.9121725315178093
 20
0.7620143759415095
 10
0.9159349257903599
 20
0.7581163634066995
 10
0.9196040454019378
 20
0.754022497026069
 10
0.9231674752132121
 20
0.7497466291475606
 10
0.9266131577056828
 20
0.74530322795459
 10
0.9299294337804955
 20
0.7407073285102646
 10
0.9331050822091544
 20
0.7359744818835042
 10
0.9361293576026099
 20
0.7311207025291483
 10
0.93899202677024
 20
0.7261624141001074
 10
0.9416834033457348
 20
0.7211163938749115
 10
0.9441943805627026
 20
0.715999715988726
 10
0.9465164620690718
 20
0.7108296936598676
 10
0.9486417906760582
 20
0.7056238206073696
 10
0.9505631749444187
 20
0.7003997118577575
 10
0.9522741135179835
 20
0.6951750441413916
 10
0.95376881712221
 20
0.6899674960799941
 10
0.955042228153232
 20
0.6847946883677876
 10
0.9560900377912151
 20
0.6796741241486649
 10
0.9569087005800174
 20
0.6746231297910617
 10
0.9574954464239056
 20
0.6696587962610322
 10
0.9578482899606708
 20
0.6647979212918197
 10
0.9579660372794798
 20
0.6600569525456431
 10
0.9578482899606708
 20
0.655451931960023
 10
0.9574954464239056
 20
0.6509984414669371
 10
0.9569087005800174
 20
0.6467115502684953
 10
0.9560900377912151
 20
0.6426057638475287
 10
0.955042228153232
 20
0.6386949748856291
 10
0.95376881712221
 20
0.6349924162547128
 10
0.9522741135179835
 20
0.6315106162411722
 10
0.9505631749444187
 20
0.6282613561541089
 10
0.9486417906760582
 20
0.6252556304611348
 10
0.9465164620690718
 20
0.6225036095865536
 10
0.9441943805627026
 20
0.6200146054978715
 10
0.9416834033457348
 20
0.6177970401970504
 10
0.9389920267702365
 20
0.6158584172231104
 10
0.9361293576026099
 20
0.6142052962625469
 10
0.9331050822091544
 20
0.6128432709533998
 10
0.9299294337804919
 20
0.6117769499581803
 10
0.9266131577056828
 20
0.6110099413695983
 10
0.9231674752132121
 20
0.6105448405019283
 10
0.919604045401936
 20
0.6103832211092806
 10
0.9159349257903581
 20
0.6105256300605218
 10
0.9121725315178093
 20
0.6109715854888388
 10
0.9083295933355497
 20
0.6117195784222245
 10
0.9044191145299382
 20
0.6127670778893693
 10
0.9004543269234197
 20
0.6141105394836489
 10
0.8964486461022271
 20
0.615745417356292
 10
0.8924156260222932
 20
0.617666179598089
 10
0.8883689131469463
 20
0.6198663269576146
 10
0.8883576016569598
 20
0.6198728580032656
  0
LWPOLYLINE
  5
F31
330
1F
100
AcDbEntity
  8
0
100
AcDbPolyline
 90
       42
 70
   128
 43
0.0
 10
1.00370129028086
 20
0.6864593521124628
 10
1.003583542962052
 20
0.6912003208586393
 10
1.003230699425285
 20
0.6960611958278536
 10
1.002643953581397
 20
0.7010255293578832
 10
1.001825290792593
 20
0.7060765237154845
 10
1.000777481154612
 20
0.7111970879346073
 10
0.9995040701235886
 20
0.7163698956468137
 10
0.9980093665193638
 20
0.7215774437082113
 10
0.9962984279457973
 20
0.7268021114245807
 10
0.9943770436774403
 20
0.732026220174191
 10
0.9922517150704504
 20
0.737232093226689
 10
0.9899296335640812
 20
0.7424021155555457
 10
0.9874186563471152
 20
0.7475187934417312
 10
0.9847272797716186
 20
0.752564813666927
 10
0.9818646106039903
 20
0.7575231020959715
 10
0.9788403352105348
 20
0.7623768814503239
 10
0.9756646867818741
 20
0.7671097280770843
 10
0.9723484107070614
 20
0.7717056275214097
 10
0.9689027282145925
 20
0.7761490287143838
 10
0.9653392984033164
 20
0.7804248965928887
 10
0.9616701787917385
 20
0.7845187629735209
 10
0.9579077845191896
 20
0.7884167755083292
 10
0.9540648463369318
 20
0.7921057445567853
 10
0.9501543675313204
 20
0.7955731878153446
 10
0.9461895799247983
 20
0.798807372553611
 10
0.9421838991036075
 20
0.8017973553141873
 10
0.9381508790236718
 20
0.8045330189418729
 10
0.9341041661483249
 20
0.807005106816902
 10
0.9300574532729779
 20
0.8092052541764259
 10
0.926024433193044
 20
0.811126016418221
 10
0.9220187523718514
 20
0.8127608942908659
 10
0.9180539647653329
 20
0.8141043558851455
 10
0.9141434859597215
 20
0.8151518553522885
 10
0.9103005477774619
 20
0.8158998482856761
 10
0.906538153504913
 20
0.8163458037139912
 10
0.9028690338933351
 20
0.8164882126652324
 10
0.899305604082059
 20
0.8163265932725865
 10
0.8958599215895883
 20
0.8158614924049148
 10
0.8925436455147792
 20
0.8150944838163345
 10
0.8893679970861168
 20
0.8140281628211132
 10
0.8863437216926612
 20
0.8126661375119661
 10
0.8848955671012763
 20
0.8118779464325436
  0
ARC
  5
F32
330
1F
100
AcDbEntity
  8
0
100
AcDbCircle
 10
0.9546424129477042
 20
0.6815115352173001
 30
0.0
 40
0.0493077512894038
100
AcDbArc
 50
305.5531072145129
 51
5.759073178861255
  0
LINE
  5
F33
330
1F
100
AcDbEntity
  8
0
100
AcDbLine
 10
0.8505876171892854
 20
0.7291261293334691
 30
0.0
 11
0.8505876171892854
 21
0.6920056523613008
 31
0.0
  0
LINE
  5
F34
330
1F
100
AcDbEntity
  8
0
100
AcDbLine
 10
0.8505876171892854
 20
0.6920056523613008
 30
0.0
 11
0.8784264668422974
 21
0.6573743880519343
 31
0.0
  0
LINE
  5
F35
330
1F
100
AcDbEntity
  8
0
100
AcDbLine
 10
0.8784264668422974
 20
0.6573743880519343
 30
0.0
 11
0.9062653164953129
 21
0.6598636007147361
 31
0.0
  0
LINE
  5
F36
330
1F
100
AcDbEntity
  8
0
100
AcDbLine
 10
0.9062653164953129
 20
0.6598636007147361
 30
0.0
 11
0.9062653164953129
 21
0.6969840776869062
 31
0.0
  0
LINE
  5
F37
330
1F
100
AcDbEntity
  8
0
100
AcDbLine
 10
0.9062653164953129
 20
0.6969840776869062
 30
0.0
 11
0.8784264668422974
 21
0.7316153419962726
 31
0.0
  0
LINE
  5
F38
330
1F
100
AcDbEntity
  8
0
100
AcDbLine
 10
0.8784264668422974
 20
0.7316153419962726
 30
0.0
 11
0.8505876171892854
 21
0.7291261293334691
 31
0.0
  0
LWPOLYLINE
  5
F39
330
1F
100
AcDbEntity
  8
0
100
AcDbPolyline
 90
        3
 70
   128
 43
0.0
 10
0.9062653164953129
 20
0.6939592463210714
 10
0.905836180265954
 20
0.6944282557117293
 10
0.903481431530011
 20
0.6971894563592115
  0
ARC
  5
F3A
330
1F
100
AcDbEntity
  8
0
100
AcDbCircle
 10
0.9561042488617772
 20
0.7393476407149605
 30
0.0
 40
0.0674275419402617
100
AcDbArc
 50
204.6607308909927
 51
218.6995741934971
  0
LINE
  5
F3B
330
1F
100
AcDbEntity
  8
0
100
AcDbLine
 10
0.9062653164953129
 20
0.673445413875214
 30
0.0
 11
0.8784264668422974
 21
0.6573743880519343
 31
0.0
  0
ARC
  5
F3C
330
1F
100
AcDbEntity
  8
0
100
AcDbCircle
 10
0.9045656777004751
 20
0.7095847102561413
 30
0.0
 40
0.0940350388743912
100
AcDbArc
 50
7.939870907205476
 51
52.0547525600962
  0
LWPOLYLINE
  5
F3D
330
1F
100
AcDbEntity
  8
0
100
AcDbPolyline
 90
       33
 70
   128
 43
0.0
 10
1.087217839239901
 20
0.7668144812288718
 10
1.087101074635091
 20
0.7704854414230339
 10
1.086751433815699
 20
0.7742706856618361
 10
1.086170872115015
 20
0.7781490453240563
 10
1.085362636269564
 20
0.7820988310492572
 10
1.084331246262046
 20
0.7860979540334777
 10
1.083082470043752
 20
0.7901240495588001
 10
1.081623291277848
 20
0.794154602065907
 10
1.07996187028389
 20
0.798167071070237
 10
1.078107498402012
 20
0.8021390172175093
 10
1.076070546031976
 20
0.8060482277736953
 10
1.073862404637706
 20
0.8098728408476441
 10
1.071495423041579
 20
0.8135914676516387
 10
1.068982838364821
 20
0.8171833121161744
 10
1.066338702000139
 20
0.8206282871900219
 10
1.063577801030652
 20
0.8239071271751557
 10
1.060715575534501
 20
0.8270014954683533
 10
1.057768032237691
 20
0.8298940871069325
 10
1.054751654997968
 20
0.8325687255451049
 10
1.051683312620415
 20
0.835010453119789
 10
1.048580164520242
 20
0.8372056146999307
 10
1.045459564760381
 20
0.8391419340515342
 10
1.042338965000519
 20
0.8408085824913429
 10
1.039235816900344
 20
0.842196239445222
 10
1.036167474522793
 20
0.8432971445726023
 10
1.03315109728307
 20
0.8441051411654443
 10
1.030203553986257
 20
0.8446157105790435
 10
1.027341328490107
 20
0.8448259975021359
 10
1.02458042752062
 20
0.844734825924945
 10
1.02193629115594
 20
0.844342705715915
 10
1.01942370647918
 20
0.8436518297703122
 10
1.017056724883056
 20
0.842666061746671
 10
1.015934405332149
 20
0.8420656378209192
  0
ARC
  5
F3E
330
1F
100
AcDbEntity
  8
0
100
AcDbCircle
 10
1.057328514836614
 20
0.7640511980581282
 30
0.0
 40
0.0300167860898973
100
AcDbArc
 50
306.0301710422348
 51
5.28200935114228
  0
LINE
  5
F3F
330
1F
100
AcDbEntity
  8
0
100
AcDbLine
 10
0.8895620067035032
 20
0.7177628362725271
 30
0.0
 11
0.8895620067035032
 21
0.7145050885138956
 31
0.0
  0
LINE
  5
F40
330
1F
100
AcDbEntity
  8
0
100
AcDbLine
 10
0.8895620067035032
 20
0.7145050885138956
 30
0.0
 11
0.8505876171892854
 21
0.6920056523613008
 31
0.0
  0
LINE
  5
F41
330
1F
100
AcDbEntity
  8
0
100
AcDbLine
 10
0.903481431530011
 20
0.6971894563592115
 30
0.0
 11
0.9062653164953129
 21
0.6937263299282746
 31
0.0
  0
LINE
  5
F42
330
1F
100
AcDbEntity
  8
0
100
AcDbLine
 10
0.8895620067035032
 20
0.7145050885138956
 30
0.0
 11
0.903481431530011
 21
0.6971894563592115
 31
0.0
  0
SPLINE
  5
F43
330
1F
100
AcDbEntity
  8
0
100
AcDbSpline
210
0.0
220
0.0
230
1.0
 70
     8
 71
     3
 72
    31
 73
    27
 74
     0
 42
0.0000000001
 43
0.0000000001
 40
0.0
 40
0.0
 40
0.0
 40
0.0
 40
0.0310193689604986
 40
0.0745753027934788
 40
0.1182570891691568
 40
0.1623166353270468
 40
0.2061864840316816
 40
0.2493136844450571
 40
0.2912003001173284
 40
0.3330869157896017
 40
0.376214116202977
 40
0.4200839649076115
 40
0.4641435110655012
 40
0.5078252974411789
 40
0.5505905712619209
 40
0.5921517131595723
 40
0.6345023806894716
 40
0.6779359243105003
 40
0.721932054982446
 40
0.7659281856543917
 40
0.8093617292754203
 40
0.8517123968053198
 40
0.893273538702971
 40
0.9360388125237154
 40
0.979720598899393
 40
1.0
 40
1.0
 40
1.0
 40
1.0
 10
1.160169140772781
 20
0.8135113068006594
 30
0.0
 10
1.161021186817226
 20
0.8135483985012486
 30
0.0
 10
1.163069635702159
 20
0.813637572617141
 30
0.0
 10
1.165852272983771
 20
0.8147945811854702
 30
0.0
 10
1.16847623565688
 20
0.8168261369071439
 30
0.0
 10
1.170512257266388
 20
0.8197091277431541
 30
0.0
 10
1.171910901741172
 20
0.8233128024671783
 30
0.0
 10
1.172633614102503
 20
0.8274893204973084
 30
0.0
 10
1.172708129598975
 20
0.8321126377098247
 30
0.0
 10
1.172124994928232
 20
0.8371157271223735
 30
0.0
 10
1.170840944450382
 20
0.8424503597912378
 30
0.0
 10
1.168855853389819
 20
0.8480088057553681
 30
0.0
 10
1.166221461400704
 20
0.8535828117221624
 30
0.0
 10
1.163042978397458
 20
0.8589616836454519
 30
0.0
 10
1.159453365334536
 20
0.8639607651850445
 30
0.0
 10
1.155538890620267
 20
0.868528073487276
 30
0.0
 10
1.151285219939989
 20
0.8726028209468877
 30
0.0
 10
1.146720249906215
 20
0.8761158978990513
 30
0.0
 10
1.141976854720498
 20
0.878924746349975
 30
0.0
 10
1.137233634785939
 20
0.8809078228533804
 30
0.0
 10
1.132668146108342
 20
0.8820069294646069
 30
0.0
 10
1.128416304715855
 20
0.8822280543106726
 30
0.0
 10
1.124495090220976
 20
0.8816206050985966
 30
0.0
 10
1.120931404396632
 20
0.8800991454681719
 30
0.0
 10
1.11825056740807
 20
0.8782599097075907
 30
0.0
 10
1.11701508652084
 20
0.8766477066981186
 30
0.0
 10
1.116623367519789
 20
0.8761365449643426
 30
0.0
  0
SPLINE
  5
F44
330
1F
100
AcDbEntity
  8
0
100
AcDbSpline
210
0.0
220
0.0
230
1.0
 70
     8
 71
     3
 72
    31
 73
    27
 74
     0
 42
0.0000000001
 43
0.0000000001
 40
0.0
 40
0.0
 40
0.0
 40
0.0
 40
0.0319491477156124
 40
0.0747082766150987
 40
0.1183837863762803
 40
0.1624370016395557
 40
0.2063005467071102
 40
0.2494215501941746
 40
0.2913021471991511
 40
0.3331827442041257
 40
0.3763037476911905
 40
0.4201672927587454
 40
0.4642205080220213
 40
0.5078960177832032
 40
0.5506551466826898
 40
0.5922103166802116
 40
0.6345548988634299
 40
0.6779822015398419
 40
0.7219720104293133
 40
0.7659618193187845
 40
0.8093891219951967
 40
0.8517337041784148
 40
0.8932888741759368
 40
0.9360480030754256
 40
0.9797235128366075
 40
1.0
 40
1.0
 40
1.0
 40
1.0
 10
1.14902587488155
 20
0.8070719955834258
 30
0.0
 10
1.149901388891171
 20
0.8071159282820515
 30
0.0
 10
1.151948646720812
 20
0.8072186582900807
 30
0.0
 10
1.154733048165226
 20
0.8083769392862548
 30
0.0
 10
1.157340555533247
 20
0.8103981266349984
 30
0.0
 10
1.159376754968432
 20
0.8132806102757593
 30
0.0
 10
1.160775352012828
 20
0.8168844202809617
 30
0.0
 10
1.161498076781924
 20
0.8210609029216085
 30
0.0
 10
1.161572589066105
 20
0.8256842292962287
 30
0.0
 10
1.160989455252837
 20
0.8306873162630912
 30
0.0
 10
1.159705404537819
 20
0.8360219496084136
 30
0.0
 10
1.157720313542547
 20
0.8415803953863177
 30
0.0
 10
1.155085921535791
 20
0.8471544014034238
 30
0.0
 10
1.151907438537218
 20
0.8525332733133781
 30
0.0
 10
1.148317825473082
 20
0.8575323548564417
 30
0.0
 10
1.144403350759128
 20
0.8620996631577726
 30
0.0
 10
1.140149680078765
 20
0.8661744106176294
 30
0.0
 10
1.135584710045016
 20
0.869687487569722
 30
0.0
 10
1.130841314859289
 20
0.8724963360206652
 30
0.0
 10
1.126098094924735
 20
0.8744794125240671
 30
0.0
 10
1.121532606247136
 20
0.8755785191352954
 30
0.0
 10
1.117280764854649
 20
0.8757996439813611
 30
0.0
 10
1.113359550359772
 20
0.8751921947692851
 30
0.0
 10
1.109795864535428
 20
0.8736707351388604
 30
0.0
 10
1.107115027546866
 20
0.8718314993782774
 30
0.0
 10
1.105879546659636
 20
0.8702192963688053
 30
0.0
 10
1.105487827658583
 20
0.869708134635031
 30
0.0
  0
SPLINE
  5
F45
330
1F
100
AcDbEntity
  8
0
100
AcDbSpline
210
0.0
220
0.0
230
1.0
 70
     8
 71
     3
 72
    31
 73
    27
 74
     0
 42
0.0000000001
 43
0.0000000001
 40
0.0
 40
0.0
 40
0.0
 40
0.0
 40
0.0319491477156126
 40
0.0747082766151
 40
0.1183837863762818
 40
0.1624370016395574
 40
0.206300546707112
 40
0.2494215501941766
 40
0.291302147199151
 40
0.3331827442041254
 40
0.37630374769119
 40
0.4201672927587447
 40
0.4642205080220203
 40
0.5078960177832033
 40
0.5506551466826896
 40
0.5922103166802116
 40
0.6345548988634299
 40
0.677982201539842
 40
0.7219720104293146
 40
0.765961819318786
 40
0.8093891219951983
 40
0.8517337041784164
 40
0.8932888741759384
 40
0.9360480030754247
 40
0.9797235128366065
 40
1.0
 40
1.0
 40
1.0
 40
1.0
 10
1.137890335020346
 20
0.8006435852541125
 30
0.0
 10
1.138765849029965
 20
0.80068751795274
 30
0.0
 10
1.140813106859608
 20
0.8007902479607709
 30
0.0
 10
1.143597508304019
 20
0.8019485289569432
 30
0.0
 10
1.146205015672039
 20
0.8039697163056851
 30
0.0
 10
1.148241215107226
 20
0.806852199946446
 30
0.0
 10
1.149639812151622
 20
0.810456009951652
 30
0.0
 10
1.150362536920717
 20
0.8146324925922952
 30
0.0
 10
1.150437049204901
 20
0.8192558189669172
 30
0.0
 10
1.149853915391631
 20
0.8242589059337779
 30
0.0
 10
1.148569864676613
 20
0.8295935392791003
 30
0.0
 10
1.146584773681341
 20
0.8351519850570044
 30
0.0
 10
1.143950381674587
 20
0.8407259910741105
 30
0.0
 10
1.140771898676012
 20
0.8461048629840666
 30
0.0
 10
1.137182285611878
 20
0.8511039445271284
 30
0.0
 10
1.133267810897923
 20
0.8556712528284593
 30
0.0
 10
1.129014140217561
 20
0.8597460002883162
 30
0.0
 10
1.124449170183808
 20
0.8632590772404105
 30
0.0
 10
1.119705774998084
 20
0.8660679256913519
 30
0.0
 10
1.114962555063529
 20
0.8680510021947521
 30
0.0
 10
1.110397066385928
 20
0.8691501088059821
 30
0.0
 10
1.106145224993445
 20
0.8693712336520478
 30
0.0
 10
1.102224010498565
 20
0.8687637844399718
 30
0.0
 10
1.098660324674222
 20
0.8672423248095471
 30
0.0
 10
1.09597948768566
 20
0.8654030890489659
 30
0.0
 10
1.094744006798428
 20
0.8637908860394938
 30
0.0
 10
1.094352287797379
 20
0.8632797243057177
 30
0.0
  0
SPLINE
  5
F46
330
1F
100
AcDbEntity
  8
0
100
AcDbSpline
210
0.0
220
0.0
230
1.0
 70
     8
 71
     3
 72
    31
 73
    27
 74
     0
 42
0.0000000001
 43
0.0000000001
 40
0.0
 40
0.0
 40
0.0
 40
0.0
 40
0.0319491477156115
 40
0.0747082766150991
 40
0.118383786376281
 40
0.1624370016395567
 40
0.2063005467071115
 40
0.2494215501941763
 40
0.2913021471991509
 40
0.3331827442041253
 40
0.3763037476911899
 40
0.4201672927587445
 40
0.4642205080220201
 40
0.5078960177832031
 40
0.5506551466826892
 40
0.5922103166802114
 40
0.6345548988634296
 40
0.6779822015398418
 40
0.7219720104293145
 40
0.765961819318786
 40
0.8093891219951981
 40
0.8517337041784164
 40
0.8932888741759384
 40
0.9360480030754247
 40
0.9797235128366065
 40
1.0
 40
1.0
 40
1.0
 40
1.0
 10
1.12675479515914
 20
0.7942151749248011
 30
0.0
 10
1.127630309168761
 20
0.7942591076234267
 30
0.0
 10
1.129677566998402
 20
0.7943618376314559
 30
0.0
 10
1.132461968442813
 20
0.79552011862763
 30
0.0
 10
1.135069475810835
 20
0.7975413059763737
 30
0.0
 10
1.137105675246022
 20
0.8004237896171344
 30
0.0
 10
1.138504272290418
 20
0.8040275996223369
 30
0.0
 10
1.139226997059513
 20
0.8082040822629837
 30
0.0
 10
1.139301509343695
 20
0.8128274086376039
 30
0.0
 10
1.138718375530427
 20
0.8178304956044664
 30
0.0
 10
1.137434324815407
 20
0.8231651289497888
 30
0.0
 10
1.135449233820137
 20
0.8287235747276911
 30
0.0
 10
1.132814841813381
 20
0.834297580744799
 30
0.0
 10
1.129636358814808
 20
0.8396764526547533
 30
0.0
 10
1.126046745750672
 20
0.8446755341978169
 30
0.0
 10
1.122132271036718
 20
0.8492428424991478
 30
0.0
 10
1.117878600356355
 20
0.8533175899590046
 30
0.0
 10
1.113313630322602
 20
0.8568306669110972
 30
0.0
 10
1.108570235136879
 20
0.8596395153620404
 30
0.0
 10
1.103827015202323
 20
0.8616225918654388
 30
0.0
 10
1.099261526524724
 20
0.8627216984766706
 30
0.0
 10
1.095009685132239
 20
0.8629428233227345
 30
0.0
 10
1.091088470637359
 20
0.8623353741106585
 30
0.0
 10
1.087524784813018
 20
0.860813914480232
 30
0.0
 10
1.084843947824456
 20
0.8589746787196526
 30
0.0
 10
1.083608466937224
 20
0.8573624757101805
 30
0.0
 10
1.083216747936173
 20
0.8568513139764062
 30
0.0
  0
SPLINE
  5
F47
330
1F
100
AcDbEntity
  8
0
100
AcDbSpline
210
0.0
220
0.0
230
1.0
 70
     8
 71
     3
 72
    31
 73
    27
 74
     0
 42
0.0000000001
 43
0.0000000001
 40
0.0
 40
0.0
 40
0.0
 40
0.0
 40
0.0319491477156114
 40
0.0747082766150988
 40
0.1183837863762805
 40
0.1624370016395562
 40
0.2063005467071107
 40
0.2494215501941753
 40
0.2913021471991509
 40
0.3331827442041243
 40
0.3763037476911891
 40
0.4201672927587439
 40
0.4642205080220197
 40
0.5078960177832029
 40
0.5506551466826892
 40
0.5922103166802115
 40
0.6345548988634297
 40
0.6779822015398418
 40
0.7219720104293145
 40
0.765961819318786
 40
0.8093891219951981
 40
0.8517337041784164
 40
0.8932888741759384
 40
0.9360480030754247
 40
0.9797235128366065
 40
1.0
 40
1.0
 40
1.0
 40
1.0
 10
1.115619255297932
 20
0.7877867645954878
 30
0.0
 10
1.116494769307555
 20
0.7878306972941135
 30
0.0
 10
1.118542027137195
 20
0.7879334273021462
 30
0.0
 10
1.121326428581609
 20
0.7890917082983185
 30
0.0
 10
1.123933935949629
 20
0.7911128956470604
 30
0.0
 10
1.125970135384816
 20
0.7939953792878212
 30
0.0
 10
1.127368732429212
 20
0.7975991892930237
 30
0.0
 10
1.128091457198307
 20
0.8017756719336704
 30
0.0
 10
1.128165969482491
 20
0.8063989983082906
 30
0.0
 10
1.127582835669221
 20
0.8114020852751531
 30
0.0
 10
1.126298784954201
 20
0.8167367186204755
 30
0.0
 10
1.124313693958931
 20
0.8222951643983796
 30
0.0
 10
1.121679301952177
 20
0.8278691704154857
 30
0.0
 10
1.118500818953602
 20
0.83324804232544
 30
0.0
 10
1.114911205889464
 20
0.8382471238685036
 30
0.0
 10
1.110996731175513
 20
0.8428144321698345
 30
0.0
 10
1.106743060495148
 20
0.8468891796296913
 30
0.0
 10
1.102178090461398
 20
0.8504022565817857
 30
0.0
 10
1.097434695275673
 20
0.8532111050327271
 30
0.0
 10
1.092691475341119
 20
0.8551941815361272
 30
0.0
 10
1.088125986663518
 20
0.8562932881473573
 30
0.0
 10
1.083874145271034
 20
0.856514412993423
 30
0.0
 10
1.079952930776155
 20
0.855906963781347
 30
0.0
 10
1.07638924495181
 20
0.8543855041509205
 30
0.0
 10
1.07370840796325
 20
0.8525462683903393
 30
0.0
 10
1.072472927076018
 20
0.850934065380869
 30
0.0
 10
1.072081208074967
 20
0.8504229036470929
 30
0.0
  0
SPLINE
  5
F48
330
1F
100
AcDbEntity
  8
0
100
AcDbSpline
210
0.0
220
0.0
230
1.0
 70
     8
 71
     3
 72
    31
 73
    27
 74
     0
 42
0.0000000001
 43
0.0000000001
 40
0.0
 40
0.0
 40
0.0
 40
0.0
 40
0.031949147715612
 40
0.0747082766150988
 40
0.1183837863762805
 40
0.1624370016395562
 40
0.2063005467071107
 40
0.2494215501941753
 40
0.2913021471991509
 40
0.3331827442041253
 40
0.3763037476911899
 40
0.4201672927587445
 40
0.4642205080220201
 40
0.5078960177832025
 40
0.5506551466826887
 40
0.5922103166802107
 40
0.634554898863429
 40
0.6779822015398413
 40
0.7219720104293134
 40
0.765961819318785
 40
0.8093891219951972
 40
0.8517337041784157
 40
0.8932888741759377
 40
0.9360480030754253
 40
0.979723512836607
 40
0.9999999999999998
 40
0.9999999999999998
 40
0.9999999999999998
 40
0.9999999999999998
 10
1.104483715436728
 20
0.7813583542661745
 30
0.0
 10
1.105359229446348
 20
0.7814022869648019
 30
0.0
 10
1.107406487275991
 20
0.7815050169728311
 30
0.0
 10
1.110190888720403
 20
0.7826632979690052
 30
0.0
 10
1.112798396088425
 20
0.7846844853177471
 30
0.0
 10
1.114834595523612
 20
0.7875669689585079
 30
0.0
 10
1.116233192568005
 20
0.7911707789637122
 30
0.0
 10
1.116955917337101
 20
0.795347261604359
 30
0.0
 10
1.117030429621285
 20
0.7999705879789792
 30
0.0
 10
1.116447295808013
 20
0.8049736749458416
 30
0.0
 10
1.115163245092995
 20
0.8103083082911622
 30
0.0
 10
1.113178154097726
 20
0.8158667540690663
 30
0.0
 10
1.110543762090969
 20
0.8214407600861724
 30
0.0
 10
1.107365279092398
 20
0.8268196319961285
 30
0.0
 10
1.10377566602826
 20
0.8318187135391903
 30
0.0
 10
1.099861191314305
 20
0.8363860218405195
 30
0.0
 10
1.095607520633944
 20
0.840460769300378
 30
0.0
 10
1.091042550600192
 20
0.8439738462524724
 30
0.0
 10
1.086299155414469
 20
0.8467826947034138
 30
0.0
 10
1.081555935479913
 20
0.848765771206814
 30
0.0
 10
1.076990446802314
 20
0.849864877818044
 30
0.0
 10
1.07273860540983
 20
0.8500860026641097
 30
0.0
 10
1.068817390914949
 20
0.8494785534520337
 30
0.0
 10
1.065253705090604
 20
0.8479570938216072
 30
0.0
 10
1.062572868102042
 20
0.8461178580610278
 30
0.0
 10
1.061337387214813
 20
0.8445056550515557
 30
0.0
 10
1.060945668213761
 20
0.8439944933177796
 30
0.0
  0
SPLINE
  5
F49
330
1F
100
AcDbEntity
  8
0
100
AcDbSpline
210
0.0
220
0.0
230
1.0
 70
     8
 71
     3
 72
    31
 73
    27
 74
     0
 42
0.0000000001
 43
0.0000000001
 40
0.0
 40
0.0
 40
0.0
 40
0.0
 40
0.0321741871397589
 40
0.0744538241961023
 40
0.1176395660126459
 40
0.1611987778215331
 40
0.2045704463562265
 40
0.2472079000149302
 40
0.28861885684793
 40
0.3300298136809295
 40
0.3726672673396335
 40
0.4160389358743272
 40
0.4595981476832148
 40
0.5027838894997582
 40
0.5450635265561014
 40
0.586152705651398
 40
0.6280224446308204
 40
0.6709627627044359
 40
0.7144592791652067
 40
0.7579557956259779
 40
0.8008961136995932
 40
0.8427658526790152
 40
0.8838550317743116
 40
0.9261346688306552
 40
0.9693204106471991
 40
0.9999999999999998
 40
0.9999999999999998
 40
0.9999999999999998
 40
0.9999999999999998
 10
1.093300657407983
 20
0.7749253888915993
 30
0.0
 10
1.094192514524193
 20
0.7749697491528556
 30
0.0
 10
1.096256348263022
 20
0.7750724025960859
 30
0.0
 10
1.099055569703397
 20
0.7762344094078307
 30
0.0
 10
1.101662795936752
 20
0.7782562055457357
 30
0.0
 10
1.103699071808611
 20
0.7811385236650457
 30
0.0
 10
1.105097648465507
 20
0.7847423778188015
 30
0.0
 10
1.105820378567957
 20
0.7889188489102173
 30
0.0
 10
1.10589488947139
 20
0.7935421782748316
 30
0.0
 10
1.10531175602661
 20
0.7985452644436676
 30
0.0
 10
1.104027705209976
 20
0.8038798980092954
 30
0.0
 10
1.102042614241508
 20
0.8094383437281605
 30
0.0
 10
1.099408222231907
 20
0.8150123497551787
 30
0.0
 10
1.096229739217923
 20
0.8203912216847156
 30
0.0
 10
1.092640126216245
 20
0.8253903031423773
 30
0.0
 10
1.088725651273357
 20
0.8299576117581535
 30
0.0
 10
1.084471981465982
 20
0.8340323580185645
 30
0.0
 10
1.079907008064887
 20
0.8375454395973347
 30
0.0
 10
1.075163625668167
 20
0.8403542704763554
 30
0.0
 10
1.070420358091869
 20
0.8423374124388887
 30
0.0
 10
1.065855043543242
 20
0.8434362797991726
 30
0.0
 10
1.061602573560938
 20
0.8436582683194851
 30
0.0
 10
1.057683672652325
 20
0.8430476402699349
 30
0.0
 10
1.054111078569279
 20
0.8415384204712362
 30
0.0
 10
1.051190972523111
 20
0.8394715337582566
 30
0.0
 10
1.049761129826313
 20
0.8375699778209922
 30
0.0
 10
1.049167251939591
 20
0.8367801762406992
 30
0.0
  0
SPLINE
  5
F4A
330
1F
100
AcDbEntity
  8
0
100
AcDbSpline
210
0.0
220
0.0
230
1.0
 70
     8
 71
     3
 72
    13
 73
     9
 74
     0
 42
0.0000000001
 43
0.0000000001
 40
0.0
 40
0.0
 40
0.0
 40
0.0
 40
0.1501720246433092
 40
0.3358629228245409
 40
0.5274479648366908
 40
0.7053224275002883
 40
0.8884066507785915
 40
1.0
 40
1.0
 40
1.0
 40
1.0
 10
1.134310339725244
 20
0.8826116836984921
 30
0.0
 10
1.135275924029853
 20
0.882887892926252
 30
0.0
 10
1.137435473836479
 20
0.8835056407309272
 30
0.0
 10
1.141272113110559
 20
0.8833515677464729
 30
0.0
 10
1.145538049290161
 20
0.8823451190875884
 30
0.0
 10
1.149914828592523
 20
0.8804160039667843
 30
0.0
 10
1.15366709240644
 20
0.8781050981457878
 30
0.0
 10
1.155930339225607
 20
0.8762840536693834
 30
0.0
 10
1.156787422750909
 20
0.8755944305993972
 30
0.0
  0
SPLINE
  5
F4B
330
1F
100
AcDbEntity
  8
0
100
AcDbSpline
210
0.0
220
0.0
230
1.0
 70
     8
 71
     3
 72
    10
 73
     6
 74
     0
 42
0.0000000001
 43
0.0000000001
 40
0.0
 40
0.0
 40
0.0
 40
0.0
 40
0.5
 40
0.5
 40
1.0
 40
1.0
 40
1.0
 40
1.0
 10
1.169531562488206
 20
0.8544716234435599
 30
0.0
 10
1.168343813708952
 20
0.8583593781011201
 30
0.0
 10
1.166583291743098
 20
0.8622308172361526
 30
0.0
 10
1.162189692011279
 20
0.8694360786570969
 30
0.0
 10
1.15957357317843
 20
0.8727580440204645
 30
0.0
 10
1.156787422750911
 20
0.8755944305993955
 30
0.0
  0
SPLINE
  5
F4C
330
1F
100
AcDbEntity
  8
0
100
AcDbSpline
210
0.0
220
0.0
230
1.0
 70
     8
 71
     3
 72
    12
 73
     8
 74
     0
 42
0.0000000001
 43
0.0000000001
 40
0.0
 40
0.0
 40
0.0
 40
0.0
 40
0.1756032137117558
 40
0.4030902963263613
 40
0.6307165030726985
 40
0.858133656501586
 40
1.0
 40
1.0
 40
1.0
 40
1.0
 10
1.08658177203077
 20
0.7752218590179945
 30
0.0
 10
1.086803018985714
 20
0.7760119820385024
 30
0.0
 10
1.087310882701553
 20
0.7778256784722951
 30
0.0
 10
1.087294314460878
 20
0.7813963070170703
 30
0.0
 10
1.086669088163842
 20
0.7856902063585681
 30
0.0
 10
1.085535652118482
 20
0.7897913336836345
 30
0.0
 10
1.084379852643502
 20
0.7924074631554275
 30
0.0
 10
1.083935833220222
 20
0.7934124924225613
 30
0.0
  0
SPLINE
  5
F4D
330
1F
100
AcDbEntity
  8
0
100
AcDbSpline
210
0.0
220
0.0
230
1.0
 70
     8
 71
     3
 72
    20
 73
    16
 74
     0
 42
0.0000000001
 43
0.0000000001
 40
0.0
 40
0.0
 40
0.0
 40
0.0
 40
0.0898984706206593
 40
0.1501078298457627
 40
0.1890616019136638
 40
0.2019743144034383
 40
0.2149605905242559
 40
0.2226162661979175
 40
0.2303359991707496
 40
0.2371563444377921
 40
0.2478745020068084
 40
0.2743514387901092
 40
0.3760757988872603
 40
0.7788279909272199
 40
1.0
 40
1.0
 40
1.0
 40
1.0
 10
1.083935833220222
 20
0.7934124924225613
 30
0.0
 10
1.083865050211809
 20
0.7935554152127116
 30
0.0
 10
1.083746860394901
 20
0.7937940603166476
 30
0.0
 10
1.083563178212719
 20
0.7940811507113013
 30
0.0
 10
1.083430356404239
 20
0.7942394840340599
 30
0.0
 10
1.083335225532124
 20
0.7943152274923067
 30
0.0
 10
1.083278054491032
 20
0.794345924070427
 30
0.0
 10
1.083223323078064
 20
0.7943575172567029
 30
0.0
 10
1.083179228174138
 20
0.794352358768389
 30
0.0
 10
1.083135471421297
 20
0.7943306837966907
 30
0.0
 10
1.083077448660143
 20
0.7942723626996012
 30
0.0
 10
1.082976834629054
 20
0.7940429246600401
 30
0.0
 10
1.082888241740487
 20
0.7931152209856228
 30
0.0
 10
1.082951559208609
 20
0.7918564375067073
 30
0.0
 10
1.082939492046399
 20
0.7908505493905265
 30
0.0
 10
1.082935214413787
 20
0.7904939767569255
 30
0.0
  0
ARC
  5
F4E
330
1F
100
AcDbEntity
  8
0
100
AcDbCircle
 10
1.082117708999323
 20
0.7822097290920683
 30
0.0
 40
0.0134954795639577
100
AcDbArc
 50
291.8748820641911
 51
323.2562497404547
  0
ARC
  5
F4F
330
1F
100
AcDbEntity
  8
0
100
AcDbCircle
 10
1.036277850885658
 20
0.7856205293680335
 30
0.0
 40
0.0465071491750701
100
AcDbArc
 50
8.359100492184483
 51
51.63552297511644
  0
SPLINE
  5
F50
330
1F
100
AcDbEntity
  8
0
100
AcDbSpline
210
0.0
220
0.0
230
1.0
 70
     8
 71
     3
 72
    24
 73
    20
 74
     0
 42
0.0000000001
 43
0.0000000001
 40
0.0
 40
0.0
 40
0.0
 40
0.0
 40
0.0242285666932885
 40
0.0806458926259996
 40
0.1385459645319456
 40
0.1976711474105539
 40
0.2585086773833602
 40
0.3176713800991324
 40
0.3785498014228825
 40
0.4377046098422046
 40
0.4984467735642033
 40
0.5598589277784093
 40
0.6230231442544373
 40
0.6849147198908066
 40
0.7486011530676976
 40
0.8104904908783694
 40
0.8740755081331228
 40
0.936208133860571
 40
1.0
 40
1.0
 40
1.0
 40
1.0
 10
1.052230203235431
 20
0.834461472290746
 30
0.0
 10
1.052705866431194
 20
0.8346334244190598
 30
0.0
 10
1.054289133138523
 20
0.8352057749444677
 30
0.0
 10
1.057412120412674
 20
0.8352664911099266
 30
0.0
 10
1.061506902662046
 20
0.8346982893435653
 30
0.0
 10
1.065907383032911
 20
0.833178134831593
 30
0.0
 10
1.070390867992852
 20
0.830796995127496
 30
0.0
 10
1.074847872451771
 20
0.8275839087561374
 30
0.0
 10
1.07906950643205
 20
0.82369178106574
 30
0.0
 10
1.083010514265009
 20
0.8191675615160407
 30
0.0
 10
1.086593695701187
 20
0.8141983368651713
 30
0.0
 10
1.089763302386137
 20
0.8087953610861225
 30
0.0
 10
1.092361851273031
 20
0.8031781186687181
 30
0.0
 10
1.094315137600874
 20
0.7974709718648361
 30
0.0
 10
1.095529119736669
 20
0.7919394145303594
 30
0.0
 10
1.095977353804292
 20
0.7866545982627694
 30
0.0
 10
1.095696672655746
 20
0.7818705354601415
 30
0.0
 10
1.094747122536928
 20
0.777556753909577
 30
0.0
 10
1.093542262223826
 20
0.7752863773003876
 30
0.0
 10
1.092931894163804
 20
0.7741362312200478
 30
0.0
  0
LWPOLYLINE
  5
F51
330
1F
100
AcDbEntity
  8
0
100
AcDbPolyline
 90
        3
 70
   128
 43
0.0
 10
1.166953654538794
 20
0.8155986453556154
 10
1.168098723477712
 20
0.8163414818100827
 10
1.169831498388145
 20
0.8178374421607175
  0
SPLINE
  5
F52
330
1F
100
AcDbEntity
  8
0
100
AcDbSpline
210
0.0
220
0.0
230
1.0
 70
     8
 71
     3
 72
     9
 73
     5
 74
     0
 42
0.0000000001
 43
0.0000000001
 40
0.0
 40
0.0
 40
0.0
 40
0.0
 40
0.5117181824124363
 40
0.9999999999999998
 40
0.9999999999999998
 40
0.9999999999999998
 40
0.9999999999999998
 10
1.092931894163799
 20
0.7741362312200407
 30
0.0
 10
1.09239086585344
 20
0.7734457419765109
 30
0.0
 10
1.091333587982624
 20
0.7720963874543115
 30
0.0
 10
1.089960687622188
 20
0.7712094145552032
 30
0.0
 10
1.089290325338827
 20
0.7707763218158766
 30
0.0
  0
SPLINE
  5
F53
330
1F
100
AcDbEntity
  8
0
100
AcDbSpline
210
0.0
220
0.0
230
1.0
 70
     8
 71
     3
 72
    28
 73
    24
 74
     0
 42
0.0000000001
 43
0.0000000001
 40
0.0
 40
0.0
 40
0.0
 40
0.0
 40
0.0014244482032558
 40
0.0510670312467721
 40
0.0993118395621773
 40
0.1484731412906293
 40
0.1988914621254023
 40
0.249962842601778
 40
0.3010342230781523
 40
0.3514525439129254
 40
0.4006138456413774
 40
0.4488586539567826
 40
0.4985012370002994
 40
0.5492077218163037
 40
0.6003527159573637
 40
0.6512775063972657
 40
0.7013402193575402
 40
0.7499628426017777
 40
0.7985854658460144
 40
0.8486481788062889
 40
0.8995729692461907
 40
0.9507179633872507
 40
0.9999999999999998
 40
0.9999999999999998
 40
0.9999999999999998
 40
0.9999999999999998
 10
1.055503888292873
 20
0.8421631892740427
 30
0.0
 10
1.055533593762943
 20
0.842185559543317
 30
0.0
 10
1.056598546609032
 20
0.8429875425409408
 30
0.0
 10
1.05911500187088
 20
0.8437872580894223
 30
0.0
 10
1.062983878250369
 20
0.8444790871256076
 30
0.0
 10
1.067249939647116
 20
0.8442350367032316
 30
0.0
 10
1.071811489166458
 20
0.8431422808266082
 30
0.0
 10
1.076555786856262
 20
0.8411574667597284
 30
0.0
 10
1.081298892727085
 20
0.8383490847439974
 30
0.0
 10
1.085863938941235
 20
0.8348358849734507
 30
0.0
 10
1.090117589857895
 20
0.8307611693765879
 30
0.0
 10
1.094032069805599
 20
0.8261938526379866
 30
0.0
 10
1.097621681245934
 20
0.8211947737104663
 30
0.0
 10
1.100800165403724
 20
0.8158158999406895
 30
0.0
 10
1.10343455441604
 20
0.8102418987169935
 30
0.0
 10
1.1054196561271
 20
0.8046834357897887
 30
0.0
 10
1.106703668014358
 20
0.7993488645823506
 30
0.0
 10
1.107286942181708
 20
0.794345553000589
 30
0.0
 10
1.10721190410546
 20
0.7897230680744104
 30
0.0
 10
1.106491210255255
 20
0.7855433352638953
 30
0.0
 10
1.105084849744184
 20
0.7819519494798629
 30
0.0
 10
1.103096470680211
 20
0.7790501949100433
 30
0.0
 10
1.101303673687462
 20
0.7778141235680652
 30
0.0
 10
1.10042390370549
 20
0.7772075526809806
 30
0.0
  0
SPLINE
  5
F54
330
1F
100
AcDbEntity
  8
0
100
AcDbSpline
210
0.0
220
0.0
230
1.0
 70
     8
 71
     3
 72
    28
 73
    24
 74
     0
 42
0.0000000001
 43
0.0000000001
 40
0.0
 40
0.0
 40
0.0
 40
0.0
 40
0.0014244482032565
 40
0.0510670312467728
 40
0.099311839562178
 40
0.1484731412906299
 40
0.1988914621254028
 40
0.249962842601777
 40
0.3010342230781513
 40
0.3514525439129242
 40
0.4006138456413762
 40
0.4488586539567815
 40
0.4985012370002993
 40
0.5492077218163037
 40
0.600352715957364
 40
0.6512775063972662
 40
0.7013402193575408
 40
0.7499628426017777
 40
0.7985854658460159
 40
0.8486481788062901
 40
0.8995729692461921
 40
0.9507179633872521
 40
1.0
 40
1.0
 40
1.0
 40
1.0
 10
1.066639428154079
 20
0.8485915996033559
 30
0.0
 10
1.066669133624147
 20
0.8486139698726285
 30
0.0
 10
1.067734086470236
 20
0.8494159528702523
 30
0.0
 10
1.070250541732086
 20
0.8502156684187356
 30
0.0
 10
1.074119418111575
 20
0.8509074974549209
 30
0.0
 10
1.078385479508321
 20
0.8506634470325431
 30
0.0
 10
1.082947029027666
 20
0.8495706911559215
 30
0.0
 10
1.087691326717466
 20
0.8475858770890434
 30
0.0
 10
1.092434432588291
 20
0.8447774950733107
 30
0.0
 10
1.096999478802441
 20
0.841264295302764
 30
0.0
 10
1.101253129719102
 20
0.8371895797058995
 30
0.0
 10
1.105167609666805
 20
0.8326222629672999
 30
0.0
 10
1.108757221107138
 20
0.8276231840397796
 30
0.0
 10
1.111935705264929
 20
0.822244310270001
 30
0.0
 10
1.114570094277244
 20
0.8166703090463032
 30
0.0
 10
1.116555195988308
 20
0.811111846119102
 30
0.0
 10
1.117839207875563
 20
0.8057772749116656
 30
0.0
 10
1.118422482042912
 20
0.8007739633299005
 30
0.0
 10
1.118347443966666
 20
0.7961514784037237
 30
0.0
 10
1.117626750116459
 20
0.7919717455932068
 30
0.0
 10
1.116220389605388
 20
0.7883803598091744
 30
0.0
 10
1.114232010541416
 20
0.7854786052393566
 30
0.0
 10
1.112439213548668
 20
0.7842425338973767
 30
0.0
 10
1.111559443566697
 20
0.7836359630102957
 30
0.0
  0
SPLINE
  5
F55
330
1F
100
AcDbEntity
  8
0
100
AcDbSpline
210
0.0
220
0.0
230
1.0
 70
     8
 71
     3
 72
    28
 73
    24
 74
     0
 42
0.0000000001
 43
0.0000000001
 40
0.0
 40
0.0
 40
0.0
 40
0.0
 40
0.0014244482032565
 40
0.0510670312467728
 40
0.0993118395621779
 40
0.1484731412906299
 40
0.1988914621254028
 40
0.2499628426017771
 40
0.3010342230781514
 40
0.3514525439129243
 40
0.4006138456413763
 40
0.4488586539567815
 40
0.4985012370002992
 40
0.5492077218163033
 40
0.6003527159573635
 40
0.6512775063972656
 40
0.7013402193575401
 40
0.7499628426017781
 40
0.7985854658460151
 40
0.8486481788062894
 40
0.8995729692461917
 40
0.9507179633872519
 40
0.9999999999999998
 40
0.9999999999999998
 40
0.9999999999999998
 40
0.9999999999999998
 10
1.077774968015285
 20
0.8550200099326675
 30
0.0
 10
1.077804673485353
 20
0.8550423802019418
 30
0.0
 10
1.078869626331442
 20
0.8558443631995674
 30
0.0
 10
1.08138608159329
 20
0.8566440787480471
 30
0.0
 10
1.085254957972782
 20
0.8573359077842324
 30
0.0
 10
1.089521019369527
 20
0.8570918573618564
 30
0.0
 10
1.094082568888872
 20
0.8559991014852331
 30
0.0
 10
1.098826866578672
 20
0.8540142874183532
 30
0.0
 10
1.103569972449495
 20
0.851205905402624
 30
0.0
 10
1.108135018663645
 20
0.8476927056320755
 30
0.0
 10
1.112388669580306
 20
0.8436179900352128
 30
0.0
 10
1.116303149528009
 20
0.8390506732966114
 30
0.0
 10
1.119892760968346
 20
0.8340515943690911
 30
0.0
 10
1.123071245126135
 20
0.8286727205993143
 30
0.0
 10
1.12570563413845
 20
0.8230987193756183
 30
0.0
 10
1.127690735849512
 20
0.8175402564484135
 30
0.0
 10
1.128974747736769
 20
0.8122056852409771
 30
0.0
 10
1.129558021904118
 20
0.8072023736592138
 30
0.0
 10
1.12948298382787
 20
0.8025798887330351
 30
0.0
 10
1.128762289977666
 20
0.7984001559225201
 30
0.0
 10
1.127355929466594
 20
0.7948087701384877
 30
0.0
 10
1.125367550402621
 20
0.7919070155686681
 30
0.0
 10
1.123574753409872
 20
0.79067094422669
 30
0.0
 10
1.122694983427901
 20
0.7900643733396072
 30
0.0
  0
SPLINE
  5
F56
330
1F
100
AcDbEntity
  8
0
100
AcDbSpline
210
0.0
220
0.0
230
1.0
 70
     8
 71
     3
 72
    28
 73
    24
 74
     0
 42
0.0000000001
 43
0.0000000001
 40
0.0
 40
0.0
 40
0.0
 40
0.0
 40
0.0014244482032565
 40
0.0510670312467727
 40
0.099311839562178
 40
0.1484731412906298
 40
0.1988914621254027
 40
0.249962842601777
 40
0.3010342230781513
 40
0.3514525439129242
 40
0.4006138456413761
 40
0.4488586539567813
 40
0.4985012370002988
 40
0.5492077218163031
 40
0.6003527159573631
 40
0.6512775063972651
 40
0.7013402193575398
 40
0.7499628426017778
 40
0.7985854658460145
 40
0.8486481788062889
 40
0.899572969246191
 40
0.950717963387251
 40
1.0
 40
1.0
 40
1.0
 40
1.0
 10
1.088910507876489
 20
0.8614484202619808
 30
0.0
 10
1.088940213346557
 20
0.8614707905312551
 30
0.0
 10
1.09000516619265
 20
0.8622727735288806
 30
0.0
 10
1.092521621454496
 20
0.8630724890773604
 30
0.0
 10
1.096390497833986
 20
0.8637643181135457
 30
0.0
 10
1.100656559230731
 20
0.863520267691168
 30
0.0
 10
1.105218108750076
 20
0.8624275118145463
 30
0.0
 10
1.109962406439876
 20
0.8604426977476682
 30
0.0
 10
1.114705512310701
 20
0.8576343157319355
 30
0.0
 10
1.119270558524851
 20
0.8541211159613888
 30
0.0
 10
1.123524209441512
 20
0.8500464003645243
 30
0.0
 10
1.127438689389215
 20
0.8454790836259247
 30
0.0
 10
1.13102830082955
 20
0.8404800046984044
 30
0.0
 10
1.134206784987341
 20
0.8351011309286276
 30
0.0
 10
1.136841173999656
 20
0.8295271297049316
 30
0.0
 10
1.138826275710718
 20
0.8239686667777268
 30
0.0
 10
1.140110287597973
 20
0.8186340955702904
 30
0.0
 10
1.140693561765324
 20
0.8136307839885253
 30
0.0
 10
1.140618523689076
 20
0.8090082990623484
 30
0.0
 10
1.139897829838872
 20
0.8048285662518333
 30
0.0
 10
1.138491469327798
 20
0.8012371804677991
 30
0.0
 10
1.136503090263827
 20
0.7983354258979814
 30
0.0
 10
1.13471029327108
 20
0.7970993545560015
 30
0.0
 10
1.133830523289107
 20
0.7964927836689205
 30
0.0
  0
SPLINE
  5
F57
330
1F
100
AcDbEntity
  8
0
100
AcDbSpline
210
0.0
220
0.0
230
1.0
 70
     8
 71
     3
 72
    28
 73
    24
 74
     0
 42
0.0000000001
 43
0.0000000001
 40
0.0
 40
0.0
 40
0.0
 40
0.0
 40
0.0014244482032579
 40
0.0510670312467742
 40
0.0993118395621795
 40
0.1484731412906312
 40
0.1988914621254039
 40
0.2499628426017807
 40
0.3010342230781547
 40
0.3514525439129273
 40
0.4006138456413792
 40
0.4488586539567844
 40
0.4985012370003008
 40
0.5492077218163051
 40
0.6003527159573653
 40
0.6512775063972675
 40
0.701340219357542
 40
0.7499628426017791
 40
0.7985854658460154
 40
0.8486481788062896
 40
0.8995729692461914
 40
0.950717963387251
 40
1.0
 40
1.0
 40
1.0
 40
1.0
 10
1.100046047737697
 20
0.8678768305912923
 30
0.0
 10
1.100075753207764
 20
0.8678992008605666
 30
0.0
 10
1.101140706053854
 20
0.8687011838581922
 30
0.0
 10
1.103657161315702
 20
0.8695008994066755
 30
0.0
 10
1.107526037695192
 20
0.8701927284428572
 30
0.0
 10
1.111792099091937
 20
0.8699486780204813
 30
0.0
 10
1.116353648611282
 20
0.8688559221438579
 30
0.0
 10
1.121097946301084
 20
0.8668711080769815
 30
0.0
 10
1.125841052171907
 20
0.8640627260612488
 30
0.0
 10
1.130406098386057
 20
0.8605495262907004
 30
0.0
 10
1.134659749302718
 20
0.8564748106938376
 30
0.0
 10
1.138574229250419
 20
0.8519074939552362
 30
0.0
 10
1.142163840690756
 20
0.8469084150277177
 30
0.0
 10
1.145342324848547
 20
0.8415295412579391
 30
0.0
 10
1.14797671386086
 20
0.8359555400342431
 30
0.0
 10
1.149961815571924
 20
0.8303970771070419
 30
0.0
 10
1.151245827459181
 20
0.8250625058996019
 30
0.0
 10
1.151829101626528
 20
0.8200591943178386
 30
0.0
 10
1.151754063550281
 20
0.8154367093916617
 30
0.0
 10
1.151033369700076
 20
0.8112569765811448
 30
0.0
 10
1.149627009189003
 20
0.8076655907971124
 30
0.0
 10
1.147638630125031
 20
0.8047638362272929
 30
0.0
 10
1.145845833132286
 20
0.8035277648853147
 30
0.0
 10
1.144966063150313
 20
0.8029211939982337
 30
0.0
  0
SPLINE
  5
F58
330
1F
100
AcDbEntity
  8
0
100
AcDbSpline
210
0.0
220
0.0
230
1.0
 70
     8
 71
     3
 72
    28
 73
    24
 74
     0
 42
0.0000000001
 43
0.0000000001
 40
0.0
 40
0.0
 40
0.0
 40
0.0
 40
0.0014244482032552
 40
0.0510670312467712
 40
0.0993118395621763
 40
0.1484731412906282
 40
0.1988914621254012
 40
0.2499628426017782
 40
0.3010342230781526
 40
0.3514525439129255
 40
0.4006138456413776
 40
0.4488586539567827
 40
0.4985012370002986
 40
0.5492077218163026
 40
0.6003527159573623
 40
0.651277506397264
 40
0.7013402193575383
 40
0.7499628426017774
 40
0.7985854658460116
 40
0.848648178806286
 40
0.899572969246188
 40
0.950717963387248
 40
1.0
 40
1.0
 40
1.0
 40
1.0
 10
1.111181587598901
 20
0.8743052409206056
 30
0.0
 10
1.11121129306897
 20
0.8743276111898799
 30
0.0
 10
1.11227624591506
 20
0.8751295941875055
 30
0.0
 10
1.114792701176906
 20
0.8759293097359853
 30
0.0
 10
1.118661577556396
 20
0.8766211387721705
 30
0.0
 10
1.122927638953141
 20
0.8763770883497963
 30
0.0
 10
1.127489188472486
 20
0.8752843324731712
 30
0.0
 10
1.13223348616229
 20
0.873299518406293
 30
0.0
 10
1.136976592033111
 20
0.8704911363905603
 30
0.0
 10
1.141541638247261
 20
0.8669779366200137
 30
0.0
 10
1.145795289163922
 20
0.8629032210231509
 30
0.0
 10
1.149709769111627
 20
0.8583359042845495
 30
0.0
 10
1.153299380551962
 20
0.8533368253570293
 30
0.0
 10
1.156477864709751
 20
0.8479579515872542
 30
0.0
 10
1.159112253722065
 20
0.8423839503635564
 30
0.0
 10
1.161097355433128
 20
0.8368254874363517
 30
0.0
 10
1.162381367320387
 20
0.8314909162289152
 30
0.0
 10
1.162964641487736
 20
0.8264876046471519
 30
0.0
 10
1.162889603411485
 20
0.8218651197209732
 30
0.0
 10
1.162168909561282
 20
0.8176853869104581
 30
0.0
 10
1.160762549050211
 20
0.8140940011264257
 30
0.0
 10
1.158774169986239
 20
0.8111922465566062
 30
0.0
 10
1.15698137299349
 20
0.809956175214628
 30
0.0
 10
1.156101603011517
 20
0.8093496043275452
 30
0.0
  0
SPLINE
  5
F59
330
1F
100
AcDbEntity
  8
0
100
AcDbSpline
210
0.0
220
0.0
230
1.0
 70
     8
 71
     3
 72
    27
 73
    23
 74
     0
 42
0.0000000001
 43
0.0000000001
 40
0.0
 40
0.0
 40
0.0
 40
0.0
 40
0.0015006723547267
 40
0.053799697212384
 40
0.1046261505242214
 40
0.1564181400521895
 40
0.2095344134803407
 40
0.2633386926554904
 40
0.3171429718306371
 40
0.3702592452587884
 40
0.4220512347867566
 40
0.4728776880985939
 40
0.5251767129562513
 40
0.5785965704103245
 40
0.6324784024169973
 40
0.6861282473243985
 40
0.7388698838193415
 40
0.7900943694482572
 40
0.8409333568190572
 40
0.8932713674586578
 40
0.9465137825834514
 40
1.0
 40
1.0
 40
1.0
 40
1.0
 10
1.122317127460107
 20
0.8807336512499171
 30
0.0
 10
1.122346832930174
 20
0.8807560215191914
 30
0.0
 10
1.123411785776264
 20
0.8815580045168188
 30
0.0
 10
1.125928241038106
 20
0.8823577200653074
 30
0.0
 10
1.129797117417625
 20
0.8830495491014536
 30
0.0
 10
1.134063178814267
 20
0.8828054986792251
 30
0.0
 10
1.138624728334004
 20
0.8817127428020279
 30
0.0
 10
1.143369026022314
 20
0.879727928737333
 30
0.0
 10
1.148112131898695
 20
0.8769195467134663
 30
0.0
 10
1.152677178092536
 20
0.8734063469726523
 30
0.0
 10
1.156930829082513
 20
0.8693316312684496
 30
0.0
 10
1.160845308760363
 20
0.8647643149249207
 30
0.0
 10
1.164434921239747
 20
0.8597652344762208
 30
0.0
 10
1.167613401403757
 20
0.8543863665533757
 30
0.0
 10
1.170247805486299
 20
0.8488123432667167
 30
0.0
 10
1.172232851415669
 20
0.8432539620044588
 30
0.0
 10
1.173517065924547
 20
0.8379190941569836
 30
0.0
 10
1.174098160475683
 20
0.8329292807736708
 30
0.0
 10
1.174028685866876
 20
0.8283248966039165
 30
0.0
 10
1.173310072063015
 20
0.824186278976782
 30
0.0
 10
1.171967301572909
 20
0.8205500321844246
 30
0.0
 10
1.170544516148552
 20
0.8187430147703247
 30
0.0
 10
1.169831498388161
 20
0.8178374421607566
 30
0.0
  0
SPLINE
  5
F5A
330
1F
100
AcDbEntity
  8
0
100
AcDbSpline
210
0.0
220
0.0
230
1.0
 70
     8
 71
     3
 72
    10
 73
     6
 74
     0
 42
0.0000000001
 43
0.0000000001
 40
0.0
 40
0.0
 40
0.0
 40
0.0
 40
0.0338584030524193
 40
0.51207110466762
 40
1.0
 40
1.0
 40
1.0
 40
1.0
 10
1.171819622888531
 20
0.8441123759383335
 30
0.0
 10
1.171815402699611
 20
0.8442213483103911
 30
0.0
 10
1.17175157698406
 20
0.8458694355769631
 30
0.0
 10
1.170986457969144
 20
0.8493835404323275
 30
0.0
 10
1.170019768217299
 20
0.8527642628058112
 30
0.0
 10
1.169531562488206
 20
0.8544716234435599
 30
0.0
  0
ARC
  5
F5B
330
1F
100
AcDbEntity
  8
0
100
AcDbCircle
 10
1.132671578460243
 20
0.8476407482693948
 30
0.0
 40
0.0369185901905578
100
AcDbArc
 50
49.21542187681097
 51
59.78436579487647
  0
SPLINE
  5
F5C
330
1F
100
AcDbEntity
  8
0
100
AcDbSpline
210
0.0
220
0.0
230
1.0
 70
     8
 71
     3
 72
     9
 73
     5
 74
     0
 42
0.0000000001
 43
0.0000000001
 40
0.0
 40
0.0
 40
0.0
 40
0.0
 40
0.5246780470800675
 40
1.0
 40
1.0
 40
1.0
 40
1.0
 10
1.08393583322022
 20
0.7934124924225701
 30
0.0
 10
1.084235746747435
 20
0.7918114399781134
 30
0.0
 10
1.084807361147701
 20
0.7887599449644254
 30
0.0
 10
1.084647410723402
 20
0.7861317314650032
 30
0.0
 10
1.084571382775356
 20
0.7848824838917688
 30
0.0
  0
SPLINE
  5
F5D
330
1F
100
AcDbEntity
  8
0
100
AcDbSpline
210
0.0
220
0.0
230
1.0
 70
     8
 71
     3
 72
    18
 73
    14
 74
     0
 42
0.0000000001
 43
0.0000000001
 40
0.0
 40
0.0
 40
0.0
 40
0.0
 40
0.099314297467277
 40
0.1998290300194209
 40
0.2983456588737066
 40
0.393626465326453
 40
0.4910672799647639
 40
0.5911309532848096
 40
0.6918727578530627
 40
0.7912674494403835
 40
0.8874481588410439
 40
0.9836288682417039
 40
1.0
 40
1.0
 40
1.0
 40
1.0
 10
1.066908306373372
 20
0.8325042673137692
 30
0.0
 10
1.068435291071949
 20
0.8319951897715947
 30
0.0
 10
1.071507717489417
 20
0.8309708813482144
 30
0.0
 10
1.076143445492936
 20
0.8281687626201
 30
0.0
 10
1.080526703517319
 20
0.8246248494061967
 30
0.0
 10
1.084520414777305
 20
0.8203947474630604
 30
0.0
 10
1.088114097542986
 20
0.8156480933936974
 30
0.0
 10
1.09120399030805
 20
0.8104754034996675
 30
0.0
 10
1.093598120180372
 20
0.8051363601762806
 30
0.0
 10
1.095191608814561
 20
0.7999234900584982
 30
0.0
 10
1.095857980510457
 20
0.795119127939106
 30
0.0
 10
1.09595165259904
 20
0.7918344474259678
 30
0.0
 10
1.095607434157049
 20
0.79042056114028
 30
0.0
 10
1.095557366158077
 20
0.7902149055202921
 30
0.0
  0
SPLINE
  5
F5E
330
1F
100
AcDbEntity
  8
0
100
AcDbSpline
210
0.0
220
0.0
230
1.0
 70
     8
 71
     3
 72
    17
 73
    13
 74
     0
 42
0.0000000001
 43
0.0000000001
 40
0.0
 40
0.0
 40
0.0
 40
0.0
 40
0.0006654212206119
 40
0.1144136439599762
 40
0.2259006982247346
 40
0.3337259107083953
 40
0.443995512049014
 40
0.5572332903520386
 40
0.6712384807777349
 40
0.7837192010733367
 40
0.8925627952246813
 40
1.0
 40
1.0
 40
1.0
 40
1.0
 10
1.082605667852849
 20
0.8372051561097942
 30
0.0
 10
1.082614724269326
 20
0.8372017316860718
 30
0.0
 10
1.08417189975213
 20
0.8366129305109788
 30
0.0
 10
1.087281413230996
 20
0.8345333401161399
 30
0.0
 10
1.091661649955325
 20
0.8310695605511051
 30
0.0
 10
1.09565601562001
 20
0.8268188365100142
 30
0.0
 10
1.09925000740867
 20
0.8220773586592569
 30
0.0
 10
1.102337936635736
 20
0.8169049252040759
 30
0.0
 10
1.104739657119219
 20
0.8115594524600576
 30
0.0
 10
1.106305395976663
 20
0.8063714800031343
 30
0.0
 10
1.107068556758528
 20
0.801497834428172
 30
0.0
 10
1.106912961525008
 20
0.7987089626249125
 30
0.0
 10
1.106835669795696
 20
0.7973235941941235
 30
0.0
  0
SPLINE
  5
F5F
330
1F
100
AcDbEntity
  8
0
100
AcDbSpline
210
0.0
220
0.0
230
1.0
 70
     8
 71
     3
 72
    17
 73
    13
 74
     0
 42
0.0000000001
 43
0.0000000001
 40
0.0
 40
0.0
 40
0.0
 40
0.0
 40
0.0006654212206131
 40
0.1144136439599778
 40
0.2259006982247367
 40
0.3337259107083979
 40
0.4439955120490146
 40
0.5572332903520408
 40
0.671238480777739
 40
0.7837192010733423
 40
0.8925627952246831
 40
1.0
 40
1.0
 40
1.0
 40
1.0
 10
1.093741207714053
 20
0.8436335664391057
 30
0.0
 10
1.09375026413053
 20
0.8436301420153833
 30
0.0
 10
1.095307439613339
 20
0.8430413408402921
 30
0.0
 10
1.0984169530922
 20
0.8409617504454514
 30
0.0
 10
1.102797189816531
 20
0.8374979708804184
 30
0.0
 10
1.106791555481214
 20
0.8332472468393275
 30
0.0
 10
1.110385547269874
 20
0.8285057689885684
 30
0.0
 10
1.113473476496942
 20
0.8233333355333892
 30
0.0
 10
1.115875196980427
 20
0.8179878627893709
 30
0.0
 10
1.117440935837869
 20
0.8127998903324476
 30
0.0
 10
1.118204096619733
 20
0.8079262447574835
 30
0.0
 10
1.118048501386212
 20
0.8051373729542257
 30
0.0
 10
1.1179712096569
 20
0.803752004523435
 30
0.0
  0
SPLINE
  5
F60
330
1F
100
AcDbEntity
  8
0
100
AcDbSpline
210
0.0
220
0.0
230
1.0
 70
     8
 71
     3
 72
    17
 73
    13
 74
     0
 42
0.0000000001
 43
0.0000000001
 40
0.0
 40
0.0
 40
0.0
 40
0.0
 40
0.0006654212206083
 40
0.1144136439599752
 40
0.2259006982247364
 40
0.3337259107083995
 40
0.4439955120490177
 40
0.5572332903520456
 40
0.671238480777745
 40
0.78371920107335
 40
0.8925627952246939
 40
1.0
 40
1.0
 40
1.0
 40
1.0
 10
1.104876747575259
 20
0.8500619767684208
 30
0.0
 10
1.104885803991738
 20
0.8500585523446966
 30
0.0
 10
1.106442979474541
 20
0.8494697511696037
 30
0.0
 10
1.109552492953406
 20
0.8473901607747647
 30
0.0
 10
1.113932729677737
 20
0.84392638120973
 30
0.0
 10
1.11792709534242
 20
0.839675657168639
 30
0.0
 10
1.12152108713108
 20
0.8349341793178817
 30
0.0
 10
1.124609016358148
 20
0.8297617458627007
 30
0.0
 10
1.127010736841631
 20
0.8244162731186824
 30
0.0
 10
1.128576475699073
 20
0.8192283006617591
 30
0.0
 10
1.12933963648094
 20
0.8143546550867968
 30
0.0
 10
1.129184041247418
 20
0.8115657832835372
 30
0.0
 10
1.129106749518106
 20
0.8101804148527483
 30
0.0
  0
SPLINE
  5
F61
330
1F
100
AcDbEntity
  8
0
100
AcDbSpline
210
0.0
220
0.0
230
1.0
 70
     8
 71
     3
 72
    17
 73
    13
 74
     0
 42
0.0000000001
 43
0.0000000001
 40
0.0
 40
0.0
 40
0.0
 40
0.0
 40
0.0006654212206107
 40
0.1144136439599774
 40
0.2259006982247387
 40
0.3337259107084021
 40
0.4439955120490205
 40
0.5572332903520483
 40
0.6712384807777473
 40
0.7837192010733516
 40
0.8925627952246948
 40
1.0
 40
1.0
 40
1.0
 40
1.0
 10
1.116012287436465
 20
0.8564903870977305
 30
0.0
 10
1.116021343852942
 20
0.8564869626740099
 30
0.0
 10
1.117578519335751
 20
0.8558981614989187
 30
0.0
 10
1.120688032814609
 20
0.8538185711040762
 30
0.0
 10
1.125068269538941
 20
0.8503547915390432
 30
0.0
 10
1.129062635203624
 20
0.8461040674979541
 30
0.0
 10
1.132656626992288
 20
0.8413625896471932
 30
0.0
 10
1.135744556219352
 20
0.836190156192014
 30
0.0
 10
1.138146276702837
 20
0.8308446834479957
 30
0.0
 10
1.139712015560281
 20
0.8256567109910724
 30
0.0
 10
1.140475176342146
 20
0.8207830654161083
 30
0.0
 10
1.140319581108624
 20
0.8179941936128505
 30
0.0
 10
1.140242289379312
 20
0.8166088251820616
 30
0.0
  0
SPLINE
  5
F62
330
1F
100
AcDbEntity
  8
0
100
AcDbSpline
210
0.0
220
0.0
230
1.0
 70
     8
 71
     3
 72
    17
 73
    13
 74
     0
 42
0.0000000001
 43
0.0000000001
 40
0.0
 40
0.0
 40
0.0
 40
0.0
 40
0.0006654212206156
 40
0.1144136439599788
 40
0.2259006982247368
 40
0.3337259107083974
 40
0.4439955120490203
 40
0.5572332903520456
 40
0.671238480777742
 40
0.7837192010733434
 40
0.8925627952246912
 40
1.0
 40
1.0
 40
1.0
 40
1.0
 10
1.127147827297669
 20
0.8629187974270456
 30
0.0
 10
1.127156883714148
 20
0.8629153730033214
 30
0.0
 10
1.128714059196955
 20
0.862326571828232
 30
0.0
 10
1.131823572675815
 20
0.8602469814333877
 30
0.0
 10
1.136203809400148
 20
0.8567832018683565
 30
0.0
 10
1.14019817506483
 20
0.8525324778272638
 30
0.0
 10
1.143792166853492
 20
0.8477909999765065
 30
0.0
 10
1.146880096080559
 20
0.842618566521329
 30
0.0
 10
1.149281816564041
 20
0.8372730937773107
 30
0.0
 10
1.150847555421485
 20
0.8320851213203857
 30
0.0
 10
1.15161071620335
 20
0.8272114757454216
 30
0.0
 10
1.151455120969828
 20
0.8244226039421638
 30
0.0
 10
1.151377829240516
 20
0.8230372355113731
 30
0.0
  0
SPLINE
  5
F63
330
1F
100
AcDbEntity
  8
0
100
AcDbSpline
210
0.0
220
0.0
230
1.0
 70
     8
 71
     3
 72
    17
 73
    13
 74
     0
 42
0.0000000001
 43
0.0000000001
 40
0.0
 40
0.0
 40
0.0
 40
0.0
 40
0.0006654212206155
 40
0.1144136439599782
 40
0.2259006982247357
 40
0.3337259107083948
 40
0.4439955120490144
 40
0.5572332903520367
 40
0.6712384807777309
 40
0.7837192010733311
 40
0.8925627952246824
 40
1.0
 40
1.0
 40
1.0
 40
1.0
 10
1.138283367158875
 20
0.8693472077563589
 30
0.0
 10
1.138292423575354
 20
0.8693437833326347
 30
0.0
 10
1.139849599058157
 20
0.8687549821575418
 30
0.0
 10
1.142959112537024
 20
0.8666753917627046
 30
0.0
 10
1.147339349261352
 20
0.8632116121976681
 30
0.0
 10
1.151333714926035
 20
0.8589608881565789
 30
0.0
 10
1.154927706714698
 20
0.8542194103058198
 30
0.0
 10
1.158015635941763
 20
0.8490469768506406
 30
0.0
 10
1.160417356425247
 20
0.8437015041066205
 30
0.0
 10
1.161983095282691
 20
0.8385135316496972
 30
0.0
 10
1.162746256064556
 20
0.8336398860747349
 30
0.0
 10
1.162590660831035
 20
0.8308510142714753
 30
0.0
 10
1.162513369101723
 20
0.8294656458406864
 30
0.0
  0
SPLINE
  5
F64
330
1F
100
AcDbEntity
  8
0
100
AcDbSpline
210
0.0
220
0.0
230
1.0
 70
     8
 71
     3
 72
    14
 73
    10
 74
     0
 42
0.0000000001
 43
0.0000000001
 40
0.0
 40
0.0
 40
0.0
 40
0.0
 40
0.0011499753003835
 40
0.197728687490782
 40
0.3903996675331193
 40
0.5767422837185324
 40
0.7673092719602463
 40
0.8831360988563128
 40
0.9999999999999998
 40
0.9999999999999998
 40
0.9999999999999998
 40
0.9999999999999998
 10
1.149418907020079
 20
0.8757756180856704
 30
0.0
 10
1.149427963435902
 20
0.8757721936616709
 30
0.0
 10
1.150985138805756
 20
0.875183392439238
 30
0.0
 10
1.154094767095948
 20
0.8731038501649324
 30
0.0
 10
1.158474501426034
 20
0.8696398600328796
 30
0.0
 10
1.162470656664128
 20
0.8653898860504154
 30
0.0
 10
1.165557463228152
 20
0.861307307377176
 30
0.0
 10
1.16789830949275
 20
0.8576112785367511
 30
0.0
 10
1.168985529620467
 20
0.8555212800974947
 30
0.0
 10
1.169531562488206
 20
0.8544716234435599
 30
0.0
  0
TEXT
  5
F6A
330
1F
100
AcDbEntity
  8
DIM
 62
     7
100
AcDbText
 10
0.9221688611731938
 20
0.1809002711660893
 30
0.0
 40
0.016
  1
FRONT
100
AcDbText
  0
TEXT
  5
F70
330
1F
100
AcDbEntity
  8
DIM
 62
     7
100
AcDbText
 10
0.3428743522082183
 20
0.1851850337746608
 30
0.0
 40
0.016
  1
TOP
100
AcDbText
  0
DIMENSION
  5
F72
330
1F
100
AcDbEntity
  8
DIM
100
AcDbDimension
  2
*D5
 10
0.5531077173498682
 20
0.5429295084945871
 30
0.0
 11
0.3601943315230978
 21
0.555806802852167
 31
0.0
 70
    32
 71
     5
 42
0.3858267716535408
 73
     0
 74
     0
 75
     0
  3
Standard
100
AcDbAlignedDimension
 13
0.1672809456963273
 23
0.4063438144958831
 33
0.0
 14
0.5531077173498682
 24
0.3557251418299672
 34
0.0
100
AcDbRotatedDimension
  0
DIMENSION
  5
F7F
330
1F
100
AcDbEntity
  8
DIM
100
AcDbDimension
  2
*D6
 10
0.4035014181372718
 20
0.4770600876204967
 30
0.0
 11
0.324761260656957
 21
0.4899373819780766
 31
0.0
 70
    32
 71
     5
 42
0.1574803149606296
 73
     0
 74
     0
 75
     0
  3
Standard
100
AcDbAlignedDimension
 13
0.2460211031766422
 23
0.4204045569030825
 33
0.0
 14
0.4035014181372718
 24
0.3810344781629251
 34
0.0
100
AcDbRotatedDimension
  0
DIMENSION
  5
F8C
330
1F
100
AcDbEntity
  8
DIM
100
AcDbDimension
  2
*D7
 10
0.5531077173498682
 20
0.4770600876204967
 30
0.0
 11
0.47830456774357
 21
0.4899373819780766
 31
0.0
 70
    32
 71
     5
 42
0.1496062992125964
 73
     0
 74
     0
 75
     0
  3
Standard
100
AcDbAlignedDimension
 13
0.4035014181372718
 23
0.3810344781629251
 33
0.0
 14
0.5531077173498682
 24
0.3557251418299672
 34
0.0
100
AcDbRotatedDimension
  0
DIMENSION
  5
F99
330
1F
100
AcDbEntity
  8
DIM
100
AcDbDimension
  2
*D8
 10
0.6416943448339107
 20
0.2629242419424528
 30
0.0
 11
0.6288170504763306
 21
0.3219793600526891
 31
0.0
 70
    32
 71
     5
 42
0.1181102362204722
 73
     0
 74
     0
 75
     0
  3
Standard
100
AcDbAlignedDimension
 13
0.4035014181372718
 23
0.3810344781629251
 33
0.0
 14
0.4035014181372718
 24
0.2629242419424529
 34
0.0
 50
90.0
100
AcDbRotatedDimension
  0
DIMENSION
  5
FA6
330
1F
100
AcDbEntity
  8
DIM
100
AcDbDimension
  2
*D9
 10
0.9902982367602417
 20
0.4498584234194894
 30
0.0
 11
0.9509281580200843
 21
0.4627357177770693
 31
0.0
 70
    32
 71
     5
 42
0.0787401574803148
 73
     0
 74
     0
 75
     0
  3
Standard
100
AcDbAlignedDimension
 13
0.9115580792799269
 23
0.3351095098168326
 33
0.0
 14
0.9902982367602417
 24
0.3351095098168326
 34
0.0
100
AcDbRotatedDimension
  0
ENDSEC
  0
SECTION
  2
OBJECTS
  0
DICTIONARY
  5
C
330
0
100
AcDbDictionary
281
     1
  3
ACAD_COLOR
350
FC
  3
ACAD_GROUP
350
D
  3
ACAD_LAYOUT
350
1A
  3
ACAD_MATERIAL
350
E7
  3
ACAD_MLINESTYLE
350
17
  3
ACAD_PLOTSETTINGS
350
19
  3
ACAD_PLOTSTYLENAME
350
E
  3
ACAD_TABLESTYLE
350
FD
  3
ACAD_VISUALSTYLE
350
EB
  3
AcDbVariableDictionary
350
3CB
  0
DICTIONARY
  5
4DC
330
8
100
AcDbDictionary
280
     1
281
     1
  0
DICTIONARY
  5
61E
330
2
100
AcDbDictionary
280
     1
281
     1
  3
ACAD_LAYERFILTERS
360
622
  3
ACLYDICTIONARY
360
621
  0
DICTIONARY
  5
40A
330
409
100
AcDbDictionary
280
     1
281
     1
  3
ACAD_SORTENTS
360
40B
  0
DICTIONARY
  5
FC
102
{ACAD_REACTORS
330
C
102
}
330
C
100
AcDbDictionary
281
     1
  0
DICTIONARY
  5
D
102
{ACAD_REACTORS
330
C
102
}
330
C
100
AcDbDictionary
281
     1
  0
DICTIONARY
  5
1A
102
{ACAD_REACTORS
330
C
102
}
330
C
100
AcDbDictionary
281
     1
  3
Layout1
350
1E
  3
Layout2
350
26
  3
Model
350
22
  0
DICTIONARY
  5
E7
102
{ACAD_REACTORS
330
C
102
}
330
C
100
AcDbDictionary
281
     1
  3
ByBlock
350
E9
  3
ByLayer
350
E8
  3
Global
350
EA
  0
DICTIONARY
  5
17
102
{ACAD_REACTORS
330
C
102
}
330
C
100
AcDbDictionary
281
     1
  3
Standard
350
18
  0
DICTIONARY
  5
19
102
{ACAD_REACTORS
330
C
102
}
330
C
100
AcDbDictionary
281
     1
  3
JPG
350
C06
  3
PDF
350
BFD
  0
ACDBDICTIONARYWDFLT
  5
E
102
{ACAD_REACTORS
330
C
102
}
330
C
100
AcDbDictionary
281
     1
  3
Normal
350
F
100
AcDbDictionaryWithDefault
340
F
  0
DICTIONARY
  5
FD
102
{ACAD_REACTORS
330
C
102
}
330
C
100
AcDbDictionary
281
     1
  3
Standard
350
FE
  0
DICTIONARY
  5
EB
102
{ACAD_REACTORS
330
C
102
}
330
C
100
AcDbDictionary
281
     1
  3
2dWireframe
350
F1
  3
3D Hidden
350
F3
  3
3dWireframe
350
F2
  3
Basic
350
F0
  3
Brighten
350
F7
  3
ColorChange
350
FB
  3
Conceptual
350
F4
  3
Dim
350
F6
  3
Facepattern
350
FA
  3
Flat
350
EC
  3
FlatWithEdges
350
ED
  3
Gouraud
350
EE
  3
GouraudWithEdges
350
EF
  3
Linepattern
350
F9
  3
Realistic
350
F5
  3
Thicken
350
F8
  0
DICTIONARY
  5
3CB
102
{ACAD_REACTORS
330
C
102
}
330
C
100
AcDbDictionary
281
     1
  3
CTABLESTYLE
350
3CC
  0
DICTIONARY
  5
622
102
{ACAD_REACTORS
330
61E
102
}
330
61E
100
AcDbDictionary
281
     1
  0
DICTIONARY
  5
621
102
{ACAD_REACTORS
330
61E
102
}
330
61E
100
AcDbDictionary
281
     1
1001
ACAD
1000
<All
  0
SORTENTSTABLE
  5
40B
102
{ACAD_REACTORS
330
40A
102
}
330
40A
100
AcDbSortentsTable
330
409
331
40F
  5
6D
331
40D
  5
6A
331
410
  5
69
331
40E
  5
6B
  0
LAYOUT
  5
1E
102
{ACAD_REACTORS
330
1A
102
}
330
1A
100
AcDbPlotSettings
  1

  2
none_device
  4

  6

 40
0.0
 41
0.0
 42
0.0
 43
0.0
 44
0.0
 45
0.0
 46
0.0
 47
0.0
 48
0.0
 49
0.0
140
0.0
141
0.0
142
1.0
143
1.0
 70
   688
 72
     0
 73
     0
 74
     5
  7

 75
    16
147
1.0
 76
     0
 77
     2
 78
   300
148
0.0
149
0.0
100
AcDbLayout
  1
Layout1
 70
     1
 71
     1
 10
0.0
 20
0.0
 11
12.0
 21
9.0
 12
0.0
 22
0.0
 32
0.0
 14
1.000000000000000E+20
 24
1.000000000000000E+20
 34
1.000000000000000E+20
 15
-1.000000000000000E+20
 25
-1.000000000000000E+20
 35
-1.000000000000000E+20
146
0.0
 13
0.0
 23
0.0
 33
0.0
 16
1.0
 26
0.0
 36
0.0
 17
0.0
 27
1.0
 37
0.0
 76
     0
330
1B
  0
LAYOUT
  5
26
102
{ACAD_REACTORS
330
1A
102
}
330
1A
100
AcDbPlotSettings
  1

  2
none_device
  4

  6

 40
0.0
 41
0.0
 42
0.0
 43
0.0
 44
0.0
 45
0.0
 46
0.0
 47
0.0
 48
0.0
 49
0.0
140
0.0
141
0.0
142
1.0
143
1.0
 70
   688
 72
     0
 73
     0
 74
     5
  7

 75
    16
147
1.0
 76
     0
 77
     2
 78
   300
148
0.0
149
0.0
100
AcDbLayout
  1
Layout2
 70
     1
 71
     2
 10
0.0
 20
0.0
 11
0.0
 21
0.0
 12
0.0
 22
0.0
 32
0.0
 14
0.0
 24
0.0
 34
0.0
 15
0.0
 25
0.0
 35
0.0
146
0.0
 13
0.0
 23
0.0
 33
0.0
 16
1.0
 26
0.0
 36
0.0
 17
0.0
 27
1.0
 37
0.0
 76
     0
330
23
  0
LAYOUT
  5
22
102
{ACAD_REACTORS
330
1A
102
}
330
1A
100
AcDbPlotSettings
  1

  2
none_device
  4
Letter_(8.50_x_11.00_Inches)
  6

 40
6.349999904632568
 41
6.349999904632568
 42
6.350006103515625
 43
6.350006103515625
 44
215.8999938964844
 45
279.3999938964844
 46
0.0
 47
0.0
 48
0.0
 49
0.0
140
0.0
141
0.0
142
1.0
143
2.383658744906425
 70
 11952
 72
     0
 73
     1
 74
     0
  7

 75
     0
147
0.4195231394329716
 76
     0
 77
     2
 78
   300
148
135.2900774710282
149
-27.52084133435472
100
AcDbLayout
  1
Model
 70
     1
 71
     0
 10
0.0
 20
0.0
 11
16.53543307086614
 21
11.69291338582677
 12
0.0
 22
0.0
 32
0.0
 14
0.0
 24
0.0
 34
0.0
 15
16.53543307086614
 25
11.69291338582677
 35
0.0
146
0.0
 13
0.0
 23
0.0
 33
0.0
 16
1.0
 26
0.0
 36
0.0
 17
0.0
 27
1.0
 37
0.0
 76
     0
330
1F
331
29
1001
ACAD_PSEXT
1000
None
1000
None
1000
Not applicable
1000
The layout will not be plotted unless a new plotter configuration name is selected.
1070
     0
  0
MATERIAL
  5
E9
102
{ACAD_REACTORS
330
E7
102
}
330
E7
100
AcDbMaterial
  1
ByBlock
  0
MATERIAL
  5
E8
102
{ACAD_REACTORS
330
E7
102
}
330
E7
100
AcDbMaterial
  1
ByLayer
  0
MATERIAL
  5
EA
102
{ACAD_REACTORS
330
E7
102
}
330
E7
100
AcDbMaterial
  1
Global
  0
MLINESTYLE
  5
18
102
{ACAD_REACTORS
330
17
102
}
330
17
100
AcDbMlineStyle
  2
STANDARD
 70
     0
  3

 62
   256
 51
90.0
 52
90.0
 71
     2
 49
0.5
 62
   256
  6
BYLAYER
 49
-0.5
 62
   256
  6
BYLAYER
  0
PLOTSETTINGS
  5
C06
102
{ACAD_REACTORS
330
19
102
}
330
19
100
AcDbPlotSettings
  1
JPG
  2
PublishToWeb JPG.pc3
  4
User-1
  6

 40
75.0
 41
75.0
 42
75.000244140625
 43
75.000244140625
 44
2550.0
 45
3300.0
 46
7.281523769336217
 47
0.0
 48
0.0
 49
0.0
140
1.5635064362559
141
1.184014582795735
142
1.0
143
0.0004963512880747
 70
 11956
 72
     2
 73
     1
 74
     4
  7

 75
     0
147
2014.702135414691
 76
     0
 77
     2
 78
   300
148
0.0
149
0.0
1001
ACAD_PSEXT
1000
PublishToWeb JPG.pc3
1000
Independent JPEG Group JFIF (JPEG Compression)
1000
File
1000

1070
     0
  0
PLOTSETTINGS
  5
BFD
102
{ACAD_REACTORS
330
19
102
}
330
19
100
AcDbPlotSettings
  1
PDF
  2
DWG To PDF.pc3
  4
ISO_expand_A1_(841.00_x_594.00_MM)
  6

 40
5.793749809265136
 41
10.79374980926513
 42
5.79376220703125
 43
10.79376220703125
 44
841.0
 45
594.0
 46
36.76722948979284
 47
0.0
 48
0.0
 49
0.0
140
1.5635064362559
141
1.184014582795735
142
1.0
143
0.0020684639270649
 70
 11956
 72
     1
 73
     0
 74
     4
  7

 75
     0
147
483.4505387865272
 76
     0
 77
     2
 78
   300
148
0.0
149
0.0
1001
ACAD_PSEXT
1000
DWG To PDF.pc3
1000
PDF
1000
File
1000

1070
     0
  0
ACDBPLACEHOLDER
  5
F
102
{ACAD_REACTORS
330
E
102
}
330
E
  0
TABLESTYLE
  5
FE
102
{ACAD_REACTORS
330
FD
102
}
330
FD
100
AcDbTableStyle
  3
Standard
 70
     0
 71
     0
 40
0.06
 41
0.06
280
     0
281
     0
  7
Standard
140
0.18
170
     2
 62
     0
 63
     7
283
     0
 90
      512
 91
        0
  1

274
    -2
284
     1
 64
     0
275
    -2
285
     1
 65
     0
276
    -2
286
     1
 66
     0
277
    -2
287
     1
 67
     0
278
    -2
288
     1
 68
     0
279
    -2
289
     1
 69
     0
  7
Standard
140
0.25
170
     5
 62
     0
 63
     7
283
     0
 90
      512
 91
        0
  1

274
    -2
284
     1
 64
     0
275
    -2
285
     1
 65
     0
276
    -2
286
     1
 66
     0
277
    -2
287
     1
 67
     0
278
    -2
288
     1
 68
     0
279
    -2
289
     1
 69
     0
  7
Standard
140
0.18
170
     5
 62
     0
 63
     7
283
     0
 90
      512
 91
        0
  1

274
    -2
284
     1
 64
     0
275
    -2
285
     1
 65
     0
276
    -2
286
     1
 66
     0
277
    -2
287
     1
 67
     0
278
    -2
288
     1
 68
     0
279
    -2
289
     1
 69
     0
  0
VISUALSTYLE
  5
F1
102
{ACAD_REACTORS
330
EB
102
}
330
EB
100
AcDbVisualStyle
  2
2dWireframe
 70
     4
 71
     0
 72
     2
 73
     0
 90
        0
 40
-0.6
 41
-30.0
 62
     5
 63
     7
421
 16777215
 74
     1
 91
        4
 64
     7
 65
   257
 75
     1
175
     1
 42
1.0
 92
        0
 66
   257
 43
1.0
 76
     1
 77
     6
 78
     2
 67
     7
 79
     5
170
     0
171
     0
290
     0
174
     0
 93
        1
 44
0.0
173
     0
291
     0
 45
0.0
  0
VISUALSTYLE
  5
F3
102
{ACAD_REACTORS
330
EB
102
}
330
EB
100
AcDbVisualStyle
  2
3D Hidden
 70
     6
 71
     1
 72
     2
 73
     2
 90
        0
 40
-0.6
 41
-30.0
 62
     5
 63
     7
421
 16777215
 74
     2
 91
        2
 64
     7
 65
   257
 75
     2
175
     1
 42
40.0
 92
        0
 66
   257
 43
1.0
 76
     1
 77
     6
 78
     2
 67
     7
 79
     3
170
     0
171
     0
290
     0
174
     0
 93
        1
 44
0.0
173
     0
291
     0
 45
0.0
  0
VISUALSTYLE
  5
F2
102
{ACAD_REACTORS
330
EB
102
}
330
EB
100
AcDbVisualStyle
  2
3dWireframe
 70
     5
 71
     0
 72
     2
 73
     0
 90
        0
 40
-0.6
 41
-30.0
 62
     5
 63
     7
421
 16777215
 74
     1
 91
        4
 64
     7
 65
   257
 75
     1
175
     1
 42
1.0
 92
        0
 66
   257
 43
1.0
 76
     1
 77
     6
 78
     2
 67
     7
 79
     5
170
     0
171
     0
290
     0
174
     0
 93
        1
 44
0.0
173
     0
291
     0
 45
0.0
  0
VISUALSTYLE
  5
F0
102
{ACAD_REACTORS
330
EB
102
}
330
EB
100
AcDbVisualStyle
  2
Basic
 70
     7
 71
     1
 72
     0
 73
     1
 90
        0
 40
-0.6
 41
-30.0
 62
     5
 63
     7
421
 16777215
 74
     0
 91
        4
 64
     7
 65
   257
 75
     1
175
     1
 42
1.0
 92
        8
 66
     7
 43
1.0
 76
     1
 77
     6
 78
     2
 67
     7
 79
     5
170
     0
171
     0
290
     0
174
     0
 93
        1
 44
0.0
173
     0
291
     1
 45
0.0
  0
VISUALSTYLE
  5
F7
102
{ACAD_REACTORS
330
EB
102
}
330
EB
100
AcDbVisualStyle
  2
Brighten
 70
    12
 71
     2
 72
     2
 73
     0
 90
        0
 40
-0.6
 41
-30.0
 62
     5
 63
     7
421
 16777215
 74
     1
 91
        4
 64
     7
 65
   257
 75
     1
175
     1
 42
1.0
 92
        8
 66
     7
 43
1.0
 76
     1
 77
     6
 78
     2
 67
     7
 79
     5
170
     0
171
     0
290
     0
174
     0
 93
        1
 44
50.0
173
     0
291
     1
 45
0.0
  0
VISUALSTYLE
  5
FB
102
{ACAD_REACTORS
330
EB
102
}
330
EB
100
AcDbVisualStyle
  2
ColorChange
 70
    16
 71
     2
 72
     2
 73
     3
 90
        0
 40
-0.6
 41
-30.0
 62
     5
 63
     8
421
  8421504
 74
     1
 91
        4
 64
     7
 65
   257
 75
     1
175
     1
 42
1.0
 92
        8
 66
     8
424
  8421504
 43
1.0
 76
     1
 77
     6
 78
     2
 67
     7
 79
     5
170
     0
171
     0
290
     0
174
     0
 93
        1
 44
0.0
173
     0
291
     1
 45
0.0
  0
VISUALSTYLE
  5
F4
102
{ACAD_REACTORS
330
EB
102
}
330
EB
100
AcDbVisualStyle
  2
Conceptual
 70
     9
 71
     3
 72
     2
 73
     0
 90
        0
 40
-0.6
 41
-30.0
 62
     5
 63
     7
421
 16777215
 74
     2
 91
        2
 64
     7
 65
   257
 75
     1
175
     1
 42
40.0
 92
        8
 66
     7
 43
1.0
 76
     1
 77
     6
 78
     2
 67
     7
 79
     3
170
     0
171
     0
290
     0
174
     0
 93
        1
 44
0.0
173
     0
291
     0
 45
0.0
  0
VISUALSTYLE
  5
F6
102
{ACAD_REACTORS
330
EB
102
}
330
EB
100
AcDbVisualStyle
  2
Dim
 70
    11
 71
     2
 72
     2
 73
     0
 90
        0
 40
-0.6
 41
-30.0
 62
     5
 63
     7
421
 16777215
 74
     1
 91
        4
 64
     7
 65
   257
 75
     1
175
     1
 42
1.0
 92
        8
 66
     7
 43
1.0
 76
     1
 77
     6
 78
     2
 67
     7
 79
     5
170
     0
171
     0
290
     0
174
     0
 93
        1
 44
-50.0
173
     0
291
     1
 45
0.0
  0
VISUALSTYLE
  5
FA
102
{ACAD_REACTORS
330
EB
102
}
330
EB
100
AcDbVisualStyle
  2
Facepattern
 70
    15
 71
     2
 72
     2
 73
     0
 90
        0
 40
-0.6
 41
-30.0
 62
     5
 63
     7
421
 16777215
 74
     1
 91
        4
 64
     7
 65
   257
 75
     1
175
     1
 42
1.0
 92
        8
 66
     7
 43
1.0
 76
     1
 77
     6
 78
     2
 67
     7
 79
     5
170
     0
171
     0
290
     0
174
     0
 93
        1
 44
0.0
173
     0
291
     1
 45
0.0
  0
VISUALSTYLE
  5
EC
102
{ACAD_REACTORS
330
EB
102
}
330
EB
100
AcDbVisualStyle
  2
Flat
 70
     0
 71
     2
 72
     1
 73
     1
 90
        2
 40
-0.6
 41
30.0
 62
     5
 63
     7
421
 16777215
 74
     0
 91
        4
 64
     7
 65
   257
 75
     1
175
     1
 42
1.0
 92
        8
 66
     7
 43
1.0
 76
     1
 77
     6
 78
     2
 67
     7
 79
     5
170
     0
171
     0
290
     0
174
     0
 93
       13
 44
0.0
173
     0
291
     1
 45
0.0
  0
VISUALSTYLE
  5
ED
102
{ACAD_REACTORS
330
EB
102
}
330
EB
100
AcDbVisualStyle
  2
FlatWithEdges
 70
     1
 71
     2
 72
     1
 73
     1
 90
        2
 40
-0.6
 41
30.0
 62
     5
 63
     7
421
 16777215
 74
     1
 91
        4
 64
     7
 65
   257
 75
     1
175
     1
 42
1.0
 92
        0
 66
   257
 43
1.0
 76
     1
 77
     6
 78
     2
 67
     7
 79
     5
170
     0
171
     0
290
     0
174
     0
 93
       13
 44
0.0
173
     0
291
     1
 45
0.0
  0
VISUALSTYLE
  5
EE
102
{ACAD_REACTORS
330
EB
102
}
330
EB
100
AcDbVisualStyle
  2
Gouraud
 70
     2
 71
     2
 72
     2
 73
     1
 90
        2
 40
-0.6
 41
30.0
 62
     5
 63
     7
421
 16777215
 74
     0
 91
        4
 64
     7
 65
   257
 75
     1
175
     1
 42
1.0
 92
        0
 66
     7
 43
1.0
 76
     1
 77
     6
 78
     2
 67
     7
 79
     5
170
     0
171
     0
290
     0
174
     0
 93
       13
 44
0.0
173
     0
291
     1
 45
0.0
  0
VISUALSTYLE
  5
EF
102
{ACAD_REACTORS
330
EB
102
}
330
EB
100
AcDbVisualStyle
  2
GouraudWithEdges
 70
     3
 71
     2
 72
     2
 73
     1
 90
        2
 40
-0.6
 41
30.0
 62
     5
 63
     7
421
 16777215
 74
     1
 91
        4
 64
     7
 65
   257
 75
     1
175
     1
 42
1.0
 92
        0
 66
   257
 43
1.0
 76
     1
 77
     6
 78
     2
 67
     7
 79
     5
170
     0
171
     0
290
     0
174
     0
 93
       13
 44
0.0
173
     0
291
     1
 45
0.0
  0
VISUALSTYLE
  5
F9
102
{ACAD_REACTORS
330
EB
102
}
330
EB
100
AcDbVisualStyle
  2
Linepattern
 70
    14
 71
     2
 72
     2
 73
     0
 90
        0
 40
-0.6
 41
-30.0
 62
     5
 63
     7
421
 16777215
 74
     1
 91
        4
 64
     7
 65
   257
 75
     7
175
     7
 42
1.0
 92
        8
 66
     7
 43
1.0
 76
     1
 77
     6
 78
     2
 67
     7
 79
     5
170
     0
171
     0
290
     0
174
     0
 93
        1
 44
0.0
173
     0
291
     1
 45
0.0
  0
VISUALSTYLE
  5
F5
102
{ACAD_REACTORS
330
EB
102
}
330
EB
100
AcDbVisualStyle
  2
Realistic
 70
     8
 71
     2
 72
     2
 73
     0
 90
        0
 40
-0.6
 41
-30.0
 62
     5
 63
     7
421
 16777215
 74
     1
 91
        0
 64
     7
 65
   257
 75
     1
175
     1
 42
1.0
 92
        8
 66
     8
424
  7895160
 43
1.0
 76
     1
 77
     6
 78
     2
 67
     7
 79
     5
170
     0
171
     0
290
     0
174
     0
 93
       13
 44
0.0
173
     0
291
     0
 45
0.0
  0
VISUALSTYLE
  5
F8
102
{ACAD_REACTORS
330
EB
102
}
330
EB
100
AcDbVisualStyle
  2
Thicken
 70
    13
 71
     2
 72
     2
 73
     0
 90
        0
 40
-0.6
 41
-30.0
 62
     5
 63
     7
421
 16777215
 74
     1
 91
        4
 64
     7
 65
   257
 75
     1
175
     1
 42
1.0
 92
       12
 66
     7
 43
1.0
 76
     1
 77
     6
 78
     2
 67
     7
 79
     5
170
     0
171
     0
290
     0
174
     0
 93
        1
 44
0.0
173
     0
291
     1
 45
0.0
  0
DICTIONARYVAR
  5
3CC
102
{ACAD_REACTORS
330
3CB
102
}
330
3CB
100
DictionaryVariables
280
     0
  1
STANDARD
  0
ENDSEC
  0
EOF
