  0
SECTION
  2
HEADER
  9
$ACADVER
  1
AC1021
  9
$ACADMAINTVER
 70
     1
  9
$DWGCODEPAGE
  3
ANSI_1252
  9
$AUTHOR
  1
‘Created by Cad / Cam Services, Inc. for Amazon Services LLC on November, 2012’
  9
$LASTSAVEDBY
  1
AE16
  9
$INSBASE
 10
0.0
 20
0.0
 30
0.0
  9
$EXTMIN
 10
-0.0010399811448991
 20
-0.0007134582635224
 30
-0.000000000000013
  9
$EXTMAX
 10
6.255206005838559
 20
4.736474019271653
 30
0.0000000000000023
  9
$LIMMIN
 10
0.0
 20
0.0
  9
$LIMMAX
 10
16.53543307086614
 20
11.69291338582677
  9
$ORTHOMODE
 70
     1
  9
$REGENMODE
 70
     1
  9
$FILLMODE
 70
     1
  9
$QTEXTMODE
 70
     0
  9
$MIRRTEXT
 70
     1
  9
$LTSCALE
 40
1.0
  9
$ATTMODE
 70
     1
  9
$TEXTSIZE
 40
0.2
  9
$TRACEWID
 40
0.05
  9
$TEXTSTYLE
  7
SLDTEXTSTYLE0
  9
$CLAYER
  8
DIM
  9
$CELTYPE
  6
ByLayer
  9
$CECOLOR
 62
   256
  9
$CELTSCALE
 40
1.0
  9
$DISPSILH
 70
     0
  9
$DIMSCALE
 40
1.0
  9
$DIMASZ
 40
0.07
  9
$DIMEXO
 40
0.05
  9
$DIMDLI
 40
0.38
  9
$DIMRND
 40
0.0
  9
$DIMDLE
 40
0.0
  9
$DIMEXE
 40
0.04
  9
$DIMTP
 40
0.0
  9
$DIMTM
 40
0.0
  9
$DIMTXT
 40
0.07
  9
$DIMCEN
 40
0.09
  9
$DIMTSZ
 40
0.0
  9
$DIMTOL
 70
     0
  9
$DIMLIM
 70
     0
  9
$DIMTIH
 70
     0
  9
$DIMTOH
 70
     0
  9
$DIMSE1
 70
     0
  9
$DIMSE2
 70
     0
  9
$DIMTAD
 70
     1
  9
$DIMZIN
 70
     0
  9
$DIMBLK
  1

  9
$DIMASO
 70
     1
  9
$DIMSHO
 70
     1
  9
$DIMPOST
  1

  9
$DIMAPOST
  1

  9
$DIMALT
 70
     0
  9
$DIMALTD
 70
     2
  9
$DIMALTF
 40
25.4
  9
$DIMLFAC
 40
1.0
  9
$DIMTOFL
 70
     1
  9
$DIMTVP
 40
0.0
  9
$DIMTIX
 70
     0
  9
$DIMSOXD
 70
     0
  9
$DIMSAH
 70
     0
  9
$DIMBLK1
  1

  9
$DIMBLK2
  1

  9
$DIMSTYLE
  2
Standard
  9
$DIMCLRD
 70
     0
  9
$DIMCLRE
 70
     0
  9
$DIMCLRT
 70
     0
  9
$DIMTFAC
 40
1.0
  9
$DIMGAP
 40
0.02
  9
$DIMJUST
 70
     0
  9
$DIMSD1
 70
     0
  9
$DIMSD2
 70
     0
  9
$DIMTOLJ
 70
     1
  9
$DIMTZIN
 70
     0
  9
$DIMALTZ
 70
     0
  9
$DIMALTTZ
 70
     0
  9
$DIMUPT
 70
     0
  9
$DIMDEC
 70
     2
  9
$DIMTDEC
 70
     2
  9
$DIMALTU
 70
     2
  9
$DIMALTTD
 70
     2
  9
$DIMTXSTY
  7
Standard
  9
$DIMAUNIT
 70
     0
  9
$DIMADEC
 70
     0
  9
$DIMALTRND
 40
0.0
  9
$DIMAZIN
 70
     0
  9
$DIMDSEP
 70
    46
  9
$DIMATFIT
 70
     3
  9
$DIMFRAC
 70
     0
  9
$DIMLDRBLK
  1

  9
$DIMLUNIT
 70
     2
  9
$DIMLWD
 70
    -2
  9
$DIMLWE
 70
    -2
  9
$DIMTMOVE
 70
     0
  9
$DIMFXL
 40
1.0
  9
$DIMFXLON
 70
     0
  9
$DIMJOGANG
 40
0.7853981633974483
  9
$DIMTFILL
 70
     0
  9
$DIMTFILLCLR
 70
     0
  9
$DIMARCSYM
 70
     0
  9
$DIMLTYPE
  6

  9
$DIMLTEX1
  6

  9
$DIMLTEX2
  6

  9
$LUNITS
 70
     2
  9
$LUPREC
 70
     2
  9
$SKETCHINC
 40
0.1
  9
$FILLETRAD
 40
0.5
  9
$AUNITS
 70
     0
  9
$AUPREC
 70
     2
  9
$MENU
  1
.
  9
$ELEVATION
 40
0.0
  9
$PELEVATION
 40
0.0
  9
$THICKNESS
 40
0.0
  9
$LIMCHECK
 70
     0
  9
$CHAMFERA
 40
0.5
  9
$CHAMFERB
 40
0.5
  9
$CHAMFERC
 40
1.0
  9
$CHAMFERD
 40
0.0
  9
$SKPOLY
 70
     0
  9
$TDCREATE
 40
2456542.661460683
  9
$TDUCREATE
 40
2456542.432294016
  9
$TDUPDATE
 40
2456542.254206991
  9
$TDUUPDATE
 40
2456542.025040324
  9
$TDINDWG
 40
0.0127799421
  9
$TDUSRTIMER
 40
0.0127799421
  9
$USRTIMER
 70
     1
  9
$ANGBASE
 50
0.0
  9
$ANGDIR
 70
     0
  9
$PDMODE
 70
     0
  9
$PDSIZE
 40
-1.0
  9
$PLINEWID
 40
0.0
  9
$SPLFRAME
 70
     0
  9
$SPLINETYPE
 70
     6
  9
$SPLINESEGS
 70
     8
  9
$HANDSEED
  5
130D
  9
$SURFTAB1
 70
     6
  9
$SURFTAB2
 70
     6
  9
$SURFTYPE
 70
     6
  9
$SURFU
 70
     6
  9
$SURFV
 70
     6
  9
$UCSBASE
  2

  9
$UCSNAME
  2

  9
$UCSORG
 10
0.0
 20
0.0
 30
0.0
  9
$UCSXDIR
 10
1.0
 20
0.0
 30
0.0
  9
$UCSYDIR
 10
0.0
 20
1.0
 30
0.0
  9
$UCSORTHOREF
  2

  9
$UCSORTHOVIEW
 70
     0
  9
$UCSORGTOP
 10
0.0
 20
0.0
 30
0.0
  9
$UCSORGBOTTOM
 10
0.0
 20
0.0
 30
0.0
  9
$UCSORGLEFT
 10
0.0
 20
0.0
 30
0.0
  9
$UCSORGRIGHT
 10
0.0
 20
0.0
 30
0.0
  9
$UCSORGFRONT
 10
0.0
 20
0.0
 30
0.0
  9
$UCSORGBACK
 10
0.0
 20
0.0
 30
0.0
  9
$PUCSBASE
  2

  9
$PUCSNAME
  2

  9
$PUCSORG
 10
0.0
 20
0.0
 30
0.0
  9
$PUCSXDIR
 10
1.0
 20
0.0
 30
0.0
  9
$PUCSYDIR
 10
0.0
 20
1.0
 30
0.0
  9
$PUCSORTHOREF
  2

  9
$PUCSORTHOVIEW
 70
     0
  9
$PUCSORGTOP
 10
0.0
 20
0.0
 30
0.0
  9
$PUCSORGBOTTOM
 10
0.0
 20
0.0
 30
0.0
  9
$PUCSORGLEFT
 10
0.0
 20
0.0
 30
0.0
  9
$PUCSORGRIGHT
 10
0.0
 20
0.0
 30
0.0
  9
$PUCSORGFRONT
 10
0.0
 20
0.0
 30
0.0
  9
$PUCSORGBACK
 10
0.0
 20
0.0
 30
0.0
  9
$USERI1
 70
     0
  9
$USERI2
 70
     0
  9
$USERI3
 70
     0
  9
$USERI4
 70
     0
  9
$USERI5
 70
     0
  9
$USERR1
 40
0.0
  9
$USERR2
 40
0.0
  9
$USERR3
 40
0.0
  9
$USERR4
 40
0.0
  9
$USERR5
 40
0.0
  9
$WORLDVIEW
 70
     1
  9
$SHADEDGE
 70
     3
  9
$SHADEDIF
 70
    70
  9
$TILEMODE
 70
     1
  9
$MAXACTVP
 70
    64
  9
$PINSBASE
 10
0.0
 20
0.0
 30
0.0
  9
$PLIMCHECK
 70
     0
  9
$PEXTMIN
 10
1.000000000000000E+20
 20
1.000000000000000E+20
 30
1.000000000000000E+20
  9
$PEXTMAX
 10
-1.000000000000000E+20
 20
-1.000000000000000E+20
 30
-1.000000000000000E+20
  9
$PLIMMIN
 10
0.0
 20
0.0
  9
$PLIMMAX
 10
12.0
 20
9.0
  9
$UNITMODE
 70
     0
  9
$VISRETAIN
 70
     1
  9
$PLINEGEN
 70
     0
  9
$PSLTSCALE
 70
     1
  9
$TREEDEPTH
 70
  3020
  9
$CMLSTYLE
  2
Standard
  9
$CMLJUST
 70
     0
  9
$CMLSCALE
 40
1.0
  9
$PROXYGRAPHICS
 70
     1
  9
$MEASUREMENT
 70
     0
  9
$CELWEIGHT
370
    -1
  9
$ENDCAPS
280
     0
  9
$JOINSTYLE
280
     0
  9
$LWDISPLAY
290
     1
  9
$INSUNITS
 70
     1
  9
$HYPERLINKBASE
  1

  9
$STYLESHEET
  1

  9
$XEDIT
290
     1
  9
$CEPSNTYPE
380
     0
  9
$PSTYLEMODE
290
     1
  9
$FINGERPRINTGUID
  2
{0597B4DE-FD7C-48EF-AE61-67EF8E028DF6}
  9
$VERSIONGUID
  2
{A41D2FCC-C1BF-4523-BD98-1223702E929F}
  9
$EXTNAMES
290
     1
  9
$PSVPSCALE
 40
0.0
  9
$OLESTARTUP
290
     0
  9
$SORTENTS
280
   127
  9
$INDEXCTL
280
     0
  9
$HIDETEXT
280
     0
  9
$XCLIPFRAME
290
     0
  9
$HALOGAP
280
     0
  9
$OBSCOLOR
 70
   257
  9
$OBSLTYPE
280
     0
  9
$INTERSECTIONDISPLAY
280
     0
  9
$INTERSECTIONCOLOR
 70
   257
  9
$DIMASSOC
280
     1
  9
$PROJECTNAME
  1

  9
$CAMERADISPLAY
290
     0
  9
$LENSLENGTH
 40
50.0
  9
$CAMERAHEIGHT
 40
0.0
  9
$STEPSPERSEC
 40
2.0
  9
$STEPSIZE
 40
6.0
  9
$3DDWFPREC
 40
2.0
  9
$PSOLWIDTH
 40
0.25
  9
$PSOLHEIGHT
 40
4.0
  9
$LOFTANG1
 40
1.570796326794896
  9
$LOFTANG2
 40
1.570796326794896
  9
$LOFTMAG1
 40
0.0
  9
$LOFTMAG2
 40
0.0
  9
$LOFTPARAM
 70
     7
  9
$LOFTNORMALS
280
     1
  9
$LATITUDE
 40
37.795
  9
$LONGITUDE
 40
-122.394
  9
$NORTHDIRECTION
 40
0.0
  9
$TIMEZONE
 70
 -8000
  9
$LIGHTGLYPHDISPLAY
280
     1
  9
$TILEMODELIGHTSYNCH
280
     1
  9
$CMATERIAL
347
E8
  9
$SOLIDHIST
280
     1
  9
$SHOWHIST
280
     1
  9
$DWFFRAME
280
     2
  9
$DGNFRAME
280
     0
  9
$REALWORLDSCALE
290
     1
  9
$INTERFERECOLOR
 62
     1
  9
$INTERFEREOBJVS
345
F5
  9
$INTERFEREVPVS
346
F2
  9
$CSHADOW
280
     0
  9
$SHADOWPLANELOCATION
 40
0.0
  0
ENDSEC
  0
SECTION
  2
CLASSES
  0
CLASS
  1
ACDBDICTIONARYWDFLT
  2
AcDbDictionaryWithDefault
  3
ObjectDBX Classes
 90
        0
 91
        1
280
     0
281
     0
  0
CLASS
  1
VISUALSTYLE
  2
AcDbVisualStyle
  3
ObjectDBX Classes
 90
     4095
 91
       16
280
     0
281
     0
  0
CLASS
  1
MATERIAL
  2
AcDbMaterial
  3
ObjectDBX Classes
 90
     1024
 91
        3
280
     0
281
     0
  0
CLASS
  1
TABLESTYLE
  2
AcDbTableStyle
  3
ObjectDBX Classes
 90
     4095
 91
        1
280
     0
281
     0
  0
CLASS
  1
DICTIONARYVAR
  2
AcDbDictionaryVar
  3
ObjectDBX Classes
 90
        0
 91
        1
280
     0
281
     0
  0
CLASS
  1
SORTENTSTABLE
  2
AcDbSortentsTable
  3
ObjectDBX Classes
 90
        0
 91
        1
280
     0
281
     0
  0
CLASS
  1
PLOTSETTINGS
  2
AcDbPlotSettings
  3
ObjectDBX Classes
 90
        0
 91
        2
280
     0
281
     0
  0
ENDSEC
  0
SECTION
  2
TABLES
  0
TABLE
  2
VPORT
  5
8
102
{ACAD_XDICTIONARY
360
4DC
102
}
330
0
100
AcDbSymbolTable
 70
     1
  0
VPORT
  5
29
330
8
100
AcDbSymbolTableRecord
100
AcDbViewportTableRecord
  2
*Active
 70
     0
 10
0.0
 20
0.0
 11
1.0
 21
1.0
 12
3.12708301234683
 22
2.367880280504065
 13
0.0
 23
0.0
 14
0.5
 24
0.5
 15
0.5
 25
0.5
 16
0.0
 26
0.0
 36
1.0
 17
0.0
 27
0.0
 37
0.0
 40
4.782447230505256
 41
1.746411483253588
 42
50.0
 43
0.0
 44
0.0
 50
0.0
 51
0.0
 71
     0
 72
  2000
 73
     1
 74
     3
 75
     0
 76
     0
 77
     0
 78
     0
281
     0
 65
     1
110
0.0
120
0.0
130
0.0
111
1.0
121
0.0
131
0.0
112
0.0
122
1.0
132
0.0
 79
     0
146
0.0
348
F1
 60
     3
 61
     5
292
     1
282
     1
141
0.0
142
0.0
 63
   250
421
  3355443
  0
ENDTAB
  0
TABLE
  2
LTYPE
  5
5
330
0
100
AcDbSymbolTable
 70
     2
  0
LTYPE
  5
14
330
5
100
AcDbSymbolTableRecord
100
AcDbLinetypeTableRecord
  2
ByBlock
 70
     0
  3

 72
    65
 73
     0
 40
0.0
  0
LTYPE
  5
15
330
5
100
AcDbSymbolTableRecord
100
AcDbLinetypeTableRecord
  2
ByLayer
 70
     0
  3

 72
    65
 73
     0
 40
0.0
  0
LTYPE
  5
16
330
5
100
AcDbSymbolTableRecord
100
AcDbLinetypeTableRecord
  2
Continuous
 70
     0
  3
Solid line
 72
    65
 73
     0
 40
0.0
  0
LTYPE
  5
C13
330
5
100
AcDbSymbolTableRecord
100
AcDbLinetypeTableRecord
  2
HIDDEN
 70
     0
  3
Hidden __ __ __ __ __ __ __ __ __ __ __ __ __ __
 72
    65
 73
     2
 40
0.075
 49
0.05
 74
     0
 49
-0.025
 74
     0
  0
ENDTAB
  0
TABLE
  2
LAYER
  5
2
102
{ACAD_XDICTIONARY
360
61E
102
}
330
0
100
AcDbSymbolTable
 70
     4
  0
LAYER
  5
10
330
2
100
AcDbSymbolTableRecord
100
AcDbLayerTableRecord
  2
0
 70
     0
 62
     7
  6
Continuous
370
    -3
390
F
347
EA
  0
LAYER
  5
44
330
2
100
AcDbSymbolTableRecord
100
AcDbLayerTableRecord
  2
FORMAT
 70
     0
 62
     7
  6
Continuous
370
    -3
390
F
347
EA
  0
LAYER
  5
125
330
2
100
AcDbSymbolTableRecord
100
AcDbLayerTableRecord
  2
Defpoints
 70
     0
 62
     7
  6
Continuous
290
     0
370
    -3
390
F
347
EA
  0
LAYER
  5
61C
330
2
100
AcDbSymbolTableRecord
100
AcDbLayerTableRecord
  2
DIM
 70
     0
 62
     8
  6
Continuous
370
    -3
390
F
347
EA
1001
AcAecLayerStandard
1000

1000

  0
ENDTAB
  0
TABLE
  2
STYLE
  5
3
330
0
100
AcDbSymbolTable
 70
     5
  0
STYLE
  5
11
330
3
100
AcDbSymbolTableRecord
100
AcDbTextStyleTableRecord
  2
Standard
 70
     0
 40
0.0
 41
1.0
 50
0.0
 71
     0
 42
0.2
  3
GOTHIC.TTF
  4

1001
ACAD
1000
Century Gothic
1071
       34
  0
STYLE
  5
66
330
3
100
AcDbSymbolTableRecord
100
AcDbTextStyleTableRecord
  2
SLDTEXTSTYLE0
 70
     0
 40
0.0
 41
0.75
 50
0.0
 71
     0
 42
0.2
  3
GOTHIC.TTF
  4

1001
ACAD
1000
Century Gothic
1071
       34
  0
STYLE
  5
6A
330
3
100
AcDbSymbolTableRecord
100
AcDbTextStyleTableRecord
  2
SLDTEXTSTYLE1
 70
     0
 40
0.0
 41
0.6875
 50
0.0
 71
     0
 42
0.2
  3
GOTHIC.TTF
  4

1001
ACAD
1000
Century Gothic
1071
       34
  0
STYLE
  5
412
330
3
100
AcDbSymbolTableRecord
100
AcDbTextStyleTableRecord
  2
style2
 70
     0
 40
0.0
 41
1.0
 50
0.0
 71
     0
 42
0.2
  3

  4

1001
ACAD
1000
Euphemia
1071
       34
  0
STYLE
  5
B37
330
3
100
AcDbSymbolTableRecord
100
AcDbTextStyleTableRecord
  2
style1
 70
     0
 40
0.0
 41
1.0
 50
0.0
 71
     0
 42
0.2
  3

  4

1001
ACAD
1000
@MS PGothic
1071
    32802
  0
ENDTAB
  0
TABLE
  2
VIEW
  5
6
330
0
100
AcDbSymbolTable
 70
     0
  0
ENDTAB
  0
TABLE
  2
UCS
  5
7
330
0
100
AcDbSymbolTable
 70
     0
  0
ENDTAB
  0
TABLE
  2
APPID
  5
9
330
0
100
AcDbSymbolTable
 70
     5
  0
APPID
  5
12
330
9
100
AcDbSymbolTableRecord
100
AcDbRegAppTableRecord
  2
ACAD
 70
     0
  0
APPID
  5
3B8
330
9
100
AcDbSymbolTableRecord
100
AcDbRegAppTableRecord
  2
ACAD_EXEMPT_FROM_CAD_STANDARDS
 70
     0
  0
APPID
  5
413
330
9
100
AcDbSymbolTableRecord
100
AcDbRegAppTableRecord
  2
ACAD_PSEXT
 70
     0
  0
APPID
  5
61D
330
9
100
AcDbSymbolTableRecord
100
AcDbRegAppTableRecord
  2
AcAecLayerStandard
 70
     0
  0
APPID
  5
B19
330
9
100
AcDbSymbolTableRecord
100
AcDbRegAppTableRecord
  2
PE_URL
 70
     0
  0
ENDTAB
  0
TABLE
  2
DIMSTYLE
  5
A
330
0
100
AcDbSymbolTable
 70
     1
100
AcDbDimStyleTable
 71
     1
340
27
  0
DIMSTYLE
105
27
102
{ACAD_REACTORS
330
ECC
330
EE7
330
EF5
330
F03
330
F10
330
F1F
330
F2E
330
F3B
330
F48
330
F55
330
F64
330
F71
330
10C9
330
1188
330
11C0
330
11CC
330
11D8
330
11E4
330
12EC
330
12F9
102
}
330
A
100
AcDbSymbolTableRecord
100
AcDbDimStyleTableRecord
  2
Standard
 70
     0
 41
0.07
 42
0.05
 44
0.04
 73
     0
 74
     0
 77
     1
140
0.07
147
0.02
172
     1
271
     2
272
     2
340
11
  0
ENDTAB
  0
TABLE
  2
BLOCK_RECORD
  5
1
330
0
100
AcDbSymbolTable
 70
    27
  0
BLOCK_RECORD
  5
1F
330
1
100
AcDbSymbolTableRecord
100
AcDbBlockTableRecord
  2
*Model_Space
340
22
 70
     0
280
     1
281
     0
  0
BLOCK_RECORD
  5
1B
330
1
100
AcDbSymbolTableRecord
100
AcDbBlockTableRecord
  2
*Paper_Space
340
1E
 70
     0
280
     1
281
     0
  0
BLOCK_RECORD
  5
23
330
1
100
AcDbSymbolTableRecord
100
AcDbBlockTableRecord
  2
*Paper_Space0
340
26
 70
     0
280
     1
281
     0
  0
BLOCK_RECORD
  5
3F9
330
1
100
AcDbSymbolTableRecord
100
AcDbBlockTableRecord
  2
Block3
340
0
102
{BLKREFS
331
407
102
}
 70
     0
280
     1
281
     0
  0
BLOCK_RECORD
  5
405
330
1
100
AcDbSymbolTableRecord
100
AcDbBlockTableRecord
  2
Block2
340
0
102
{BLKREFS
331
44A
102
}
 70
     0
280
     1
281
     0
  0
BLOCK_RECORD
  5
409
102
{ACAD_XDICTIONARY
360
40A
102
}
330
1
100
AcDbSymbolTableRecord
100
AcDbBlockTableRecord
  2
amazon
340
0
310
2800000020000000200000000100080000000000000400000000000000000000000000000000000000000000000080000080000000808000800000008000800080800000C0C0C000C0DCC000F0CAA6000020400000206000002080000020A0000020C0000020E00000400000004020000040400000406000004080000040A0
310
000040C0000040E00000600000006020000060400000606000006080000060A0000060C0000060E00000800000008020000080400000806000008080000080A0000080C0000080E00000A0000000A0200000A0400000A0600000A0800000A0A00000A0C00000A0E00000C0000000C0200000C0400000C0600000C0800000C0
310
A00000C0C00000C0E00000E0000000E0200000E0400000E0600000E0800000E0A00000E0C00000E0E00040000000400020004000400040006000400080004000A0004000C0004000E00040200000402020004020400040206000402080004020A0004020C0004020E000404000004040200040404000404060004040800040
310
40A0004040C0004040E00040600000406020004060400040606000406080004060A0004060C0004060E00040800000408020004080400040806000408080004080A0004080C0004080E00040A0000040A0200040A0400040A0600040A0800040A0A00040A0C00040A0E00040C0000040C0200040C0400040C0600040C08000
310
40C0A00040C0C00040C0E00040E0000040E0200040E0400040E0600040E0800040E0A00040E0C00040E0E00080000000800020008000400080006000800080008000A0008000C0008000E00080200000802020008020400080206000802080008020A0008020C0008020E00080400000804020008040400080406000804080
310
008040A0008040C0008040E00080600000806020008060400080606000806080008060A0008060C0008060E00080800000808020008080400080806000808080008080A0008080C0008080E00080A0000080A0200080A0400080A0600080A0800080A0A00080A0C00080A0E00080C0000080C0200080C0400080C0600080C0
310
800080C0A00080C0C00080C0E00080E0000080E0200080E0400080E0600080E0800080E0A00080E0C00080E0E000C0000000C0002000C0004000C0006000C0008000C000A000C000C000C000E000C0200000C0202000C0204000C0206000C0208000C020A000C020C000C020E000C0400000C0402000C0404000C0406000C0
310
408000C040A000C040C000C040E000C0600000C0602000C0604000C0606000C0608000C060A000C060C000C060E000C0800000C0802000C0804000C0806000C0808000C080A000C080C000C080E000C0A00000C0A02000C0A04000C0A06000C0A08000C0A0A000C0A0C000C0A0E000C0C00000C0C02000C0C04000C0C06000
310
C0C08000C0C0A000F0FBFF00A4A0A000808080000000FF0000FF000000FFFF00FF000000FF00FF00FFFF0000FFFFFF0000000000000000000000000000000000000000000000000000000000000000000000000000000000000000000000000000000000000000000000000000000000000000000000000000000000000000
310
00000000000000000000000000000000000000000000000000000000000000000000000000000000000000000000000000000000000000000000000000000000000000000000000000000000000000000000000000000000000000000000000000000000000000000000000000000000000000000000000000000000000000
310
00000000000000000000000000000000000000000000000000000000000000000000000000000000000000000000000000000000000000000000000000000000000000000000000000000000000000000000000000000000000000000000000000000000000000000000000000000000000000000000000000000000000000
310
0000000000000000000000000000000000000000000000000000000000000000000000000000000000000000000000000000000000000000000000000000000000000000000000000000000000000000000000000000000000FFFFFFFFFF00000000000000000000000000000000000000000000000000FFFFFFFFFFFFFFFF
310
00000000000000000000FC00FC0000FCFC00000000FFFFFFFFFFFFFFFFFFFFFFFFFFFFFFFFFCFCFCFCFCFCFCFCFCFCFCFCFC00000000FFFFFFFFFFFFFFFFFFFFFFFFFFFFFFFCFCFC00FCFCFCFC00FCFCFCFC00000000FFFFFFFFFFFFFFFFFFFFFFFFFFFFFFFCFCFC00FCFCFCFCFCFCFCFCFC00000000000000000000000000
310
00000000000000000000000000000000FC0000000000000000000000000000000000000000000000000000000000000000000000000000000000000000000000000000000000000000000000000000000000000000000000000000000000000000000000000000000000000000000000000000000000000000000000000000
310
00000000000000000000000000000000000000000000000000000000000000000000000000000000000000000000000000000000000000000000000000000000000000000000000000000000000000000000000000000000000000000000000000000000000000000000000000000000000000000000000000000000000000
310
00000000000000000000000000000000000000000000000000000000000000000000000000000000000000000000000000000000000000000000000000000000000000000000000000000000000000000000000000000000000000000000000000000000000000000000000000000000000000000000000000000000000000
310
0000000000000000000000000000000000000000000000000000000000000000000000000000000000000000000000000000000000000000
 70
     1
280
     1
281
     0
  0
BLOCK_RECORD
  5
B30
330
1
100
AcDbSymbolTableRecord
100
AcDbBlockTableRecord
  2
amazon block
340
0
310
2800000020000000200000000100080000000000000400000000000000000000000000000000000000000000000080000080000000808000800000008000800080800000C0C0C000C0DCC000F0CAA6000020400000206000002080000020A0000020C0000020E00000400000004020000040400000406000004080000040A0
310
000040C0000040E00000600000006020000060400000606000006080000060A0000060C0000060E00000800000008020000080400000806000008080000080A0000080C0000080E00000A0000000A0200000A0400000A0600000A0800000A0A00000A0C00000A0E00000C0000000C0200000C0400000C0600000C0800000C0
310
A00000C0C00000C0E00000E0000000E0200000E0400000E0600000E0800000E0A00000E0C00000E0E00040000000400020004000400040006000400080004000A0004000C0004000E00040200000402020004020400040206000402080004020A0004020C0004020E000404000004040200040404000404060004040800040
310
40A0004040C0004040E00040600000406020004060400040606000406080004060A0004060C0004060E00040800000408020004080400040806000408080004080A0004080C0004080E00040A0000040A0200040A0400040A0600040A0800040A0A00040A0C00040A0E00040C0000040C0200040C0400040C0600040C08000
310
40C0A00040C0C00040C0E00040E0000040E0200040E0400040E0600040E0800040E0A00040E0C00040E0E00080000000800020008000400080006000800080008000A0008000C0008000E00080200000802020008020400080206000802080008020A0008020C0008020E00080400000804020008040400080406000804080
310
008040A0008040C0008040E00080600000806020008060400080606000806080008060A0008060C0008060E00080800000808020008080400080806000808080008080A0008080C0008080E00080A0000080A0200080A0400080A0600080A0800080A0A00080A0C00080A0E00080C0000080C0200080C0400080C0600080C0
310
800080C0A00080C0C00080C0E00080E0000080E0200080E0400080E0600080E0800080E0A00080E0C00080E0E000C0000000C0002000C0004000C0006000C0008000C000A000C000C000C000E000C0200000C0202000C0204000C0206000C0208000C020A000C020C000C020E000C0400000C0402000C0404000C0406000C0
310
408000C040A000C040C000C040E000C0600000C0602000C0604000C0606000C0608000C060A000C060C000C060E000C0800000C0802000C0804000C0806000C0808000C080A000C080C000C080E000C0A00000C0A02000C0A04000C0A06000C0A08000C0A0A000C0A0C000C0A0E000C0C00000C0C02000C0C04000C0C06000
310
C0C08000C0C0A000F0FBFF00A4A0A000808080000000FF0000FF000000FFFF00FF000000FF00FF00FFFF0000FFFFFF0000000000000000000000000000000000000000000000000000000000000000000000000000000000000000000000000000000000000000000000000000000000000000000000000000000000000000
310
00000000000000000000000000000000000000000000000000000000000000000000000000000000000000000000000000000000000000000000000000000000000000000000000000000000000000000000000000000000000000000000000000000000000000000000000000000000000000000000000000000000000000
310
00000000000000000000000000000000000000000000000000000000000000000000000000000000000000000000000000000000000000000000000000000000000000000000000000000000000000000000000000000000000000000000000000000000000000000000000000000000000000000000000000000000000000
310
0000000000000000000000000000000000000000000000000000000000000000000000000000000000000000000000000000000000000000000000000000000000000000000000000000000000000000000000000000000000FFFFFFFFFF00000000000000000000000000000000000000000000000000FFFFFFFFFFFFFFFF
310
00000000000000000000E000E0E000E0E0E0000000FFFFFFFFFFFFFFFFFFFFFFFFFFFFFFFFE0E0E0E0E0E0E0E0E0E0E0E0E000000000FFFFFFFFFFFFFFFFFFFFFFFFFFFFFFE0E0E0E0E0E0E0E0E0E0E0E0E000000000FFFFFFFFFFFFFFFFFFFFFFFFFFFFFFE0E0E0E0E0E0E0E0E0E0E0E0E0E0000000000000000000000000
310
00000000000000000000000000000000E00000000000000000000000000000000000000000000000000000000000000000000000000000000000000000000000000000000000000000000000000000000000000000000000000000000000000000000000000000000000000000000000000000000000000000000000000000
310
00000000000000000000000000000000000000000000000000000000000000000000000000000000000000000000000000000000000000000000000000000000000000000000000000000000000000000000000000000000000000000000000000000000000000000000000000000000000000000000000000000000000000
310
00000000000000000000000000000000000000000000000000000000000000000000000000000000000000000000000000000000000000000000000000000000000000000000000000000000000000000000000000000000000000000000000000000000000000000000000000000000000000000000000000000000000000
310
0000000000000000000000000000000000000000000000000000000000000000000000000000000000000000000000000000000000000000
102
{BLKREFS
331
B40
102
}
 70
     1
280
     1
281
     0
  0
BLOCK_RECORD
  5
ECD
330
1
100
AcDbSymbolTableRecord
100
AcDbBlockTableRecord
  2
*D5
340
0
 70
     0
280
     1
281
     0
  0
BLOCK_RECORD
  5
EE8
330
1
100
AcDbSymbolTableRecord
100
AcDbBlockTableRecord
  2
*D7
340
0
 70
     0
280
     1
281
     0
  0
BLOCK_RECORD
  5
EF6
330
1
100
AcDbSymbolTableRecord
100
AcDbBlockTableRecord
  2
*D8
340
0
 70
     0
280
     1
281
     0
  0
BLOCK_RECORD
  5
F04
330
1
100
AcDbSymbolTableRecord
100
AcDbBlockTableRecord
  2
*D9
340
0
 70
     0
280
     1
281
     0
  0
BLOCK_RECORD
  5
F11
330
1
100
AcDbSymbolTableRecord
100
AcDbBlockTableRecord
  2
*D10
340
0
 70
     0
280
     1
281
     0
  0
BLOCK_RECORD
  5
F20
330
1
100
AcDbSymbolTableRecord
100
AcDbBlockTableRecord
  2
*D11
340
0
 70
     0
280
     1
281
     0
  0
BLOCK_RECORD
  5
F2F
330
1
100
AcDbSymbolTableRecord
100
AcDbBlockTableRecord
  2
*D12
340
0
 70
     0
280
     1
281
     0
  0
BLOCK_RECORD
  5
F3C
330
1
100
AcDbSymbolTableRecord
100
AcDbBlockTableRecord
  2
*D13
340
0
 70
     0
280
     1
281
     0
  0
BLOCK_RECORD
  5
F49
330
1
100
AcDbSymbolTableRecord
100
AcDbBlockTableRecord
  2
*D14
340
0
 70
     0
280
     1
281
     0
  0
BLOCK_RECORD
  5
F56
330
1
100
AcDbSymbolTableRecord
100
AcDbBlockTableRecord
  2
*D15
340
0
 70
     0
280
     1
281
     0
  0
BLOCK_RECORD
  5
F65
330
1
100
AcDbSymbolTableRecord
100
AcDbBlockTableRecord
  2
*D16
340
0
 70
     0
280
     1
281
     0
  0
BLOCK_RECORD
  5
F72
330
1
100
AcDbSymbolTableRecord
100
AcDbBlockTableRecord
  2
*D17
340
0
 70
     0
280
     1
281
     0
  0
BLOCK_RECORD
  5
10CA
330
1
100
AcDbSymbolTableRecord
100
AcDbBlockTableRecord
  2
*D18
340
0
 70
     0
280
     1
281
     0
  0
BLOCK_RECORD
  5
1189
330
1
100
AcDbSymbolTableRecord
100
AcDbBlockTableRecord
  2
*D20
340
0
 70
     0
280
     1
281
     0
  0
BLOCK_RECORD
  5
11C1
330
1
100
AcDbSymbolTableRecord
100
AcDbBlockTableRecord
  2
*D21
340
0
 70
     0
280
     1
281
     0
  0
BLOCK_RECORD
  5
11CD
330
1
100
AcDbSymbolTableRecord
100
AcDbBlockTableRecord
  2
*D22
340
0
 70
     0
280
     1
281
     0
  0
BLOCK_RECORD
  5
11D9
330
1
100
AcDbSymbolTableRecord
100
AcDbBlockTableRecord
  2
*D23
340
0
 70
     0
280
     1
281
     0
  0
BLOCK_RECORD
  5
11E5
330
1
100
AcDbSymbolTableRecord
100
AcDbBlockTableRecord
  2
*D24
340
0
 70
     0
280
     1
281
     0
  0
BLOCK_RECORD
  5
12ED
330
1
100
AcDbSymbolTableRecord
100
AcDbBlockTableRecord
  2
*D25
340
0
 70
     0
280
     1
281
     0
  0
BLOCK_RECORD
  5
12FA
330
1
100
AcDbSymbolTableRecord
100
AcDbBlockTableRecord
  2
*D26
340
0
 70
     0
280
     1
281
     0
  0
ENDTAB
  0
ENDSEC
  0
SECTION
  2
BLOCKS
  0
BLOCK
  5
20
330
1F
100
AcDbEntity
  8
0
100
AcDbBlockBegin
  2
*Model_Space
 70
     0
 10
0.0
 20
0.0
 30
0.0
  3
*Model_Space
  1

  0
ENDBLK
  5
21
330
1F
100
AcDbEntity
  8
0
100
AcDbBlockEnd
  0
BLOCK
  5
1C
330
1B
100
AcDbEntity
 67
     1
  8
0
100
AcDbBlockBegin
  2
*Paper_Space
 70
     0
 10
0.0
 20
0.0
 30
0.0
  3
*Paper_Space
  1

  0
ENDBLK
  5
1D
330
1B
100
AcDbEntity
 67
     1
  8
0
100
AcDbBlockEnd
  0
BLOCK
  5
24
330
23
100
AcDbEntity
 67
     1
  8
0
100
AcDbBlockBegin
  2
*Paper_Space0
 70
     0
 10
0.0
 20
0.0
 30
0.0
  3
*Paper_Space0
  1

  0
ENDBLK
  5
25
330
23
100
AcDbEntity
 67
     1
  8
0
100
AcDbBlockEnd
  0
BLOCK
  5
3FA
330
3F9
100
AcDbEntity
  8
0
100
AcDbBlockBegin
  2
Block3
 70
     0
 10
0.0
 20
0.0
 30
0.0
  3
Block3
  1

  0
CIRCLE
  5
3FB
330
3F9
100
AcDbEntity
  8
FORMAT
 62
     7
370
    15
100
AcDbCircle
 10
9.623096090023436
 20
2.115622186524885
 30
0.0
 40
0.0998031496062924
  0
CIRCLE
  5
3FC
330
3F9
100
AcDbEntity
  8
FORMAT
 62
     7
370
    15
100
AcDbCircle
 10
9.623096090023436
 20
2.115622186524885
 30
0.0
 40
0.1996062992125948
  0
LINE
  5
3FD
330
3F9
100
AcDbEntity
  8
FORMAT
 62
     7
370
    15
100
AcDbLine
 10
10.05890680910872
 20
2.020396293772344
 30
0.0
 11
10.05890680910872
 21
2.210848079277426
 31
0.0
  0
LINE
  5
3FE
330
3F9
100
AcDbEntity
  8
FORMAT
 62
     7
370
    15
100
AcDbLine
 10
10.05890680910872
 20
2.210848079277426
 30
0.0
 11
10.55986477488565
 21
2.315228485737483
 31
0.0
  0
LINE
  5
3FF
330
3F9
100
AcDbEntity
  8
FORMAT
 62
     7
370
    15
100
AcDbLine
 10
10.55986477488565
 20
2.315228485737483
 30
0.0
 11
10.55986477488565
 21
1.916015887312285
 31
0.0
  0
LINE
  5
400
330
3F9
100
AcDbEntity
  8
FORMAT
 62
     7
370
    15
100
AcDbLine
 10
10.55986477488565
 20
1.916015887312285
 30
0.0
 11
10.05890680910872
 21
2.020396293772344
 31
0.0
  0
LINE
  5
401
330
3F9
100
AcDbEntity
  8
FORMAT
 62
     7
370
    15
100
AcDbLine
 10
9.987169396213419
 20
2.115622186524885
 30
0.0
 11
10.59626953693931
 21
2.115622186524885
 31
0.0
  0
LINE
  5
402
330
3F9
100
AcDbEntity
  8
FORMAT
 62
     7
370
    15
100
AcDbLine
 10
9.368122674365656
 20
2.115622186524885
 30
0.0
 11
9.87806950568121
 21
2.115622186524885
 31
0.0
  0
LINE
  5
403
330
3F9
100
AcDbEntity
  8
FORMAT
 62
     7
370
    15
100
AcDbLine
 10
9.623096090023436
 20
1.872691387914879
 30
0.0
 11
9.623096090023436
 21
2.382638219230431
 31
0.0
  0
ENDBLK
  5
404
330
3F9
100
AcDbEntity
  8
0
100
AcDbBlockEnd
  0
BLOCK
  5
406
330
405
100
AcDbEntity
  8
0
100
AcDbBlockBegin
  2
Block2
 70
     0
 10
0.0
 20
0.0
 30
0.0
  3
Block2
  1

  0
INSERT
  5
407
330
405
100
AcDbEntity
  8
0
  6
Continuous
 62
     7
100
AcDbBlockReference
  2
Block3
 10
-0.0282699124868556
 20
0.0201145539810274
 30
0.0
  0
ENDBLK
  5
408
330
405
100
AcDbEntity
  8
0
100
AcDbBlockEnd
  0
BLOCK
  5
40C
330
409
100
AcDbEntity
  8
0
100
AcDbBlockBegin
  2
amazon
 70
     0
 10
0.0
 20
0.0
 30
0.0
  3
amazon
  1

  0
HATCH
  5
40D
330
409
100
AcDbEntity
  8
0
100
AcDbHatch
 10
0.0
 20
0.0
 30
0.0
210
0.0
220
0.0
230
0.9999999999999998
  2
SOLID
 70
     1
 71
     0
 91
        1
 92
        5
 93
        1
 72
     4
 94
        3
 73
     0
 74
     0
 95
       18
 96
       14
 40
0.0
 40
0.0
 40
0.0
 40
0.0
 40
0.0596755466403443
 40
0.1035834707990989
 40
0.1695571134872838
 40
0.2000964637947284
 40
0.2237461165360023
 40
0.2565225897680324
 40
0.2756876256135649
 40
0.3018435697278741
 40
0.3302551352352805
 40
0.3457181605243852
 40
0.3618589112597388
 40
0.3618589112597388
 40
0.3618589112597388
 40
0.3618589112597388
 10
0.9280407135556529
 20
0.3678371450737368
 10
1.014164084729102
 20
0.3851494268204694
 10
1.144945011486449
 20
0.4024842103214663
 10
1.481904894757406
 20
0.3990648758382389
 10
1.309526957346704
 20
0.1657833910269666
 10
1.071996456892463
 20
0.0025828528301117
 10
1.213429780952147
 20
0.147260900816045
 10
1.269689397936616
 20
0.2055836989094448
 10
1.328770741103362
 20
0.3426132943554165
 10
1.182110533057802
 20
0.3629915346337151
 10
1.077363991359149
 20
0.3586993230536737
 10
1.01802908590988
 20
0.3618658313307459
 10
0.904746484263093
 20
0.3631546035627498
 10
0.9280407135556529
 20
0.3678371450737368
 97
        0
 75
     0
 76
     1
 47
0.0083360314226261
 98
        1
 10
1.350036184717041
 20
0.3275823953230534
450
        0
451
        0
460
0.0
461
0.0
452
        1
462
1.0
453
        2
463
0.0
 63
     5
421
      255
463
1.0
 63
     7
421
 16777215
470
LINEAR
1001
ACAD
1010
0.0
1020
0.0
1030
0.0
  0
HATCH
  5
40E
330
409
100
AcDbEntity
  8
0
100
AcDbHatch
 10
0.0
 20
0.0
 30
0.0
210
0.0
220
0.0
230
0.9999999999999998
  2
SOLID
 70
     1
 71
     0
 91
        9
 92
        7
 72
     1
 73
     1
 93
       20
 10
-1.397399278738596
 20
0.888299103756417
 42
0.0
 10
-1.517557092146972
 20
0.8521069912840207
 42
0.0
 10
-1.634457615432786
 20
0.8260486703038981
 42
0.113500075695427
 10
-1.796297882939342
 20
0.77249506361993
 42
0.335029435887297
 10
-1.882119182302076
 20
0.5660893728218724
 42
0.2523749963765925
 10
-1.737967057103837
 20
0.4398788302234422
 42
0.1008759599722844
 10
-1.585598263595066
 20
0.4319165654795154
 42
0.1558313267708922
 10
-1.397230403062579
 20
0.516966153393244
 42
0.0
 10
-1.397399278738596
 20
0.5017673425512395
 42
0.1600174655974661
 10
-1.372064800007926
 20
0.4395169090987201
 42
0.0
 10
-1.217886400875514
 20
0.4395169090987201
 42
-0.1096578030042886
 10
-1.250459302100694
 20
0.4735374948229208
 42
-0.1371553684281488
 10
-1.269279200586318
 20
0.540854824021424
 42
0.0
 10
-1.269279200586318
 20
0.9244912162288137
 42
0.267077244638994
 10
-1.391608540743007
 20
1.084460353356798
 42
0.1085027846705916
 10
-1.618171164820246
 20
1.110518674336923
 42
0.3343505200399534
 10
-1.854867580389672
 20
0.9063951599926172
 42
0.0
 10
-1.71371834174733
 20
0.9063951599926172
 42
-0.2815324590939715
 10
-1.623703637535193
 20
0.9970774848409384
 42
-0.1775171235246243
 10
-1.454582816445004
 20
0.984570122933
 42
-0.2483479329952881
 97
        0
 92
       22
 72
     1
 73
     1
 93
        8
 10
-1.397399278738596
 20
0.7768273973414295
 42
0.0
 10
-1.397399278738596
 20
0.658841110681435
 42
-0.2004737922071577
 10
-1.563882996111615
 20
0.5415786662708722
 42
-0.1115040980661369
 10
-1.686936178517754
 20
0.5404929028967014
 42
-0.2738586692622027
 10
-1.742672031725241
 20
0.6002098884761536
 42
-0.289643054085014
 10
-1.707203761502306
 20
0.6928616964054842
 42
-0.1190249358109779
 10
-1.625409587314685
 20
0.7261584398800891
 42
-0.0006545690929014
 10
-1.500908720409647
 20
0.7514929186107651
 42
0.031014715336947
 97
        0
 92
        7
 72
     1
 73
     1
 93
       27
 10
-1.062984159493659
 20
0.4395169090987201
 42
0.0
 10
-0.9348640813413879
 20
0.4395169090987201
 42
0.0
 10
-0.9348640813413879
 20
0.8535546757829193
 42
-0.1716644096531924
 10
-0.8769567013855592
 20
0.9534449062067299
 42
-0.1448545784781812
 10
-0.7799618399595332
 20
0.9997708101713946
 42
-0.1340090766267909
 10
-0.6862242686560336
 20
0.9885512553049524
 42
-0.2563461470910333
 10
-0.6192688605821033
 20
0.8998805797475881
 42
0.0
 10
-0.6192688605821033
 20
0.4395169090987201
 42
0.0
 10
-0.4904249401803611
 20
0.4395169090987201
 42
0.0
 10
-0.4904249401803753
 20
0.8641979875178154
 42
-0.1830801363087423
 10
-0.4212980053581035
 20
0.9621310132001053
 42
-0.1206854715101709
 10
-0.3311796453018374
 20
0.9975992834230517
 42
-0.2157527517618656
 10
-0.216674861049178
 20
0.9774303127070119
 42
-0.2679983488848178
 10
-0.1748297194210906
 20
0.9063951599927708
 42
0.0
 10
-0.1748297194210977
 20
0.4395169090987201
 42
0.0
 10
-0.0467096412688122
 20
0.4395169090987201
 42
0.0
 10
-0.0467096412688122
 20
0.9063951599926172
 42
0.0
 10
-0.0467096412688122
 20
0.9360726922199805
 42
0.2784603970195297
 10
-0.1675912969266093
 20
1.094594144849069
 42
0.1495326253440701
 10
-0.3521710705358245
 20
1.102556409592997
 42
0.1796241607690637
 10
-0.5034541006704388
 20
0.9896370186791244
 42
0.1190036376854939
 10
-0.5809052213613626
 20
1.073602719615081
 42
0.1510696384071214
 10
-0.753179676729971
 20
1.112690201085266
 42
0.122416550902687
 10
-0.8494506959065404
 20
1.081564984359008
 42
0.0903817772246913
 10
-0.9348640813413879
 20
1.001218494670287
 42
0.0
 10
-0.9348640813413879
 20
1.101108725094101
 42
0.0
 10
-1.062984159493659
 20
1.101108725094101
 42
0.0
 97
        0
 92
        7
 72
     1
 73
     1
 93
       20
 10
0.1120662149268909
 20
0.5660893728218764
 42
0.2523749963765703
 10
0.256218340125109
 20
0.4398788302234467
 42
0.100875959972303
 10
0.4085871336339224
 20
0.4319165654795159
 42
0.1558313267708855
 10
0.5969549941663886
 20
0.516966153393244
 42
0.0
 10
0.5967861184903711
 20
0.5017673425512395
 42
0.1600174655974661
 10
0.6221205972210555
 20
0.4395169090987201
 42
0.0
 10
0.7762989963534466
 20
0.4395169090987201
 42
-0.1096578030036369
 10
0.7437260951284089
 20
0.4735374948226645
 42
-0.1371553684287215
 10
0.7249061966426496
 20
0.540854824021424
 42
0.0
 10
0.7249061966426496
 20
0.9244912162288137
 42
0.2670772446390557
 10
0.6025768564859249
 20
1.084460353356814
 42
0.1085027846705556
 10
0.3760142324087567
 20
1.110518674336923
 42
0.3343505200399825
 10
0.1393178168393021
 20
0.9063951599926172
 42
0.0
 10
0.2804670554816368
 20
0.9063951599926172
 42
-0.2815324590939487
 10
0.370481759693746
 20
0.9970774848409313
 42
-0.1775171235246857
 10
0.539602580783992
 20
0.9845701229329858
 42
-0.2483479329952225
 10
0.5967861184903711
 20
0.888299103756417
 42
0.0
 10
0.4766283050820306
 20
0.8521069912840264
 42
0.0
 10
0.359727781796181
 20
0.8260486703038981
 42
0.113500075695427
 10
0.1978875142896257
 20
0.77249506361993
 42
0.335029435887291
 97
        0
 92
       22
 72
     1
 73
     1
 93
        8
 10
0.2869816357266757
 20
0.6928616964054842
 42
-0.1190249358109779
 10
0.3687758099142826
 20
0.7261584398800891
 42
-0.0006545690929014
 10
0.4932766768193205
 20
0.7514929186107651
 42
0.0310147153369478
 10
0.5967861184903711
 20
0.7768273973414419
 42
0.0
 10
0.5967861184903711
 20
0.658841110681435
 42
-0.2004737922071577
 10
0.430302401117352
 20
0.5415786662708722
 42
-0.1115040980661369
 10
0.3072492187112061
 20
0.5404929028967014
 42
-0.2738586692622027
 10
0.251513365503726
 20
0.6002098884761536
 42
-0.289643054085014
 97
        0
 92
        7
 72
     1
 73
     1
 93
       10
 10
1.490731296558529
 20
0.9717250567569255
 42
0.0
 10
1.490731296558529
 20
1.101108725094102
 42
0.0
 10
0.9246866574902696
 20
1.101108725094102
 42
0.0
 10
0.9246866574902767
 20
0.9648744605637409
 42
0.0
 10
1.298313112053691
 20
0.9648744605637409
 42
0.0
 10
0.8993521787595994
 20
0.5408548240214275
 42
0.0
 10
0.8993521787595994
 20
0.4395169090987241
 42
-0.1473109550280885
 10
1.52402804003313
 20
0.4395169090987184
 42
0.0
 10
1.52402804003313
 20
0.581774738538516
 42
0.0747823019347494
 10
1.16328520907988
 20
0.6214717791056393
 42
0.0
 97
        0
 92
        7
 72
     1
 73
     1
 93
        2
 10
1.658662698430447
 20
0.7829800564617493
 42
1.0
 10
2.353551257900427
 20
0.7829800564617493
 42
1.0
 97
        0
 92
       22
 72
     1
 73
     1
 93
        2
 10
2.212041370259932
 20
0.7829800564617493
 42
-1.0
 10
1.800172586070949
 20
0.7829800564617493
 42
-1.0
 97
        0
 92
        7
 72
     1
 73
     1
 93
       15
 10
2.520758817522896
 20
0.4395169090987201
 42
0.0
 10
2.649602737924617
 20
0.4395169090987201
 42
0.0
 10
2.649602737924617
 20
0.7753797128425455
 42
-0.1884880930389393
 10
2.726330016366098
 20
0.9404157457166672
 42
-0.0825504763720134
 10
2.808124190553712
 20
1.002666179169187
 42
-0.1879859195515259
 10
2.9333488997082
 20
1.010628443913113
 42
-0.3400688989443128
 10
3.022381496390295
 20
0.8948632846375158
 42
0.0
 10
3.022381496390295
 20
0.4395169090987201
 42
0.0
 10
3.151225416792009
 20
0.4395169090987201
 42
0.0
 10
3.151225416792023
 20
0.9382442189683235
 42
0.3709832727766776
 10
2.952118968473769
 20
1.109868265359158
 42
0.160618198198489
 10
2.773379762580219
 20
1.083012668857902
 42
0.0920112842116662
 10
2.649602737924617
 20
0.9831224384341012
 42
0.0
 10
2.649602737924631
 20
1.101108725094101
 42
0.0
 10
2.520758817522896
 20
1.1011087250941
 42
0.0
 97
        0
 75
     0
 76
     1
 47
0.0079344138681199
 98
        9
 10
-1.376638647914745
 20
0.8943652481782571
 10
-1.376638647914745
 20
0.8943652481782571
 10
-1.008011843667617
 20
0.7810537369378041
 10
0.2295103337683244
 20
0.706616395506853
 10
0.2295103337683244
 20
0.706616395506853
 10
1.173803717490862
 20
0.7215039733471374
 10
1.736822720547962
 20
0.9152585806937842
 10
1.736822720547962
 20
0.9152585806937842
 10
2.581717008623201
 20
0.8854836988984509
450
        0
451
        0
460
0.0
461
0.0
452
        1
462
1.0
453
        2
463
0.0
 63
     5
421
      255
463
1.0
 63
     7
421
 16777215
470
LINEAR
1001
ACAD
1010
0.0
1020
0.0
1030
0.0
  0
TEXT
  5
40F
330
409
100
AcDbEntity
  8
0
 62
   150
100
AcDbText
 10
3.411151618523078
 20
0.4239129498757777
 30
0.0
 40
1.05
  1
supply
 41
1.08
  7
style2
100
AcDbText
  0
HATCH
  5
410
330
409
100
AcDbEntity
  8
0
100
AcDbHatch
 10
0.0
 20
0.0
 30
0.0
210
0.0
220
0.0
230
0.9999999999999998
  2
SOLID
 70
     1
 71
     0
 91
        1
 92
        7
 72
     1
 73
     1
 93
        2
 10
-1.177902949885989
 20
0.4051926481048067
 42
0.3081272588713221
 10
1.212164975232198
 20
0.2933070771634125
 42
-0.177724595219735
 97
        0
 75
     0
 76
     1
 47
0.0009928164167271
 98
        1
 10
0.1755697210077258
 20
0.0593374821502257
450
        0
451
        0
460
0.0
461
0.0
452
        1
462
1.0
453
        2
463
0.0
 63
     5
421
      255
463
1.0
 63
     7
421
 16777215
470
LINEAR
1001
ACAD
1010
0.0
1020
0.0
1030
0.0
  0
ENDBLK
  5
411
330
409
100
AcDbEntity
  8
0
100
AcDbBlockEnd
  0
BLOCK
  5
B31
330
B30
100
AcDbEntity
  8
0
100
AcDbBlockBegin
  2
amazon block
 70
     0
 10
0.0
 20
0.0
 30
0.0
  3
amazon block
  1

  0
HATCH
  5
B32
330
B30
100
AcDbEntity
  8
0
100
AcDbHatch
 10
0.0
 20
0.0
 30
0.0
210
0.0
220
0.0
230
1.0
  2
SOLID
 70
     1
 71
     0
 91
        1
 92
        7
 72
     1
 73
     1
 93
        2
 10
0.1428560650202613
 20
0.0268249692297831
 42
0.3005568377796329
 10
0.6100026189360293
 20
0.0009915743964171
 42
-0.1486648242730099
 97
        0
 75
     0
 76
     1
 47
0.0083360314226261
 98
        1
 10
0.3681872109149253
 20
-0.0332769951503647
450
        0
451
        0
460
0.0
461
0.0
452
        1
462
1.0
453
        2
463
0.0
 63
     5
421
      255
463
1.0
 63
     7
421
 16777215
470
LINEAR
1001
ACAD
1010
0.0
1020
0.0
1030
0.0
  0
HATCH
  5
B33
330
B30
100
AcDbEntity
  8
0
100
AcDbHatch
 10
0.0
 20
0.0
 30
0.0
210
0.0
220
0.0
230
1.0
  2
SOLID
 70
     1
 71
     0
 91
        1
 92
        5
 93
        1
 72
     4
 94
        3
 73
     0
 74
     0
 95
       18
 96
       14
 40
0.0
 40
0.0
 40
0.0
 40
0.0
 40
0.3060284443094571
 40
0.531197286149225
 40
0.8695236589091486
 40
1.026135711767838
 40
1.14741598223591
 40
1.315500460348882
 40
1.413679231894078
 40
1.543957423309552
 40
1.719337158993241
 40
1.76919128251474
 40
1.852441399548553
 40
1.852441399548553
 40
1.852441399548553
 40
1.852441399548553
 10
0.5476248318910955
 20
0.0189472839500944
 10
0.5671265702171127
 20
0.0228674694218305
 10
0.5967407336623403
 20
0.0267937023518194
 10
0.6730410215606746
 20
0.0260155775369224
 10
0.6340109953118472
 20
-0.0267925718215847
 10
0.5802183818763105
 20
-0.0637796196110996
 10
0.6122605658026537
 20
-0.030937261100445
 10
0.624929189918916
 20
-0.0180757154749651
 10
0.6383573330340191
 20
0.013562833138125
 10
0.6020518241954172
 20
0.0146147000415664
 10
0.5794789444548947
 20
0.0158864032827642
 10
0.5641956865595646
 20
0.0167018526831093
 10
0.5423196975867733
 20
0.017880860532975
 10
0.5476248318910955
 20
0.0189472839500944
 97
        0
 75
     0
 76
     1
 47
0.0083360314226261
 98
        1
 10
0.644363460657651
 20
0.0075847933888076
450
        0
451
        0
460
0.0
461
0.0
452
        1
462
1.0
453
        2
463
0.0
 63
     5
421
      255
463
1.0
 63
     7
421
 16777215
470
LINEAR
1001
ACAD
1010
0.0
1020
0.0
1030
0.0
  0
HATCH
  5
B34
330
B30
100
AcDbEntity
  8
0
100
AcDbHatch
 10
0.0
 20
0.0
 30
0.0
210
0.0
220
0.0
230
1.0
  2
SOLID
 70
     1
 71
     0
 91
        9
 92
        7
 72
     1
 73
     1
 93
       20
 10
0.1000542808940033
 20
0.1169245515333142
 42
0.0
 10
0.076623507279372
 20
0.1098670896011966
 42
0.0
 10
0.0538279052386379
 20
0.1047857170100728
 42
0.113500075695427
 10
0.0222690530748579
 20
0.0943427637066989
 42
0.335029435887297
 10
0.0055338996991239
 20
0.0540936540010777
 42
0.2523749963765925
 10
0.0336435641127828
 20
0.0294825981943836
 42
0.1008759599722844
 10
0.0633554788469937
 20
0.0279299565693179
 42
0.1558313267708922
 10
0.1000872116508269
 20
0.0445146262124951
 42
0.0
 10
0.1000542808940033
 20
0.0415508580983044
 42
0.1600174655974661
 10
0.1049945042464841
 20
0.029412023575063
 42
0.0
 10
0.1350592920773046
 20
0.029412023575063
 42
-0.1096578030042886
 10
0.128707576338396
 20
0.0360460377912819
 42
-0.1371553684281488
 10
0.125037696133699
 20
0.0491729169849902
 42
0.0
 10
0.125037696133699
 20
0.1239820134654312
 42
0.267077244638994
 10
0.1011834748031433
 20
0.1551759952053882
 42
0.1085027846705916
 10
0.0570037631080815
 20
0.1602573677965124
 42
0.3343505200399534
 10
0.0108479620720452
 20
0.1204532824993727
 42
0.0
 10
0.0383720636073015
 20
0.1204532824993727
 42
-0.2815324590939715
 10
0.0559249309286685
 20
0.1381363358447958
 42
-0.1775171235246243
 10
0.0889034910412541
 20
0.1356974002727478
 42
-0.2483479329952881
 97
        0
 92
       22
 72
     1
 73
     1
 93
        8
 10
0.1000542808940033
 20
0.0951875687823911
 42
0.0
 10
0.1000542808940033
 20
0.0721802428836922
 42
-0.2004737922071577
 10
0.0675899560062661
 20
0.0493140662236327
 42
-0.1115040980661369
 10
0.0435945854370701
 20
0.0491023423656691
 42
-0.2738586692622027
 10
0.0327260940616085
 20
0.0607471545536624
 42
-0.289643054085014
 10
0.0396424067550818
 20
0.0788142570998818
 42
-0.1190249358109779
 10
0.0555922707216681
 20
0.0853071220774298
 42
-0.0006545690929014
 10
0.0798699397681482
 20
0.090247345429912
 42
0.031014715336947
 97
        0
 92
        7
 72
     1
 73
     1
 93
       27
 10
0.1652652291467689
 20
0.029412023575063
 42
0.0
 10
0.190248644386461
 20
0.029412023575063
 42
0.0
 10
0.190248644386461
 20
0.1101493880784821
 42
-0.1716644096531924
 10
0.201540583477847
 20
0.1296279830111251
 42
-0.1448545784781812
 10
0.2204545814559218
 20
0.1386615342842345
 42
-0.1340090766267909
 10
0.2387334078601029
 20
0.1364737210852782
 42
-0.2563461470910333
 10
0.251789712434519
 20
0.1191829393515924
 42
0.0
 10
0.251789712434519
 20
0.029412023575063
 42
0.0
 10
0.2769142769128621
 20
0.029412023575063
 42
0.0
 10
0.2769142769128585
 20
0.1122248338667866
 42
-0.1830801363087423
 10
0.290394029203199
 20
0.1313217738748333
 42
-0.1206854715101709
 10
0.3079671094141716
 20
0.1382380865683075
 42
-0.2157527517618656
 10
0.3302955423434426
 20
0.1343051372786799
 42
-0.2679983488848178
 10
0.33845534496092
 20
0.1204532824994029
 42
0.0
 10
0.3384553449609164
 20
0.029412023575063
 42
0.0
 10
0.3634387602006122
 20
0.029412023575063
 42
0.0
 10
0.3634387602006122
 20
0.1204532824993727
 42
0.0
 10
0.3634387602006122
 20
0.1262404012837086
 42
0.2784603970195297
 10
0.3398668373473406
 20
0.1571520845463814
 42
0.1495326253440701
 10
0.3038737814935466
 20
0.1587047261714471
 42
0.1796241607690637
 10
0.2743735906172944
 20
0.1366854449432417
 42
0.1190036376854939
 10
0.259270622082564
 20
0.1530587566257537
 42
0.1510696384071214
 10
0.2256771032856868
 20
0.1606808155124395
 42
0.122416550902687
 10
0.2069042545462558
 20
0.154611398250819
 42
0.0903817772246913
 10
0.190248644386461
 20
0.1389438327615187
 42
0.0
 10
0.190248644386461
 20
0.1584224276941626
 42
0.0
 10
0.1652652291467689
 20
0.1584224276941626
 42
0.0
 97
        0
 92
        7
 72
     1
 73
     1
 93
       20
 10
0.394400052158776
 20
0.0540936540010786
 42
0.2523749963765703
 10
0.4225097165724279
 20
0.0294825981943845
 42
0.100875959972303
 10
0.4522216313066459
 20
0.0279299565693183
 42
0.1558313267708855
 10
0.4889533641104756
 20
0.0445146262124951
 42
0.0
 10
0.4889204333536519
 20
0.0415508580983044
 42
0.1600174655974661
 10
0.4938606567061364
 20
0.029412023575063
 42
0.0
 10
0.5239254445369533
 20
0.029412023575063
 42
-0.1096578030036369
 10
0.5175737287980695
 20
0.0360460377912322
 42
-0.1371553684287215
 10
0.5139038485933476
 20
0.0491729169849902
 42
0.0
 10
0.5139038485933476
 20
0.1239820134654312
 42
0.2670772446390557
 10
0.4900496272627848
 20
0.1551759952053913
 42
0.1085027846705556
 10
0.4458699155677373
 20
0.1602573677965129
 42
0.3343505200399825
 10
0.3997141145316938
 20
0.1204532824993727
 42
0.0
 10
0.4272382160669502
 20
0.1204532824993727
 42
-0.2815324590939487
 10
0.44479108338831
 20
0.138136335844794
 42
-0.1775171235246857
 10
0.4777696435009098
 20
0.1356974002727447
 42
-0.2483479329952225
 10
0.4889204333536519
 20
0.1169245515333142
 42
0.0
 10
0.4654896597390277
 20
0.1098670896011979
 42
0.0
 10
0.4426940576982866
 20
0.1047857170100728
 42
0.113500075695427
 10
0.4111352055345066
 20
0.0943427637066989
 42
0.335029435887291
 97
        0
 92
       22
 72
     1
 73
     1
 93
        8
 10
0.428508559214734
 20
0.0788142570998818
 42
-0.1190249358109779
 10
0.4444584231813167
 20
0.0853071220774298
 42
-0.0006545690929014
 10
0.4687360922277968
 20
0.090247345429912
 42
0.0310147153369478
 10
0.4889204333536519
 20
0.0951875687823938
 42
0.0
 10
0.4889204333536519
 20
0.0721802428836922
 42
-0.2004737922071577
 10
0.4564561084659147
 20
0.0493140662236327
 42
-0.1115040980661369
 10
0.4324607378967152
 20
0.0491023423656691
 42
-0.2738586692622027
 10
0.4215922465212572
 20
0.0607471545536624
 42
-0.289643054085014
 97
        0
 92
        7
 72
     1
 73
     1
 93
       10
 10
0.663239743076943
 20
0.1331926123684131
 42
0.0
 10
0.663239743076943
 20
0.1584224276941626
 42
0.0
 10
0.5528610384586337
 20
0.1584224276941626
 42
0.0
 10
0.5528610384586337
 20
0.131856746110742
 42
0.0
 10
0.6257181970985002
 20
0.131856746110742
 42
0.0
 10
0.5479208151061528
 20
0.0491729169849911
 42
0.0
 10
0.5479208151061528
 20
0.0294120235750635
 42
-0.1473109550280885
 10
0.6697326080544919
 20
0.0294120235750626
 42
0.0
 10
0.6697326080544919
 20
0.0571523003158232
 42
0.0747823019347494
 10
0.5993877560186079
 20
0.0648932232264121
 42
0.0
 97
        0
 92
        7
 72
     1
 73
     1
 93
        2
 10
0.6959863664419679
 20
0.0963873373108535
 42
1.0
 10
0.8314896355386132
 20
0.0963873373108535
 42
1.0
 97
        0
 92
       22
 72
     1
 73
     1
 93
        2
 10
0.8038952074487184
 20
0.0963873373108535
 42
-1.0
 10
0.7235807945318662
 20
0.0963873373108535
 42
-1.0
 97
        0
 92
        7
 72
     1
 73
     1
 93
       15
 10
0.8640951096649978
 20
0.029412023575063
 42
0.0
 10
0.8892196741433302
 20
0.029412023575063
 42
0.0
 10
0.8892196741433302
 20
0.0949052703051088
 42
-0.1884880930389393
 10
0.9041814934394203
 20
0.1270872967155627
 42
-0.0825504763720134
 10
0.9201313574060066
 20
0.1392261312388041
 42
-0.1879859195515259
 10
0.9445501756911305
 20
0.1407787728638694
 42
-0.3400688989443128
 10
0.9619115320441373
 20
0.1182045668051281
 42
0.0
 10
0.9619115320441373
 20
0.029412023575063
 42
0.0
 10
0.9870360965224733
 20
0.029412023575063
 42
0.0
 10
0.9870360965224769
 20
0.1266638489996357
 42
0.3709832727766776
 10
0.9482103391004166
 20
0.1601305380458484
 42
0.160618198198489
 10
0.9133561939511736
 20
0.1548936967281036
 42
0.0920112842116662
 10
0.8892196741433302
 20
0.1354151017954623
 42
0.0
 10
0.8892196741433338
 20
0.1584224276941626
 42
0.0
 10
0.8640951096649978
 20
0.1584224276941621
 42
0.0
 97
        0
 75
     0
 76
     1
 47
0.0079344138681199
 98
        9
 10
0.1041026039046571
 20
0.1181074496955725
 10
0.1041026039046571
 20
0.1181074496955725
 10
0.175984830732844
 20
0.0960117050036842
 10
0.4173016553328531
 20
0.0814964234246487
 10
0.4173016553328531
 20
0.0814964234246487
 10
0.6014388651587482
 20
0.0843995011035044
 10
0.7112275707548826
 20
0.1221816495361003
 10
0.7112275707548826
 20
0.1221816495361003
 10
0.8759819569295572
 20
0.1163755475860104
450
        0
451
        0
460
0.0
461
0.0
452
        1
462
1.0
453
        2
463
0.0
 63
     5
421
      255
463
1.0
 63
     7
421
 16777215
470
LINEAR
1001
ACAD
1010
0.0
1020
0.0
1030
0.0
  0
HATCH
  5
B35
330
B30
100
AcDbEntity
  8
0
 62
   150
100
AcDbHatch
 10
0.0
 20
0.0
 30
0.0
210
0.0
220
0.0
230
1.0
  2
SOLID
 70
     1
 71
     0
 91
        8
 92
        7
 72
     1
 73
     1
 93
       22
 10
1.131716859301388
 20
0.0982802106585603
 42
0.0484183422992068
 10
1.088571435005292
 20
0.1135920246412381
 42
-0.1024497749852004
 10
1.063583383368957
 20
0.125237861247649
 42
-0.5197370575112227
 10
1.065952625421378
 20
0.1500864950045506
 42
-0.1784163181567931
 10
1.097462280584622
 20
0.1562497626075707
 42
-0.1611556671223822
 10
1.130948711999153
 20
0.1417059730721331
 42
0.0
 10
1.143877562730139
 20
0.1560685971400009
 42
0.0879608039459819
 10
1.125754289819187
 20
0.1671964668262178
 42
0.096844267443967
 10
1.086490181797579
 20
0.1727441735534061
 42
0.1289645081611661
 10
1.053342092127955
 20
0.1633533786648891
 42
0.2520599057044872
 10
1.037629278411372
 20
0.1399706628121899
 42
0.2998873610886212
 10
1.050463850241648
 20
0.1096908005921695
 42
0.087968247036807
 10
1.088782354168369
 20
0.0932096049078468
 42
-0.0908267507933147
 10
1.119928772767817
 20
0.0811747820304691
 42
-0.4466858316882535
 10
1.125453128485816
 20
0.0540976492614389
 42
-0.2058443735084833
 10
1.094059901125532
 20
0.0433269295271455
 42
-0.2322683613354944
 10
1.04833474053288
 20
0.0635860005622337
 42
0.0
 10
1.033442870302863
 20
0.0487121861500608
 42
0.0897498636939959
 10
1.054992265021407
 20
0.0336893058402592
 42
0.1162784600455089
 10
1.100093060274716
 20
0.0271838680846326
 42
0.1305494116801128
 10
1.134902795650507
 20
0.0379471166909786
 42
0.2700443324603339
 10
1.150563716135536
 20
0.0687356163070478
 42
0.2747552069495999
 97
        0
 92
        7
 72
     1
 73
     1
 93
       17
 10
1.204964925758659
 20
0.0711619205531866
 42
0.0
 10
1.204964925758659
 20
0.1705032481376225
 42
0.0
 10
1.182530424786222
 20
0.1705032481376221
 42
0.0
 10
1.182530424786222
 20
0.068114123580882
 42
0.231056446390574
 10
1.200275679141658
 20
0.0337787716591849
 42
0.1033983125445035
 10
1.222016181175408
 20
0.0271400549874108
 42
0.1113661879093152
 10
1.256252700835137
 20
0.0321455417860066
 42
0.060456799039856
 10
1.280359576718197
 20
0.0437750658039402
 42
0.0
 10
1.282436740080608
 20
0.0292528824702614
 42
0.0
 10
1.305008011852606
 20
0.0292528824702614
 42
0.0
 10
1.303035750365566
 20
0.045573054697837
 42
0.0
 10
1.303035750365566
 20
0.1704535782767582
 42
0.0
 10
1.280726706724607
 20
0.1704535782767582
 42
0.0
 10
1.280726706724607
 20
0.0603385752977079
 42
-0.0926529444633646
 10
1.271406905425951
 20
0.0542136206901671
 42
-0.0664344377826394
 10
1.252018117536273
 20
0.0470706779667407
 42
-0.0713593701437487
 10
1.22596399727168
 20
0.0462232117768133
 42
-0.3666103947779491
 97
        0
 92
        7
 72
     1
 73
     1
 93
       12
 10
1.34888971452673
 20
-0.0300855190343001
 42
0.0
 10
1.37158389411627
 20
-0.0300855190342997
 42
0.0
 10
1.37158389411627
 20
0.0381322242109672
 42
0.2065475696655794
 10
1.43316687203049
 20
0.0295489681525751
 42
0.2194428372319613
 10
1.471434120104095
 20
0.0681246169490031
 42
0.1323036971285341
 10
1.475462458348772
 20
0.1210354643912233
 42
0.1641390880683366
 10
1.453695611337639
 20
0.1611617476764042
 42
0.205639974219759
 10
1.404711616991345
 20
0.1717914749112652
 42
0.0657328919071964
 10
1.371062306057382
 20
0.1603071107053626
 42
0.0
 10
1.369185970032088
 20
0.1704922854774775
 42
0.0
 10
1.347893491957236
 20
0.1704922854774775
 42
0.0
 10
1.348889714526734
 20
0.1571025974974671
 42
0.0
 97
        0
 92
       22
 72
     1
 73
     1
 93
        8
 10
1.37158389411627
 20
0.1447873628418232
 42
-0.1242339830404592
 10
1.408127279067805
 20
0.1549128436768488
 42
-0.229840994742505
 10
1.439329608924591
 20
0.143501077402358
 42
-0.1934262502536381
 10
1.452032531529923
 20
0.1169919663469652
 42
-0.1013985410677669
 10
1.45007247035501
 20
0.0757878280977211
 42
-0.2083357761076617
 10
1.426144858393048
 20
0.0470888301796872
 42
-0.1496858148879605
 10
1.383365488627418
 20
0.0497243925890185
 42
-0.0899155484976542
 10
1.37158389411627
 20
0.0564933659367366
 42
0.0
 97
        0
 92
        7
 72
     1
 73
     1
 93
       12
 10
1.536384209201344
 20
0.0381322242109672
 42
0.2065475696655794
 10
1.597967187115564
 20
0.0295489681525751
 42
0.2194428372319613
 10
1.63623443518917
 20
0.0681246169490031
 42
0.1323036971285341
 10
1.640262773433846
 20
0.1210354643912233
 42
0.1641390880683366
 10
1.618495926422713
 20
0.1611617476764042
 42
0.205639974219759
 10
1.569511932076419
 20
0.1717914749112652
 42
0.0657328919071964
 10
1.535862621142456
 20
0.1603071107053626
 42
0.0
 10
1.533986285117165
 20
0.1704922854774775
 42
0.0
 10
1.51269380704231
 20
0.1704922854774775
 42
0.0
 10
1.513690029611812
 20
0.1571025974974671
 42
0.0
 10
1.513690029611804
 20
-0.0300855190343001
 42
0.0
 10
1.536384209201344
 20
-0.0300855190342997
 42
0.0
 97
        0
 92
       22
 72
     1
 73
     1
 93
        8
 10
1.53638420920134
 20
0.0564933659367348
 42
0.0
 10
1.536384209201344
 20
0.1447873628418232
 42
-0.1242339830404592
 10
1.572927594152879
 20
0.1549128436768488
 42
-0.229840994742505
 10
1.604129924009665
 20
0.143501077402358
 42
-0.1934262502536381
 10
1.616832846614997
 20
0.1169919663469652
 42
-0.1013985410677669
 10
1.614872785440084
 20
0.0757878280977211
 42
-0.2083357761076617
 10
1.590945173478122
 20
0.0470888301796872
 42
-0.1496858148879605
 10
1.548165803712493
 20
0.0497243925890185
 42
-0.0899155484976689
 97
        0
 92
        7
 72
     1
 73
     1
 93
        9
 10
1.700061888317705
 20
0.2342426883985293
 42
0.0
 10
1.677630680467434
 20
0.2342426883985293
 42
0.0
 10
1.67763068046743
 20
0.0525526462764159
 42
0.3003574180393968
 10
1.689763445472692
 20
0.0294232917661481
 42
0.1772930531369512
 10
1.716213749579594
 20
0.0296692382956376
 42
0.0
 10
1.726340843842322
 20
0.0328930300171466
 42
0.0
 10
1.722947015877874
 20
0.0450847282577249
 42
0.0
 10
1.715478639728772
 20
0.0445718860057287
 42
-0.4033750267256485
 10
1.700061888317705
 20
0.0551463102997136
 42
0.0
 97
        0
 92
        7
 72
     1
 73
     1
 93
       13
 10
1.756550300014353
 20
0.1705037737446156
 42
0.0
 10
1.733158403445031
 20
0.1705037737446147
 42
0.0
 10
1.789004390745333
 20
0.0387212794769898
 42
-0.1248046720339364
 10
1.779651976914252
 20
0.0098440558334927
 42
-0.2041270254703542
 10
1.758338890268429
 20
-0.0108879300937863
 42
-0.1582846410265598
 10
1.728104948139659
 20
-0.0088290148710986
 42
0.0
 10
1.723524002749954
 20
-0.0288461752875353
 42
0.0503996825504031
 10
1.752727303871125
 20
-0.0310194851179708
 42
0.1573307408029109
 10
1.778748174224848
 20
-0.02185783610684
 42
0.1379639421479074
 10
1.7998397718477
 20
0.0061205808064937
 42
0.0
 10
1.863932002621172
 20
0.1705037737446151
 42
0.0
 10
1.84037943355916
 20
0.1705037737446147
 42
0.0
 10
1.801429340670335
 20
0.0575527643750102
 42
0.0
 97
        0
 75
     0
 76
     1
 47
0.0008892483299936
 98
        8
 10
1.136466178840407
 20
0.0806040287034282
 10
1.218376325116423
 20
0.039698608137611
 10
1.365280380260387
 20
0.0654868019383397
 10
1.365280380260387
 20
0.0654868019383397
 10
1.532067085388874
 20
0.0510462190903649
 10
1.532067085388874
 20
0.0510462190903649
 10
1.692326025665067
 20
0.0661634458554534
 10
1.78937173321124
 20
0.0643849607353548
450
        0
451
        0
460
0.0
461
0.0
452
        1
462
1.0
453
        2
463
0.0
 63
     5
421
      255
463
1.0
 63
     7
421
 16777215
470
LINEAR
1001
ACAD
1010
0.0
1020
0.0
1030
0.0
  0
ENDBLK
  5
B36
330
B30
100
AcDbEntity
  8
0
100
AcDbBlockEnd
  0
BLOCK
  5
ED7
330
ECD
100
AcDbEntity
  8
0
100
AcDbBlockBegin
  2
*D5
 70
     1
 10
0.0
 20
0.0
 30
0.0
  3
*D5
  1

  0
LINE
  5
1231
330
ECD
100
AcDbEntity
  8
DIM
 62
     0
370
    -2
100
AcDbLine
 10
1.528258595846691
 20
4.088413312168228
 30
0.0
 11
1.250566813316928
 21
4.088413312168228
 31
0.0
  0
LINE
  5
1232
330
ECD
100
AcDbEntity
  8
DIM
 62
     0
370
    -2
100
AcDbLine
 10
1.528258595846691
 20
3.671090477522558
 30
0.0
 11
1.250566813316928
 21
3.671090477522558
 31
0.0
  0
LINE
  5
1233
330
ECD
100
AcDbEntity
  8
DIM
 62
     0
370
    -2
100
AcDbLine
 10
1.290566813316928
 20
4.018413312168227
 30
0.0
 11
1.290566813316928
 21
3.741090477522558
 31
0.0
  0
SOLID
  5
1234
330
ECD
100
AcDbEntity
  8
DIM
 62
     0
100
AcDbTrace
 10
1.278900146650261
 20
4.018413312168227
 30
0.0
 11
1.302233479983595
 21
4.018413312168227
 31
0.0
 12
1.290566813316928
 22
4.088413312168228
 32
0.0
 13
1.290566813316928
 23
4.088413312168228
 33
0.0
  0
SOLID
  5
1235
330
ECD
100
AcDbEntity
  8
DIM
 62
     0
100
AcDbTrace
 10
1.278900146650261
 20
3.741090477522558
 30
0.0
 11
1.302233479983595
 21
3.741090477522558
 31
0.0
 12
1.290566813316928
 22
3.671090477522558
 32
0.0
 13
1.290566813316928
 23
3.671090477522558
 33
0.0
  0
MTEXT
  5
1236
330
ECD
100
AcDbEntity
  8
DIM
 62
     0
100
AcDbMText
 10
1.233806106314888
 20
3.879751894845393
 30
0.0
 40
0.07
 41
0.0
 46
0.0
 71
     5
 72
     1
  1
\A1;0.42
 11
0.0000000000000001
 21
1.0
 31
0.0
 73
     1
 44
1.0
  0
POINT
  5
1237
330
ECD
100
AcDbEntity
  8
Defpoints
 62
     0
100
AcDbPoint
 10
1.578258595846691
 20
4.088413312168228
 30
0.0
  0
POINT
  5
1238
330
ECD
100
AcDbEntity
  8
Defpoints
 62
     0
100
AcDbPoint
 10
1.578258595846691
 20
3.671090477522558
 30
0.0
  0
POINT
  5
1239
330
ECD
100
AcDbEntity
  8
Defpoints
 62
     0
100
AcDbPoint
 10
1.290566813316928
 20
3.671090477522558
 30
0.0
  0
ENDBLK
  5
ED8
330
ECD
100
AcDbEntity
  8
0
100
AcDbBlockEnd
  0
BLOCK
  5
EF3
330
EE8
100
AcDbEntity
  8
0
100
AcDbBlockBegin
  2
*D7
 70
     1
 10
0.0
 20
0.0
 30
0.0
  3
*D7
  1

  0
LINE
  5
1244
330
EE8
100
AcDbEntity
  8
DIM
 62
     0
370
    -2
100
AcDbLine
 10
2.117628674586849
 20
3.929751894845393
 30
0.0
 11
2.117628674586849
 21
4.432460916467802
 31
0.0
  0
LINE
  5
1245
330
EE8
100
AcDbEntity
  8
DIM
 62
     0
370
    -2
100
AcDbLine
 10
1.91290426513803
 20
3.929751894845393
 30
0.0
 11
1.91290426513803
 21
4.432460916467802
 31
0.0
  0
LINE
  5
1246
330
EE8
100
AcDbEntity
  8
DIM
 62
     0
370
    -2
100
AcDbLine
 10
2.047628674586849
 20
4.392460916467802
 30
0.0
 11
1.98290426513803
 21
4.392460916467802
 31
0.0
  0
LINE
  5
1247
330
EE8
100
AcDbEntity
  8
DIM
 62
     0
370
    -2
100
AcDbLine
 10
1.91290426513803
 20
4.392460916467802
 30
0.0
 11
1.620123843656045
 21
4.392460916467802
 31
0.0
  0
SOLID
  5
1248
330
EE8
100
AcDbEntity
  8
DIM
 62
     0
100
AcDbTrace
 10
2.047628674586849
 20
4.404127583134469
 30
0.0
 11
2.047628674586849
 21
4.380794249801136
 31
0.0
 12
2.117628674586849
 22
4.392460916467802
 32
0.0
 13
2.117628674586849
 23
4.392460916467802
 33
0.0
  0
SOLID
  5
1249
330
EE8
100
AcDbEntity
  8
DIM
 62
     0
100
AcDbTrace
 10
1.98290426513803
 20
4.404127583134469
 30
0.0
 11
1.98290426513803
 21
4.380794249801136
 31
0.0
 12
1.91290426513803
 22
4.392460916467802
 32
0.0
 13
1.91290426513803
 23
4.392460916467802
 33
0.0
  0
MTEXT
  5
124A
330
EE8
100
AcDbEntity
  8
DIM
 62
     0
100
AcDbMText
 10
1.731514054397038
 20
4.449221623469842
 30
0.0
 40
0.07
 41
0.0
 46
0.0
 71
     5
 72
     1
  1
\A1;0.20
 73
     1
 44
1.0
  0
POINT
  5
124B
330
EE8
100
AcDbEntity
  8
Defpoints
 62
     0
100
AcDbPoint
 10
2.117628674586849
 20
3.879751894845393
 30
0.0
  0
POINT
  5
124C
330
EE8
100
AcDbEntity
  8
Defpoints
 62
     0
100
AcDbPoint
 10
1.91290426513803
 20
3.879751894845393
 30
0.0
  0
POINT
  5
124D
330
EE8
100
AcDbEntity
  8
Defpoints
 62
     0
100
AcDbPoint
 10
1.91290426513803
 20
4.392460916467802
 30
0.0
  0
ENDBLK
  5
EF4
330
EE8
100
AcDbEntity
  8
0
100
AcDbBlockEnd
  0
BLOCK
  5
F01
330
EF6
100
AcDbEntity
  8
0
100
AcDbBlockBegin
  2
*D8
 70
     1
 10
0.0
 20
0.0
 30
0.0
  3
*D8
  1

  0
LINE
  5
124E
330
EF6
100
AcDbEntity
  8
DIM
 62
     0
370
    -2
100
AcDbLine
 10
2.117628674586849
 20
3.929751894845393
 30
0.0
 11
2.117628674586849
 21
4.432460916467802
 31
0.0
  0
LINE
  5
124F
330
EF6
100
AcDbEntity
  8
DIM
 62
     0
370
    -2
100
AcDbLine
 10
2.322353084035668
 20
3.929751894845393
 30
0.0
 11
2.322353084035668
 21
4.432460916467802
 31
0.0
  0
LINE
  5
1250
330
EF6
100
AcDbEntity
  8
DIM
 62
     0
370
    -2
100
AcDbLine
 10
2.187628674586849
 20
4.392460916467802
 30
0.0
 11
2.252353084035668
 21
4.392460916467802
 31
0.0
  0
LINE
  5
1251
330
EF6
100
AcDbEntity
  8
DIM
 62
     0
370
    -2
100
AcDbLine
 10
2.322353084035668
 20
4.392460916467802
 30
0.0
 11
2.615133505517654
 21
4.392460916467802
 31
0.0
  0
SOLID
  5
1252
330
EF6
100
AcDbEntity
  8
DIM
 62
     0
100
AcDbTrace
 10
2.187628674586849
 20
4.404127583134469
 30
0.0
 11
2.187628674586849
 21
4.380794249801136
 31
0.0
 12
2.117628674586849
 22
4.392460916467802
 32
0.0
 13
2.117628674586849
 23
4.392460916467802
 33
0.0
  0
SOLID
  5
1253
330
EF6
100
AcDbEntity
  8
DIM
 62
     0
100
AcDbTrace
 10
2.252353084035668
 20
4.404127583134469
 30
0.0
 11
2.252353084035668
 21
4.380794249801136
 31
0.0
 12
2.322353084035668
 22
4.392460916467802
 32
0.0
 13
2.322353084035668
 23
4.392460916467802
 33
0.0
  0
MTEXT
  5
1254
330
EF6
100
AcDbEntity
  8
DIM
 62
     0
100
AcDbMText
 10
2.503743294776661
 20
4.449221623469842
 30
0.0
 40
0.07
 41
0.0
 46
0.0
 71
     5
 72
     1
  1
\A1;0.20
 73
     1
 44
1.0
  0
POINT
  5
1255
330
EF6
100
AcDbEntity
  8
Defpoints
 62
     0
100
AcDbPoint
 10
2.117628674586849
 20
3.879751894845393
 30
0.0
  0
POINT
  5
1256
330
EF6
100
AcDbEntity
  8
Defpoints
 62
     0
100
AcDbPoint
 10
2.322353084035668
 20
3.879751894845393
 30
0.0
  0
POINT
  5
1257
330
EF6
100
AcDbEntity
  8
Defpoints
 62
     0
100
AcDbPoint
 10
2.322353084035668
 20
4.392460916467802
 30
0.0
  0
ENDBLK
  5
F02
330
EF6
100
AcDbEntity
  8
0
100
AcDbBlockEnd
  0
BLOCK
  5
F0E
330
F04
100
AcDbEntity
  8
0
100
AcDbBlockBegin
  2
*D9
 70
     1
 10
0.0
 20
0.0
 30
0.0
  3
*D9
  1

  0
LINE
  5
1258
330
F04
100
AcDbEntity
  8
DIM
 62
     0
370
    -2
100
AcDbLine
 10
1.91290426513803
 20
2.824191848185977
 30
0.0
 11
1.91290426513803
 21
3.066757909737405
 31
0.0
  0
LINE
  5
1259
330
F04
100
AcDbEntity
  8
DIM
 62
     0
370
    -2
100
AcDbLine
 10
2.322353084035668
 20
2.824191848185977
 30
0.0
 11
2.322353084035668
 21
3.066757909737405
 31
0.0
  0
LINE
  5
125A
330
F04
100
AcDbEntity
  8
DIM
 62
     0
370
    -2
100
AcDbLine
 10
1.98290426513803
 20
3.026757909737405
 30
0.0
 11
2.252353084035668
 21
3.026757909737405
 31
0.0
  0
SOLID
  5
125B
330
F04
100
AcDbEntity
  8
DIM
 62
     0
100
AcDbTrace
 10
1.98290426513803
 20
3.038424576404072
 30
0.0
 11
1.98290426513803
 21
3.015091243070738
 31
0.0
 12
1.91290426513803
 22
3.026757909737405
 32
0.0
 13
1.91290426513803
 23
3.026757909737405
 33
0.0
  0
SOLID
  5
125C
330
F04
100
AcDbEntity
  8
DIM
 62
     0
100
AcDbTrace
 10
2.252353084035668
 20
3.038424576404072
 30
0.0
 11
2.252353084035668
 21
3.015091243070738
 31
0.0
 12
2.322353084035668
 22
3.026757909737405
 32
0.0
 13
2.322353084035668
 23
3.026757909737405
 33
0.0
  0
MTEXT
  5
125D
330
F04
100
AcDbEntity
  8
DIM
 62
     0
100
AcDbMText
 10
2.117628674586849
 20
3.083518616739444
 30
0.0
 40
0.07
 41
0.0
 46
0.0
 71
     5
 72
     1
  1
\A1;0.41
 73
     1
 44
1.0
  0
POINT
  5
125E
330
F04
100
AcDbEntity
  8
Defpoints
 62
     0
100
AcDbPoint
 10
1.91290426513803
 20
2.774191848185977
 30
0.0
  0
POINT
  5
125F
330
F04
100
AcDbEntity
  8
Defpoints
 62
     0
100
AcDbPoint
 10
2.322353084035668
 20
2.774191848185977
 30
0.0
  0
POINT
  5
1260
330
F04
100
AcDbEntity
  8
Defpoints
 62
     0
100
AcDbPoint
 10
2.322353084035668
 20
3.026757909737405
 30
0.0
  0
ENDBLK
  5
F0F
330
F04
100
AcDbEntity
  8
0
100
AcDbBlockEnd
  0
BLOCK
  5
F1D
330
F11
100
AcDbEntity
  8
0
100
AcDbBlockBegin
  2
*D10
 70
     1
 10
0.0
 20
0.0
 30
0.0
  3
*D10
  1

  0
LINE
  5
1261
330
F11
100
AcDbEntity
  8
DIM
 62
     0
370
    -2
100
AcDbLine
 10
1.91290426513803
 20
2.824191848185977
 30
0.0
 11
1.91290426513803
 21
3.066757909737405
 31
0.0
  0
LINE
  5
1262
330
F11
100
AcDbEntity
  8
DIM
 62
     0
370
    -2
100
AcDbLine
 10
1.735738910807321
 20
2.115530430863142
 30
0.0
 11
1.735738910807321
 21
3.066757909737405
 31
0.0
  0
LINE
  5
1263
330
F11
100
AcDbEntity
  8
DIM
 62
     0
370
    -2
100
AcDbLine
 10
1.98290426513803
 20
3.026757909737405
 30
0.0
 11
2.05290426513803
 21
3.026757909737405
 31
0.0
  0
LINE
  5
1264
330
F11
100
AcDbEntity
  8
DIM
 62
     0
370
    -2
100
AcDbLine
 10
1.665738910807321
 20
3.026757909737405
 30
0.0
 11
1.373148836028259
 21
3.026757909737405
 31
0.0
  0
LINE
  5
1265
330
F11
100
AcDbEntity
  8
DIM
 62
     0
370
    -2
100
AcDbLine
 10
1.91290426513803
 20
3.026757909737405
 30
0.0
 11
1.735738910807321
 21
3.026757909737405
 31
0.0
  0
SOLID
  5
1266
330
F11
100
AcDbEntity
  8
DIM
 62
     0
100
AcDbTrace
 10
1.98290426513803
 20
3.038424576404072
 30
0.0
 11
1.98290426513803
 21
3.015091243070738
 31
0.0
 12
1.91290426513803
 22
3.026757909737405
 32
0.0
 13
1.91290426513803
 23
3.026757909737405
 33
0.0
  0
SOLID
  5
1267
330
F11
100
AcDbEntity
  8
DIM
 62
     0
100
AcDbTrace
 10
1.665738910807321
 20
3.038424576404072
 30
0.0
 11
1.665738910807321
 21
3.015091243070738
 31
0.0
 12
1.735738910807321
 22
3.026757909737405
 32
0.0
 13
1.735738910807321
 23
3.026757909737405
 33
0.0
  0
MTEXT
  5
1268
330
F11
100
AcDbEntity
  8
DIM
 62
     0
100
AcDbMText
 10
1.48444387341779
 20
3.083518616739444
 30
0.0
 40
0.07
 41
0.0
 46
0.0
 71
     5
 72
     1
  1
\A1;0.18
 73
     1
 44
1.0
  0
POINT
  5
1269
330
F11
100
AcDbEntity
  8
Defpoints
 62
     0
100
AcDbPoint
 10
1.91290426513803
 20
2.774191848185977
 30
0.0
  0
POINT
  5
126A
330
F11
100
AcDbEntity
  8
Defpoints
 62
     0
100
AcDbPoint
 10
1.735738910807321
 20
2.065530430863142
 30
0.0
  0
POINT
  5
126B
330
F11
100
AcDbEntity
  8
Defpoints
 62
     0
100
AcDbPoint
 10
1.735738910807321
 20
3.026757909737405
 30
0.0
  0
ENDBLK
  5
F1E
330
F11
100
AcDbEntity
  8
0
100
AcDbBlockEnd
  0
BLOCK
  5
F2C
330
F20
100
AcDbEntity
  8
0
100
AcDbBlockBegin
  2
*D11
 70
     1
 10
0.0
 20
0.0
 30
0.0
  3
*D11
  1

  0
LINE
  5
126C
330
F20
100
AcDbEntity
  8
DIM
 62
     0
370
    -2
100
AcDbLine
 10
1.658179855689212
 20
2.667892635587551
 30
0.0
 11
1.175788205197249
 21
2.667892635587551
 31
0.0
  0
LINE
  5
126D
330
F20
100
AcDbEntity
  8
DIM
 62
     0
370
    -2
100
AcDbLine
 10
1.695581430492362
 20
2.774191848185978
 30
0.0
 11
1.175788205197249
 21
2.774191848185978
 31
0.0
  0
LINE
  5
126E
330
F20
100
AcDbEntity
  8
DIM
 62
     0
370
    -2
100
AcDbLine
 10
1.215788205197249
 20
2.597892635587551
 30
0.0
 11
1.215788205197249
 21
2.527892635587551
 31
0.0
  0
LINE
  5
126F
330
F20
100
AcDbEntity
  8
DIM
 62
     0
370
    -2
100
AcDbLine
 10
1.215788205197249
 20
2.844191848185978
 30
0.0
 11
1.215788205197249
 21
3.117890012699914
 31
0.0
  0
LINE
  5
1270
330
F20
100
AcDbEntity
  8
DIM
 62
     0
370
    -2
100
AcDbLine
 10
1.215788205197249
 20
2.667892635587551
 30
0.0
 11
1.215788205197249
 21
2.774191848185978
 31
0.0
  0
SOLID
  5
1271
330
F20
100
AcDbEntity
  8
DIM
 62
     0
100
AcDbTrace
 10
1.204121538530582
 20
2.597892635587551
 30
0.0
 11
1.227454871863915
 21
2.597892635587551
 31
0.0
 12
1.215788205197249
 22
2.667892635587551
 32
0.0
 13
1.215788205197249
 23
2.667892635587551
 33
0.0
  0
SOLID
  5
1272
330
F20
100
AcDbEntity
  8
DIM
 62
     0
100
AcDbTrace
 10
1.204121538530582
 20
2.844191848185978
 30
0.0
 11
1.227454871863915
 21
2.844191848185978
 31
0.0
 12
1.215788205197249
 22
2.774191848185978
 32
0.0
 13
1.215788205197249
 23
2.774191848185978
 33
0.0
  0
MTEXT
  5
1273
330
F20
100
AcDbEntity
  8
DIM
 62
     0
100
AcDbMText
 10
1.159027498195209
 20
3.016040930442946
 30
0.0
 40
0.07
 41
0.0
 46
0.0
 71
     5
 72
     1
  1
\A1;0.11
 11
0.0000000000000001
 21
1.0
 31
0.0
 73
     1
 44
1.0
  0
POINT
  5
1274
330
F20
100
AcDbEntity
  8
Defpoints
 62
     0
100
AcDbPoint
 10
1.708179855689212
 20
2.667892635587551
 30
0.0
  0
POINT
  5
1275
330
F20
100
AcDbEntity
  8
Defpoints
 62
     0
100
AcDbPoint
 10
1.745581430492362
 20
2.774191848185978
 30
0.0
  0
POINT
  5
1276
330
F20
100
AcDbEntity
  8
Defpoints
 62
     0
100
AcDbPoint
 10
1.215788205197249
 20
2.774191848185978
 30
0.0
  0
ENDBLK
  5
F2D
330
F20
100
AcDbEntity
  8
0
100
AcDbBlockEnd
  0
BLOCK
  5
F39
330
F2F
100
AcDbEntity
  8
0
100
AcDbBlockBegin
  2
*D12
 70
     1
 10
0.0
 20
0.0
 30
0.0
  3
*D12
  1

  0
LINE
  5
1277
330
F2F
100
AcDbEntity
  8
DIM
 62
     0
370
    -2
100
AcDbLine
 10
1.695581430492362
 20
2.774191848185977
 30
0.0
 11
0.8359954306001277
 21
2.774191848185977
 31
0.0
  0
LINE
  5
1278
330
F2F
100
AcDbEntity
  8
DIM
 62
     0
370
    -2
100
AcDbLine
 10
1.685738910807321
 20
2.065530430863142
 30
0.0
 11
0.8359954306001275
 21
2.065530430863143
 31
0.0
  0
LINE
  5
1279
330
F2F
100
AcDbEntity
  8
DIM
 62
     0
370
    -2
100
AcDbLine
 10
0.8759954306001278
 20
2.704191848185978
 30
0.0
 11
0.8759954306001276
 21
2.135530430863143
 31
0.0
  0
SOLID
  5
127A
330
F2F
100
AcDbEntity
  8
DIM
 62
     0
100
AcDbTrace
 10
0.864328763933461
 20
2.704191848185978
 30
0.0
 11
0.8876620972667945
 21
2.704191848185978
 31
0.0
 12
0.8759954306001278
 22
2.774191848185977
 32
0.0
 13
0.8759954306001278
 23
2.774191848185977
 33
0.0
  0
SOLID
  5
127B
330
F2F
100
AcDbEntity
  8
DIM
 62
     0
100
AcDbTrace
 10
0.8643287639334609
 20
2.135530430863143
 30
0.0
 11
0.8876620972667943
 21
2.135530430863143
 31
0.0
 12
0.8759954306001276
 22
2.065530430863143
 32
0.0
 13
0.8759954306001276
 23
2.065530430863143
 33
0.0
  0
MTEXT
  5
127C
330
F2F
100
AcDbEntity
  8
DIM
 62
     0
100
AcDbMText
 10
0.8192347235980879
 20
2.41986113952456
 30
0.0
 40
0.07
 41
0.0
 46
0.0
 71
     5
 72
     1
  1
\A1;0.71
 11
0.0000000000000001
 21
1.0
 31
0.0
 73
     1
 44
1.0
  0
POINT
  5
127D
330
F2F
100
AcDbEntity
  8
Defpoints
 62
     0
100
AcDbPoint
 10
1.745581430492362
 20
2.774191848185977
 30
0.0
  0
POINT
  5
127E
330
F2F
100
AcDbEntity
  8
Defpoints
 62
     0
100
AcDbPoint
 10
1.735738910807321
 20
2.065530430863142
 30
0.0
  0
POINT
  5
127F
330
F2F
100
AcDbEntity
  8
Defpoints
 62
     0
100
AcDbPoint
 10
0.8759954306001276
 20
2.065530430863143
 30
0.0
  0
ENDBLK
  5
F3A
330
F2F
100
AcDbEntity
  8
0
100
AcDbBlockEnd
  0
BLOCK
  5
F46
330
F3C
100
AcDbEntity
  8
0
100
AcDbBlockBegin
  2
*D13
 70
     1
 10
0.0
 20
0.0
 30
0.0
  3
*D13
  1

  0
LINE
  5
1280
330
F3C
100
AcDbEntity
  8
DIM
 62
     0
370
    -2
100
AcDbLine
 10
4.41233114037554
 20
2.717892635587551
 30
0.0
 11
4.41233114037554
 21
3.103933061681417
 31
0.0
  0
LINE
  5
1281
330
F3C
100
AcDbEntity
  8
DIM
 62
     0
370
    -2
100
AcDbLine
 10
4.821779959273178
 20
2.717892635587551
 30
0.0
 11
4.821779959273178
 21
3.103933061681417
 31
0.0
  0
LINE
  5
1282
330
F3C
100
AcDbEntity
  8
DIM
 62
     0
370
    -2
100
AcDbLine
 10
4.48233114037554
 20
3.063933061681417
 30
0.0
 11
4.751779959273178
 21
3.063933061681417
 31
0.0
  0
SOLID
  5
1283
330
F3C
100
AcDbEntity
  8
DIM
 62
     0
100
AcDbTrace
 10
4.48233114037554
 20
3.075599728348084
 30
0.0
 11
4.48233114037554
 21
3.052266395014751
 31
0.0
 12
4.41233114037554
 22
3.063933061681417
 32
0.0
 13
4.41233114037554
 23
3.063933061681417
 33
0.0
  0
SOLID
  5
1284
330
F3C
100
AcDbEntity
  8
DIM
 62
     0
100
AcDbTrace
 10
4.751779959273178
 20
3.075599728348084
 30
0.0
 11
4.751779959273178
 21
3.052266395014751
 31
0.0
 12
4.821779959273178
 22
3.063933061681417
 32
0.0
 13
4.821779959273178
 23
3.063933061681417
 33
0.0
  0
MTEXT
  5
1285
330
F3C
100
AcDbEntity
  8
DIM
 62
     0
100
AcDbMText
 10
4.617055549824359
 20
3.120693768683457
 30
0.0
 40
0.07
 41
0.0
 46
0.0
 71
     5
 72
     1
  1
\A1;0.41
 73
     1
 44
1.0
  0
POINT
  5
1286
330
F3C
100
AcDbEntity
  8
Defpoints
 62
     0
100
AcDbPoint
 10
4.41233114037554
 20
2.667892635587551
 30
0.0
  0
POINT
  5
1287
330
F3C
100
AcDbEntity
  8
Defpoints
 62
     0
100
AcDbPoint
 10
4.821779959273178
 20
2.667892635587551
 30
0.0
  0
POINT
  5
1288
330
F3C
100
AcDbEntity
  8
Defpoints
 62
     0
100
AcDbPoint
 10
4.821779959273178
 20
3.063933061681417
 30
0.0
  0
ENDBLK
  5
F47
330
F3C
100
AcDbEntity
  8
0
100
AcDbBlockEnd
  0
BLOCK
  5
F53
330
F49
100
AcDbEntity
  8
0
100
AcDbBlockBegin
  2
*D14
 70
     1
 10
0.0
 20
0.0
 30
0.0
  3
*D14
  1

  0
LINE
  5
1289
330
F49
100
AcDbEntity
  8
DIM
 62
     0
370
    -2
100
AcDbLine
 10
4.430047675808611
 20
2.804506808815898
 30
0.0
 11
4.430047675808611
 21
2.92885536286113
 31
0.0
  0
LINE
  5
128A
330
F49
100
AcDbEntity
  8
DIM
 62
     0
370
    -2
100
AcDbLine
 10
4.804063423840108
 20
2.804506808815898
 30
0.0
 11
4.804063423840108
 21
2.92885536286113
 31
0.0
  0
LINE
  5
128B
330
F49
100
AcDbEntity
  8
DIM
 62
     0
370
    -2
100
AcDbLine
 10
4.500047675808612
 20
2.88885536286113
 30
0.0
 11
4.734063423840107
 21
2.88885536286113
 31
0.0
  0
SOLID
  5
128C
330
F49
100
AcDbEntity
  8
DIM
 62
     0
100
AcDbTrace
 10
4.500047675808612
 20
2.900522029527797
 30
0.0
 11
4.500047675808612
 21
2.877188696194464
 31
0.0
 12
4.430047675808611
 22
2.88885536286113
 32
0.0
 13
4.430047675808611
 23
2.88885536286113
 33
0.0
  0
SOLID
  5
128D
330
F49
100
AcDbEntity
  8
DIM
 62
     0
100
AcDbTrace
 10
4.734063423840107
 20
2.900522029527797
 30
0.0
 11
4.734063423840107
 21
2.877188696194464
 31
0.0
 12
4.804063423840108
 22
2.88885536286113
 32
0.0
 13
4.804063423840108
 23
2.88885536286113
 33
0.0
  0
MTEXT
  5
128E
330
F49
100
AcDbEntity
  8
DIM
 62
     0
100
AcDbMText
 10
4.617055549824359
 20
2.94561606986317
 30
0.0
 40
0.07
 41
0.0
 46
0.0
 71
     5
 72
     1
  1
\A1;0.37
 73
     1
 44
1.0
  0
POINT
  5
128F
330
F49
100
AcDbEntity
  8
Defpoints
 62
     0
100
AcDbPoint
 10
4.430047675808611
 20
2.754506808815898
 30
0.0
  0
POINT
  5
1290
330
F49
100
AcDbEntity
  8
Defpoints
 62
     0
100
AcDbPoint
 10
4.804063423840108
 20
2.754506808815898
 30
0.0
  0
POINT
  5
1291
330
F49
100
AcDbEntity
  8
Defpoints
 62
     0
100
AcDbPoint
 10
4.804063423840108
 20
2.88885536286113
 30
0.0
  0
ENDBLK
  5
F54
330
F49
100
AcDbEntity
  8
0
100
AcDbBlockEnd
  0
BLOCK
  5
F62
330
F56
100
AcDbEntity
  8
0
100
AcDbBlockBegin
  2
*D15
 70
     1
 10
0.0
 20
0.0
 30
0.0
  3
*D15
  1

  0
LINE
  5
1292
330
F56
100
AcDbEntity
  8
DIM
 62
     0
370
    -2
100
AcDbLine
 10
4.36233114037554
 20
2.124585548973378
 30
0.0
 11
4.091179966944966
 21
2.124585548973378
 31
0.0
  0
LINE
  5
1293
330
F56
100
AcDbEntity
  8
DIM
 62
     0
370
    -2
100
AcDbLine
 10
4.417449250612579
 20
2.171503250671588
 30
0.0
 11
4.091179966944966
 21
2.171503250671588
 31
0.0
  0
LINE
  5
1294
330
F56
100
AcDbEntity
  8
DIM
 62
     0
370
    -2
100
AcDbLine
 10
4.131179966944966
 20
2.054585548973379
 30
0.0
 11
4.131179966944965
 21
1.984585548973378
 31
0.0
  0
LINE
  5
1295
330
F56
100
AcDbEntity
  8
DIM
 62
     0
370
    -2
100
AcDbLine
 10
4.131179966944966
 20
2.241503250671588
 30
0.0
 11
4.131179966944966
 21
2.533141591936034
 31
0.0
  0
LINE
  5
1296
330
F56
100
AcDbEntity
  8
DIM
 62
     0
370
    -2
100
AcDbLine
 10
4.131179966944966
 20
2.124585548973378
 30
0.0
 11
4.131179966944966
 21
2.171503250671588
 31
0.0
  0
SOLID
  5
1297
330
F56
100
AcDbEntity
  8
DIM
 62
     0
100
AcDbTrace
 10
4.119513300278299
 20
2.054585548973379
 30
0.0
 11
4.142846633611632
 21
2.054585548973379
 31
0.0
 12
4.131179966944966
 22
2.124585548973378
 32
0.0
 13
4.131179966944966
 23
2.124585548973378
 33
0.0
  0
SOLID
  5
1298
330
F56
100
AcDbEntity
  8
DIM
 62
     0
100
AcDbTrace
 10
4.119513300278299
 20
2.241503250671588
 30
0.0
 11
4.142846633611632
 21
2.241503250671588
 31
0.0
 12
4.131179966944966
 22
2.171503250671588
 32
0.0
 13
4.131179966944966
 23
2.171503250671588
 33
0.0
  0
MTEXT
  5
1299
330
F56
100
AcDbEntity
  8
DIM
 62
     0
100
AcDbMText
 10
4.074419259942925
 20
2.422322421303812
 30
0.0
 40
0.07
 41
0.0
 46
0.0
 71
     5
 72
     1
  1
\A1;0.05
 11
0.0000000000000001
 21
1.0
 31
0.0
 73
     1
 44
1.0
  0
POINT
  5
129A
330
F56
100
AcDbEntity
  8
Defpoints
 62
     0
100
AcDbPoint
 10
4.41233114037554
 20
2.124585548973378
 30
0.0
  0
POINT
  5
129B
330
F56
100
AcDbEntity
  8
Defpoints
 62
     0
100
AcDbPoint
 10
4.467449250612579
 20
2.171503250671588
 30
0.0
  0
POINT
  5
129C
330
F56
100
AcDbEntity
  8
Defpoints
 62
     0
100
AcDbPoint
 10
4.131179966944966
 20
2.171503250671588
 30
0.0
  0
ENDBLK
  5
F63
330
F56
100
AcDbEntity
  8
0
100
AcDbBlockEnd
  0
BLOCK
  5
F6F
330
F65
100
AcDbEntity
  8
0
100
AcDbBlockBegin
  2
*D16
 70
     1
 10
0.0
 20
0.0
 30
0.0
  3
*D16
  1

  0
LINE
  5
129D
330
F65
100
AcDbEntity
  8
DIM
 62
     0
370
    -2
100
AcDbLine
 10
4.36233114037554
 20
2.124585548973381
 30
0.0
 11
4.091179966944967
 21
2.124585548973381
 31
0.0
  0
LINE
  5
129E
330
F65
100
AcDbEntity
  8
DIM
 62
     0
370
    -2
100
AcDbLine
 10
4.36233114037554
 20
1.541908383619048
 30
0.0
 11
4.091179966944966
 21
1.541908383619048
 31
0.0
  0
LINE
  5
129F
330
F65
100
AcDbEntity
  8
DIM
 62
     0
370
    -2
100
AcDbLine
 10
4.131179966944967
 20
2.054585548973381
 30
0.0
 11
4.131179966944966
 21
1.611908383619048
 31
0.0
  0
SOLID
  5
12A0
330
F65
100
AcDbEntity
  8
DIM
 62
     0
100
AcDbTrace
 10
4.1195133002783
 20
2.054585548973381
 30
0.0
 11
4.142846633611633
 21
2.054585548973381
 31
0.0
 12
4.131179966944967
 22
2.124585548973381
 32
0.0
 13
4.131179966944967
 23
2.124585548973381
 33
0.0
  0
SOLID
  5
12A1
330
F65
100
AcDbEntity
  8
DIM
 62
     0
100
AcDbTrace
 10
4.119513300278299
 20
1.611908383619048
 30
0.0
 11
4.142846633611632
 21
1.611908383619048
 31
0.0
 12
4.131179966944966
 22
1.541908383619048
 32
0.0
 13
4.131179966944966
 23
1.541908383619048
 33
0.0
  0
MTEXT
  5
12A2
330
F65
100
AcDbEntity
  8
DIM
 62
     0
100
AcDbMText
 10
4.074419259942926
 20
1.833246966296215
 30
0.0
 40
0.07
 41
0.0
 46
0.0
 71
     5
 72
     1
  1
\A1;0.58
 11
0.0000000000000001
 21
1.0
 31
0.0
 73
     1
 44
1.0
  0
POINT
  5
12A3
330
F65
100
AcDbEntity
  8
Defpoints
 62
     0
100
AcDbPoint
 10
4.41233114037554
 20
2.124585548973381
 30
0.0
  0
POINT
  5
12A4
330
F65
100
AcDbEntity
  8
Defpoints
 62
     0
100
AcDbPoint
 10
4.41233114037554
 20
1.541908383619048
 30
0.0
  0
POINT
  5
12A5
330
F65
100
AcDbEntity
  8
Defpoints
 62
     0
100
AcDbPoint
 10
4.131179966944966
 20
1.541908383619048
 30
0.0
  0
ENDBLK
  5
F70
330
F65
100
AcDbEntity
  8
0
100
AcDbBlockEnd
  0
BLOCK
  5
F7E
330
F72
100
AcDbEntity
  8
0
100
AcDbBlockBegin
  2
*D17
 70
     1
 10
0.0
 20
0.0
 30
0.0
  3
*D17
  1

  0
LINE
  5
12A6
330
F72
100
AcDbEntity
  8
DIM
 62
     0
370
    -2
100
AcDbLine
 10
4.36233114037554
 20
1.541908383619048
 30
0.0
 11
4.091179966944966
 21
1.541908383619048
 31
0.0
  0
LINE
  5
12A7
330
F72
100
AcDbEntity
  8
DIM
 62
     0
370
    -2
100
AcDbLine
 10
4.39973271517869
 20
1.435609171020622
 30
0.0
 11
4.091179966944966
 21
1.435609171020622
 31
0.0
  0
LINE
  5
12A8
330
F72
100
AcDbEntity
  8
DIM
 62
     0
370
    -2
100
AcDbLine
 10
4.131179966944966
 20
1.611908383619048
 30
0.0
 11
4.131179966944966
 21
1.681908383619048
 31
0.0
  0
LINE
  5
12A9
330
F72
100
AcDbEntity
  8
DIM
 62
     0
370
    -2
100
AcDbLine
 10
4.131179966944966
 20
1.365609171020622
 30
0.0
 11
4.131179966944966
 21
1.091911006506686
 31
0.0
  0
LINE
  5
12AA
330
F72
100
AcDbEntity
  8
DIM
 62
     0
370
    -2
100
AcDbLine
 10
4.131179966944966
 20
1.541908383619048
 30
0.0
 11
4.131179966944966
 21
1.435609171020622
 31
0.0
  0
SOLID
  5
12AB
330
F72
100
AcDbEntity
  8
DIM
 62
     0
100
AcDbTrace
 10
4.119513300278299
 20
1.611908383619048
 30
0.0
 11
4.142846633611632
 21
1.611908383619048
 31
0.0
 12
4.131179966944966
 22
1.541908383619048
 32
0.0
 13
4.131179966944966
 23
1.541908383619048
 33
0.0
  0
SOLID
  5
12AC
330
F72
100
AcDbEntity
  8
DIM
 62
     0
100
AcDbTrace
 10
4.119513300278299
 20
1.365609171020622
 30
0.0
 11
4.142846633611632
 21
1.365609171020622
 31
0.0
 12
4.131179966944966
 22
1.435609171020622
 32
0.0
 13
4.131179966944966
 23
1.435609171020622
 33
0.0
  0
MTEXT
  5
12AD
330
F72
100
AcDbEntity
  8
DIM
 62
     0
100
AcDbMText
 10
4.074419259942926
 20
1.193760088763655
 30
0.0
 40
0.07
 41
0.0
 46
0.0
 71
     5
 72
     1
  1
\A1;0.11
 11
0.0000000000000001
 21
1.0
 31
0.0
 73
     1
 44
1.0
  0
POINT
  5
12AE
330
F72
100
AcDbEntity
  8
Defpoints
 62
     0
100
AcDbPoint
 10
4.41233114037554
 20
1.541908383619048
 30
0.0
  0
POINT
  5
12AF
330
F72
100
AcDbEntity
  8
Defpoints
 62
     0
100
AcDbPoint
 10
4.44973271517869
 20
1.435609171020622
 30
0.0
  0
POINT
  5
12B0
330
F72
100
AcDbEntity
  8
Defpoints
 62
     0
100
AcDbPoint
 10
4.131179966944966
 20
1.435609171020622
 30
0.0
  0
ENDBLK
  5
F7F
330
F72
100
AcDbEntity
  8
0
100
AcDbBlockEnd
  0
BLOCK
  5
10D4
330
10CA
100
AcDbEntity
  8
0
100
AcDbBlockBegin
  2
*D18
 70
     1
 10
0.0
 20
0.0
 30
0.0
  3
*D18
  1

  0
LINE
  5
12B1
330
10CA
100
AcDbEntity
  8
DIM
 62
     0
370
    -2
100
AcDbLine
 10
1.91290426513803
 20
1.491908383619048
 30
0.0
 11
1.91290426513803
 21
1.143450166134768
 31
0.0
  0
LINE
  5
12B2
330
10CA
100
AcDbEntity
  8
DIM
 62
     0
370
    -2
100
AcDbLine
 10
2.322353084035668
 20
1.491908383619048
 30
0.0
 11
2.322353084035668
 21
1.143450166134768
 31
0.0
  0
LINE
  5
12B3
330
10CA
100
AcDbEntity
  8
DIM
 62
     0
370
    -2
100
AcDbLine
 10
1.98290426513803
 20
1.183450166134768
 30
0.0
 11
2.252353084035668
 21
1.183450166134768
 31
0.0
  0
SOLID
  5
12B4
330
10CA
100
AcDbEntity
  8
DIM
 62
     0
100
AcDbTrace
 10
1.98290426513803
 20
1.195116832801435
 30
0.0
 11
1.98290426513803
 21
1.171783499468102
 31
0.0
 12
1.91290426513803
 22
1.183450166134768
 32
0.0
 13
1.91290426513803
 23
1.183450166134768
 33
0.0
  0
SOLID
  5
12B5
330
10CA
100
AcDbEntity
  8
DIM
 62
     0
100
AcDbTrace
 10
2.252353084035668
 20
1.195116832801435
 30
0.0
 11
2.252353084035668
 21
1.171783499468102
 31
0.0
 12
2.322353084035668
 22
1.183450166134768
 32
0.0
 13
2.322353084035668
 23
1.183450166134768
 33
0.0
  0
MTEXT
  5
12B6
330
10CA
100
AcDbEntity
  8
DIM
 62
     0
100
AcDbMText
 10
2.117628674586849
 20
1.240210873136808
 30
0.0
 40
0.07
 41
0.0
 46
0.0
 71
     5
 72
     1
  1
\A1;0.41
 73
     1
 44
1.0
  0
POINT
  5
12B7
330
10CA
100
AcDbEntity
  8
Defpoints
 62
     0
100
AcDbPoint
 10
1.91290426513803
 20
1.541908383619048
 30
0.0
  0
POINT
  5
12B8
330
10CA
100
AcDbEntity
  8
Defpoints
 62
     0
100
AcDbPoint
 10
2.322353084035668
 20
1.541908383619048
 30
0.0
  0
POINT
  5
12B9
330
10CA
100
AcDbEntity
  8
Defpoints
 62
     0
100
AcDbPoint
 10
2.322353084035668
 20
1.183450166134768
 30
0.0
  0
ENDBLK
  5
10D5
330
10CA
100
AcDbEntity
  8
0
100
AcDbBlockEnd
  0
BLOCK
  5
1193
330
1189
100
AcDbEntity
  8
0
100
AcDbBlockBegin
  2
*D20
 70
     1
 10
0.0
 20
0.0
 30
0.0
  3
*D20
  1

  0
LINE
  5
12C3
330
1189
100
AcDbEntity
  8
DIM
 62
     0
370
    -2
100
AcDbLine
 10
1.658179855689212
 20
2.667892635587551
 30
0.0
 11
1.175788205197249
 21
2.667892635587551
 31
0.0
  0
LINE
  5
12C4
330
1189
100
AcDbEntity
  8
DIM
 62
     0
370
    -2
100
AcDbLine
 10
1.685738910807321
 20
2.065530430863142
 30
0.0
 11
1.175788205197249
 21
2.065530430863142
 31
0.0
  0
LINE
  5
12C5
330
1189
100
AcDbEntity
  8
DIM
 62
     0
370
    -2
100
AcDbLine
 10
1.215788205197249
 20
2.597892635587551
 30
0.0
 11
1.215788205197249
 21
2.135530430863142
 31
0.0
  0
SOLID
  5
12C6
330
1189
100
AcDbEntity
  8
DIM
 62
     0
100
AcDbTrace
 10
1.204121538530582
 20
2.597892635587551
 30
0.0
 11
1.227454871863915
 21
2.597892635587551
 31
0.0
 12
1.215788205197249
 22
2.667892635587551
 32
0.0
 13
1.215788205197249
 23
2.667892635587551
 33
0.0
  0
SOLID
  5
12C7
330
1189
100
AcDbEntity
  8
DIM
 62
     0
100
AcDbTrace
 10
1.204121538530582
 20
2.135530430863142
 30
0.0
 11
1.227454871863915
 21
2.135530430863142
 31
0.0
 12
1.215788205197249
 22
2.065530430863142
 32
0.0
 13
1.215788205197249
 23
2.065530430863142
 33
0.0
  0
MTEXT
  5
12C8
330
1189
100
AcDbEntity
  8
DIM
 62
     0
100
AcDbMText
 10
1.159027498195209
 20
2.366711533225347
 30
0.0
 40
0.07
 41
0.0
 46
0.0
 71
     5
 72
     1
  1
\A1;0.60
 11
0.0000000000000001
 21
1.0
 31
0.0
 73
     1
 44
1.0
  0
POINT
  5
12C9
330
1189
100
AcDbEntity
  8
Defpoints
 62
     0
100
AcDbPoint
 10
1.708179855689212
 20
2.667892635587551
 30
0.0
  0
POINT
  5
12CA
330
1189
100
AcDbEntity
  8
Defpoints
 62
     0
100
AcDbPoint
 10
1.735738910807321
 20
2.065530430863142
 30
0.0
  0
POINT
  5
12CB
330
1189
100
AcDbEntity
  8
Defpoints
 62
     0
100
AcDbPoint
 10
1.215788205197249
 20
2.065530430863142
 30
0.0
  0
ENDBLK
  5
1194
330
1189
100
AcDbEntity
  8
0
100
AcDbBlockEnd
  0
BLOCK
  5
11CA
330
11C1
100
AcDbEntity
  8
0
100
AcDbBlockBegin
  2
*D21
 70
     1
 10
0.0
 20
0.0
 30
0.0
  3
*D21
  1

  0
LINE
  5
12CC
330
11C1
100
AcDbEntity
  8
DIM
 62
     0
370
    -2
100
AcDbLine
 10
1.15399464926979
 20
1.679385093887521
 30
0.0
 11
1.608534118971475
 21
1.981095498787413
 31
0.0
  0
LINE
  5
12CD
330
11C1
100
AcDbEntity
  8
DIM
 62
     0
370
    -2
100
AcDbLine
 10
1.862943702643167
 20
2.149965362938871
 30
0.0
 11
1.921265033196064
 21
2.18867740760897
 31
0.0
  0
MTEXT
  5
12CE
330
11C1
100
AcDbEntity
  8
DIM
 62
     0
100
AcDbMText
 10
1.246434631157768
 20
1.809995761360478
 30
0.0
 40
0.07
 41
0.0
 46
0.0
 71
     5
 72
     1
  1
\A1;\U+22050.17
 11
0.8331618650413803
 21
0.5530292095728477
 31
0.0
 73
     1
 44
1.0
  0
LINE
  5
12CF
330
11C1
100
AcDbEntity
  8
DIM
 62
     0
370
    -2
100
AcDbLine
 10
1.804622372090271
 20
2.111253318268772
 30
0.0
 11
1.666855449524372
 21
2.019807543457513
 31
0.0
  0
SOLID
  5
12D0
330
11C1
100
AcDbEntity
  8
DIM
 62
     0
100
AcDbTrace
 10
1.85649169519815
 20
2.159685584697687
 30
0.0
 11
1.869395710088184
 21
2.140245141180055
 31
0.0
 12
1.804622372090271
 22
2.111253318268772
 32
0.0
 13
1.804622372090271
 23
2.111253318268772
 33
0.0
  0
SOLID
  5
12D1
330
11C1
100
AcDbEntity
  8
DIM
 62
     0
100
AcDbTrace
 10
1.602082111526458
 20
1.99081572054623
 30
0.0
 11
1.614986126416492
 21
1.971375277028597
 31
0.0
 12
1.666855449524372
 22
2.019807543457513
 32
0.0
 13
1.666855449524372
 23
2.019807543457513
 33
0.0
  0
POINT
  5
12D2
330
11C1
100
AcDbEntity
  8
Defpoints
 62
     0
100
AcDbPoint
 10
1.666855449524372
 20
2.019807543457513
 30
0.0
  0
POINT
  5
12D3
330
11C1
100
AcDbEntity
  8
Defpoints
 62
     0
100
AcDbPoint
 10
1.804622372090271
 20
2.111253318268772
 30
0.0
  0
ENDBLK
  5
11CB
330
11C1
100
AcDbEntity
  8
0
100
AcDbBlockEnd
  0
BLOCK
  5
11D6
330
11CD
100
AcDbEntity
  8
0
100
AcDbBlockBegin
  2
*D22
 70
     1
 10
0.0
 20
0.0
 30
0.0
  3
*D22
  1

  0
LINE
  5
12D4
330
11CD
100
AcDbEntity
  8
DIM
 62
     0
370
    -2
100
AcDbLine
 10
2.969820458308326
 20
4.215045811702752
 30
0.0
 11
2.453909246193113
 21
3.947878850193596
 31
0.0
  0
LINE
  5
12D5
330
11CD
100
AcDbEntity
  8
DIM
 62
     0
370
    -2
100
AcDbLine
 10
2.190796921878224
 20
3.81162493949719
 30
0.0
 11
2.128637247066654
 21
3.77943526992262
 31
0.0
  0
MTEXT
  5
12D6
330
11CD
100
AcDbEntity
  8
DIM
 62
     0
100
AcDbMText
 10
2.811495067781949
 20
4.198031649285712
 30
0.0
 40
0.07
 41
0.0
 46
0.0
 71
     5
 72
     1
  1
\A1;\U+22050.16
 11
0.8879953544509902
 21
0.4598524224938476
 31
0.0
 73
     1
 44
1.0
  0
LINE
  5
12D7
330
11CD
100
AcDbEntity
  8
DIM
 62
     0
370
    -2
100
AcDbLine
 10
2.252956596689792
 20
3.843814609071759
 30
0.0
 11
2.391749571381543
 21
3.915689180619026
 31
0.0
  0
SOLID
  5
12D8
330
11CD
100
AcDbEntity
  8
DIM
 62
     0
100
AcDbTrace
 10
2.185431976949129
 20
3.821984885299118
 30
0.0
 11
2.196161866807318
 21
3.801264993695261
 31
0.0
 12
2.252956596689792
 22
3.843814609071759
 32
0.0
 13
2.252956596689792
 23
3.843814609071759
 33
0.0
  0
SOLID
  5
12D9
330
11CD
100
AcDbEntity
  8
DIM
 62
     0
100
AcDbTrace
 10
2.448544301264018
 20
3.958238795995524
 30
0.0
 11
2.459274191122208
 21
3.937518904391668
 31
0.0
 12
2.391749571381543
 22
3.915689180619026
 32
0.0
 13
2.391749571381543
 23
3.915689180619026
 33
0.0
  0
POINT
  5
12DA
330
11CD
100
AcDbEntity
  8
Defpoints
 62
     0
100
AcDbPoint
 10
2.391749571381543
 20
3.915689180619026
 30
0.0
  0
POINT
  5
12DB
330
11CD
100
AcDbEntity
  8
Defpoints
 62
     0
100
AcDbPoint
 10
2.252956596689792
 20
3.843814609071759
 30
0.0
  0
ENDBLK
  5
11D7
330
11CD
100
AcDbEntity
  8
0
100
AcDbBlockEnd
  0
BLOCK
  5
11E2
330
11D9
100
AcDbEntity
  8
0
100
AcDbBlockBegin
  2
*D23
 70
     1
 10
0.0
 20
0.0
 30
0.0
  3
*D23
  1

  0
LINE
  5
12DC
330
11D9
100
AcDbEntity
  8
DIM
 62
     0
370
    -2
100
AcDbLine
 10
1.34908439881228
 20
4.389554111097043
 30
0.0
 11
1.803014957658775
 21
3.979113084191845
 31
0.0
  0
LINE
  5
12DD
330
11D9
100
AcDbEntity
  8
DIM
 62
     0
370
    -2
100
AcDbLine
 10
2.022793572617286
 20
3.780390705498942
 30
0.0
 11
2.074715759356089
 21
3.733443005616404
 31
0.0
  0
MTEXT
  5
12DE
330
11D9
100
AcDbEntity
  8
DIM
 62
     0
100
AcDbMText
 10
1.49786831652535
 20
4.332811209884345
 30
0.0
 40
0.07
 41
0.0
 46
0.0
 71
     5
 72
     1
  1
\A1;\U+22050.16
 11
0.7417455248400462
 21
-0.6706814268933981
 31
0.0
 73
     1
 44
1.0
  0
LINE
  5
12DF
330
11D9
100
AcDbEntity
  8
DIM
 62
     0
370
    -2
100
AcDbLine
 10
1.970871385878483
 20
3.827338405381479
 30
0.0
 11
1.854937144397578
 21
3.932165384309307
 31
0.0
  0
SOLID
  5
12E0
330
11D9
100
AcDbEntity
  8
DIM
 62
     0
100
AcDbTrace
 10
2.030618189264376
 20
3.789044403288742
 30
0.0
 11
2.014968955970196
 21
3.771737007709141
 31
0.0
 12
1.970871385878483
 22
3.827338405381479
 32
0.0
 13
1.970871385878483
 23
3.827338405381479
 33
0.0
  0
SOLID
  5
12E1
330
11D9
100
AcDbEntity
  8
DIM
 62
     0
100
AcDbTrace
 10
1.810839574305864
 20
3.987766781981645
 30
0.0
 11
1.795190341011685
 21
3.970459386402044
 31
0.0
 12
1.854937144397578
 22
3.932165384309307
 32
0.0
 13
1.854937144397578
 23
3.932165384309307
 33
0.0
  0
POINT
  5
12E2
330
11D9
100
AcDbEntity
  8
Defpoints
 62
     0
100
AcDbPoint
 10
1.854937144397578
 20
3.932165384309307
 30
0.0
  0
POINT
  5
12E3
330
11D9
100
AcDbEntity
  8
Defpoints
 62
     0
100
AcDbPoint
 10
1.970871385878483
 20
3.827338405381479
 30
0.0
  0
ENDBLK
  5
11E3
330
11D9
100
AcDbEntity
  8
0
100
AcDbBlockEnd
  0
BLOCK
  5
11EE
330
11E5
100
AcDbEntity
  8
0
100
AcDbBlockBegin
  2
*D24
 70
     1
 10
0.0
 20
0.0
 30
0.0
  3
*D24
  1

  0
LINE
  5
12E4
330
11E5
100
AcDbEntity
  8
DIM
 62
     0
370
    -2
100
AcDbLine
 10
2.690566549926897
 20
3.390643482955458
 30
0.0
 11
2.230304539369414
 21
3.783562210668176
 31
0.0
  0
LINE
  5
12E5
330
11E5
100
AcDbEntity
  8
DIM
 62
     0
370
    -2
100
AcDbLine
 10
2.004952809804284
 20
3.975941579022611
 30
0.0
 11
1.951713987698676
 21
4.021390757461913
 31
0.0
  0
MTEXT
  5
12E6
330
11E5
100
AcDbEntity
  8
DIM
 62
     0
100
AcDbMText
 10
2.615149605878404
 20
3.530888609638954
 30
0.0
 40
0.07
 41
0.0
 46
0.0
 71
     5
 72
     1
  1
\A1;\U+22050.16
 11
0.760554601508675
 21
-0.6492739777043129
 31
0.0
 73
     1
 44
1.0
  0
LINE
  5
12E7
330
11E5
100
AcDbEntity
  8
DIM
 62
     0
370
    -2
100
AcDbLine
 10
2.058191631909891
 20
3.93049240058331
 30
0.0
 11
2.177065717263806
 21
3.829011389107478
 31
0.0
  0
SOLID
  5
12E8
330
11E5
100
AcDbEntity
  8
DIM
 62
     0
100
AcDbTrace
 10
2.012527672877501
 20
3.984814716040212
 30
0.0
 11
1.997377946731067
 21
3.96706844200501
 31
0.0
 12
2.058191631909891
 22
3.93049240058331
 32
0.0
 13
2.058191631909891
 23
3.93049240058331
 33
0.0
  0
SOLID
  5
12E9
330
11E5
100
AcDbEntity
  8
DIM
 62
     0
100
AcDbTrace
 10
2.237879402442631
 20
3.792435347685777
 30
0.0
 11
2.222729676296197
 21
3.774689073650574
 31
0.0
 12
2.177065717263806
 22
3.829011389107478
 32
0.0
 13
2.177065717263806
 23
3.829011389107478
 33
0.0
  0
POINT
  5
12EA
330
11E5
100
AcDbEntity
  8
Defpoints
 62
     0
100
AcDbPoint
 10
2.177065717263806
 20
3.829011389107478
 30
0.0
  0
POINT
  5
12EB
330
11E5
100
AcDbEntity
  8
Defpoints
 62
     0
100
AcDbPoint
 10
2.058191631909891
 20
3.93049240058331
 30
0.0
  0
ENDBLK
  5
11EF
330
11E5
100
AcDbEntity
  8
0
100
AcDbBlockEnd
  0
BLOCK
  5
12F7
330
12ED
100
AcDbEntity
  8
0
100
AcDbBlockBegin
  2
*D25
 70
     1
 10
0.0
 20
0.0
 30
0.0
  3
*D25
  1

  0
LINE
  5
12EE
330
12ED
100
AcDbEntity
  8
DIM
 62
     0
370
    -2
100
AcDbLine
 10
1.578258595846691
 20
3.621090477522558
 30
0.0
 11
1.578258595846691
 21
3.382947654190259
 31
0.0
  0
LINE
  5
12EF
330
12ED
100
AcDbEntity
  8
DIM
 62
     0
370
    -2
100
AcDbLine
 10
1.893219225767952
 20
3.621090477522558
 30
0.0
 11
1.893219225767952
 21
3.382947654190259
 31
0.0
  0
LINE
  5
12F0
330
12ED
100
AcDbEntity
  8
DIM
 62
     0
370
    -2
100
AcDbLine
 10
1.648258595846692
 20
3.422947654190259
 30
0.0
 11
1.823219225767951
 21
3.422947654190259
 31
0.0
  0
SOLID
  5
12F1
330
12ED
100
AcDbEntity
  8
DIM
 62
     0
100
AcDbTrace
 10
1.648258595846692
 20
3.434614320856926
 30
0.0
 11
1.648258595846692
 21
3.411280987523593
 31
0.0
 12
1.578258595846691
 22
3.422947654190259
 32
0.0
 13
1.578258595846691
 23
3.422947654190259
 33
0.0
  0
SOLID
  5
12F2
330
12ED
100
AcDbEntity
  8
DIM
 62
     0
100
AcDbTrace
 10
1.823219225767951
 20
3.434614320856926
 30
0.0
 11
1.823219225767951
 21
3.411280987523593
 31
0.0
 12
1.893219225767952
 22
3.422947654190259
 32
0.0
 13
1.893219225767952
 23
3.422947654190259
 33
0.0
  0
MTEXT
  5
12F3
330
12ED
100
AcDbEntity
  8
DIM
 62
     0
100
AcDbMText
 10
1.735738910807322
 20
3.479708361192299
 30
0.0
 40
0.07
 41
0.0
 46
0.0
 71
     5
 72
     1
  1
\A1;0.31
 73
     1
 44
1.0
  0
POINT
  5
12F4
330
12ED
100
AcDbEntity
  8
Defpoints
 62
     0
100
AcDbPoint
 10
1.578258595846691
 20
3.671090477522558
 30
0.0
  0
POINT
  5
12F5
330
12ED
100
AcDbEntity
  8
Defpoints
 62
     0
100
AcDbPoint
 10
1.893219225767952
 20
3.671090477522558
 30
0.0
  0
POINT
  5
12F6
330
12ED
100
AcDbEntity
  8
Defpoints
 62
     0
100
AcDbPoint
 10
1.893219225767952
 20
3.422947654190259
 30
0.0
  0
ENDBLK
  5
12F8
330
12ED
100
AcDbEntity
  8
0
100
AcDbBlockEnd
  0
BLOCK
  5
1304
330
12FA
100
AcDbEntity
  8
0
100
AcDbBlockBegin
  2
*D26
 70
     1
 10
0.0
 20
0.0
 30
0.0
  3
*D26
  1

  0
LINE
  5
12FB
330
12FA
100
AcDbEntity
  8
DIM
 62
     0
370
    -2
100
AcDbLine
 10
4.834378384470029
 20
2.774191848185977
 30
0.0
 11
5.277976227800442
 21
2.774191848185977
 31
0.0
  0
LINE
  5
12FC
330
12FA
100
AcDbEntity
  8
DIM
 62
     0
370
    -2
100
AcDbLine
 10
4.834378384470028
 20
1.435609171020622
 30
0.0
 11
5.277976227800441
 21
1.435609171020622
 31
0.0
  0
LINE
  5
12FD
330
12FA
100
AcDbEntity
  8
DIM
 62
     0
370
    -2
100
AcDbLine
 10
5.237976227800442
 20
2.704191848185977
 30
0.0
 11
5.237976227800441
 21
1.505609171020623
 31
0.0
  0
SOLID
  5
12FE
330
12FA
100
AcDbEntity
  8
DIM
 62
     0
100
AcDbTrace
 10
5.226309561133775
 20
2.704191848185977
 30
0.0
 11
5.249642894467108
 21
2.704191848185977
 31
0.0
 12
5.237976227800442
 22
2.774191848185977
 32
0.0
 13
5.237976227800442
 23
2.774191848185977
 33
0.0
  0
SOLID
  5
12FF
330
12FA
100
AcDbEntity
  8
DIM
 62
     0
100
AcDbTrace
 10
5.226309561133774
 20
1.505609171020623
 30
0.0
 11
5.249642894467108
 21
1.505609171020623
 31
0.0
 12
5.237976227800441
 22
1.435609171020622
 32
0.0
 13
5.237976227800441
 23
1.435609171020622
 33
0.0
  0
MTEXT
  5
1300
330
12FA
100
AcDbEntity
  8
DIM
 62
     0
100
AcDbMText
 10
5.181215520798401
 20
2.104900509603301
 30
0.0
 40
0.07
 41
0.0
 46
0.0
 71
     5
 72
     1
  1
\A1;1.34
 11
0.0000000000000001
 21
1.0
 31
0.0
 73
     1
 44
1.0
  0
POINT
  5
1301
330
12FA
100
AcDbEntity
  8
Defpoints
 62
     0
100
AcDbPoint
 10
4.784378384470029
 20
2.774191848185977
 30
0.0
  0
POINT
  5
1302
330
12FA
100
AcDbEntity
  8
Defpoints
 62
     0
100
AcDbPoint
 10
4.784378384470028
 20
1.435609171020622
 30
0.0
  0
POINT
  5
1303
330
12FA
100
AcDbEntity
  8
Defpoints
 62
     0
100
AcDbPoint
 10
5.237976227800441
 20
1.435609171020622
 30
0.0
  0
ENDBLK
  5
1305
330
12FA
100
AcDbEntity
  8
0
100
AcDbBlockEnd
  0
ENDSEC
  0
SECTION
  2
ENTITIES
  0
LWPOLYLINE
  5
43D
330
1F
100
AcDbEntity
  8
FORMAT
370
    15
100
AcDbPolyline
 90
        4
 70
     1
 43
0.0
 10
0.0
 20
0.0
 10
6.2540257450236
 20
0.0
 10
6.2540257450236
 20
4.736058331182942
 10
0.0
 20
4.736058331182942
  0
LINE
  5
43E
330
1F
100
AcDbEntity
  8
FORMAT
370
    15
100
AcDbLine
 10
2.465712774681195
 20
0.7360583311829414
 30
0.0
 11
6.2540257450236
 21
0.7360583311829414
 31
0.0
  0
LINE
  5
43F
330
1F
100
AcDbEntity
  8
FORMAT
370
    15
100
AcDbLine
 10
0.0
 20
0.7360583311829414
 30
0.0
 11
2.465712774681195
 21
0.7360583311829414
 31
0.0
  0
LINE
  5
440
330
1F
100
AcDbEntity
  8
FORMAT
370
    15
100
AcDbLine
 10
3.627764707338458
 20
0.3859858867112447
 30
0.0
 11
2.465712774681195
 21
0.3859858867112447
 31
0.0
  0
LINE
  5
441
330
1F
100
AcDbEntity
  8
FORMAT
370
    15
100
AcDbLine
 10
3.627764707338458
 20
0.7360583311829414
 30
0.0
 11
3.627764707338458
 21
0.0
 31
0.0
  0
LINE
  5
442
330
1F
100
AcDbEntity
  8
FORMAT
370
    15
100
AcDbLine
 10
5.329690600220981
 20
0.7360583311829414
 30
0.0
 11
5.329690600220981
 21
0.3859858867112447
 31
0.0
  0
LINE
  5
443
330
1F
100
AcDbEntity
  8
FORMAT
370
    15
100
AcDbLine
 10
6.2540257450236
 20
0.2301179860740037
 30
0.0
 11
4.962673662496902
 21
0.2301179860740037
 31
0.0
  0
LINE
  5
444
330
1F
100
AcDbEntity
  8
FORMAT
370
    15
100
AcDbLine
 10
4.962673662496902
 20
0.0
 30
0.0
 11
4.962673662496902
 21
0.3859858867112447
 31
0.0
  0
LINE
  5
445
330
1F
100
AcDbEntity
  8
FORMAT
370
    15
100
AcDbLine
 10
5.318520483611097
 20
4.736058331182942
 30
0.0
 11
5.318520483611097
 21
4.570810372465039
 31
0.0
  0
LINE
  5
446
330
1F
100
AcDbEntity
  8
FORMAT
370
    15
100
AcDbLine
 10
6.2540257450236
 20
0.3859858867112447
 30
0.0
 11
3.627764707338458
 21
0.3859858867112447
 31
0.0
  0
LINE
  5
447
330
1F
100
AcDbEntity
  8
FORMAT
370
    15
100
AcDbLine
 10
5.318520483611097
 20
4.570810372465039
 30
0.0
 11
6.2540257450236
 21
4.570810372465039
 31
0.0
  0
LINE
  5
448
330
1F
100
AcDbEntity
  8
FORMAT
370
    15
100
AcDbLine
 10
2.465712774681195
 20
0.7360583311829414
 30
0.0
 11
2.465712774681195
 21
0.0
 31
0.0
  0
MTEXT
  5
449
330
1F
100
AcDbEntity
  8
0
  6
Continuous
 62
   160
370
     0
100
AcDbMText
 10
5.031333620474573
 20
0.360652598564378
 30
0.0
 40
0.0505989137946901
 41
0.0
 46
0.0
 71
     1
 72
     1
  1
http://www.amazonsupply.com
  7
SLDTEXTSTYLE0
 73
     1
 44
1.0
1001
PE_URL
1000
http://www.amazonsupply.com/
1002
{
1000
http://www.amazonsupply.com/
1002
{
1071
        1
1002
}
1002
}
  0
INSERT
  5
44A
330
1F
100
AcDbEntity
  8
0
  6
Continuous
 62
     7
100
AcDbBlockReference
  2
Block2
 10
-0.2774502383144913
 20
-0.7346235738168106
 30
0.0
 41
0.6071869655362977
 42
0.6071869655362723
 43
0.6071869655362747
  0
TEXT
  5
44B
330
1F
100
AcDbEntity
  8
FORMAT
 62
     7
100
AcDbText
 10
3.651507406959782
 20
0.6473465484705203
 30
0.0
 40
0.0607186965536275
  1
MATERIAL :
 41
0.9
  7
SLDTEXTSTYLE1
100
AcDbText
  0
TEXT
  5
44C
330
1F
100
AcDbEntity
  8
FORMAT
 62
     7
100
AcDbText
 10
2.673000605875496
 20
0.4798852685088533
 30
0.0
 40
0.0758983706920343
  1
B004M8T2OG 
 41
0.9
  7
SLDTEXTSTYLE1
100
AcDbText
  0
TEXT
  5
44D
330
1F
100
AcDbEntity
  8
FORMAT
 62
     7
100
AcDbText
 10
5.457548055556879
 20
4.608801171440416
 30
0.0
 40
0.0758983706920343
  1
B004M8T2OG 
  7
SLDTEXTSTYLE1
100
AcDbText
  0
TEXT
  5
44E
330
1F
100
AcDbEntity
  8
FORMAT
 62
     7
100
AcDbText
 10
2.67375454198342
 20
0.1125090477458053
 30
0.0
 40
0.0758983706920343
  1
SMC 
 41
0.9
  7
SLDTEXTSTYLE1
100
AcDbText
  0
TEXT
  5
44F
330
1F
100
AcDbEntity
  8
FORMAT
 62
     0
100
AcDbText
 10
3.722828397347568
 20
0.4979035225902338
 30
0.0
 40
0.0758983706920351
  1
Polybutylene Terephtalate (PBT) 
 41
0.9
  7
SLDTEXTSTYLE1
100
AcDbText
  0
TEXT
  5
450
330
1F
100
AcDbEntity
  8
FORMAT
 62
     7
100
AcDbText
 10
0.0625412881577976
 20
0.5702665250920278
 30
0.0
 40
0.0607186965536275
  1
ITEM NAME:
 41
0.9
  7
SLDTEXTSTYLE1
100
AcDbText
  0
TEXT
  5
451
330
1F
100
AcDbEntity
  8
FORMAT
 62
     7
100
AcDbText
 10
2.513237248515404
 20
0.6183128131654772
 30
0.0
 40
0.0607186965536275
  1
ASIN :
 41
0.9
  7
SLDTEXTSTYLE1
100
AcDbText
  0
TEXT
  5
453
330
1F
100
AcDbEntity
  8
FORMAT
 62
     0
100
AcDbText
 10
3.674695098267755
 20
0.2839938941034732
 30
0.0
 40
0.0379491853460176
  1
# UNLESS OTHERWISE SPECIFIED
 41
0.95
  7
SLDTEXTSTYLE1
100
AcDbText
  0
TEXT
  5
454
330
1F
100
AcDbEntity
  8
FORMAT
 62
     0
100
AcDbText
 10
3.731715619621272
 20
0.2266589729974475
 30
0.0
 40
0.0379491853460176
  1
DIMENSIONS ARE IN INCHES
 41
0.95
  7
SLDTEXTSTYLE1
100
AcDbText
  0
TEXT
  5
455
330
1F
100
AcDbEntity
  8
FORMAT
 62
     0
100
AcDbText
 10
3.674695098267755
 20
0.1150346393964639
 30
0.0
 40
0.0379491853460176
  1
# INFORMATION IN THIS DRAWING IS PROVIDED FOR
 41
0.95
  7
SLDTEXTSTYLE1
100
AcDbText
  0
TEXT
  5
456
330
1F
100
AcDbEntity
  8
FORMAT
 62
     0
100
AcDbText
 10
3.731560830286074
 20
0.0576997182904386
 30
0.0
 40
0.0379491853460176
  1
REFERENCE ONLY
 41
0.95
  7
SLDTEXTSTYLE1
100
AcDbText
  0
TEXT
  5
457
330
1F
100
AcDbEntity
  8
FORMAT
 62
     7
100
AcDbText
 10
2.499340058012462
 20
0.2619394590817521
 30
0.0
 40
0.0607186965536275
  1
BRAND :
 41
0.9
  7
SLDTEXTSTYLE1
100
AcDbText
  0
MTEXT
  5
50B
330
1F
100
AcDbEntity
  8
FORMAT
 62
     7
100
AcDbMText
 10
0.2312932598364197
 20
0.5061763937657853
 30
0.0
 40
0.0758983706920343
 41
2.054884513606034
 46
0.0
 71
     1
 72
     1
  1
{\fCalibri|b0|i0|c0|p34;\H0.9167x;\C256;SMC KQ2U01-00 PBT Push-To-Connect Tube Fitting, Wye, 1/8" Tube OD}
  7
SLDTEXTSTYLE1
 73
     1
 44
1.0
  0
INSERT
  5
B40
330
1F
100
AcDbEntity
  8
0
100
AcDbBlockReference
  2
amazon block
 10
5.029580973023797
 20
0.0629091959844117
 30
0.0
 41
0.6173842978031247
 42
0.6173842978031248
 43
0.6173842978031247
  0
LINE
  5
D72
330
1F
100
AcDbEntity
  8
0
  6
Continuous
 62
     7
370
    15
100
AcDbLine
 10
2.471959383247448
 20
2.171503250671588
 30
0.0
 11
2.527077493484569
 21
2.203325706453765
 31
0.0
  0
LINE
  5
D73
330
1F
100
AcDbEntity
  8
0
  6
Continuous
 62
     7
370
    15
100
AcDbLine
 10
2.527077493484487
 20
2.203325706453765
 30
0.0
 11
2.527077493484487
 21
2.667892635587551
 31
0.0
  0
LINE
  5
D74
330
1F
100
AcDbEntity
  8
0
  6
Continuous
 62
     7
370
    15
100
AcDbLine
 10
1.708179855689212
 20
2.667892635587551
 30
0.0
 11
1.708179855689212
 21
2.220611551367018
 31
0.0
  0
LINE
  5
D75
330
1F
100
AcDbEntity
  8
0
  6
Continuous
 62
     7
370
    15
100
AcDbLine
 10
1.91290426513803
 20
1.998840233110631
 30
0.0
 11
1.91290426513803
 21
1.541908383619048
 31
0.0
  0
LINE
  5
D76
330
1F
100
AcDbEntity
  8
0
  6
Continuous
 62
     7
370
    15
100
AcDbLine
 10
2.322353084035668
 20
1.541908383619048
 30
0.0
 11
2.322353084035668
 21
1.998840242843748
 31
0.0
  0
ARC
  5
D77
330
1F
100
AcDbEntity
  8
0
  6
Continuous
 62
     7
370
    15
100
AcDbCircle
 10
1.950305839941179
 20
1.455294210390701
 30
0.0
 40
0.0196850393700787
100
AcDbArc
 50
180.0
 51
270.0000000000008
  0
ARC
  5
D78
330
1F
100
AcDbEntity
  8
0
  6
Continuous
 62
     7
370
    15
100
AcDbCircle
 10
2.284951509232518
 20
1.455294210390701
 30
0.0
 40
0.0196850393700787
100
AcDbArc
 50
270.0000000000008
 51
0.0
  0
ARC
  5
D79
330
1F
100
AcDbEntity
  8
0
  6
Continuous
 62
     7
370
    15
100
AcDbCircle
 10
2.155030249389999
 20
2.754506808815898
 30
0.0
 40
0.0196850393700787
100
AcDbArc
 50
90.0
 51
180.0
  0
ARC
  5
D7A
330
1F
100
AcDbEntity
  8
0
  6
Continuous
 62
     7
370
    15
100
AcDbCircle
 10
2.489675918681338
 20
2.754506808815898
 30
0.0
 40
0.0196850393700787
100
AcDbArc
 50
0.0
 51
90.0
  0
ARC
  5
D7B
330
1F
100
AcDbEntity
  8
0
  6
Continuous
 62
     7
370
    15
100
AcDbCircle
 10
1.745581430492362
 20
2.754506808815898
 30
0.0
 40
0.0196850393700796
100
AcDbArc
 50
90.0
 51
180.0
  0
ARC
  5
D7C
330
1F
100
AcDbEntity
  8
0
  6
Continuous
 62
     7
370
    15
100
AcDbCircle
 10
2.080227099783699
 20
2.754506808815898
 30
0.0
 40
0.0196850393700787
100
AcDbArc
 50
0.0
 51
90.0
  0
LINE
  5
D7D
330
1F
100
AcDbEntity
  8
0
  6
Continuous
 62
     7
370
    15
100
AcDbLine
 10
1.725896391122282
 20
2.754506808815898
 30
0.0
 11
1.725896391122282
 21
2.715136730075741
 31
0.0
  0
LINE
  5
D7E
330
1F
100
AcDbEntity
  8
0
  6
Continuous
 62
     7
370
    15
100
AcDbLine
 10
2.099912139153778
 20
2.715136730075741
 30
0.0
 11
2.099912139153778
 21
2.754506808815898
 31
0.0
  0
LINE
  5
D7F
330
1F
100
AcDbEntity
  8
0
  6
Continuous
 62
     7
370
    15
100
AcDbLine
 10
2.13534521001992
 20
2.754506808815898
 30
0.0
 11
2.13534521001992
 21
2.715136730075741
 31
0.0
  0
LINE
  5
D80
330
1F
100
AcDbEntity
  8
0
  6
Continuous
 62
     7
370
    15
100
AcDbLine
 10
2.509360958051416
 20
2.715136730075741
 30
0.0
 11
2.509360958051416
 21
2.754506808815898
 31
0.0
  0
LINE
  5
D81
330
1F
100
AcDbEntity
  8
0
  6
Continuous
 62
     7
370
    15
100
AcDbLine
 10
1.930620800571102
 20
1.494664289130859
 30
0.0
 11
1.930620800571102
 21
1.455294210390701
 31
0.0
  0
LINE
  5
D82
330
1F
100
AcDbEntity
  8
0
  6
Continuous
 62
     7
370
    15
100
AcDbLine
 10
2.304636548602597
 20
1.455294210390701
 30
0.0
 11
2.304636548602597
 21
1.494664289130859
 31
0.0
  0
LINE
  5
D83
330
1F
100
AcDbEntity
  8
0
  6
Continuous
 62
     7
370
    15
100
AcDbLine
 10
2.471959383248266
 20
2.085215470233221
 30
0.0
 11
2.471959383248266
 21
2.171503250671588
 31
0.0
  0
LINE
  5
D84
330
1F
100
AcDbEntity
  8
0
  6
Continuous
 62
     7
370
    15
100
AcDbLine
 10
2.322353084035668
 20
1.99884023311062
 30
0.0
 11
2.471959383247671
 21
2.085215470233221
 31
0.0
  0
LINE
  5
D85
330
1F
100
AcDbEntity
  8
0
  6
Continuous
 62
     7
370
    15
100
AcDbLine
 10
1.884895945343759
 20
2.015010844083408
 30
0.0
 11
1.91290426513803
 21
1.99884023311062
 31
0.0
  0
LINE
  5
D86
330
1F
100
AcDbEntity
  8
0
  6
Continuous
 62
     7
370
    15
100
AcDbLine
 10
1.805227099783699
 20
2.715136730075741
 30
0.0
 11
1.805227099783699
 21
2.667892635587552
 31
0.0
  0
LINE
  5
D87
330
1F
100
AcDbEntity
  8
0
  6
Continuous
 62
     7
370
    15
100
AcDbLine
 10
2.020581430492361
 20
2.667892635587552
 30
0.0
 11
2.020581430492361
 21
2.715136730075741
 31
0.0
  0
LINE
  5
D88
330
1F
100
AcDbEntity
  8
0
  6
Continuous
 62
     7
370
    15
100
AcDbLine
 10
2.214675918681337
 20
2.715136730075741
 30
0.0
 11
2.214675918681337
 21
2.667892635587551
 31
0.0
  0
LINE
  5
D89
330
1F
100
AcDbEntity
  8
0
  6
Continuous
 62
     7
370
    15
100
AcDbLine
 10
2.430030249389998
 20
2.667892635587551
 30
0.0
 11
2.430030249389998
 21
2.715136730075741
 31
0.0
  0
LINE
  5
D8A
330
1F
100
AcDbEntity
  8
0
  6
Continuous
 62
     7
370
    15
100
AcDbLine
 10
2.009951509232519
 20
1.541908383619048
 30
0.0
 11
2.009951509232519
 21
1.494664289130859
 31
0.0
  0
LINE
  5
D8B
330
1F
100
AcDbEntity
  8
0
  6
Continuous
 62
     7
370
    15
100
AcDbLine
 10
2.225305839941181
 20
1.494664289130859
 30
0.0
 11
2.225305839941181
 21
1.541908383619048
 31
0.0
  0
CIRCLE
  5
D8C
330
1F
100
AcDbEntity
  8
0
  6
Continuous
 62
     7
370
    15
100
AcDbCircle
 10
1.735738910807321
 20
2.065530430863142
 30
0.0
 40
0.0826771653543315
  0
CIRCLE
  5
D8D
330
1F
100
AcDbEntity
  8
0
  6
Continuous
 62
     7
370
    15
100
AcDbCircle
 10
1.735738910807321
 20
2.065530430863142
 30
0.0
 40
0.1574803149606296
  0
LINE
  5
D8E
330
1F
100
AcDbEntity
  8
0
  6
Continuous
 62
     7
370
    15
100
AcDbLine
 10
2.471959383248266
 20
2.171503250671416
 30
0.0
 11
2.213247521354248
 21
2.171503250671789
 31
0.0
  0
SPLINE
  5
D8F
330
1F
100
AcDbEntity
  8
0
  6
Continuous
 62
     7
370
    15
100
AcDbSpline
210
0.0
220
0.0
230
1.0
 70
     8
 71
     3
 72
     8
 73
     4
 74
     0
 42
0.0000000001
 43
0.0000000001
 40
0.0
 40
0.0
 40
0.0
 40
0.0
 40
1.0
 40
1.0
 40
1.0
 40
1.0
 10
2.145056544678219
 20
2.203325706453719
 30
0.0
 10
2.167500181446095
 20
2.19210388806994
 30
0.0
 10
2.190112804861946
 20
2.181244183931797
 30
0.0
 10
2.213247521354333
 20
2.17150325067199
 30
0.0
  0
LINE
  5
D90
330
1F
100
AcDbEntity
  8
0
  6
Continuous
 62
     7
370
    15
100
AcDbLine
 10
2.527077493484569
 20
2.203325706453765
 30
0.0
 11
2.145056544678201
 21
2.203325706453729
 31
0.0
  0
LINE
  5
D91
330
1F
100
AcDbEntity
  8
0
  6
Continuous
 62
     7
370
    15
100
AcDbLine
 10
2.126331205539532
 20
2.667892635587551
 30
0.0
 11
2.126331205539532
 21
2.203325706453693
 31
0.0
  0
LINE
  5
D92
330
1F
100
AcDbEntity
  8
0
  6
Continuous
 62
     7
370
    15
100
AcDbLine
 10
2.527077493484487
 20
2.667892635587551
 30
0.0
 11
2.126331205539532
 21
2.667892635587551
 31
0.0
  0
LINE
  5
D93
330
1F
100
AcDbEntity
  8
0
  6
Continuous
 62
     7
370
    15
100
AcDbLine
 10
2.108926143634166
 20
2.667892635587551
 30
0.0
 11
1.708179855689212
 21
2.667892635587551
 31
0.0
  0
LINE
  5
D94
330
1F
100
AcDbEntity
  8
0
  6
Continuous
 62
     7
370
    15
100
AcDbLine
 10
2.108926143634166
 20
2.203325706453693
 30
0.0
 11
2.108926143634166
 21
2.667892635587551
 31
0.0
  0
LINE
  5
D95
330
1F
100
AcDbEntity
  8
0
  6
Continuous
 62
     7
370
    15
100
AcDbLine
 10
2.090200804495522
 20
2.203325706453729
 30
0.0
 11
1.811978740457073
 21
2.203325706453693
 31
0.0
  0
LINE
  5
D96
330
1F
100
AcDbEntity
  8
0
  6
Continuous
 62
     7
370
    15
100
AcDbLine
 10
2.02200982781945
 20
2.171503250671789
 30
0.0
 11
1.852228442791577
 21
2.171503250671754
 31
0.0
  0
SPLINE
  5
D97
330
1F
100
AcDbEntity
  8
0
  6
Continuous
 62
     7
370
    15
100
AcDbSpline
210
0.0
220
0.0
230
1.0
 70
     8
 71
     3
 72
     8
 73
     4
 74
     0
 42
0.0000000001
 43
0.0000000001
 40
0.0
 40
0.0
 40
0.0
 40
0.0
 40
1.0
 40
1.0
 40
1.0
 40
1.0
 10
2.022009827819364
 20
2.17150325067199
 30
0.0
 10
2.045144544311766
 20
2.181244183931803
 30
0.0
 10
2.067757167727589
 20
2.192103888069933
 30
0.0
 10
2.090200804495479
 20
2.203325706453719
 30
0.0
  0
SPLINE
  5
D98
330
1F
100
AcDbEntity
  8
0
  6
Continuous
 62
     7
370
    15
100
AcDbSpline
210
0.0
220
0.0
230
1.0
 70
     8
 71
     3
 72
    14
 73
    10
 74
     0
 42
0.0000000001
 43
0.0000000001
 40
0.0
 40
0.0
 40
0.0
 40
0.0
 40
0.25
 40
0.25
 40
0.5
 40
0.5
 40
0.75
 40
0.75
 40
1.0
 40
1.0
 40
1.0
 40
1.0
 10
1.91290426513803
 20
1.99884023311062
 30
0.0
 10
1.91290426513803
 20
2.006220848285475
 30
0.0
 10
1.914101767712306
 20
2.013587329322416
 30
0.0
 10
1.918862657444701
 20
2.028289461837784
 30
0.0
 10
1.922383328273821
 20
2.035518460209343
 30
0.0
 10
1.931613375110774
 20
2.049879789029157
 30
0.0
 10
1.937322603621432
 20
2.057010989265165
 30
0.0
 10
1.951014689934654
 20
2.071314870476572
 30
0.0
 10
1.958852198189377
 20
2.078329395851777
 30
0.0
 10
1.967568105234844
 20
2.085215470233487
 30
0.0
  0
LINE
  5
D99
330
1F
100
AcDbEntity
  8
0
  6
Continuous
 62
     7
370
    15
100
AcDbLine
 10
1.967568105234892
 20
2.085215470233354
 30
0.0
 11
1.967568105234939
 21
2.12458554897338
 31
0.0
  0
LINE
  5
D9A
330
1F
100
AcDbEntity
  8
0
  6
Continuous
 62
     7
370
    15
100
AcDbLine
 10
2.26768924393876
 20
2.124585548973377
 30
0.0
 11
1.967568105234939
 21
2.12458554897338
 31
0.0
  0
LINE
  5
D9B
330
1F
100
AcDbEntity
  8
0
  6
Continuous
 62
     7
370
    15
100
AcDbLine
 10
2.267689243938757
 20
2.085215470233221
 30
0.0
 11
2.26768924393876
 21
2.124585548973377
 31
0.0
  0
SPLINE
  5
D9C
330
1F
100
AcDbEntity
  8
0
  6
Continuous
 62
     7
370
    15
100
AcDbSpline
210
0.0
220
0.0
230
1.0
 70
     8
 71
     3
 72
    14
 73
    10
 74
     0
 42
0.0000000001
 43
0.0000000001
 40
0.0
 40
0.0
 40
0.0
 40
0.0
 40
0.25
 40
0.25
 40
0.5
 40
0.5
 40
0.75
 40
0.75
 40
1.0
 40
1.0
 40
1.0
 40
1.0
 10
2.322353084035668
 20
1.99884023311062
 30
0.0
 10
2.322353084035668
 20
2.006220848285475
 30
0.0
 10
2.321155581461392
 20
2.013587329322416
 30
0.0
 10
2.316394691728997
 20
2.028289461837784
 30
0.0
 10
2.312874020899877
 20
2.035518460209343
 30
0.0
 10
2.303643974062924
 20
2.049879789029156
 30
0.0
 10
2.297934745552266
 20
2.057010989265165
 30
0.0
 10
2.284242659239044
 20
2.071314870476571
 30
0.0
 10
2.276405150984323
 20
2.078329395851777
 30
0.0
 10
2.267689243938855
 20
2.085215470233487
 30
0.0
  0
LINE
  5
D9D
330
1F
100
AcDbEntity
  8
0
  6
Continuous
 62
     7
370
    15
100
AcDbLine
 10
2.117628674586849
 20
1.541908383619048
 30
0.0
 11
2.322353084035668
 21
1.541908383619048
 31
0.0
  0
LINE
  5
D9E
330
1F
100
AcDbEntity
  8
0
  6
Continuous
 62
     7
370
    15
100
AcDbLine
 10
1.91290426513803
 20
1.541908383619048
 30
0.0
 11
2.117628674586849
 21
1.541908383619048
 31
0.0
  0
SPLINE
  5
D9F
330
1F
100
AcDbEntity
  8
0
  6
Continuous
 62
     7
370
    15
100
AcDbSpline
210
0.0
220
0.0
230
1.0
 70
     8
 71
     3
 72
    10
 73
     6
 74
     0
 42
0.0000000001
 43
0.0000000001
 40
0.0
 40
0.0
 40
0.0
 40
0.0
 40
0.5
 40
0.5
 40
1.0
 40
1.0
 40
1.0
 40
1.0
 10
2.02200982781953
 20
2.148116036714347
 30
0.0
 10
2.014410784018903
 20
2.144073685516203
 30
0.0
 10
2.006053298086207
 20
2.140106585514664
 30
0.0
 10
1.987883768736815
 20
2.132273521755077
 30
0.0
 10
1.977989659639656
 20
2.128378684571483
 30
0.0
 10
1.967568105234938
 20
2.124585548973379
 30
0.0
  0
SPLINE
  5
DA0
330
1F
100
AcDbEntity
  8
0
  6
Continuous
 62
     7
370
    15
100
AcDbSpline
210
0.0
220
0.0
230
1.0
 70
     8
 71
     3
 72
    12
 73
     8
 74
     0
 42
0.0000000001
 43
0.0000000001
 40
0.0
 40
0.0
 40
0.0
 40
0.0
 40
0.5
 40
0.5
 40
0.75
 40
0.75
 40
1.0
 40
1.0
 40
1.0
 40
1.0
 10
2.213247521354167
 20
2.148116036714347
 30
0.0
 10
2.18188444624022
 20
2.155908371571614
 30
0.0
 10
2.150324949720776
 20
2.16177976922721
 30
0.0
 10
2.102094671201398
 20
2.161872846710472
 30
0.0
 10
2.08578034385053
 20
2.16044119049414
 30
0.0
 10
2.053676199160369
 20
2.155488642397117
 30
0.0
 10
2.037800160590924
 20
2.152039234934398
 30
0.0
 10
2.02200982781953
 20
2.148116036714347
 30
0.0
  0
SPLINE
  5
DA1
330
1F
100
AcDbEntity
  8
0
  6
Continuous
 62
     7
370
    15
100
AcDbSpline
210
0.0
220
0.0
230
1.0
 70
     8
 71
     3
 72
    10
 73
     6
 74
     0
 42
0.0000000001
 43
0.0000000001
 40
0.0
 40
0.0
 40
0.0
 40
0.0
 40
0.5
 40
0.5
 40
1.0
 40
1.0
 40
1.0
 40
1.0
 10
2.267689243938763
 20
2.124585548973378
 30
0.0
 10
2.257279236971607
 20
2.128374481647927
 30
0.0
 10
2.24753416176618
 20
2.132208222602162
 30
0.0
 10
2.229333872760354
 20
2.140046751288052
 30
0.0
 10
2.220838019992227
 20
2.144078231160241
 30
0.0
 10
2.213247521354167
 20
2.148116036714347
 30
0.0
  0
SPLINE
  5
DA2
330
1F
100
AcDbEntity
  8
0
  6
Continuous
 62
     7
370
    15
100
AcDbSpline
210
0.0
220
0.0
230
1.0
 70
    24
 71
     3
 72
    10
 73
     6
 74
     0
 42
0.0000000001
 43
0.0000000001
 40
0.0
 40
0.0
 40
0.0
 40
0.0
 40
0.5
 40
0.5
 40
1.0
 40
1.0
 40
1.0
 40
1.0
 10
1.950305839941179
 20
1.435609171020622
 30
0.0
 10
1.95030583994118
 20
1.435609171020622
 30
0.0
 10
1.967935333174673
 20
1.435609171020622
 30
0.0
 10
2.030691793948412
 20
1.435609171020622
 30
0.0
 10
2.073253155610471
 20
1.435609171020622
 30
0.0
 10
2.117628674586849
 20
1.435609171020622
 30
0.0
  0
SPLINE
  5
DA3
330
1F
100
AcDbEntity
  8
0
  6
Continuous
 62
     7
370
    15
100
AcDbSpline
210
0.0
220
0.0
230
1.0
 70
    24
 71
     3
 72
     8
 73
     4
 74
     0
 42
0.0000000001
 43
0.0000000001
 40
0.0
 40
0.0
 40
0.0
 40
0.0
 40
1.0
 40
1.0
 40
1.0
 40
1.0
 10
2.117628674586849
 20
1.435609171020622
 30
0.0
 10
2.209976658530675
 20
1.435609171020622
 30
0.0
 10
2.284951509232521
 20
1.435609171020622
 30
0.0
 10
2.284951509232518
 20
1.435609171020622
 30
0.0
  0
SPLINE
  5
DA4
330
1F
100
AcDbEntity
  8
0
  6
Continuous
 62
     7
370
    15
100
AcDbSpline
210
0.0
220
0.0
230
1.0
 70
    24
 71
     3
 72
    10
 73
     6
 74
     0
 42
0.0000000001
 43
0.0000000001
 40
0.0
 40
0.0
 40
0.0
 40
0.0
 40
0.5
 40
0.5
 40
1.0
 40
1.0
 40
1.0
 40
1.0
 10
2.489675918681338
 20
2.774191848185977
 30
0.0
 10
2.489675918681338
 20
2.774191848185977
 30
0.0
 10
2.414701067979494
 20
2.774191848185977
 30
0.0
 10
2.230005100091843
 20
2.774191848185977
 30
0.0
 10
2.155030249389999
 20
2.774191848185977
 30
0.0
 10
2.155030249389999
 20
2.774191848185977
 30
0.0
  0
SPLINE
  5
DA5
330
1F
100
AcDbEntity
  8
0
  6
Continuous
 62
     7
370
    15
100
AcDbSpline
210
0.0
220
0.0
230
1.0
 70
    24
 71
     3
 72
    10
 73
     6
 74
     0
 42
0.0000000001
 43
0.0000000001
 40
0.0
 40
0.0
 40
0.0
 40
0.0
 40
0.5
 40
0.5
 40
1.0
 40
1.0
 40
1.0
 40
1.0
 10
2.080227099783699
 20
2.774191848185977
 30
0.0
 10
2.080227099783699
 20
2.774191848185977
 30
0.0
 10
2.005252249081856
 20
2.774191848185977
 30
0.0
 10
1.820556281194204
 20
2.774191848185977
 30
0.0
 10
1.745581430492362
 20
2.774191848185977
 30
0.0
 10
1.745581430492362
 20
2.774191848185977
 30
0.0
  0
LINE
  5
DA6
330
1F
100
AcDbEntity
  8
0
  6
Continuous
 62
     7
370
    15
100
AcDbLine
 10
2.099912139153778
 20
2.715136730075741
 30
0.0
 11
1.725896391122282
 21
2.715136730075741
 31
0.0
  0
LINE
  5
DA7
330
1F
100
AcDbEntity
  8
0
  6
Continuous
 62
     7
370
    15
100
AcDbLine
 10
2.509360958051416
 20
2.715136730075741
 30
0.0
 11
2.13534521001992
 21
2.715136730075741
 31
0.0
  0
LINE
  5
DA8
330
1F
100
AcDbEntity
  8
0
  6
Continuous
 62
     7
370
    15
100
AcDbLine
 10
2.117628674586849
 20
1.494664289130859
 30
0.0
 11
2.304636548602597
 21
1.494664289130859
 31
0.0
  0
LINE
  5
DA9
330
1F
100
AcDbEntity
  8
0
  6
Continuous
 62
     7
370
    15
100
AcDbLine
 10
1.930620800571102
 20
1.494664289130859
 30
0.0
 11
2.117628674586849
 21
1.494664289130859
 31
0.0
  0
LINE
  5
DAA
330
1F
100
AcDbEntity
  8
0
  6
Continuous
 62
     7
370
    15
100
AcDbLine
 10
1.891984066972546
 20
2.085215470233283
 30
0.0
 11
1.967568105234892
 21
2.085215470233354
 31
0.0
  0
LINE
  5
DAB
330
1F
100
AcDbEntity
  8
0
  6
Continuous
 62
     7
370
    15
100
AcDbLine
 10
2.022009827819533
 20
2.148116036714347
 30
0.0
 11
2.02200982781945
 21
2.171503250671789
 31
0.0
  0
LINE
  5
DAC
330
1F
100
AcDbEntity
  8
0
  6
Continuous
 62
     7
370
    15
100
AcDbLine
 10
2.213247521354248
 20
2.171503250671789
 30
0.0
 11
2.213247521354166
 21
2.148116036714347
 31
0.0
  0
LINE
  5
DAD
330
1F
100
AcDbEntity
  8
0
  6
Continuous
 62
     7
370
    15
100
AcDbLine
 10
2.267689243938757
 20
2.085215470233221
 30
0.0
 11
2.471959383248266
 21
2.085215470233221
 31
0.0
  0
LINE
  5
DAE
330
1F
100
AcDbEntity
  8
0
  6
Continuous
 62
     7
370
    15
100
AcDbLine
 10
2.090200804495522
 20
2.203325706453729
 30
0.0
 11
2.145056544678201
 21
2.203325706453729
 31
0.0
  0
LINE
  5
DAF
330
1F
100
AcDbEntity
  8
0
  6
Continuous
 62
     7
370
    15
100
AcDbLine
 10
2.108926143634166
 20
2.667892635587551
 30
0.0
 11
2.126331205539532
 21
2.667892635587551
 31
0.0
  0
LINE
  5
DB0
330
1F
100
AcDbEntity
  8
0
  6
Continuous
 62
     8
370
    15
100
AcDbLine
 10
2.117628674586849
 20
1.455294210390701
 30
0.0
 11
2.304636548602597
 21
1.455294210390701
 31
0.0
  0
LINE
  5
DB1
330
1F
100
AcDbEntity
  8
0
  6
Continuous
 62
     8
370
    15
100
AcDbLine
 10
1.930620800571102
 20
1.455294210390701
 30
0.0
 11
2.117628674586849
 21
1.455294210390701
 31
0.0
  0
LINE
  5
DB2
330
1F
100
AcDbEntity
  8
0
  6
Continuous
 62
     8
370
    15
100
AcDbLine
 10
2.509360958051416
 20
2.754506808815898
 30
0.0
 11
2.13534521001992
 21
2.754506808815898
 31
0.0
  0
LINE
  5
DB3
330
1F
100
AcDbEntity
  8
0
  6
Continuous
 62
     8
370
    15
100
AcDbLine
 10
2.099912139153778
 20
2.754506808815898
 30
0.0
 11
1.725896391122282
 21
2.754506808815898
 31
0.0
  0
SPLINE
  5
DB4
330
1F
100
AcDbEntity
  8
0
  6
HIDDEN
 62
     7
370
     0
100
AcDbSpline
210
0.0
220
0.0
230
1.0
 70
     8
 71
     3
 72
     9
 73
     5
 74
     0
 42
0.0000000001
 43
0.0000000001
 40
0.0
 40
0.0
 40
0.0
 40
0.0
 40
0.9969863027828132
 40
1.0
 40
1.0
 40
1.0
 40
1.0
 10
2.267689243938668
 20
2.085215470233534
 30
0.0
 10
2.271812802763527
 20
2.081962010430955
 30
0.0
 10
2.275948826311044
 20
2.078698716047171
 30
0.0
 10
2.279430781134286
 20
2.075377562012723
 30
0.0
 10
2.279441274691848
 20
2.075367553060052
 30
0.0
  0
LINE
  5
DB5
330
1F
100
AcDbEntity
  8
0
  6
HIDDEN
 62
     7
370
     0
100
AcDbLine
 10
2.195741216068386
 20
1.455294210390701
 30
0.0
 11
2.039516133105312
 21
1.455294210390701
 31
0.0
  0
SPLINE
  5
DB6
330
1F
100
AcDbEntity
  8
0
  6
HIDDEN
 62
     7
370
     0
100
AcDbSpline
210
0.0
220
0.0
230
1.0
 70
     8
 71
     3
 72
    12
 73
     8
 74
     0
 42
0.0000000001
 43
0.0000000001
 40
0.0
 40
0.0
 40
0.0
 40
0.0
 40
0.195533629147068
 40
0.4235136645567994
 40
0.6418324712471878
 40
0.8653750356273848
 40
1.0
 40
1.0
 40
1.0
 40
1.0
 10
2.244291474550424
 20
2.152978070416376
 30
0.0
 10
2.244385740507379
 20
2.152922235028819
 30
0.0
 10
2.24458991470006
 20
2.152801299056324
 30
0.0
 10
2.247009875800942
 20
2.151393294963391
 30
0.0
 10
2.250987575793163
 20
2.149176588811875
 30
0.0
 10
2.255632259212609
 20
2.146704388217426
 30
0.0
 10
2.259167883892665
 20
2.144935473109141
 30
0.0
 10
2.26049682442573
 20
2.144270588343455
 30
0.0
  0
LINE
  5
DB7
330
1F
100
AcDbEntity
  8
0
  6
HIDDEN
 62
     7
370
     0
100
AcDbLine
 10
2.260496824425731
 20
2.144270588343455
 30
0.0
 11
2.400502690334881
 21
2.144270588343458
 31
0.0
  0
SPLINE
  5
DB8
330
1F
100
AcDbEntity
  8
0
  6
HIDDEN
 62
     7
370
     0
100
AcDbSpline
210
0.0
220
0.0
230
1.0
 70
     8
 71
     3
 72
    12
 73
     8
 74
     0
 42
0.0000000001
 43
0.0000000001
 40
0.0
 40
0.0
 40
0.0
 40
0.0
 40
0.2398418228715753
 40
0.4859856467726104
 40
0.7260296900813539
 40
0.9742336453548491
 40
1.0
 40
1.0
 40
1.0
 40
1.0
 10
1.974760524747967
 20
2.144270588343454
 30
0.0
 10
1.977071397487509
 20
2.14543689321495
 30
0.0
 10
1.981753862661804
 20
2.147800148382549
 30
0.0
 10
1.986810706194783
 20
2.150582037317351
 30
0.0
 10
1.989995843607255
 20
2.152403150163199
 30
0.0
 10
1.991296096842104
 20
2.153171754778222
 30
0.0
 10
1.990994261616952
 20
2.152994720164461
 30
0.0
 10
1.990965874623275
 20
2.152978070416376
 30
0.0
  0
LINE
  5
DB9
330
1F
100
AcDbEntity
  8
0
  6
HIDDEN
 62
     7
370
     0
100
AcDbLine
 10
1.834754658838818
 20
2.144270588343458
 30
0.0
 11
1.974760524747967
 21
2.144270588343456
 31
0.0
  0
SPLINE
  5
DBA
330
1F
100
AcDbEntity
  8
0
  6
HIDDEN
 62
     7
370
     0
100
AcDbSpline
210
0.0
220
0.0
230
1.0
 70
     8
 71
     3
 72
    14
 73
    10
 74
     0
 42
0.0000000001
 43
0.0000000001
 40
0.0
 40
0.0
 40
0.0
 40
0.0
 40
0.1363462246253097
 40
0.2766127497717189
 40
0.4129603397540129
 40
0.5535822064172784
 40
0.6864534737353811
 40
0.8242496471150438
 40
1.0
 40
1.0
 40
1.0
 40
1.0
 10
2.188112867839968
 20
2.065530430863142
 30
0.0
 10
2.188675658949113
 20
2.063665908275488
 30
0.0
 10
2.189817422842286
 20
2.059883253336565
 30
0.0
 10
2.191651452533088
 20
2.055163422611526
 30
0.0
 10
2.193340768059222
 20
2.051227322723554
 30
0.0
 10
2.194695828361753
 20
2.048336091491183
 30
0.0
 10
2.195557167374293
 20
2.046581570924545
 30
0.0
 10
2.195980917834655
 20
2.045730966421209
 30
0.0
 10
2.195415901781613
 20
2.046880372583105
 30
0.0
 10
2.195099196723863
 20
2.047524642321853
 30
0.0
  0
SPLINE
  5
DBB
330
1F
100
AcDbEntity
  8
0
  6
HIDDEN
 62
     7
370
     0
100
AcDbSpline
210
0.0
220
0.0
230
1.0
 70
     8
 71
     3
 72
    10
 73
     6
 74
     0
 42
0.0000000001
 43
0.0000000001
 40
0.0
 40
0.0
 40
0.0
 40
0.0
 40
0.5
 40
0.5
 40
1.0
 40
1.0
 40
1.0
 40
1.0
 10
2.039479068287637
 20
2.046140667083614
 30
0.0
 10
2.039479068287637
 20
2.046140667083614
 30
0.0
 10
2.040472638326935
 20
2.048043775157686
 30
0.0
 10
2.043500835996222
 20
2.054824395267609
 30
0.0
 10
2.045506253011386
 20
2.059664595418573
 30
0.0
 10
2.047144481333727
 20
2.065530430863134
 30
0.0
  0
LINE
  5
DBC
330
1F
100
AcDbEntity
  8
0
  6
HIDDEN
 62
     7
370
     0
100
AcDbLine
 10
2.188112867839968
 20
2.065530430863142
 30
0.0
 11
2.04714448133373
 21
2.065530430863142
 31
0.0
  0
LINE
  5
DBD
330
1F
100
AcDbEntity
  8
0
  6
HIDDEN
 62
     7
370
     0
100
AcDbLine
 10
1.884883599054868
 20
2.015017972216623
 30
0.0
 11
1.884895945343759
 21
2.015010844083408
 31
0.0
  0
ARC
  5
DBE
330
1F
100
AcDbEntity
  8
0
  6
HIDDEN
 62
     7
370
     0
100
AcDbCircle
 10
1.815069619468739
 20
2.754506808815898
 30
0.0
 40
0.0196850393700787
100
AcDbArc
 50
0.0
 51
90.0
  0
ARC
  5
DBF
330
1F
100
AcDbEntity
  8
0
  6
HIDDEN
 62
     7
370
     0
100
AcDbCircle
 10
2.010738910807321
 20
2.754506808815898
 30
0.0
 40
0.0196850393700787
100
AcDbArc
 50
90.0
 51
180.0
  0
ARC
  5
DC0
330
1F
100
AcDbEntity
  8
0
  6
HIDDEN
 62
     7
370
     0
100
AcDbCircle
 10
2.224518438366376
 20
2.754506808815898
 30
0.0
 40
0.0196850393700787
100
AcDbArc
 50
0.0
 51
90.0
  0
ARC
  5
DC1
330
1F
100
AcDbEntity
  8
0
  6
HIDDEN
 62
     7
370
     0
100
AcDbCircle
 10
2.420187729704959
 20
2.754506808815898
 30
0.0
 40
0.0196850393700787
100
AcDbArc
 50
90.0
 51
180.0
  0
ARC
  5
DC2
330
1F
100
AcDbEntity
  8
0
  6
HIDDEN
 62
     7
370
     0
100
AcDbCircle
 10
2.215463320256141
 20
1.455294210390701
 30
0.0
 40
0.0196850393700787
100
AcDbArc
 50
180.0
 51
270.0000000000008
  0
ARC
  5
DC3
330
1F
100
AcDbEntity
  8
0
  6
HIDDEN
 62
     7
370
     0
100
AcDbCircle
 10
2.019794028917558
 20
1.455294210390701
 30
0.0
 40
0.0196850393700796
100
AcDbArc
 50
270.0000000000008
 51
0.0
  0
LINE
  5
DC4
330
1F
100
AcDbEntity
  8
0
  6
HIDDEN
 62
     7
370
     0
100
AcDbLine
 10
2.244203477736455
 20
2.754506808815898
 30
0.0
 11
2.244203477736455
 21
2.152978070416376
 31
0.0
  0
LINE
  5
DC5
330
1F
100
AcDbEntity
  8
0
  6
HIDDEN
 62
     7
370
     0
100
AcDbLine
 10
2.400502690334881
 20
2.144270588343457
 30
0.0
 11
2.400502690334881
 21
2.754506808815898
 31
0.0
  0
LINE
  5
DC6
330
1F
100
AcDbEntity
  8
0
  6
HIDDEN
 62
     7
370
     0
100
AcDbLine
 10
1.834754658838818
 20
2.754506808815898
 30
0.0
 11
1.834754658838818
 21
2.144270588343457
 31
0.0
  0
LINE
  5
DC7
330
1F
100
AcDbEntity
  8
0
  6
HIDDEN
 62
     7
370
     0
100
AcDbLine
 10
1.991053871437243
 20
2.152978070416376
 30
0.0
 11
1.991053871437243
 21
2.754506808815898
 31
0.0
  0
LINE
  5
DC8
330
1F
100
AcDbEntity
  8
0
  6
HIDDEN
 62
     7
370
     0
100
AcDbLine
 10
2.195778280886062
 20
1.455294210390701
 30
0.0
 11
2.195778280886062
 21
2.046140667083614
 31
0.0
  0
LINE
  5
DC9
330
1F
100
AcDbEntity
  8
0
  6
HIDDEN
 62
     7
370
     0
100
AcDbLine
 10
2.039479068287637
 20
2.046140667083614
 30
0.0
 11
2.039479068287637
 21
1.455294210390701
 31
0.0
  0
LINE
  5
DCA
330
1F
100
AcDbEntity
  8
0
  6
HIDDEN
 62
     7
370
     0
100
AcDbLine
 10
1.991053871437243
 20
2.153029679485915
 30
0.0
 11
1.966988466308399
 21
2.144270588343455
 31
0.0
  0
LINE
  5
DCB
330
1F
100
AcDbEntity
  8
0
  6
HIDDEN
 62
     7
370
     0
100
AcDbLine
 10
2.268268882865299
 20
2.144270588343455
 30
0.0
 11
2.244203477736455
 21
2.153029679485915
 31
0.0
  0
ARC
  5
DCC
330
1F
100
AcDbEntity
  8
0
  6
HIDDEN
 62
     7
370
     0
100
AcDbCircle
 10
2.263297965925432
 20
2.144270588343457
 30
0.0
 40
0.0981299212598428
100
AcDbArc
 50
270.0000000000008
 51
0.0
  0
ARC
  5
DCD
330
1F
100
AcDbEntity
  8
0
  6
HIDDEN
 62
     7
370
     0
100
AcDbCircle
 10
2.263297965925432
 20
2.144270588343457
 30
0.0
 40
0.0199803149606304
100
AcDbArc
 50
270.0000000000008
 51
359.9742230159316
  0
ARC
  5
DCE
330
1F
100
AcDbEntity
  8
0
  6
HIDDEN
 62
     7
370
     0
100
AcDbCircle
 10
1.971959383248267
 20
2.144270588343457
 30
0.0
 40
0.0981299212598434
100
AcDbArc
 50
179.9992824318023
 51
270.0000000000008
  0
ARC
  5
DCF
330
1F
100
AcDbEntity
  8
0
  6
HIDDEN
 62
     7
370
     0
100
AcDbCircle
 10
1.971959383248267
 20
2.144270588343457
 30
0.0
 40
0.0199803149606313
100
AcDbArc
 50
180.0
 51
270.0000000000008
  0
LINE
  5
DD0
330
1F
100
AcDbEntity
  8
0
  6
HIDDEN
 62
     7
370
     0
100
AcDbLine
 10
2.263297965925432
 20
2.124290273382827
 30
0.0
 11
1.971959383248267
 21
2.124290273382827
 31
0.0
  0
LINE
  5
DD1
330
1F
100
AcDbEntity
  8
0
  6
HIDDEN
 62
     7
370
     0
100
AcDbLine
 10
2.195778280886062
 20
2.046140667083615
 30
0.0
 11
2.263297965925432
 21
2.046140667083615
 31
0.0
  0
LINE
  5
DD2
330
1F
100
AcDbEntity
  8
0
  6
HIDDEN
 62
     7
370
     0
100
AcDbLine
 10
1.971959383248267
 20
2.046140667083614
 30
0.0
 11
2.039479068287637
 21
2.046140667083614
 31
0.0
  0
LINE
  5
DD3
330
1F
100
AcDbEntity
  8
0
  6
HIDDEN
 62
     7
370
     0
100
AcDbLine
 10
2.304636548602597
 20
1.455294210390701
 30
0.0
 11
1.930620800571102
 21
1.455294210390701
 31
0.0
  0
LINE
  5
DD4
330
1F
100
AcDbEntity
  8
0
  6
HIDDEN
 62
     7
370
     0
100
AcDbLine
 10
1.834754658838818
 20
2.754506808815898
 30
0.0
 11
1.991053871437243
 21
2.754506808815898
 31
0.0
  0
LINE
  5
DD5
330
1F
100
AcDbEntity
  8
0
  6
HIDDEN
 62
     7
370
     0
100
AcDbLine
 10
2.244203477736455
 20
2.754506808815898
 30
0.0
 11
2.400502690334881
 21
2.754506808815898
 31
0.0
  0
LINE
  5
DD6
330
1F
100
AcDbEntity
  8
0
  6
HIDDEN
 62
     7
370
     0
100
AcDbLine
 10
2.263297965925432
 20
2.124290273382827
 30
0.0
 11
2.263297965925432
 21
2.046140667083615
 31
0.0
  0
LINE
  5
DD7
330
1F
100
AcDbEntity
  8
0
  6
HIDDEN
 62
     7
370
     0
100
AcDbLine
 10
1.971959383248267
 20
2.046140667083614
 30
0.0
 11
1.971959383248267
 21
2.124290273382827
 31
0.0
  0
LINE
  5
DD8
330
1F
100
AcDbEntity
  8
0
  6
Continuous
 62
     7
370
    15
100
AcDbLine
 10
4.412331140375458
 20
2.203325706453765
 30
0.0
 11
4.467449250612579
 21
2.171503250671588
 31
0.0
  0
LINE
  5
DD9
330
1F
100
AcDbEntity
  8
0
  6
Continuous
 62
     7
370
    15
100
AcDbLine
 10
4.766661849036138
 20
2.171503250671588
 30
0.0
 11
4.821779959273261
 21
2.203325706453765
 31
0.0
  0
LINE
  5
DDA
330
1F
100
AcDbEntity
  8
0
  6
Continuous
 62
     7
370
    15
100
AcDbLine
 10
4.41233114037554
 20
2.667892635587551
 30
0.0
 11
4.41233114037554
 21
2.203325706453765
 31
0.0
  0
LINE
  5
DDB
330
1F
100
AcDbEntity
  8
0
  6
Continuous
 62
     7
370
    15
100
AcDbLine
 10
4.821779959273178
 20
2.203325706453765
 30
0.0
 11
4.821779959273178
 21
2.667892635587551
 31
0.0
  0
ARC
  5
DDC
330
1F
100
AcDbEntity
  8
0
  6
Continuous
 62
     7
370
    15
100
AcDbCircle
 10
4.44973271517869
 20
2.754506808815898
 30
0.0
 40
0.0196850393700787
100
AcDbArc
 50
90.0
 51
179.9999999999998
  0
ARC
  5
DDD
330
1F
100
AcDbEntity
  8
0
  6
Continuous
 62
     7
370
    15
100
AcDbCircle
 10
4.784378384470029
 20
2.754506808815898
 30
0.0
 40
0.0196850393700787
100
AcDbArc
 50
0.0000000000001527
 51
90.0
  0
LINE
  5
DDE
330
1F
100
AcDbEntity
  8
0
  6
Continuous
 62
     7
370
    15
100
AcDbLine
 10
4.430047675808611
 20
2.754506808815898
 30
0.0
 11
4.430047675808611
 21
2.715136730075741
 31
0.0
  0
LINE
  5
DDF
330
1F
100
AcDbEntity
  8
0
  6
Continuous
 62
     7
370
    15
100
AcDbLine
 10
4.804063423840108
 20
2.715136730075741
 30
0.0
 11
4.804063423840108
 21
2.754506808815898
 31
0.0
  0
LINE
  5
DE0
330
1F
100
AcDbEntity
  8
0
  6
Continuous
 62
     7
370
    15
100
AcDbLine
 10
4.467449250611761
 20
2.171503250671588
 30
0.0
 11
4.467449250611761
 21
2.085215470233221
 31
0.0
  0
LINE
  5
DE1
330
1F
100
AcDbEntity
  8
0
  6
Continuous
 62
     7
370
    15
100
AcDbLine
 10
4.766661849036958
 20
2.085215470233221
 30
0.0
 11
4.766661849036958
 21
2.171503250671588
 31
0.0
  0
LINE
  5
DE2
330
1F
100
AcDbEntity
  8
0
  6
Continuous
 62
     7
370
    15
100
AcDbLine
 10
4.467449250612355
 20
2.085215470233221
 30
0.0
 11
4.617055549824359
 21
1.99884023311062
 31
0.0
  0
LINE
  5
DE3
330
1F
100
AcDbEntity
  8
0
  6
Continuous
 62
     7
370
    15
100
AcDbLine
 10
4.617055549824359
 20
1.99884023311062
 30
0.0
 11
4.766661849036363
 21
2.085215470233221
 31
0.0
  0
LINE
  5
DE4
330
1F
100
AcDbEntity
  8
0
  6
Continuous
 62
     7
370
    15
100
AcDbLine
 10
4.509378384470029
 20
2.715136730075741
 30
0.0
 11
4.509378384470029
 21
2.667892635587551
 31
0.0
  0
LINE
  5
DE5
330
1F
100
AcDbEntity
  8
0
  6
Continuous
 62
     7
370
    15
100
AcDbLine
 10
4.724732715178689
 20
2.667892635587551
 30
0.0
 11
4.724732715178689
 21
2.715136730075741
 31
0.0
  0
LINE
  5
DE6
330
1F
100
AcDbEntity
  8
0
  6
Continuous
 62
     7
370
    15
100
AcDbLine
 10
4.41233114037554
 20
2.124585548973378
 30
0.0
 11
4.41233114037554
 21
1.541908383619048
 31
0.0
  0
LINE
  5
DE7
330
1F
100
AcDbEntity
  8
0
  6
Continuous
 62
     7
370
    15
100
AcDbLine
 10
4.821779959273178
 20
1.541908383619048
 30
0.0
 11
4.821779959273178
 21
2.124585548973378
 31
0.0
  0
ARC
  5
DE8
330
1F
100
AcDbEntity
  8
0
  6
Continuous
 62
     7
370
    15
100
AcDbCircle
 10
4.44973271517869
 20
1.455294210390701
 30
0.0
 40
0.0196850393700787
100
AcDbArc
 50
179.9999999999998
 51
270.0000000000008
  0
ARC
  5
DE9
330
1F
100
AcDbEntity
  8
0
  6
Continuous
 62
     7
370
    15
100
AcDbCircle
 10
4.784378384470028
 20
1.455294210390701
 30
0.0
 40
0.0196850393700787
100
AcDbArc
 50
270.0000000000008
 51
0.0000000000002036
  0
LINE
  5
DEA
330
1F
100
AcDbEntity
  8
0
  6
Continuous
 62
     7
370
    15
100
AcDbLine
 10
4.430047675808611
 20
1.494664289130859
 30
0.0
 11
4.430047675808611
 21
1.455294210390701
 31
0.0
  0
LINE
  5
DEB
330
1F
100
AcDbEntity
  8
0
  6
Continuous
 62
     7
370
    15
100
AcDbLine
 10
4.804063423840107
 20
1.455294210390701
 30
0.0
 11
4.804063423840107
 21
1.494664289130859
 31
0.0
  0
LINE
  5
DEC
330
1F
100
AcDbEntity
  8
0
  6
Continuous
 62
     7
370
    15
100
AcDbLine
 10
4.467449250611761
 20
2.144646900468367
 30
0.0
 11
4.412331140375535
 21
2.124585548973378
 31
0.0
  0
LINE
  5
DED
330
1F
100
AcDbEntity
  8
0
  6
Continuous
 62
     7
370
    15
100
AcDbLine
 10
4.821779959273184
 20
2.124585548973378
 30
0.0
 11
4.766661849036958
 21
2.144646900468365
 31
0.0
  0
LINE
  5
DEE
330
1F
100
AcDbEntity
  8
0
  6
Continuous
 62
     7
370
    15
100
AcDbLine
 10
4.509378384470029
 20
1.541908383619048
 30
0.0
 11
4.509378384470029
 21
1.494664289130859
 31
0.0
  0
LINE
  5
DEF
330
1F
100
AcDbEntity
  8
0
  6
Continuous
 62
     7
370
    15
100
AcDbLine
 10
4.724732715178689
 20
1.494664289130859
 30
0.0
 11
4.724732715178689
 21
1.541908383619048
 31
0.0
  0
LINE
  5
DF0
330
1F
100
AcDbEntity
  8
0
  6
Continuous
 62
     7
370
    15
100
AcDbLine
 10
4.41233114037554
 20
2.223010745823772
 30
0.0
 11
4.408394132501525
 21
2.223010745823772
 31
0.0
  0
LINE
  5
DF1
330
1F
100
AcDbEntity
  8
0
  6
Continuous
 62
     7
370
    15
100
AcDbLine
 10
4.825716967147194
 20
2.223010745823772
 30
0.0
 11
4.821779959273178
 21
2.223010745823772
 31
0.0
  0
LINE
  5
DF2
330
1F
100
AcDbEntity
  8
0
  6
Continuous
 62
     7
370
    15
100
AcDbLine
 10
4.408394132501525
 20
1.908050115902512
 30
0.0
 11
4.412331140375539
 21
1.908050115902512
 31
0.0
  0
LINE
  5
DF3
330
1F
100
AcDbEntity
  8
0
  6
Continuous
 62
     7
370
    15
100
AcDbLine
 10
4.821779959273176
 20
1.908050115902512
 30
0.0
 11
4.825716967147194
 21
1.908050115902512
 31
0.0
  0
LINE
  5
DF4
330
1F
100
AcDbEntity
  8
0
  6
Continuous
 62
     7
370
    15
100
AcDbLine
 10
4.766661849036138
 20
2.171503250671588
 30
0.0
 11
4.467449250612579
 21
2.171503250671588
 31
0.0
  0
LINE
  5
DF5
330
1F
100
AcDbEntity
  8
0
  6
Continuous
 62
     7
370
    15
100
AcDbLine
 10
4.821779959273261
 20
2.203325706453765
 30
0.0
 11
4.412331140375458
 21
2.203325706453765
 31
0.0
  0
LINE
  5
DF6
330
1F
100
AcDbEntity
  8
0
  6
Continuous
 62
     7
370
    15
100
AcDbLine
 10
4.821779959273178
 20
2.667892635587551
 30
0.0
 11
4.41233114037554
 21
2.667892635587551
 31
0.0
  0
SPLINE
  5
DF7
330
1F
100
AcDbEntity
  8
0
  6
Continuous
 62
     7
370
    15
100
AcDbSpline
210
0.0
220
0.0
230
1.0
 70
    24
 71
     3
 72
    10
 73
     6
 74
     0
 42
0.0000000001
 43
0.0000000001
 40
0.0
 40
0.0
 40
0.0
 40
0.0
 40
0.4999999999999997
 40
0.4999999999999997
 40
0.9999999999999998
 40
0.9999999999999998
 40
0.9999999999999998
 40
0.9999999999999998
 10
4.784378384470029
 20
2.774191848185977
 30
0.0
 10
4.784378384470028
 20
2.774191848185977
 30
0.0
 10
4.766748891236535
 20
2.774191848185977
 30
0.0
 10
4.703992430462796
 20
2.774191848185977
 30
0.0
 10
4.661431068800737
 20
2.774191848185977
 30
0.0
 10
4.617055549824359
 20
2.774191848185977
 30
0.0
  0
SPLINE
  5
DF8
330
1F
100
AcDbEntity
  8
0
  6
Continuous
 62
     7
370
    15
100
AcDbSpline
210
0.0
220
0.0
230
1.0
 70
    24
 71
     3
 72
     8
 73
     4
 74
     0
 42
0.0000000001
 43
0.0000000001
 40
0.0
 40
0.0
 40
0.0
 40
0.0
 40
1.0
 40
1.0
 40
1.0
 40
1.0
 10
4.617055549824359
 20
2.774191848185977
 30
0.0
 10
4.524707565880534
 20
2.774191848185977
 30
0.0
 10
4.449732715178688
 20
2.774191848185977
 30
0.0
 10
4.44973271517869
 20
2.774191848185977
 30
0.0
  0
LINE
  5
DF9
330
1F
100
AcDbEntity
  8
0
  6
Continuous
 62
     7
370
    15
100
AcDbLine
 10
4.804063423840108
 20
2.715136730075741
 30
0.0
 11
4.430047675808611
 21
2.715136730075741
 31
0.0
  0
LINE
  5
DFA
330
1F
100
AcDbEntity
  8
0
  6
Continuous
 62
     7
370
    15
100
AcDbLine
 10
4.467449250611761
 20
2.085215470233221
 30
0.0
 11
4.766661849036958
 21
2.085215470233221
 31
0.0
  0
LINE
  5
DFB
330
1F
100
AcDbEntity
  8
0
  6
Continuous
 62
     7
370
    15
100
AcDbLine
 10
4.467449250611761
 20
2.124585548973378
 30
0.0
 11
4.41233114037554
 21
2.124585548973378
 31
0.0
  0
LINE
  5
DFC
330
1F
100
AcDbEntity
  8
0
  6
Continuous
 62
     7
370
    15
100
AcDbLine
 10
4.821779959273178
 20
2.124585548973378
 30
0.0
 11
4.766661849036958
 21
2.124585548973378
 31
0.0
  0
LINE
  5
DFD
330
1F
100
AcDbEntity
  8
0
  6
Continuous
 62
     7
370
    15
100
AcDbLine
 10
4.41233114037554
 20
1.541908383619048
 30
0.0
 11
4.821779959273178
 21
1.541908383619048
 31
0.0
  0
SPLINE
  5
DFE
330
1F
100
AcDbEntity
  8
0
  6
Continuous
 62
     7
370
    15
100
AcDbSpline
210
0.0
220
0.0
230
1.0
 70
    24
 71
     3
 72
    10
 73
     6
 74
     0
 42
0.0000000001
 43
0.0000000001
 40
0.0
 40
0.0
 40
0.0
 40
0.0
 40
0.5
 40
0.5
 40
1.0
 40
1.0
 40
1.0
 40
1.0
 10
4.44973271517869
 20
1.435609171020622
 30
0.0
 10
4.44973271517869
 20
1.435609171020622
 30
0.0
 10
4.524707565880534
 20
1.435609171020622
 30
0.0
 10
4.709403533768185
 20
1.435609171020622
 30
0.0
 10
4.784378384470028
 20
1.435609171020622
 30
0.0
 10
4.784378384470028
 20
1.435609171020622
 30
0.0
  0
LINE
  5
DFF
330
1F
100
AcDbEntity
  8
0
  6
Continuous
 62
     7
370
    15
100
AcDbLine
 10
4.430047675808611
 20
1.494664289130859
 30
0.0
 11
4.804063423840107
 21
1.494664289130859
 31
0.0
  0
LINE
  5
E00
330
1F
100
AcDbEntity
  8
0
  6
Continuous
 62
     7
370
    15
100
AcDbLine
 10
4.408394132501525
 20
2.223010745823772
 30
0.0
 11
4.408394132501525
 21
1.908050115902512
 31
0.0
  0
LINE
  5
E01
330
1F
100
AcDbEntity
  8
0
  6
Continuous
 62
     7
370
    15
100
AcDbLine
 10
4.825716967147194
 20
1.908050115902512
 30
0.0
 11
4.825716967147194
 21
2.223010745823772
 31
0.0
  0
LINE
  5
E02
330
1F
100
AcDbEntity
  8
0
  6
Continuous
 62
     8
370
    15
100
AcDbLine
 10
4.804063423840108
 20
2.754506808815898
 30
0.0
 11
4.430047675808611
 21
2.754506808815898
 31
0.0
  0
LINE
  5
E03
330
1F
100
AcDbEntity
  8
0
  6
Continuous
 62
     8
370
    15
100
AcDbLine
 10
4.430047675808611
 20
1.455294210390701
 30
0.0
 11
4.804063423840107
 21
1.455294210390701
 31
0.0
  0
SPLINE
  5
E04
330
1F
100
AcDbEntity
  8
0
  6
HIDDEN
 62
     7
370
     0
100
AcDbSpline
210
0.0
220
0.0
230
1.0
 70
    24
 71
     3
 72
     8
 73
     4
 74
     0
 42
0.0000000001
 43
0.0000000001
 40
0.0
 40
0.0
 40
0.0
 40
0.0
 40
1.0
 40
1.0
 40
1.0
 40
1.0
 10
4.51469334509995
 20
2.203325706453719
 30
0.0
 10
4.51469334509995
 20
2.19210388806994
 30
0.0
 10
4.51469334509995
 20
2.181244183931797
 30
0.0
 10
4.51469334509995
 20
2.17150325067199
 30
0.0
  0
SPLINE
  5
E05
330
1F
100
AcDbEntity
  8
0
  6
HIDDEN
 62
     7
370
     0
100
AcDbSpline
210
0.0
220
0.0
230
1.0
 70
    24
 71
     3
 72
     8
 73
     4
 74
     0
 42
0.0000000001
 43
0.0000000001
 40
0.0
 40
0.0
 40
0.0
 40
0.0
 40
1.0
 40
1.0
 40
1.0
 40
1.0
 10
4.719417754548769
 20
2.17150325067199
 30
0.0
 10
4.719417754548769
 20
2.181244183931794
 30
0.0
 10
4.719417754548769
 20
2.192103888069945
 30
0.0
 10
4.719417754548769
 20
2.203325706453719
 30
0.0
  0
LINE
  5
E06
330
1F
100
AcDbEntity
  8
0
  6
HIDDEN
 62
     7
370
     0
100
AcDbLine
 10
4.558000431714123
 20
2.667892635587551
 30
0.0
 11
4.558000431714123
 21
2.203325706453693
 31
0.0
  0
LINE
  5
E07
330
1F
100
AcDbEntity
  8
0
  6
HIDDEN
 62
     7
370
     0
100
AcDbLine
 10
4.676110667934596
 20
2.203325706453693
 30
0.0
 11
4.676110667934596
 21
2.667892635587551
 31
0.0
  0
LINE
  5
E08
330
1F
100
AcDbEntity
  8
0
  6
HIDDEN
 62
     7
370
     0
100
AcDbLine
 10
4.51469334509995
 20
2.171503250671789
 30
0.0
 11
4.51469334509995
 21
2.148116036714347
 31
0.0
  0
LINE
  5
E09
330
1F
100
AcDbEntity
  8
0
  6
HIDDEN
 62
     7
370
     0
100
AcDbLine
 10
4.71941775454877
 20
2.148116036714346
 30
0.0
 11
4.719417754548769
 21
2.171503250671825
 31
0.0
  0
SPLINE
  5
E0A
330
1F
100
AcDbEntity
  8
0
  6
HIDDEN
 62
     7
370
     0
100
AcDbSpline
210
0.0
220
0.0
230
1.0
 70
     8
 71
     3
 72
    10
 73
     6
 74
     0
 42
0.0000000001
 43
0.0000000001
 40
0.0
 40
0.0
 40
0.0
 40
0.0
 40
0.5
 40
0.5
 40
1.0
 40
1.0
 40
1.0
 40
1.0
 10
4.719417754548771
 20
2.148116036714345
 30
0.0
 10
4.727517403749774
 20
2.144073685516203
 30
0.0
 10
4.734639213448367
 20
2.140106585514663
 30
0.0
 10
4.746981429965708
 20
2.132273521755077
 30
0.0
 10
4.75222684481187
 20
2.128378684571482
 30
0.0
 10
4.756317566720386
 20
2.124585548973379
 30
0.0
  0
LINE
  5
E0B
330
1F
100
AcDbEntity
  8
0
  6
HIDDEN
 62
     7
370
     0
100
AcDbLine
 10
4.756317566720613
 20
2.085215470233534
 30
0.0
 11
4.756317566720385
 21
2.12458554897338
 31
0.0
  0
LINE
  5
E0C
330
1F
100
AcDbEntity
  8
0
  6
HIDDEN
 62
     7
370
     0
100
AcDbLine
 10
4.477793532928334
 20
2.085215470233221
 30
0.0
 11
4.477793532928333
 21
2.124585548973377
 31
0.0
  0
SPLINE
  5
E0D
330
1F
100
AcDbEntity
  8
0
  6
HIDDEN
 62
     7
370
     0
100
AcDbSpline
210
0.0
220
0.0
230
1.0
 70
     8
 71
     3
 72
    10
 73
     6
 74
     0
 42
0.0000000001
 43
0.0000000001
 40
0.0
 40
0.0
 40
0.0
 40
0.0
 40
0.5
 40
0.5
 40
1.0
 40
1.0
 40
1.0
 40
1.0
 10
4.477793532928332
 20
2.124585548973378
 30
0.0
 10
4.481879722177516
 20
2.128374481647927
 30
0.0
 10
4.487036299507406
 20
2.132208222602162
 30
0.0
 10
4.499368239904094
 20
2.140046751288052
 30
0.0
 10
4.506602803994777
 20
2.144078231160241
 30
0.0
 10
4.514693345099947
 20
2.148116036714347
 30
0.0
  0
SPLINE
  5
E0E
330
1F
100
AcDbEntity
  8
0
  6
HIDDEN
 62
     7
370
     0
100
AcDbSpline
210
0.0
220
0.0
230
1.0
 70
     8
 71
     3
 72
    14
 73
    10
 74
     0
 42
0.0000000001
 43
0.0000000001
 40
0.0
 40
0.0
 40
0.0
 40
0.0
 40
0.25
 40
0.25
 40
0.5
 40
0.5
 40
0.75
 40
0.75
 40
1.0
 40
1.0
 40
1.0
 40
1.0
 10
4.617055549824359
 20
1.99884023311062
 30
0.0
 10
4.629839150299241
 20
2.00622084828549
 30
0.0
 10
4.64259817391308
 20
2.013587329322446
 30
0.0
 10
4.667728006807526
 20
2.028289461837843
 30
0.0
 10
4.679916816275696
 20
2.035518460209415
 30
0.0
 10
4.703488138803279
 20
2.049879789029257
 30
0.0
 10
4.714871402752503
 20
2.057010989265279
 30
0.0
 10
4.736713397161588
 20
2.071314870476714
 30
0.0
 10
4.746925817248425
 20
2.078329395851929
 30
0.0
 10
4.756317566720504
 20
2.085215470233652
 30
0.0
  0
SPLINE
  5
E0F
330
1F
100
AcDbEntity
  8
0
  6
HIDDEN
 62
     7
370
     0
100
AcDbSpline
210
0.0
220
0.0
230
1.0
 70
     8
 71
     3
 72
    14
 73
    10
 74
     0
 42
0.0000000001
 43
0.0000000001
 40
0.0
 40
0.0
 40
0.0
 40
0.0
 40
0.25
 40
0.25
 40
0.5
 40
0.5
 40
0.75
 40
0.75
 40
1.0
 40
1.0
 40
1.0
 40
1.0
 10
4.617055549824359
 20
1.99884023311062
 30
0.0
 10
4.604271949349503
 20
2.006220848285475
 30
0.0
 10
4.59151292573569
 20
2.013587329322416
 30
0.0
 10
4.566383092841291
 20
2.028289461837784
 30
0.0
 10
4.554194283373144
 20
2.035518460209343
 30
0.0
 10
4.5306229608456
 20
2.049879789029156
 30
0.0
 10
4.519239696896395
 20
2.057010989265165
 30
0.0
 10
4.497397702487342
 20
2.071314870476571
 30
0.0
 10
4.487185282400512
 20
2.078329395851777
 30
0.0
 10
4.477793532928439
 20
2.085215470233487
 30
0.0
  0
LINE
  5
E10
330
1F
100
AcDbEntity
  8
0
  6
HIDDEN
 62
     7
370
     0
100
AcDbLine
 10
4.538943008342823
 20
2.754506808815898
 30
0.0
 11
4.695168091305895
 21
2.754506808815898
 31
0.0
  0
SPLINE
  5
E11
330
1F
100
AcDbEntity
  8
0
  6
HIDDEN
 62
     7
370
     0
100
AcDbSpline
210
0.0
220
0.0
230
1.0
 70
     8
 71
     3
 72
    16
 73
    12
 74
     0
 42
0.0000000001
 43
0.0000000001
 40
0.0
 40
0.0
 40
0.0
 40
0.0
 40
0.2500000000000002
 40
0.2500000000000002
 40
0.5000000000000004
 40
0.5000000000000004
 40
0.6250000000000005
 40
0.6250000000000005
 40
0.7500000000000005
 40
0.7500000000000005
 40
1.0
 40
1.0
 40
1.0
 40
1.0
 10
4.664817083633378
 20
2.144270588343454
 30
0.0
 10
4.658159189003443
 20
2.146813469803943
 30
0.0
 10
4.650760676400062
 20
2.148991270084499
 30
0.0
 10
4.634432126279877
 20
2.152146818156259
 30
0.0
 10
4.625891070934454
 20
2.153025879387195
 30
0.0
 10
4.612723710915924
 20
2.153031560998023
 30
0.0
 10
4.60840028828739
 20
2.152815977580907
 30
0.0
 10
4.599877531091052
 20
2.151986468305647
 30
0.0
 10
4.595638532131311
 20
2.151364096760915
 30
0.0
 10
4.583447103044056
 20
2.149013696822006
 30
0.0
 10
4.575955444904002
 20
2.146814819660241
 30
0.0
 10
4.56929401601534
 20
2.144270588343455
 30
0.0
  0
LINE
  5
E12
330
1F
100
AcDbEntity
  8
0
  6
HIDDEN
 62
     7
370
     0
100
AcDbLine
 10
4.538905943525146
 20
2.144270588343457
 30
0.0
 11
4.695205156123572
 21
2.144270588343457
 31
0.0
  0
CIRCLE
  5
E13
330
1F
100
AcDbEntity
  8
0
  6
HIDDEN
 62
     7
370
     0
100
AcDbCircle
 10
4.617055549824359
 20
2.085215470233221
 30
0.0
 40
0.0390748031496058
  0
LINE
  5
E14
330
1F
100
AcDbEntity
  8
0
  6
HIDDEN
 62
     7
370
     0
100
AcDbLine
 10
4.477793532928333
 20
2.124585548973377
 30
0.0
 11
4.467449250611761
 21
2.124585548973378
 31
0.0
  0
LINE
  5
E15
330
1F
100
AcDbEntity
  8
0
  6
HIDDEN
 62
     7
370
     0
100
AcDbLine
 10
4.766661849036958
 20
2.124585548973378
 30
0.0
 11
4.756317566720385
 21
2.12458554897338
 31
0.0
  0
LINE
  5
E16
330
1F
100
AcDbEntity
  8
0
  6
HIDDEN
 62
     7
370
     0
100
AcDbLine
 10
4.583301446871105
 20
2.065530430863142
 30
0.0
 11
4.538905943525146
 21
2.065530430863142
 31
0.0
  0
LINE
  5
E17
330
1F
100
AcDbEntity
  8
0
  6
HIDDEN
 62
     7
370
     0
100
AcDbLine
 10
4.695205156123572
 20
2.065530430863142
 30
0.0
 11
4.650809652777614
 21
2.065530430863142
 31
0.0
  0
SPLINE
  5
E18
330
1F
100
AcDbEntity
  8
0
  6
HIDDEN
 62
     7
370
     0
100
AcDbSpline
210
0.0
220
0.0
230
1.0
 70
     8
 71
     3
 72
    32
 73
    28
 74
     0
 42
0.0000000001
 43
0.0000000001
 40
0.0
 40
0.0
 40
0.0
 40
0.0
 40
0.0625
 40
0.0625
 40
0.1249999999999999
 40
0.1249999999999999
 40
0.1874999999999998
 40
0.1874999999999998
 40
0.2499999999999998
 40
0.2499999999999998
 40
0.3749999999999998
 40
0.3749999999999998
 40
0.4999999999999999
 40
0.4999999999999999
 40
0.5624999999999999
 40
0.5624999999999999
 40
0.625
 40
0.625
 40
0.7499999999999999
 40
0.7499999999999999
 40
0.8124999999999998
 40
0.8124999999999998
 40
0.8749999999999998
 40
0.8749999999999998
 40
0.9374999999999998
 40
0.9374999999999998
 40
1.0
 40
1.0
 40
1.0
 40
1.0
 10
4.438937268078658
 20
2.203325706453694
 30
0.0
 10
4.44303259660534
 20
2.207324636593228
 30
0.0
 10
4.447659787561193
 20
2.210538083231226
 30
0.0
 10
4.458036188325795
 20
2.215722067300485
 30
0.0
 10
4.463818920329699
 20
2.217697979785338
 30
0.0
 10
4.476439631107806
 20
2.22062732121144
 30
0.0
 10
4.483165456835466
 20
2.221565222362418
 30
0.0
 10
4.497431240672068
 20
2.22274319412933
 30
0.0
 10
4.505022175080489
 20
2.222980992534824
 30
0.0
 10
4.528656175850524
 20
2.223062255715564
 30
0.0
 10
4.545467761944955
 20
2.222320839925073
 30
0.0
 10
4.580815506995524
 20
2.221064481426969
 30
0.0
 10
4.598772655070033
 20
2.220581216077111
 30
0.0
 10
4.626136619519024
 20
2.220580259793625
 30
0.0
 10
4.635347571960413
 20
2.220693731802694
 30
0.0
 10
4.653363335212423
 20
2.221095190570939
 30
0.0
 10
4.662238223904091
 20
2.221382301660209
 30
0.0
 10
4.688472129573101
 20
2.222314806943711
 30
0.0
 10
4.705568258876827
 20
2.223059806910154
 30
0.0
 10
4.728944715079656
 20
2.222982512167201
 30
0.0
 10
4.736419645166416
 20
2.222755777786237
 30
0.0
 10
4.750720797823626
 20
2.221592394232255
 30
0.0
 10
4.757567883417917
 20
2.220641696273648
 30
0.0
 10
4.770105154442624
 20
2.217750835286428
 30
0.0
 10
4.775860607110068
 20
2.215811036373448
 30
0.0
 10
4.786361706571648
 20
2.210600428641824
 30
0.0
 10
4.791077158355415
 20
2.207325949629091
 30
0.0
 10
4.795173831570063
 20
2.203325706453691
 30
0.0
  0
SPLINE
  5
E19
330
1F
100
AcDbEntity
  8
0
  6
HIDDEN
 62
     7
370
     0
100
AcDbSpline
210
0.0
220
0.0
230
1.0
 70
     8
 71
     3
 72
    10
 73
     6
 74
     0
 42
0.0000000001
 43
0.0000000001
 40
0.0
 40
0.0
 40
0.0
 40
0.0
 40
0.4999999999999999
 40
0.4999999999999999
 40
1.0
 40
1.0
 40
1.0
 40
1.0
 10
4.480305817295961
 20
2.1715032506718
 30
0.0
 10
4.472071416958853
 20
2.177025070042303
 30
0.0
 10
4.464283693927859
 20
2.182460004864005
 30
0.0
 10
4.450120608004827
 20
2.193138033698856
 30
0.0
 10
4.443674865845237
 20
2.198424745071304
 30
0.0
 10
4.438937268078698
 20
2.203325706453702
 30
0.0
  0
SPLINE
  5
E1A
330
1F
100
AcDbEntity
  8
0
  6
HIDDEN
 62
     7
370
     0
100
AcDbSpline
210
0.0
220
0.0
230
1.0
 70
     8
 71
     3
 72
    10
 73
     6
 74
     0
 42
0.0000000001
 43
0.0000000001
 40
0.0
 40
0.0
 40
0.0
 40
0.0
 40
0.4999999999999999
 40
0.4999999999999999
 40
1.0
 40
1.0
 40
1.0
 40
1.0
 10
4.75380528235246
 20
2.171503250671743
 30
0.0
 10
4.762039682689615
 20
2.177025070042272
 30
0.0
 10
4.769827405720765
 20
2.182460004863936
 30
0.0
 10
4.783990491643874
 20
2.19313803369884
 30
0.0
 10
4.790436233803474
 20
2.198424745071295
 30
0.0
 10
4.795173831570034
 20
2.203325706453715
 30
0.0
  0
SPLINE
  5
E1B
330
1F
100
AcDbEntity
  8
0
  6
HIDDEN
 62
     7
370
     0
100
AcDbSpline
210
0.0
220
0.0
230
1.0
 70
     8
 71
     3
 72
    10
 73
     6
 74
     0
 42
0.0000000001
 43
0.0000000001
 40
0.0
 40
0.0
 40
0.0
 40
0.0
 40
0.5
 40
0.5
 40
1.0
 40
1.0
 40
1.0
 40
1.0
 10
4.468919159721164
 20
2.085215470233344
 30
0.0
 10
4.469208431403296
 20
2.101473658899343
 30
0.0
 10
4.4698198686658
 20
2.117002856022245
 30
0.0
 10
4.473047958245542
 20
2.146558537291192
 30
0.0
 10
4.475607479500062
 20
2.159863398564662
 30
0.0
 10
4.480305817295606
 20
2.171503250671624
 30
0.0
  0
SPLINE
  5
E1C
330
1F
100
AcDbEntity
  8
0
  6
HIDDEN
 62
     7
370
     0
100
AcDbSpline
210
0.0
220
0.0
230
1.0
 70
     8
 71
     3
 72
    10
 73
     6
 74
     0
 42
0.0000000001
 43
0.0000000001
 40
0.0
 40
0.0
 40
0.0
 40
0.0
 40
0.5
 40
0.5
 40
1.0
 40
1.0
 40
1.0
 40
1.0
 10
4.765191939927555
 20
2.085215470233344
 30
0.0
 10
4.764902668245423
 20
2.10147365889932
 30
0.0
 10
4.764291230982918
 20
2.117002856022241
 30
0.0
 10
4.761063141403182
 20
2.146558537291149
 30
0.0
 10
4.758503620148675
 20
2.159863398564578
 30
0.0
 10
4.753805282353149
 20
2.171503250671534
 30
0.0
  0
LINE
  5
E1D
330
1F
100
AcDbEntity
  8
0
  6
HIDDEN
 62
     7
370
     0
100
AcDbLine
 10
4.538943008342823
 20
2.754506808815898
 30
0.0
 11
4.695168091305895
 21
2.754506808815898
 31
0.0
  0
SPLINE
  5
E1E
330
1F
100
AcDbEntity
  8
0
  6
HIDDEN
 62
     7
370
     0
100
AcDbSpline
210
0.0
220
0.0
230
1.0
 70
     8
 71
     3
 72
    22
 73
    18
 74
     0
 42
0.0000000001
 43
0.0000000001
 40
0.0
 40
0.0
 40
0.0
 40
0.0
 40
0.2499999999999998
 40
0.2499999999999998
 40
0.3749999999999995
 40
0.3749999999999995
 40
0.4374999999999993
 40
0.4374999999999993
 40
0.4999999999999992
 40
0.4999999999999992
 40
0.5624999999999991
 40
0.5624999999999991
 40
0.6249999999999988
 40
0.6249999999999988
 40
0.7499999999999992
 40
0.7499999999999992
 40
1.0
 40
1.0
 40
1.0
 40
1.0
 10
4.468919159721187
 20
2.085215470233554
 30
0.0
 10
4.492844201257573
 20
2.07139750816549
 30
0.0
 10
4.516864331997716
 20
2.057560553957355
 30
0.0
 10
4.553205214064151
 20
2.037760794423564
 30
0.0
 10
4.565377697182572
 20
2.031256396732588
 30
0.0
 10
4.58416821986539
 20
2.022781608444068
 30
0.0
 10
4.590556320385017
 20
2.02016380651818
 30
0.0
 10
4.603760303585829
 20
2.016216023535979
 30
0.0
 10
4.610557886885323
 20
2.014957727360116
 30
0.0
 10
4.624469249518523
 20
2.015067577674654
 30
0.0
 10
4.631192495196946
 20
2.016409381299729
 30
0.0
 10
4.644394983004306
 20
2.020481287188103
 30
0.0
 10
4.650713729084486
 20
2.023108243658127
 30
0.0
 10
4.669356949084185
 20
2.031583593446613
 30
0.0
 10
4.681408328514574
 20
2.038029003483247
 30
0.0
 10
4.71750922447705
 20
2.057714925285704
 30
0.0
 10
4.741412185549098
 20
2.071481419093482
 30
0.0
 10
4.765191939927531
 20
2.085215470233554
 30
0.0
  0
ARC
  5
E1F
330
1F
100
AcDbEntity
  8
0
  6
HIDDEN
 62
     7
370
     0
100
AcDbCircle
 10
4.519220904155067
 20
2.754506808815898
 30
0.0
 40
0.0196850393700787
100
AcDbArc
 50
0.0000000000001527
 51
90.0
  0
ARC
  5
E20
330
1F
100
AcDbEntity
  8
0
  6
HIDDEN
 62
     7
370
     0
100
AcDbCircle
 10
4.714890195493651
 20
2.754506808815898
 30
0.0
 40
0.0196850393700787
100
AcDbArc
 50
90.0
 51
179.9999999999998
  0
LINE
  5
E21
330
1F
100
AcDbEntity
  8
0
  6
HIDDEN
 62
     7
370
     0
100
AcDbLine
 10
4.538905943525146
 20
2.754506808815898
 30
0.0
 11
4.538905943525146
 21
2.144270588343457
 31
0.0
  0
LINE
  5
E22
330
1F
100
AcDbEntity
  8
0
  6
HIDDEN
 62
     7
370
     0
100
AcDbLine
 10
4.695205156123572
 20
2.144270588343457
 30
0.0
 11
4.695205156123572
 21
2.754506808815898
 31
0.0
  0
LINE
  5
E23
330
1F
100
AcDbEntity
  8
0
  6
HIDDEN
 62
     7
370
     0
100
AcDbLine
 10
4.577980746674753
 20
2.144282679983033
 30
0.0
 11
4.577980746674753
 21
2.085215470233221
 31
0.0
  0
LINE
  5
E24
330
1F
100
AcDbEntity
  8
0
  6
HIDDEN
 62
     7
370
     0
100
AcDbLine
 10
4.656130352973966
 20
2.085215470233221
 30
0.0
 11
4.656130352973966
 21
2.144260124868512
 31
0.0
  0
LINE
  5
E25
330
1F
100
AcDbEntity
  8
0
  6
HIDDEN
 62
     7
370
     0
100
AcDbLine
 10
4.514693345099949
 20
2.161842344606926
 30
0.0
 11
4.467449250611761
 21
2.144646900468367
 31
0.0
  0
LINE
  5
E26
330
1F
100
AcDbEntity
  8
0
  6
HIDDEN
 62
     7
370
     0
100
AcDbLine
 10
4.766661849036958
 20
2.144646900468365
 30
0.0
 11
4.719417754548769
 21
2.161842344606924
 31
0.0
  0
ARC
  5
E27
330
1F
100
AcDbEntity
  8
0
  6
HIDDEN
 62
     7
370
     0
100
AcDbCircle
 10
4.714890195493651
 20
1.455294210390701
 30
0.0
 40
0.0196850393700787
100
AcDbArc
 50
179.9999999999998
 51
270.0000000000008
  0
ARC
  5
E28
330
1F
100
AcDbEntity
  8
0
  6
HIDDEN
 62
     7
370
     0
100
AcDbCircle
 10
4.519220904155067
 20
1.455294210390701
 30
0.0
 40
0.0196850393700787
100
AcDbArc
 50
270.0000000000008
 51
0.0000000000002036
  0
LINE
  5
E29
330
1F
100
AcDbEntity
  8
0
  6
HIDDEN
 62
     7
370
     0
100
AcDbLine
 10
4.695205156123572
 20
1.455294210390701
 30
0.0
 11
4.695205156123572
 21
2.065530430863142
 31
0.0
  0
LINE
  5
E2A
330
1F
100
AcDbEntity
  8
0
  6
HIDDEN
 62
     7
370
     0
100
AcDbLine
 10
4.538905943525146
 20
2.065530430863142
 30
0.0
 11
4.538905943525146
 21
1.455294210390701
 31
0.0
  0
LINE
  5
E2B
330
1F
100
AcDbEntity
  8
0
  6
HIDDEN
 62
     7
370
     0
100
AcDbLine
 10
4.515346269696446
 20
2.223010745823772
 30
0.0
 11
4.41233114037554
 21
2.223010745823772
 31
0.0
  0
LINE
  5
E2C
330
1F
100
AcDbEntity
  8
0
  6
HIDDEN
 62
     7
370
     0
100
AcDbLine
 10
4.821779959273178
 20
2.223010745823772
 30
0.0
 11
4.719333714821107
 21
2.223010745823772
 31
0.0
  0
LINE
  5
E2D
330
1F
100
AcDbEntity
  8
0
  6
HIDDEN
 62
     7
370
     0
100
AcDbLine
 10
4.412331140375539
 20
1.908050115902512
 30
0.0
 11
4.821779959273176
 21
1.908050115902512
 31
0.0
  0
LINE
  5
E2E
330
1F
100
AcDbEntity
  8
0
  6
HIDDEN
 62
     7
370
     0
100
AcDbLine
 10
4.408394132501525
 20
1.982853265508811
 30
0.0
 11
4.825716967147194
 21
1.982853265508811
 31
0.0
  0
LINE
  5
E2F
330
1F
100
AcDbEntity
  8
0
  6
HIDDEN
 62
     7
370
     0
100
AcDbLine
 10
4.825716967147194
 20
2.148207596217472
 30
0.0
 11
4.408394132501525
 21
2.148207596217472
 31
0.0
  0
LINE
  5
E30
330
1F
100
AcDbEntity
  8
0
  6
HIDDEN
 62
     7
370
     0
100
AcDbLine
 10
4.617055549824359
 20
2.754506808815898
 30
0.0
 11
4.804063423840108
 21
2.754506808815898
 31
0.0
  0
LINE
  5
E31
330
1F
100
AcDbEntity
  8
0
  6
HIDDEN
 62
     7
370
     0
100
AcDbLine
 10
4.695205156123572
 20
1.455294210390701
 30
0.0
 11
4.538905943525146
 21
1.455294210390701
 31
0.0
  0
LINE
  5
E32
330
1F
100
AcDbEntity
  8
0
  6
HIDDEN
 62
     7
370
     0
100
AcDbLine
 10
4.430047675808611
 20
2.754506808815898
 30
0.0
 11
4.804026457950651
 21
2.754506808815898
 31
0.0
  0
LINE
  5
E77
330
1F
100
AcDbEntity
  8
0
  6
Continuous
 62
     7
370
    15
100
AcDbLine
 10
1.578258595846691
 20
4.088413312168228
 30
0.0
 11
1.578258595846691
 21
3.671090477522558
 31
0.0
  0
LINE
  5
E78
330
1F
100
AcDbEntity
  8
0
  6
Continuous
 62
     7
370
    15
100
AcDbLine
 10
1.893219225767952
 20
4.083527710508501
 30
0.0
 11
1.893219225767952
 21
4.088413312168228
 31
0.0
  0
LINE
  5
E79
330
1F
100
AcDbEntity
  8
0
  6
Continuous
 62
     7
370
    15
100
AcDbLine
 10
1.893219225767952
 20
3.671090477522558
 30
0.0
 11
1.893219225767952
 21
3.67597607918228
 31
0.0
  0
SPLINE
  5
E7A
330
1F
100
AcDbEntity
  8
0
  6
Continuous
 62
     7
370
    15
100
AcDbSpline
210
0.0
220
0.0
230
1.0
 70
     8
 71
     3
 72
    28
 73
    24
 74
     0
 42
0.0000000001
 43
0.0000000001
 40
0.0
 40
0.0
 40
0.0
 40
0.0
 40
0.0201640490269297
 40
0.0401652102244843
 40
0.0600824515057758
 40
0.0799957391846164
 40
0.0999850870233986
 40
0.1201296024749018
 40
0.185076701851513
 40
0.2500925112009222
 40
0.3150396415016377
 40
0.3800554818069848
 40
0.4400081548277141
 40
0.5000288542312496
 40
0.5599815462829178
 40
0.6200022598681383
 40
0.6849493592449008
 40
0.7499651685941571
 40
0.814912298895061
 40
0.8799281392002226
 40
0.920013406950596
 40
0.9598238932000338
 40
1.0
 40
1.0
 40
1.0
 40
1.0
 10
2.420187729704959
 20
3.879751894845393
 30
0.0
 10
2.420150577169203
 20
3.877688323580001
 30
0.0
 10
2.420076572220742
 20
3.87357785084821
 30
0.0
 10
2.41948175362622
 20
3.867452795496638
 30
0.0
 10
2.418531364279634
 20
3.86140155468687
 30
0.0
 10
2.417191712035241
 20
3.855424597878567
 30
0.0
 10
2.415471269889646
 20
3.849521527575022
 30
0.0
 10
2.411822693469963
 20
3.839403669939658
 30
0.0
 10
2.404731103453933
 20
3.825640773440409
 30
0.0
 10
2.392005729720549
 20
3.810110478121283
 30
0.0
 10
2.376466620058507
 20
3.797376323949531
 30
0.0
 10
2.359071546594421
 20
3.788407963046274
 30
0.0
 10
2.340802600834985
 20
3.783049465302904
 30
0.0
 10
2.322360024619897
 20
3.781351497263131
 30
0.0
 10
2.303910655383932
 20
3.783048041515911
 30
0.0
 10
2.285647545190543
 20
3.788402749381987
 30
0.0
 10
2.268245862839297
 20
3.797372525314685
 30
0.0
 10
2.252709975350859
 20
3.810100144037366
 30
0.0
 10
2.23998038168109
 20
3.825636130201978
 30
0.0
 10
2.231939173290051
 20
3.841220421312494
 30
0.0
 10
2.227346874243557
 20
3.855345098422958
 30
0.0
 10
2.224955327666146
 20
3.867448270045435
 30
0.0
 10
2.22466451124248
 20
3.875638207781025
 30
0.0
 10
2.224518438366376
 20
3.879751894845393
 30
0.0
  0
SPLINE
  5
E7B
330
1F
100
AcDbEntity
  8
0
  6
Continuous
 62
     7
370
    15
100
AcDbSpline
210
0.0
220
0.0
230
1.0
 70
     8
 71
     3
 72
    28
 73
    24
 74
     0
 42
0.0000000001
 43
0.0000000001
 40
0.0
 40
0.0
 40
0.0
 40
0.0
 40
0.0201640490269786
 40
0.0401652102245625
 40
0.0600824515058636
 40
0.0799957391846947
 40
0.0999850870234487
 40
0.1201296024749058
 40
0.1850767018516254
 40
0.2500925112009233
 40
0.3150396415016691
 40
0.3800554818069855
 40
0.4400081548276549
 40
0.5000288542312472
 40
0.5599815462827596
 40
0.6200022598681351
 40
0.6849493592447507
 40
0.7499651685941549
 40
0.8149122988946732
 40
0.8799281392002093
 40
0.9200134069503043
 40
0.9598238931997419
 40
1.0
 40
1.0
 40
1.0
 40
1.0
 10
2.224518438366376
 20
3.879751894845393
 30
0.0
 10
2.224555590902133
 20
3.88181546611079
 30
0.0
 10
2.224629595850594
 20
3.885925938842588
 30
0.0
 10
2.225224414445116
 20
3.892050994194169
 30
0.0
 10
2.226174803791701
 20
3.898102235003941
 30
0.0
 10
2.227514456036094
 20
3.904079191812241
 30
0.0
 10
2.229234898181688
 20
3.909982262115778
 30
0.0
 10
2.232883474601384
 20
3.920100119751142
 30
0.0
 10
2.239975064617413
 20
3.933863016250383
 30
0.0
 10
2.252700438350796
 20
3.949393311569513
 30
0.0
 10
2.268239548012833
 20
3.962127465741255
 30
0.0
 10
2.285634621476913
 20
3.971095826644512
 30
0.0
 10
2.303903567236346
 20
3.976454324387872
 30
0.0
 10
2.322346143451416
 20
3.978152292427656
 30
0.0
 10
2.340795512687389
 20
3.976455748174875
 30
0.0
 10
2.359058622880765
 20
3.971101040308812
 30
0.0
 10
2.376460305232027
 20
3.962131264376112
 30
0.0
 10
2.391996192720442
 20
3.949403645653461
 30
0.0
 10
2.404725786390204
 20
3.933867659488827
 30
0.0
 10
2.412766994781249
 20
3.918283368378352
 30
0.0
 10
2.417359293827793
 20
3.904158691267893
 30
0.0
 10
2.419750840405194
 20
3.892055519645411
 30
0.0
 10
2.420041656828858
 20
3.88386558190979
 30
0.0
 10
2.420187729704959
 20
3.879751894845393
 30
0.0
  0
SPLINE
  5
E7C
330
1F
100
AcDbEntity
  8
0
  6
Continuous
 62
     7
370
    15
100
AcDbSpline
210
0.0
220
0.0
230
1.0
 70
     8
 71
     3
 72
    10
 73
     6
 74
     0
 42
0.0000000001
 43
0.0000000001
 40
0.0
 40
0.0
 40
0.0
 40
0.0
 40
0.5
 40
0.5
 40
1.0
 40
1.0
 40
1.0
 40
1.0
 10
2.155030249389999
 20
3.879751894845393
 30
0.0
 10
2.155030249389999
 20
3.972099878789219
 30
0.0
 10
2.230005100091843
 20
4.047074729491063
 30
0.0
 10
2.414701067979494
 20
4.047074729491063
 30
0.0
 10
2.489675918681338
 20
3.972099878789219
 30
0.0
 10
2.489675918681338
 20
3.879751894845393
 30
0.0
  0
SPLINE
  5
E7D
330
1F
100
AcDbEntity
  8
0
  6
Continuous
 62
     7
370
    15
100
AcDbSpline
210
0.0
220
0.0
230
1.0
 70
     8
 71
     3
 72
    10
 73
     6
 74
     0
 42
0.0000000001
 43
0.0000000001
 40
0.0
 40
0.0
 40
0.0
 40
0.0
 40
0.5
 40
0.5
 40
1.0
 40
1.0
 40
1.0
 40
1.0
 10
2.489675918681338
 20
3.879751894845393
 30
0.0
 10
2.489675918681338
 20
3.787403910901567
 30
0.0
 10
2.414701067979494
 20
3.712429060199724
 30
0.0
 10
2.230005100091843
 20
3.712429060199724
 30
0.0
 10
2.155030249389999
 20
3.787403910901567
 30
0.0
 10
2.155030249389999
 20
3.879751894845393
 30
0.0
  0
SPLINE
  5
E7E
330
1F
100
AcDbEntity
  8
0
  6
Continuous
 62
     7
370
    15
100
AcDbSpline
210
0.0
220
0.0
230
1.0
 70
     8
 71
     3
 72
    28
 73
    24
 74
     0
 42
0.0000000001
 43
0.0000000001
 40
0.0
 40
0.0
 40
0.0
 40
0.0
 40
0.020164049027037
 40
0.0401652102246557
 40
0.0600824515059684
 40
0.0799957391847881
 40
0.0999850870235084
 40
0.1201296024749105
 40
0.185076701851707
 40
0.2500925112009225
 40
0.3150396415016635
 40
0.3800554818069862
 40
0.4400081548277399
 40
0.5000288542312498
 40
0.5599815462828418
 40
0.620002259868136
 40
0.6849493592448245
 40
0.7499651685941574
 40
0.8149122988948677
 40
0.879928139200215
 40
0.9200134069504242
 40
0.959823893199862
 40
1.0
 40
1.0
 40
1.0
 40
1.0
 10
2.010738910807321
 20
3.879751894845393
 30
0.0
 10
2.010701758271566
 20
3.877688323579989
 30
0.0
 10
2.010627753323105
 20
3.873577850848182
 30
0.0
 10
2.010032934728584
 20
3.86745279549659
 30
0.0
 10
2.009082545381998
 20
3.861401554686816
 30
0.0
 10
2.007742893137606
 20
3.855424597878518
 30
0.0
 10
2.006022450992011
 20
3.849521527574992
 30
0.0
 10
2.002373874572303
 20
3.839403669939634
 30
0.0
 10
1.99528228455627
 20
3.825640773440402
 30
0.0
 10
1.982556910822898
 20
3.810110478121266
 30
0.0
 10
1.967017801160867
 20
3.797376323949528
 30
0.0
 10
1.949622727696778
 20
3.788407963046271
 30
0.0
 10
1.931353781937344
 20
3.783049465302907
 30
0.0
 10
1.912911205722265
 20
3.78135149726313
 30
0.0
 10
1.894461836486302
 20
3.783048041515916
 30
0.0
 10
1.876198726292918
 20
3.78840274938198
 30
0.0
 10
1.858797043941662
 20
3.797372525314675
 30
0.0
 10
1.843261156453239
 20
3.810100144037345
 30
0.0
 10
1.830531562783478
 20
3.825636130201972
 30
0.0
 10
1.822490354392433
 20
3.841220421312462
 30
0.0
 10
1.817898055345911
 20
3.85534509842292
 30
0.0
 10
1.815506508768506
 20
3.867448270045399
 30
0.0
 10
1.815215692344842
 20
3.875638207781007
 30
0.0
 10
1.815069619468739
 20
3.879751894845393
 30
0.0
  0
SPLINE
  5
E7F
330
1F
100
AcDbEntity
  8
0
  6
Continuous
 62
     7
370
    15
100
AcDbSpline
210
0.0
220
0.0
230
1.0
 70
     8
 71
     3
 72
    28
 73
    24
 74
     0
 42
0.0000000001
 43
0.0000000001
 40
0.0
 40
0.0
 40
0.0
 40
0.0
 40
0.0201640490268713
 40
0.040165210224391
 40
0.0600824515056709
 40
0.079995739184523
 40
0.0999850870233388
 40
0.1201296024748971
 40
0.1850767018513841
 40
0.250092511200921
 40
0.3150396415015452
 40
0.3800554818069819
 40
0.4400081548275779
 40
0.5000288542312468
 40
0.5599815462828608
 40
0.6200022598681383
 40
0.6849493592448522
 40
0.7499651685941544
 40
0.8149122988948667
 40
0.8799281392002173
 40
0.9200134069504759
 40
0.9598238931999137
 40
1.0
 40
1.0
 40
1.0
 40
1.0
 10
1.815069619468739
 20
3.879751894845393
 30
0.0
 10
1.815106772004495
 20
3.881815466110779
 30
0.0
 10
1.815180776952956
 20
3.88592593884256
 30
0.0
 10
1.815775595547479
 20
3.892050994194121
 30
0.0
 10
1.816725984894064
 20
3.898102235003885
 30
0.0
 10
1.818065637138458
 20
3.904079191812193
 30
0.0
 10
1.819786079284053
 20
3.909982262115748
 30
0.0
 10
1.823434655703723
 20
3.920100119751113
 30
0.0
 10
1.830526245719753
 20
3.93386301625037
 30
0.0
 10
1.843251619453133
 20
3.949393311569486
 30
0.0
 10
1.858790729115186
 20
3.962127465741246
 30
0.0
 10
1.876185802579256
 20
3.971095826644504
 30
0.0
 10
1.894454748338699
 20
3.976454324387879
 30
0.0
 10
1.912897324553781
 20
3.978152292427654
 30
0.0
 10
1.931346693789762
 20
3.976455748174883
 30
0.0
 10
1.949609803983146
 20
3.971101040308803
 30
0.0
 10
1.967011486334392
 20
3.962131264376099
 30
0.0
 10
1.982547373822824
 20
3.949403645653439
 30
0.0
 10
1.995276967492592
 20
3.93386765948882
 30
0.0
 10
2.003318175883631
 20
3.91828336837832
 30
0.0
 10
2.007910474930147
 20
3.904158691267855
 30
0.0
 10
2.010302021507555
 20
3.892055519645376
 30
0.0
 10
2.010592837931219
 20
3.883865581909773
 30
0.0
 10
2.010738910807321
 20
3.879751894845393
 30
0.0
  0
SPLINE
  5
E80
330
1F
100
AcDbEntity
  8
0
  6
Continuous
 62
     7
370
    15
100
AcDbSpline
210
0.0
220
0.0
230
1.0
 70
     8
 71
     3
 72
    10
 73
     6
 74
     0
 42
0.0000000001
 43
0.0000000001
 40
0.0
 40
0.0
 40
0.0
 40
0.0
 40
0.5
 40
0.5
 40
1.0
 40
1.0
 40
1.0
 40
1.0
 10
1.745581430492362
 20
3.879751894845393
 30
0.0
 10
1.745581430492362
 20
3.972099878789219
 30
0.0
 10
1.820556281194204
 20
4.047074729491063
 30
0.0
 10
2.005252249081856
 20
4.047074729491063
 30
0.0
 10
2.080227099783699
 20
3.972099878789219
 30
0.0
 10
2.080227099783699
 20
3.879751894845393
 30
0.0
  0
SPLINE
  5
E81
330
1F
100
AcDbEntity
  8
0
  6
Continuous
 62
     7
370
    15
100
AcDbSpline
210
0.0
220
0.0
230
1.0
 70
     8
 71
     3
 72
    10
 73
     6
 74
     0
 42
0.0000000001
 43
0.0000000001
 40
0.0
 40
0.0
 40
0.0
 40
0.0
 40
0.5
 40
0.5
 40
1.0
 40
1.0
 40
1.0
 40
1.0
 10
2.080227099783699
 20
3.879751894845393
 30
0.0
 10
2.080227099783699
 20
3.787403910901567
 30
0.0
 10
2.005252249081856
 20
3.712429060199724
 30
0.0
 10
1.820556281194204
 20
3.712429060199724
 30
0.0
 10
1.745581430492362
 20
3.787403910901567
 30
0.0
 10
1.745581430492362
 20
3.879751894845393
 30
0.0
  0
CIRCLE
  5
E82
330
1F
100
AcDbEntity
  8
0
  6
Continuous
 62
     7
370
    15
100
AcDbCircle
 10
2.322353084035668
 20
3.879751894845393
 30
0.0
 40
0.1870078740157481
  0
CIRCLE
  5
E83
330
1F
100
AcDbEntity
  8
0
  6
Continuous
 62
     7
370
    15
100
AcDbCircle
 10
1.91290426513803
 20
3.879751894845393
 30
0.0
 40
0.1870078740157481
  0
CIRCLE
  5
E84
330
1F
100
AcDbEntity
  8
0
  6
Continuous
 62
     7
370
    15
100
AcDbCircle
 10
1.91290426513803
 20
3.879751894845393
 30
0.0
 40
0.0781496062992124
  0
CIRCLE
  5
E85
330
1F
100
AcDbEntity
  8
0
  6
Continuous
 62
     7
370
    15
100
AcDbCircle
 10
2.322353084035668
 20
3.879751894845393
 30
0.0
 40
0.0781496062992133
  0
ARC
  5
E86
330
1F
100
AcDbEntity
  8
0
  6
Continuous
 62
     7
370
    15
100
AcDbCircle
 10
1.91290426513803
 20
3.879751894845393
 30
0.0
 40
0.204724409448819
100
AcDbArc
 50
16.76587297267186
 51
343.2341270273287
  0
LINE
  5
E87
330
1F
100
AcDbEntity
  8
0
  6
Continuous
 62
     7
370
    15
100
AcDbLine
 10
2.108926143634166
 20
3.93880701295563
 30
0.0
 11
2.126331205539532
 21
3.93880701295563
 31
0.0
  0
ARC
  5
E88
330
1F
100
AcDbEntity
  8
0
  6
Continuous
 62
     7
370
    15
100
AcDbCircle
 10
2.322353084035668
 20
3.879751894845393
 30
0.0
 40
0.2047244094488199
100
AcDbArc
 50
196.7658729726728
 51
163.2341270273282
  0
LINE
  5
E89
330
1F
100
AcDbEntity
  8
0
  6
Continuous
 62
     7
370
    15
100
AcDbLine
 10
2.108926143634166
 20
3.820696776735156
 30
0.0
 11
2.126331205539532
 21
3.820696776735156
 31
0.0
  0
LINE
  5
E8A
330
1F
100
AcDbEntity
  8
0
  6
Continuous
 62
     7
370
    15
100
AcDbLine
 10
1.578258595846691
 20
3.671090477522558
 30
0.0
 11
1.893219225767952
 21
3.671090477522558
 31
0.0
  0
LINE
  5
E8B
330
1F
100
AcDbEntity
  8
0
  6
Continuous
 62
     7
370
    15
100
AcDbLine
 10
1.893219225767952
 20
4.088413312168228
 30
0.0
 11
1.578258595846691
 21
4.088413312168228
 31
0.0
  0
LINE
  5
E8C
330
1F
100
AcDbEntity
  8
0
  6
Continuous
 62
     7
370
    15
100
AcDbLine
 10
2.145056544678176
 20
3.982114099569802
 30
0.0
 11
2.090200804495498
 21
3.982114099569802
 31
0.0
  0
LINE
  5
E8D
330
1F
100
AcDbEntity
  8
0
  6
Continuous
 62
     7
370
    15
100
AcDbLine
 10
2.090200804495522
 20
3.777389690120984
 30
0.0
 11
2.145056544678201
 21
3.777389690120984
 31
0.0
  0
ARC
  5
E8E
330
1F
100
AcDbEntity
  8
0
  6
Continuous
 62
     7
370
    15
100
AcDbCircle
 10
2.117628674586849
 20
3.879751894845393
 30
0.0
 40
0.2047244094488192
100
AcDbArc
 50
240.0000000000014
 51
300.0000000000004
  0
ARC
  5
E8F
330
1F
100
AcDbEntity
  8
0
  6
Continuous
 62
     7
370
    15
100
AcDbCircle
 10
2.117628674586849
 20
3.879751894845393
 30
0.0
 40
0.2047244094488182
100
AcDbArc
 50
59.99999999999936
 51
120.0000000000006
  0
ARC
  5
E90
330
1F
100
AcDbEntity
  8
0
  6
Continuous
 62
     7
370
    15
100
AcDbCircle
 10
2.117628674586849
 20
3.879751894845393
 30
0.0
 40
0.1506402082784513
100
AcDbArc
 50
341.5149617224783
 51
18.48503827752286
  0
SPLINE
  5
E91
330
1F
100
AcDbEntity
  8
0
  6
Continuous
 62
     7
370
    15
100
AcDbSpline
210
0.0
220
0.0
230
1.0
 70
     8
 71
     3
 72
     9
 73
     5
 74
     0
 42
0.0000000001
 43
0.0000000001
 40
0.0
 40
0.0
 40
0.0
 40
0.0
 40
0.9402742970870342
 40
1.0
 40
1.0
 40
1.0
 40
1.0
 10
2.260496824425731
 20
3.927513428654412
 30
0.0
 10
2.258040582817182
 20
3.924315543306623
 30
0.0
 10
2.255428322101177
 20
3.920914530051559
 30
0.0
 10
2.253666780523529
 20
3.916947390378767
 30
0.0
 10
2.253561571214594
 20
3.916710450173255
 30
0.0
  0
LINE
  5
E92
330
1F
100
AcDbEntity
  8
0
  6
Continuous
 62
     7
370
    15
100
AcDbLine
 10
2.244263745755562
 20
3.880244760078412
 30
0.0
 11
2.244408001732005
 21
3.877706703124304
 31
0.0
  0
SPLINE
  5
E93
330
1F
100
AcDbEntity
  8
0
  6
Continuous
 62
     7
370
    15
100
AcDbSpline
210
0.0
220
0.0
230
1.0
 70
     8
 71
     3
 72
     9
 73
     5
 74
     0
 42
0.0000000001
 43
0.0000000001
 40
0.0
 40
0.0
 40
0.0
 40
0.0
 40
0.5617619913403144
 40
1.0
 40
1.0
 40
1.0
 40
1.0
 10
2.252420195991277
 20
3.845195348240281
 30
0.0
 10
2.253738117100557
 20
3.842578048484287
 30
0.0
 10
2.256084166013794
 20
3.837918958342307
 30
0.0
 10
2.259152266276315
 20
3.833796833026303
 30
0.0
 10
2.26049682442573
 20
3.831990361036373
 30
0.0
  0
ARC
  5
E94
330
1F
100
AcDbEntity
  8
0
  6
Continuous
 62
     7
370
    15
100
AcDbCircle
 10
2.117628674586849
 20
3.879751894845393
 30
0.0
 40
0.1506402082784516
100
AcDbArc
 50
161.5149617224775
 51
198.4850382775239
  0
LINE
  5
E95
330
1F
100
AcDbEntity
  8
0
  6
Continuous
 62
     7
370
    15
100
AcDbLine
 10
1.974760524747967
 20
3.831990361036374
 30
0.0
 11
1.980762674953517
 21
3.841147156715661
 31
0.0
  0
SPLINE
  5
E96
330
1F
100
AcDbEntity
  8
0
  6
Continuous
 62
     7
370
    15
100
AcDbSpline
210
0.0
220
0.0
230
1.0
 70
     8
 71
     3
 72
    10
 73
     6
 74
     0
 42
0.0000000001
 43
0.0000000001
 40
0.0
 40
0.0
 40
0.0
 40
0.0
 40
0.0132013705152988
 40
0.6982887446399804
 40
1.0
 40
1.0
 40
1.0
 40
1.0
 10
1.99101997924739
 20
3.878181985721799
 30
0.0
 10
1.991027487477558
 20
3.87825577343858
 30
0.0
 10
1.991424636592695
 20
3.882158787300703
 30
0.0
 10
1.990919570232906
 20
3.887885690909687
 30
0.0
 10
1.989716339109721
 20
3.893255145064098
 30
0.0
 10
1.989348454151414
 20
3.894896842473397
 30
0.0
  0
SPLINE
  5
E97
330
1F
100
AcDbEntity
  8
0
  6
Continuous
 62
     7
370
    15
100
AcDbSpline
210
0.0
220
0.0
230
1.0
 70
     8
 71
     3
 72
     9
 73
     5
 74
     0
 42
0.0000000001
 43
0.0000000001
 40
0.0
 40
0.0
 40
0.0
 40
0.0
 40
0.4869262587769021
 40
1.0
 40
1.0
 40
1.0
 40
1.0
 10
1.981751422677501
 20
3.916303135892605
 30
0.0
 10
1.980768199596646
 20
3.918235300766032
 30
0.0
 10
1.978748955279599
 20
3.922203385950597
 30
0.0
 10
1.97611297632962
 20
3.925712826739335
 30
0.0
 10
1.974760524747968
 20
3.927513428654413
 30
0.0
  0
SPLINE
  5
E98
330
1F
100
AcDbEntity
  8
0
  6
Continuous
 62
     7
370
    15
100
AcDbSpline
210
0.0
220
0.0
230
1.0
 70
    11
 71
     3
 72
    34
 73
    30
 74
     0
 42
0.0000000001
 43
0.0000000001
 40
0.0
 40
0.0
 40
0.0
 40
0.0
 40
0.0625
 40
0.0625
 40
0.125
 40
0.125
 40
0.1875
 40
0.1875
 40
0.2499999999999999
 40
0.2499999999999999
 40
0.3124999999999999
 40
0.3124999999999999
 40
0.3749999999999998
 40
0.3749999999999998
 40
0.4999999999999999
 40
0.4999999999999999
 40
0.5624999999999999
 40
0.5624999999999999
 40
0.6249999999999999
 40
0.6249999999999999
 40
0.6874999999999999
 40
0.6874999999999999
 40
0.7499999999999999
 40
0.7499999999999999
 40
0.8124999999999998
 40
0.8124999999999998
 40
0.8749999999999998
 40
0.8749999999999998
 40
1.0
 40
1.0
 40
1.0
 40
1.0
 10
1.951979068287636
 20
3.879751894845393
 30
0.0
 10
1.951979068287636
 20
3.874589428641948
 30
0.0
 10
1.950962894190568
 20
3.869523725379783
 30
0.0
 10
1.947040986041802
 20
3.860060298111915
 30
0.0
 10
1.944138572346638
 20
3.855725960525417
 30
0.0
 10
1.936929116533637
 20
3.848516754663725
 30
0.0
 10
1.932570453257815
 20
3.845605424994906
 30
0.0
 10
1.923168073641781
 20
3.841707255362131
 30
0.0
 10
1.918026738522209
 20
3.840680544213977
 30
0.0
 10
1.907834600239039
 20
3.840673657019889
 30
0.0
 10
1.902712956697714
 20
3.841683841245193
 30
0.0
 10
1.893251767039255
 20
3.845593165490937
 30
0.0
 10
1.88894382155652
 20
3.848457583001128
 30
0.0
 10
1.877995761113175
 20
3.859389604578319
 30
0.0
 10
1.873829461988424
 20
3.869426962438503
 30
0.0
 10
1.873829461988424
 20
3.884914361048838
 30
0.0
 10
1.874845636085493
 20
3.889980064311003
 30
0.0
 10
1.878767544234259
 20
3.899443491578871
 30
0.0
 10
1.881669957929423
 20
3.903777829165369
 30
0.0
 10
1.888879413742423
 20
3.910987035027061
 30
0.0
 10
1.893238077018246
 20
3.91389836469588
 30
0.0
 10
1.902640456634279
 20
3.917796534328654
 30
0.0
 10
1.907781791753851
 20
3.91882324547681
 30
0.0
 10
1.917973930037021
 20
3.918830132670897
 30
0.0
 10
1.923095573578347
 20
3.917819948445593
 30
0.0
 10
1.932556763236806
 20
3.91391062419985
 30
0.0
 10
1.93686470871954
 20
3.911046206689658
 30
0.0
 10
1.947812769162887
 20
3.900114185112467
 30
0.0
 10
1.951979068287636
 20
3.890076827252282
 30
0.0
 10
1.951979068287636
 20
3.879751894845393
 30
0.0
  0
SPLINE
  5
E99
330
1F
100
AcDbEntity
  8
0
  6
Continuous
 62
     7
370
    15
100
AcDbSpline
210
0.0
220
0.0
230
1.0
 70
    11
 71
     3
 72
    34
 73
    30
 74
     0
 42
0.0000000001
 43
0.0000000001
 40
0.0
 40
0.0
 40
0.0
 40
0.0
 40
0.0625
 40
0.0625
 40
0.125
 40
0.125
 40
0.1875
 40
0.1875
 40
0.25
 40
0.25
 40
0.3125
 40
0.3125
 40
0.375
 40
0.375
 40
0.5
 40
0.5
 40
0.5625
 40
0.5625
 40
0.625
 40
0.625
 40
0.6875
 40
0.6875
 40
0.75
 40
0.75
 40
0.8125
 40
0.8125
 40
0.875
 40
0.875
 40
1.0
 40
1.0
 40
1.0
 40
1.0
 10
2.361427887185274
 20
3.879751894845393
 30
0.0
 10
2.361427887185274
 20
3.874589428641948
 30
0.0
 10
2.360411713088205
 20
3.869523725379783
 30
0.0
 10
2.35648980493944
 20
3.860060298111915
 30
0.0
 10
2.353587391244275
 20
3.855725960525417
 30
0.0
 10
2.346377935431275
 20
3.848516754663725
 30
0.0
 10
2.342019272155452
 20
3.845605424994906
 30
0.0
 10
2.332616892539419
 20
3.841707255362131
 30
0.0
 10
2.327475557419847
 20
3.840680544213977
 30
0.0
 10
2.317283419136677
 20
3.840673657019889
 30
0.0
 10
2.312161775595352
 20
3.841683841245193
 30
0.0
 10
2.302700585936892
 20
3.845593165490937
 30
0.0
 10
2.298392640454158
 20
3.848457583001128
 30
0.0
 10
2.287444580010813
 20
3.859389604578319
 30
0.0
 10
2.283278280886062
 20
3.869426962438503
 30
0.0
 10
2.283278280886062
 20
3.884914361048838
 30
0.0
 10
2.284294454983131
 20
3.889980064311003
 30
0.0
 10
2.288216363131897
 20
3.899443491578871
 30
0.0
 10
2.291118776827061
 20
3.903777829165369
 30
0.0
 10
2.298328232640061
 20
3.910987035027061
 30
0.0
 10
2.302686895915884
 20
3.91389836469588
 30
0.0
 10
2.312089275531918
 20
3.917796534328654
 30
0.0
 10
2.317230610651489
 20
3.91882324547681
 30
0.0
 10
2.32742274893466
 20
3.918830132670897
 30
0.0
 10
2.332544392475985
 20
3.917819948445593
 30
0.0
 10
2.342005582134444
 20
3.91391062419985
 30
0.0
 10
2.346313527617178
 20
3.911046206689658
 30
0.0
 10
2.357261588060524
 20
3.900114185112467
 30
0.0
 10
2.361427887185275
 20
3.890076827252282
 30
0.0
 10
2.361427887185274
 20
3.879751894845393
 30
0.0
  0
CIRCLE
  5
E9A
330
1F
100
AcDbEntity
  8
0
  6
HIDDEN
 62
     7
370
     0
100
AcDbCircle
 10
1.91290426513803
 20
3.879751894845393
 30
0.0
 40
0.1076771653543309
  0
CIRCLE
  5
E9B
330
1F
100
AcDbEntity
  8
0
  6
HIDDEN
 62
     7
370
     0
100
AcDbCircle
 10
2.322353084035668
 20
3.879751894845393
 30
0.0
 40
0.1076771653543309
  0
SPLINE
  5
E9C
330
1F
100
AcDbEntity
  8
0
  6
HIDDEN
 62
     7
370
     0
100
AcDbSpline
210
0.0
220
0.0
230
1.0
 70
     8
 71
     3
 72
    10
 73
     6
 74
     0
 42
0.0000000001
 43
0.0000000001
 40
0.0
 40
0.0
 40
0.0
 40
0.0
 40
0.4999999999999999
 40
0.4999999999999999
 40
1.0
 40
1.0
 40
1.0
 40
1.0
 10
1.852228442791586
 20
4.016501627373494
 30
0.0
 10
1.847205135038509
 20
4.024736027710648
 30
0.0
 10
1.841565610514013
 20
4.032523750741798
 30
0.0
 10
1.828410995845612
 20
4.046686836664907
 30
0.0
 10
1.820836699970482
 20
4.053132578824508
 30
0.0
 10
1.811978740457035
 20
4.057870176591068
 30
0.0
  0
SPLINE
  5
E9D
330
1F
100
AcDbEntity
  8
0
  6
HIDDEN
 62
     7
370
     0
100
AcDbSpline
210
0.0
220
0.0
230
1.0
 70
     8
 71
     3
 72
    10
 73
     6
 74
     0
 42
0.0000000001
 43
0.0000000001
 40
0.0
 40
0.0
 40
0.0
 40
0.0
 40
0.4999999999999999
 40
0.4999999999999999
 40
1.0
 40
1.0
 40
1.0
 40
1.0
 10
1.852228442791354
 20
3.743002162316994
 30
0.0
 10
1.847205135038289
 20
3.734767761979887
 30
0.0
 10
1.841565610513934
 20
3.726980038948893
 30
0.0
 10
1.828410995845587
 20
3.712816953025861
 30
0.0
 10
1.820836699970461
 20
3.706371210866271
 30
0.0
 10
1.811978740457058
 20
3.701633613099731
 30
0.0
  0
SPLINE
  5
E9E
330
1F
100
AcDbEntity
  8
0
  6
HIDDEN
 62
     7
370
     0
100
AcDbSpline
210
0.0
220
0.0
230
1.0
 70
     8
 71
     3
 72
    22
 73
    18
 74
     0
 42
0.0000000001
 43
0.0000000001
 40
0.0
 40
0.0
 40
0.0
 40
0.0
 40
0.2499999999999998
 40
0.2499999999999998
 40
0.3749999999999995
 40
0.3749999999999995
 40
0.4374999999999993
 40
0.4374999999999993
 40
0.4999999999999992
 40
0.4999999999999992
 40
0.5624999999999991
 40
0.5624999999999991
 40
0.6249999999999988
 40
0.6249999999999988
 40
0.7499999999999992
 40
0.7499999999999992
 40
1.0
 40
1.0
 40
1.0
 40
1.0
 10
1.891984066972511
 20
3.73161550474222
 30
0.0
 10
1.893724966556247
 20
3.755540546278607
 30
0.0
 10
1.893580517981711
 20
3.779560677018751
 30
0.0
 10
1.890894501958301
 20
3.815901559085185
 30
0.0
 10
1.889555208976778
 20
3.828074042203605
 30
0.0
 10
1.887334148632892
 20
3.846864564886423
 30
0.0
 10
1.886557352376533
 20
3.853252665406051
 30
0.0
 10
1.885313046779398
 20
3.866456648606862
 30
0.0
 10
1.884877955404368
 20
3.873254231906357
 30
0.0
 10
1.884915160294301
 20
3.887165594539557
 30
0.0
 10
1.885377555964558
 20
3.89388884021798
 30
0.0
 10
1.886653377605076
 20
3.907091328025339
 30
0.0
 10
1.887425850161892
 20
3.91341007410552
 30
0.0
 10
1.889627641977527
 20
3.932053294105219
 30
0.0
 10
1.890940571817986
 20
3.944104673535607
 30
0.0
 10
1.893581571155767
 20
3.980205569498084
 30
0.0
 10
1.893714394773021
 20
4.004108530570131
 30
0.0
 10
1.891984066972511
 20
4.027888284948566
 30
0.0
  0
SPLINE
  5
E9F
330
1F
100
AcDbEntity
  8
0
  6
HIDDEN
 62
     7
370
     0
100
AcDbSpline
210
0.0
220
0.0
230
1.0
 70
    24
 71
     3
 72
     8
 73
     4
 74
     0
 42
0.0000000001
 43
0.0000000001
 40
0.0
 40
0.0
 40
0.0
 40
0.0
 40
1.0
 40
1.0
 40
1.0
 40
1.0
 10
2.090200804495479
 20
3.982114099569802
 30
0.0
 10
2.067757167727602
 20
3.982114099569802
 30
0.0
 10
2.045144544311751
 20
3.982114099569802
 30
0.0
 10
2.022009827819366
 20
3.982114099569802
 30
0.0
  0
SPLINE
  5
EA0
330
1F
100
AcDbEntity
  8
0
  6
HIDDEN
 62
     7
370
     0
100
AcDbSpline
210
0.0
220
0.0
230
1.0
 70
    24
 71
     3
 72
     8
 73
     4
 74
     0
 42
0.0000000001
 43
0.0000000001
 40
0.0
 40
0.0
 40
0.0
 40
0.0
 40
1.0
 40
1.0
 40
1.0
 40
1.0
 10
2.213247521354333
 20
3.982114099569802
 30
0.0
 10
2.190112804861955
 20
3.982114099569802
 30
0.0
 10
2.167500181446087
 20
3.982114099569802
 30
0.0
 10
2.145056544678219
 20
3.982114099569802
 30
0.0
  0
SPLINE
  5
EA1
330
1F
100
AcDbEntity
  8
0
  6
HIDDEN
 62
     7
370
     0
100
AcDbSpline
210
0.0
220
0.0
230
1.0
 70
    24
 71
     3
 72
     8
 73
     4
 74
     0
 42
0.0000000001
 43
0.0000000001
 40
0.0
 40
0.0
 40
0.0
 40
0.0
 40
1.0
 40
1.0
 40
1.0
 40
1.0
 10
2.022009827819364
 20
3.777389690120984
 30
0.0
 10
2.045144544311766
 20
3.777389690120984
 30
0.0
 10
2.067757167727589
 20
3.777389690120984
 30
0.0
 10
2.090200804495479
 20
3.777389690120984
 30
0.0
  0
SPLINE
  5
EA2
330
1F
100
AcDbEntity
  8
0
  6
HIDDEN
 62
     7
370
     0
100
AcDbSpline
210
0.0
220
0.0
230
1.0
 70
    24
 71
     3
 72
     8
 73
     4
 74
     0
 42
0.0000000001
 43
0.0000000001
 40
0.0
 40
0.0
 40
0.0
 40
0.0
 40
1.0
 40
1.0
 40
1.0
 40
1.0
 10
2.145056544678219
 20
3.777389690120984
 30
0.0
 10
2.167500181446095
 20
3.777389690120984
 30
0.0
 10
2.190112804861946
 20
3.777389690120984
 30
0.0
 10
2.213247521354333
 20
3.777389690120984
 30
0.0
  0
ARC
  5
EA3
330
1F
100
AcDbEntity
  8
0
  6
HIDDEN
 62
     7
370
     0
100
AcDbCircle
 10
1.91290426513803
 20
3.879751894845393
 30
0.0
 40
0.1496062992125364
100
AcDbArc
 50
246.0731506501612
 51
316.8264488927197
  0
ARC
  5
EA4
330
1F
100
AcDbEntity
  8
0
  6
HIDDEN
 62
     7
370
     0
100
AcDbCircle
 10
2.322353084035668
 20
3.879751894845393
 30
0.0
 40
0.149606299212598
100
AcDbArc
 50
223.1735511072816
 51
136.8264488927415
  0
ARC
  5
EA5
330
1F
100
AcDbEntity
  8
0
  6
HIDDEN
 62
     7
370
     0
100
AcDbCircle
 10
1.91290426513803
 20
3.879751894845393
 30
0.0
 40
0.1496062992125358
100
AcDbArc
 50
43.17355110728086
 51
113.9268493498323
  0
ARC
  5
EA6
330
1F
100
AcDbEntity
  8
0
  6
HIDDEN
 62
     7
370
     0
100
AcDbCircle
 10
2.117628674586849
 20
3.879751894845393
 30
0.0
 40
0.2047244094488219
100
AcDbArc
 50
300.0000000000004
 51
317.137490992347
  0
ARC
  5
EA7
330
1F
100
AcDbEntity
  8
0
  6
HIDDEN
 62
     7
370
     0
100
AcDbCircle
 10
2.117628674586849
 20
3.879751894845393
 30
0.0
 40
0.2047244094488207
100
AcDbArc
 50
222.8625090076549
 51
240.0000000000014
  0
ARC
  5
EA8
330
1F
100
AcDbEntity
  8
0
  6
HIDDEN
 62
     7
370
     0
100
AcDbCircle
 10
2.117628674586849
 20
3.879751894845393
 30
0.0
 40
0.2047244094488207
100
AcDbArc
 50
120.0000000000006
 51
137.1374909923459
  0
ARC
  5
EA9
330
1F
100
AcDbEntity
  8
0
  6
HIDDEN
 62
     7
370
     0
100
AcDbCircle
 10
2.117628674586849
 20
3.879751894845393
 30
0.0
 40
0.2047244094488207
100
AcDbArc
 50
42.86250900765408
 51
59.99999999999936
  0
SPLINE
  5
EAA
330
1F
100
AcDbEntity
  8
0
  6
HIDDEN
 62
     7
370
     0
100
AcDbSpline
210
0.0
220
0.0
230
1.0
 70
     8
 71
     3
 72
    18
 73
    14
 74
     0
 42
0.0000000001
 43
0.0000000001
 40
0.0
 40
0.0
 40
0.0
 40
0.0
 40
0.125
 40
0.125
 40
0.25
 40
0.25
 40
0.375
 40
0.375
 40
0.5
 40
0.5
 40
0.75
 40
0.75
 40
1.0
 40
1.0
 40
1.0
 40
1.0
 10
2.04714448133373
 20
3.913505997798648
 30
0.0
 10
2.046324343606474
 20
3.911793413519866
 30
0.0
 10
2.04542363537091
 20
3.909754720139738
 30
0.0
 10
2.043637401373837
 20
3.905030911878021
 30
0.0
 10
2.042751751654328
 20
3.902330709033364
 30
0.0
 10
2.04124147618855
 20
3.896525456149918
 30
0.0
 10
2.040595020569051
 20
3.893327814743409
 30
0.0
 10
2.039718331789324
 20
3.886713786656053
 30
0.0
 10
2.039481758732258
 20
3.883313260004277
 30
0.0
 10
2.039473755432026
 20
3.872807772492296
 30
0.0
 10
2.040465448653585
 20
3.865981276778266
 30
0.0
 10
2.043495144603243
 20
3.854295793601322
 30
0.0
 10
2.045503929091879
 20
3.84942353842778
 30
0.0
 10
2.047144481333727
 20
3.845997791892126
 30
0.0
  0
LINE
  5
EAB
330
1F
100
AcDbEntity
  8
0
  6
HIDDEN
 62
     7
370
     0
100
AcDbLine
 10
2.188112867839968
 20
3.845997791892138
 30
0.0
 11
2.04714448133373
 21
3.845997791892138
 31
0.0
  0
SPLINE
  5
EAC
330
1F
100
AcDbEntity
  8
0
  6
HIDDEN
 62
     7
370
     0
100
AcDbSpline
210
0.0
220
0.0
230
1.0
 70
     8
 71
     3
 72
    18
 73
    14
 74
     0
 42
0.0000000001
 43
0.0000000001
 40
0.0
 40
0.0
 40
0.0
 40
0.0
 40
0.125
 40
0.125
 40
0.25
 40
0.25
 40
0.375
 40
0.375
 40
0.5000000000000001
 40
0.5000000000000001
 40
0.7500000000000001
 40
0.7500000000000001
 40
1.0
 40
1.0
 40
1.0
 40
1.0
 10
2.188112867839968
 20
3.845997791892138
 30
0.0
 10
2.188933005567224
 20
3.84771037617092
 30
0.0
 10
2.189833713802788
 20
3.849749069551047
 30
0.0
 10
2.191619947799861
 20
3.854472877812765
 30
0.0
 10
2.192505597519371
 20
3.857173080657422
 30
0.0
 10
2.194015872985148
 20
3.862978333540868
 30
0.0
 10
2.194662328604647
 20
3.866175974947376
 30
0.0
 10
2.195539017384374
 20
3.872790003034733
 30
0.0
 10
2.195775590441439
 20
3.876190529686508
 30
0.0
 10
2.195783593741673
 20
3.88669601719849
 30
0.0
 10
2.194791900520113
 20
3.89352251291252
 30
0.0
 10
2.191762204570455
 20
3.905207996089464
 30
0.0
 10
2.189753420081819
 20
3.910080251263006
 30
0.0
 10
2.188112867839971
 20
3.91350599779866
 30
0.0
  0
LINE
  5
EAD
330
1F
100
AcDbEntity
  8
0
  6
HIDDEN
 62
     7
370
     0
100
AcDbLine
 10
2.04714448133373
 20
3.913505997798648
 30
0.0
 11
2.188112867839968
 21
3.913505997798648
 31
0.0
  0
SPLINE
  5
EAE
330
1F
100
AcDbEntity
  8
0
  6
HIDDEN
 62
     7
370
     0
100
AcDbSpline
210
0.0
220
0.0
230
1.0
 70
     8
 71
     3
 72
    14
 73
    10
 74
     0
 42
0.0000000001
 43
0.0000000001
 40
0.0
 40
0.0
 40
0.0
 40
0.0
 40
0.25
 40
0.25
 40
0.5
 40
0.5
 40
0.75
 40
0.75
 40
1.0
 40
1.0
 40
1.0
 40
1.0
 10
1.91290426513803
 20
3.879751894845393
 30
0.0
 10
1.91290426513803
 20
3.892535495320275
 30
0.0
 10
1.914101767712311
 20
3.905294518934113
 30
0.0
 10
1.918862657444725
 20
3.93042435182856
 30
0.0
 10
1.922383328273858
 20
3.942613161296729
 30
0.0
 10
1.931613375110847
 20
3.966184483824313
 30
0.0
 10
1.937322603621528
 20
3.977567747773536
 30
0.0
 10
1.951014689934804
 20
3.999409742182622
 30
0.0
 10
1.958852198189553
 20
4.009622162269459
 30
0.0
 10
1.967568105235052
 20
4.019013911741537
 30
0.0
  0
SPLINE
  5
EAF
330
1F
100
AcDbEntity
  8
0
  6
HIDDEN
 62
     7
370
     0
100
AcDbSpline
210
0.0
220
0.0
230
1.0
 70
     8
 71
     3
 72
    14
 73
    10
 74
     0
 42
0.0000000001
 43
0.0000000001
 40
0.0
 40
0.0
 40
0.0
 40
0.0
 40
0.25
 40
0.25
 40
0.5
 40
0.5
 40
0.75
 40
0.75
 40
1.0
 40
1.0
 40
1.0
 40
1.0
 10
1.91290426513803
 20
3.879751894845393
 30
0.0
 10
1.91290426513803
 20
3.866968294370537
 30
0.0
 10
1.914101767712306
 20
3.854209270756722
 30
0.0
 10
1.918862657444701
 20
3.829079437862325
 30
0.0
 10
1.922383328273821
 20
3.816890628394177
 30
0.0
 10
1.931613375110774
 20
3.793319305866634
 30
0.0
 10
1.937322603621432
 20
3.781936041917429
 30
0.0
 10
1.951014689934654
 20
3.760094047508376
 30
0.0
 10
1.958852198189377
 20
3.749881627421546
 30
0.0
 10
1.967568105234844
 20
3.740489877949473
 30
0.0
  0
SPLINE
  5
EB0
330
1F
100
AcDbEntity
  8
0
  6
HIDDEN
 62
     7
370
     0
100
AcDbSpline
210
0.0
220
0.0
230
1.0
 70
     8
 71
     3
 72
    14
 73
    10
 74
     0
 42
0.0000000001
 43
0.0000000001
 40
0.0
 40
0.0
 40
0.0
 40
0.0
 40
0.25
 40
0.25
 40
0.5
 40
0.5
 40
0.75
 40
0.75
 40
1.0
 40
1.0
 40
1.0
 40
1.0
 10
2.322353084035668
 20
3.879751894845393
 30
0.0
 10
2.322353084035668
 20
3.866968294370537
 30
0.0
 10
2.321155581461392
 20
3.854209270756724
 30
0.0
 10
2.316394691728997
 20
3.829079437862325
 30
0.0
 10
2.312874020899877
 20
3.816890628394177
 30
0.0
 10
2.303643974062924
 20
3.793319305866634
 30
0.0
 10
2.297934745552266
 20
3.781936041917429
 30
0.0
 10
2.284242659239044
 20
3.760094047508376
 30
0.0
 10
2.276405150984323
 20
3.749881627421546
 30
0.0
 10
2.267689243938855
 20
3.740489877949473
 30
0.0
  0
SPLINE
  5
EB1
330
1F
100
AcDbEntity
  8
0
  6
HIDDEN
 62
     7
370
     0
100
AcDbSpline
210
0.0
220
0.0
230
1.0
 70
     8
 71
     3
 72
    14
 73
    10
 74
     0
 42
0.0000000001
 43
0.0000000001
 40
0.0
 40
0.0
 40
0.0
 40
0.0
 40
0.25
 40
0.25
 40
0.5
 40
0.5
 40
0.75
 40
0.75
 40
1.0
 40
1.0
 40
1.0
 40
1.0
 10
2.322353084035668
 20
3.879751894845393
 30
0.0
 10
2.322353084035668
 20
3.892535495320275
 30
0.0
 10
2.321155581461387
 20
3.905294518934113
 30
0.0
 10
2.316394691728974
 20
3.93042435182856
 30
0.0
 10
2.312874020899839
 20
3.942613161296729
 30
0.0
 10
2.303643974062851
 20
3.966184483824313
 30
0.0
 10
2.297934745552169
 20
3.977567747773536
 30
0.0
 10
2.284242659238895
 20
3.999409742182622
 30
0.0
 10
2.276405150984146
 20
4.009622162269459
 30
0.0
 10
2.267689243938646
 20
4.019013911741537
 30
0.0
  0
ARC
  5
EB2
330
1F
100
AcDbEntity
  8
0
  6
HIDDEN
 62
     7
370
     0
100
AcDbCircle
 10
2.117628674586849
 20
3.879751894845393
 30
0.0
 40
0.0781496062992126
100
AcDbArc
 50
25.58924646447221
 51
154.4107535355277
  0
ARC
  5
EB3
330
1F
100
AcDbEntity
  8
0
  6
HIDDEN
 62
     7
370
     0
100
AcDbCircle
 10
2.117628674586849
 20
3.879751894845393
 30
0.0
 40
0.078149606299213
100
AcDbArc
 50
205.5892464644736
 51
334.4107535355281
  0
CIRCLE
  5
EB4
330
1F
100
AcDbEntity
  8
0
  6
HIDDEN
 62
     7
370
     0
100
AcDbCircle
 10
2.117628674586849
 20
3.879751894845393
 30
0.0
 40
0.1076771653543318
  0
CIRCLE
  5
EB5
330
1F
100
AcDbEntity
  8
0
  6
HIDDEN
 62
     7
370
     0
100
AcDbCircle
 10
2.117628674586849
 20
3.879751894845393
 30
0.0
 40
0.187007874015749
  0
SPLINE
  5
EB6
330
1F
100
AcDbEntity
  8
0
  6
HIDDEN
 62
     7
370
     0
100
AcDbSpline
210
0.0
220
0.0
230
1.0
 70
     8
 71
     3
 72
    10
 73
     6
 74
     0
 42
0.0000000001
 43
0.0000000001
 40
0.0
 40
0.0
 40
0.0
 40
0.0
 40
0.5
 40
0.5
 40
1.0
 40
1.0
 40
1.0
 40
1.0
 10
2.117628674586849
 20
4.047074729491063
 30
0.0
 10
2.025280690643024
 20
4.047074729491063
 30
0.0
 10
1.950305839941179
 20
3.972099878789219
 30
0.0
 10
1.950305839941179
 20
3.787403910901567
 30
0.0
 10
2.025280690643024
 20
3.712429060199724
 30
0.0
 10
2.117628674586849
 20
3.712429060199724
 30
0.0
  0
SPLINE
  5
EB7
330
1F
100
AcDbEntity
  8
0
  6
HIDDEN
 62
     7
370
     0
100
AcDbSpline
210
0.0
220
0.0
230
1.0
 70
     8
 71
     3
 72
    28
 73
    24
 74
     0
 42
0.0000000001
 43
0.0000000001
 40
0.0
 40
0.0
 40
0.0
 40
0.0
 40
0.0201640490269547
 40
0.0401652102245244
 40
0.0600824515058208
 40
0.0799957391846567
 40
0.0999850870234243
 40
0.120129602474904
 40
0.1850767018515585
 40
0.2500925112009223
 40
0.3150396415016378
 40
0.380055481806985
 40
0.4400081548276806
 40
0.5000288542312484
 40
0.5599815462828556
 40
0.6200022598681374
 40
0.6849493592448133
 40
0.7499651685941548
 40
0.81491229889487
 40
0.8799281392002173
 40
0.9200134069504787
 40
0.9598238931999164
 40
1.0
 40
1.0
 40
1.0
 40
1.0
 10
2.117628674586849
 20
3.781917249176101
 30
0.0
 10
2.119692245852244
 20
3.781954401711858
 30
0.0
 10
2.123802718584038
 20
3.782028406660319
 30
0.0
 10
2.129927773935615
 20
3.78262322525484
 30
0.0
 10
2.135979014745385
 20
3.783573614601427
 30
0.0
 10
2.141955971553687
 20
3.78491326684582
 30
0.0
 10
2.147859041857229
 20
3.786633708991415
 30
0.0
 10
2.15797689949259
 20
3.790282285411104
 30
0.0
 10
2.171739795991834
 20
3.797373875427134
 30
0.0
 10
2.187270091310962
 20
3.810099249160514
 30
0.0
 10
2.200004245482711
 20
3.825638358822555
 30
0.0
 10
2.208972606385968
 20
3.843033432286637
 30
0.0
 10
2.214331104129334
 20
3.861302378046073
 30
0.0
 10
2.216029072169112
 20
3.879744954261154
 30
0.0
 10
2.214332527916332
 20
3.898194323497124
 30
0.0
 10
2.208977820050262
 20
3.916457433690506
 30
0.0
 10
2.20000804411756
 20
3.933859116041754
 30
0.0
 10
2.187280425394897
 20
3.949395003530184
 30
0.0
 10
2.171744439230277
 20
3.962124597199956
 30
0.0
 10
2.156160148119774
 20
3.970165805590994
 30
0.0
 10
2.14203547100931
 20
3.97475810463751
 30
0.0
 10
2.129932299386831
 20
3.977149651214917
 30
0.0
 10
2.121742361651229
 20
3.977440467638581
 30
0.0
 10
2.117628674586849
 20
3.977586540514684
 30
0.0
  0
ARC
  5
EB8
330
1F
100
AcDbEntity
  8
0
  6
HIDDEN
 62
     7
370
     0
100
AcDbCircle
 10
2.117628674586849
 20
3.879751894845393
 30
0.0
 40
0.0781496062992131
100
AcDbArc
 50
90.0
 51
159.4528876926008
  0
LWPOLYLINE
  5
EB9
330
1F
100
AcDbEntity
  8
0
  6
HIDDEN
 62
     7
370
     0
100
AcDbPolyline
 90
        3
 70
   128
 43
0.0
 10
2.045285589514532
 20
3.850191126808325
 10
2.045660270920678
 20
3.849290282306575
 10
2.04714448133373
 20
3.845997791892136
  0
LWPOLYLINE
  5
EBA
330
1F
100
AcDbEntity
  8
0
  6
HIDDEN
 62
     7
370
     0
100
AcDbPolyline
 90
        3
 70
   128
 43
0.0
 10
2.188112867839968
 20
3.845997791892136
 10
2.18959707825302
 20
3.849290282306576
 10
2.191467104865116
 20
3.854154098480012
  0
ARC
  5
EBB
330
1F
100
AcDbEntity
  8
0
  6
HIDDEN
 62
     7
370
     0
100
AcDbCircle
 10
2.117628674586849
 20
3.879751894845393
 30
0.0
 40
0.0781496062992124
100
AcDbArc
 50
23.16042465925916
 51
90.0
  0
LINE
  5
EBC
330
1F
100
AcDbEntity
  8
0
  6
HIDDEN
 62
     7
370
     0
100
AcDbLine
 10
1.893219225767952
 20
3.993573011751624
 30
0.0
 11
1.893219225767952
 21
4.083527710508501
 31
0.0
  0
LINE
  5
EBD
330
1F
100
AcDbEntity
  8
0
  6
HIDDEN
 62
     7
370
     0
100
AcDbLine
 10
1.893219225767952
 20
3.67597607918228
 30
0.0
 11
1.893219225767952
 21
3.765930777939167
 31
0.0
  0
LINE
  5
EBE
330
1F
100
AcDbEntity
  8
0
  6
HIDDEN
 62
     7
370
     0
100
AcDbLine
 10
1.818416076161653
 20
3.671090477522558
 30
0.0
 11
1.818416076161653
 21
4.088413312168228
 31
0.0
  0
LINE
  5
EBF
330
1F
100
AcDbEntity
  8
0
  6
HIDDEN
 62
     7
370
     0
100
AcDbLine
 10
1.653061745452991
 20
4.088413312168228
 30
0.0
 11
1.653061745452991
 21
3.671090477522558
 31
0.0
  0
LINE
  5
EC0
330
1F
100
AcDbEntity
  8
0
  6
HIDDEN
 62
     7
370
     0
100
AcDbLine
 10
1.971959383248267
 20
3.918826697994999
 30
0.0
 11
1.91290426513803
 21
3.918826697994999
 31
0.0
  0
LINE
  5
EC1
330
1F
100
AcDbEntity
  8
0
  6
HIDDEN
 62
     7
370
     0
100
AcDbLine
 10
1.91290426513803
 20
3.840677091695787
 30
0.0
 11
1.971959383248267
 21
3.840677091695787
 31
0.0
  0
LINE
  5
EC2
330
1F
100
AcDbEntity
  8
0
  6
HIDDEN
 62
     7
370
     0
100
AcDbLine
 10
2.263297965925432
 20
3.840677091695787
 30
0.0
 11
2.322353084035668
 21
3.840677091695787
 31
0.0
  0
LINE
  5
EC3
330
1F
100
AcDbEntity
  8
0
  6
HIDDEN
 62
     7
370
     0
100
AcDbLine
 10
2.322353084035668
 20
3.918826697994999
 30
0.0
 11
2.263297965925432
 21
3.918826697994999
 31
0.0
  0
LINE
  5
EC4
330
1F
100
AcDbEntity
  8
0
  6
HIDDEN
 62
     7
370
     0
100
AcDbLine
 10
2.263297965925432
 20
3.918826697994999
 30
0.0
 11
1.971959383248267
 21
3.918826697994999
 31
0.0
  0
LINE
  5
EC5
330
1F
100
AcDbEntity
  8
0
  6
HIDDEN
 62
     7
370
     0
100
AcDbLine
 10
1.971959383248267
 20
3.840677091695787
 30
0.0
 11
2.263297965925432
 21
3.840677091695787
 31
0.0
  0
LINE
  5
EC6
330
1F
100
AcDbEntity
  8
0
  6
HIDDEN
 62
     7
370
     0
100
AcDbLine
 10
1.971959383248267
 20
3.918826697994999
 30
0.0
 11
1.971959383248267
 21
3.840677091695787
 31
0.0
  0
LINE
  5
EC7
330
1F
100
AcDbEntity
  8
0
  6
HIDDEN
 62
     7
370
     0
100
AcDbLine
 10
2.263297965925432
 20
3.840677091695787
 30
0.0
 11
2.263297965925432
 21
3.918826697994999
 31
0.0
  0
SPLINE
  5
EC8
330
1F
100
AcDbEntity
  8
0
  6
HIDDEN
 62
     7
370
     0
100
AcDbSpline
210
0.0
220
0.0
230
1.0
 70
     8
 71
     3
 72
    21
 73
    17
 74
     0
 42
0.0000000001
 43
0.0000000001
 40
0.0
 40
0.0
 40
0.0
 40
0.0
 40
0.0826524793062875
 40
0.1645909443611658
 40
0.2471341323743453
 40
0.3134230863485271
 40
0.3796307669111799
 40
0.4473302261172864
 40
0.514946682492718
 40
0.5826461393240644
 40
0.650262593327501
 40
0.7165515407551304
 40
0.7827592147792952
 40
0.865393773505241
 40
0.9473322385601196
 40
1.0
 40
1.0
 40
1.0
 40
1.0
 10
2.117628674586849
 20
3.712429060199724
 30
0.0
 10
2.124661124782886
 20
3.712677910319342
 30
0.0
 10
2.138665273583424
 20
3.713173460804169
 30
0.0
 10
2.159361893339841
 20
3.71726577785137
 30
0.0
 10
2.178063152653834
 20
3.723338277666613
 30
0.0
 10
2.194733137958023
 20
3.730927867240242
 30
0.0
 10
2.209453449260853
 20
3.739531021966797
 30
0.0
 10
2.223320866322322
 20
3.749647280144606
 30
0.0
 10
2.236157295656706
 20
3.761233281198316
 30
0.0
 10
2.247737626015514
 20
3.774065260103479
 30
0.0
 10
2.257857738051121
 20
3.7879387367314
 30
0.0
 10
2.266453903303194
 20
3.80265386467313
 30
0.0
 10
2.274055741189953
 20
3.819330210338923
 30
0.0
 10
2.280080711305525
 20
3.83803775757443
 30
0.0
 10
2.283830956391046
 20
3.856215605092769
 30
0.0
 10
2.284297115103506
 20
3.867662434114271
 30
0.0
 10
2.284479510349999
 20
3.872141267492541
 30
0.0
  0
SPLINE
  5
EC9
330
1F
100
AcDbEntity
  8
0
  6
HIDDEN
 62
     7
370
     0
100
AcDbSpline
210
0.0
220
0.0
230
1.0
 70
     8
 71
     3
 72
    21
 73
    17
 74
     0
 42
0.0000000001
 43
0.0000000001
 40
0.0
 40
0.0
 40
0.0
 40
0.0
 40
0.0542704752225996
 40
0.1360767286835563
 40
0.218505533739988
 40
0.284687527347617
 40
0.3507883786820372
 40
0.4183786016045847
 40
0.4858859556253055
 40
0.5534761761769048
 40
0.6209835278294773
 40
0.687165514900908
 40
0.7532663597075984
 40
0.8357112082245302
 40
0.9175174616854871
 40
1.0
 40
1.0
 40
1.0
 40
1.0
 10
2.284504236029318
 20
3.886950569974364
 30
0.0
 10
2.284317079479584
 20
3.891573276932581
 30
0.0
 10
2.283847806805352
 20
3.903164161994059
 30
0.0
 10
2.280082198039798
 20
3.921478870065278
 30
0.0
 10
2.274050007622855
 20
3.940185576722234
 30
0.0
 10
2.266450994102969
 20
3.956856197990664
 30
0.0
 10
2.257850016217517
 20
3.971576711199263
 30
0.0
 10
2.247733163442061
 20
3.985444084177822
 30
0.0
 10
2.236147319159242
 20
3.998280483615377
 30
0.0
 10
2.22331531160405
 20
4.009860978013732
 30
0.0
 10
2.209441793040225
 20
4.019980468471992
 30
0.0
 10
2.194726857540641
 20
4.028578911653551
 30
0.0
 10
2.178054104528721
 20
4.036169600662594
 30
0.0
 10
2.159355082693474
 20
4.042236310407124
 30
0.0
 10
2.138659075421567
 20
4.046329988117578
 30
0.0
 10
2.124658019697509
 20
4.04682580203725
 30
0.0
 10
2.117628674586849
 20
4.047074729491063
 30
0.0
  0
SPLINE
  5
ECA
330
1F
100
AcDbEntity
  8
0
  6
HIDDEN
 62
     7
370
     0
100
AcDbSpline
210
0.0
220
0.0
230
1.0
 70
     8
 71
     3
 72
    17
 73
    13
 74
     0
 42
0.0000000001
 43
0.0000000001
 40
0.0
 40
0.0
 40
0.0
 40
0.0
 40
0.0831311629366944
 40
0.1655682587030819
 40
0.2486344153407155
 40
0.3831228568411691
 40
0.5177535787087987
 40
0.6522420842448705
 40
0.7192715394384228
 40
0.7870490466281625
 40
0.911195338544463
 40
1.0
 40
1.0
 40
1.0
 40
1.0
 10
2.117628674586849
 20
3.977586540514684
 30
0.0
 10
2.113518094162013
 20
3.977440385454911
 30
0.0
 10
2.105331252800039
 20
3.977149295592911
 30
0.0
 10
2.093228666463017
 20
3.974756472462269
 30
0.0
 10
2.079106024943716
 20
3.97017094767182
 30
0.0
 10
2.063519431517101
 20
3.962127475976144
 30
0.0
 10
2.047986205096813
 20
3.949407049980178
 30
0.0
 10
2.037386994911672
 20
3.936461297272535
 30
0.0
 10
2.0306501426097
 20
3.924954407292546
 30
0.0
 10
2.025393223393091
 20
3.913286423095468
 30
0.0
 10
2.02116758455035
 20
3.899910205638764
 30
0.0
 10
2.020544641457788
 20
3.889380144813309
 30
0.0
 10
2.020284862153843
 20
3.884988906023792
 30
0.0
  0
SPLINE
  5
ECB
330
1F
100
AcDbEntity
  8
0
  6
HIDDEN
 62
     7
370
     0
100
AcDbSpline
210
0.0
220
0.0
230
1.0
 70
     8
 71
     3
 72
    17
 73
    13
 74
     0
 42
0.0000000001
 43
0.0000000001
 40
0.0
 40
0.0
 40
0.0
 40
0.0
 40
0.05795479529848
 40
0.1394915665726959
 40
0.2217466513610141
 40
0.3547662973311685
 40
0.4879266697744994
 40
0.6209463790807288
 40
0.6872437820392545
 40
0.7542810672553095
 40
0.8770355149856683
 40
1.0
 40
1.0
 40
1.0
 40
1.0
 10
2.020018180577834
 20
3.876135253307863
 30
0.0
 10
2.020132440255952
 20
3.873239073346072
 30
0.0
 10
2.020407452209918
 20
3.866268249312167
 30
0.0
 10
2.022636194437949
 20
3.855362144905722
 30
0.0
 10
2.027200625120071
 20
3.841233113425502
 30
0.0
 10
2.035255237258009
 20
3.825642606441546
 30
0.0
 10
2.047973031322339
 20
3.810110097167195
 30
0.0
 10
2.060919032884726
 20
3.799508129988425
 30
0.0
 10
2.072426690297021
 20
3.79277698532077
 30
0.0
 10
2.084089685922811
 20
3.787498274518133
 30
0.0
 10
2.099179905642337
 20
3.782895725446135
 30
0.0
 10
2.11147558154513
 20
3.782243593743955
 30
0.0
 10
2.117628674586849
 20
3.781917249176101
 30
0.0
  0
DIMENSION
  5
ECC
330
1F
100
AcDbEntity
  8
DIM
100
AcDbDimension
  2
*D5
 10
1.290566813316928
 20
3.671090477522558
 30
0.0
 11
1.233806106314888
 21
3.879751894845393
 31
0.0
 70
    32
 71
     5
 42
0.417322834645669
 73
     0
 74
     0
 75
     0
  3
Standard
100
AcDbAlignedDimension
 13
1.578258595846691
 23
4.088413312168228
 33
0.0
 14
1.578258595846691
 24
3.671090477522558
 34
0.0
 50
90.0
100
AcDbRotatedDimension
  0
DIMENSION
  5
EE7
330
1F
100
AcDbEntity
  8
DIM
100
AcDbDimension
  2
*D7
 10
1.91290426513803
 20
4.392460916467802
 30
0.0
 11
1.731514054397038
 21
4.449221623469842
 31
0.0
 70
    32
 71
     5
 42
0.2047244094488185
 73
     0
 74
     0
 75
     0
  3
Standard
100
AcDbAlignedDimension
 13
2.117628674586849
 23
3.879751894845393
 33
0.0
 14
1.91290426513803
 24
3.879751894845393
 34
0.0
100
AcDbRotatedDimension
  0
DIMENSION
  5
EF5
330
1F
100
AcDbEntity
  8
DIM
100
AcDbDimension
  2
*D8
 10
2.322353084035668
 20
4.392460916467802
 30
0.0
 11
2.503743294776661
 21
4.449221623469842
 31
0.0
 70
    32
 71
     5
 42
0.2047244094488194
 73
     0
 74
     0
 75
     0
  3
Standard
100
AcDbAlignedDimension
 13
2.117628674586849
 23
3.879751894845393
 33
0.0
 14
2.322353084035668
 24
3.879751894845393
 34
0.0
100
AcDbRotatedDimension
  0
DIMENSION
  5
F03
330
1F
100
AcDbEntity
  8
DIM
100
AcDbDimension
  2
*D9
 10
2.322353084035668
 20
3.026757909737405
 30
0.0
 11
2.117628674586849
 21
3.083518616739444
 31
0.0
 70
    32
 71
     5
 42
0.409448818897638
 73
     0
 74
     0
 75
     0
  3
Standard
100
AcDbAlignedDimension
 13
1.91290426513803
 23
2.774191848185977
 33
0.0
 14
2.322353084035668
 24
2.774191848185977
 34
0.0
100
AcDbRotatedDimension
  0
DIMENSION
  5
F10
330
1F
100
AcDbEntity
  8
DIM
100
AcDbDimension
  2
*D10
 10
1.735738910807321
 20
3.026757909737405
 30
0.0
 11
1.48444387341779
 21
3.083518616739444
 31
0.0
 70
    32
 71
     5
 42
0.1771653543307092
 73
     0
 74
     0
 75
     0
  3
Standard
100
AcDbAlignedDimension
 13
1.91290426513803
 23
2.774191848185977
 33
0.0
 14
1.735738910807321
 24
2.065530430863142
 34
0.0
100
AcDbRotatedDimension
  0
DIMENSION
  5
F1F
330
1F
100
AcDbEntity
  8
DIM
100
AcDbDimension
  2
*D11
 10
1.215788205197249
 20
2.774191848185978
 30
0.0
 11
1.159027498195209
 21
3.016040930442946
 31
0.0
 70
    32
 71
     5
 42
0.1062992125984268
 73
     0
 74
     0
 75
     0
  3
Standard
100
AcDbAlignedDimension
 13
1.708179855689212
 23
2.667892635587551
 33
0.0
 14
1.745581430492362
 24
2.774191848185978
 34
0.0
 50
90.0
100
AcDbRotatedDimension
  0
DIMENSION
  5
F2E
330
1F
100
AcDbEntity
  8
DIM
100
AcDbDimension
  2
*D12
 10
0.8759954306001276
 20
2.065530430863143
 30
0.0
 11
0.8192347235980879
 21
2.41986113952456
 31
0.0
 70
    32
 71
     5
 42
0.7086614173228348
 73
     0
 74
     0
 75
     0
  3
Standard
100
AcDbAlignedDimension
 13
1.745581430492362
 23
2.774191848185977
 33
0.0
 14
1.735738910807321
 24
2.065530430863142
 34
0.0
 50
90.0
100
AcDbRotatedDimension
  0
DIMENSION
  5
F3B
330
1F
100
AcDbEntity
  8
DIM
100
AcDbDimension
  2
*D13
 10
4.821779959273178
 20
3.063933061681417
 30
0.0
 11
4.617055549824359
 21
3.120693768683457
 31
0.0
 70
    32
 71
     5
 42
0.409448818897638
 73
     0
 74
     0
 75
     0
  3
Standard
100
AcDbAlignedDimension
 13
4.41233114037554
 23
2.667892635587551
 33
0.0
 14
4.821779959273178
 24
2.667892635587551
 34
0.0
100
AcDbRotatedDimension
  0
DIMENSION
  5
F48
330
1F
100
AcDbEntity
  8
DIM
100
AcDbDimension
  2
*D14
 10
4.804063423840108
 20
2.88885536286113
 30
0.0
 11
4.617055549824359
 21
2.94561606986317
 31
0.0
 70
    32
 71
     5
 42
0.3740157480314963
 73
     0
 74
     0
 75
     0
  3
Standard
100
AcDbAlignedDimension
 13
4.430047675808611
 23
2.754506808815898
 33
0.0
 14
4.804063423840108
 24
2.754506808815898
 34
0.0
100
AcDbRotatedDimension
  0
DIMENSION
  5
F55
330
1F
100
AcDbEntity
  8
DIM
100
AcDbDimension
  2
*D15
 10
4.131179966944966
 20
2.171503250671588
 30
0.0
 11
4.074419259942925
 21
2.422322421303812
 31
0.0
 70
    32
 71
     5
 42
0.0469177016982099
 73
     0
 74
     0
 75
     0
  3
Standard
100
AcDbAlignedDimension
 13
4.41233114037554
 23
2.124585548973378
 33
0.0
 14
4.467449250612579
 24
2.171503250671588
 34
0.0
 50
90.0
100
AcDbRotatedDimension
  0
DIMENSION
  5
F64
330
1F
100
AcDbEntity
  8
DIM
100
AcDbDimension
  2
*D16
 10
4.131179966944966
 20
1.541908383619048
 30
0.0
 11
4.074419259942926
 21
1.833246966296215
 31
0.0
 70
    32
 71
     5
 42
0.5826771653543328
 73
     0
 74
     0
 75
     0
  3
Standard
100
AcDbAlignedDimension
 13
4.41233114037554
 23
2.124585548973381
 33
0.0
 14
4.41233114037554
 24
1.541908383619048
 34
0.0
 50
90.0
100
AcDbRotatedDimension
  0
DIMENSION
  5
F71
330
1F
100
AcDbEntity
  8
DIM
100
AcDbDimension
  2
*D17
 10
4.131179966944966
 20
1.435609171020622
 30
0.0
 11
4.074419259942926
 21
1.193760088763655
 31
0.0
 70
    32
 71
     5
 42
0.1062992125984254
 73
     0
 74
     0
 75
     0
  3
Standard
100
AcDbAlignedDimension
 13
4.41233114037554
 23
1.541908383619048
 33
0.0
 14
4.44973271517869
 24
1.435609171020622
 34
0.0
 50
90.0
100
AcDbRotatedDimension
  0
SPLINE
  5
102C
330
1F
100
AcDbEntity
  8
0
100
AcDbSpline
210
0.0
220
0.0
230
1.0
 70
     8
 71
     3
 72
    28
 73
    24
 74
     0
 42
0.0000000001
 43
0.0000000001
 40
0.0
 40
0.0
 40
0.0
 40
0.0
 40
0.059784227448899
 40
0.0840939508107414
 40
0.1243554371333399
 40
0.1660297074830986
 40
0.2105995776820346
 40
0.2569518505666787
 40
0.3046475930926054
 40
0.3533436400222727
 40
0.4028061711603677
 40
0.452870381183388
 40
0.5034181269331991
 40
0.5543607827844022
 40
0.6056105584661871
 40
0.657074627393935
 40
0.7086694860069262
 40
0.7603180971469329
 40
0.8119773894093681
 40
0.8636794836908222
 40
0.915573191484381
 40
0.967948114127007
 40
1.0
 40
1.0
 40
1.0
 40
1.0
 10
4.681709735006263
 20
4.490396192148784
 30
0.0
 10
4.675992322342071
 20
4.490309839087606
 30
0.0
 10
4.667950070399311
 20
4.490188372767993
 30
0.0
 10
4.656133797683887
 20
4.489377404197631
 30
0.0
 10
4.646100880534032
 20
4.488405546007238
 30
0.0
 10
4.634300067278645
 20
4.486787253367921
 30
0.0
 10
4.622141665086414
 20
4.484600867294087
 30
0.0
 10
4.609723420935582
 20
4.481780343327014
 30
0.0
 10
4.59731045937581
 20
4.478319005988143
 30
0.0
 10
4.585085444768187
 20
4.47421332438377
 30
0.0
 10
4.573202165165813
 20
4.469469020727963
 30
0.0
 10
4.561789794841224
 20
4.464096555637611
 30
0.0
 10
4.550960042690794
 20
4.458109433107063
 30
0.0
 10
4.54081325706168
 20
4.451523583455357
 30
0.0
 10
4.531443005737462
 20
4.444357791939468
 30
0.0
 10
4.522938181854513
 20
4.43663429957186
 30
0.0
 10
4.515385001380003
 20
4.428379586329593
 30
0.0
 10
4.508865091336943
 20
4.419625118293118
 30
0.0
 10
4.503464846248198
 20
4.410408156016167
 30
0.0
 10
4.499241256419037
 20
4.400770875901426
 30
0.0
 10
4.496350676704911
 20
4.390757992581466
 30
0.0
 10
4.494813171138223
 20
4.381811177037874
 30
0.0
 10
4.494860959211903
 20
4.376229083541465
 30
0.0
 10
4.494879101528434
 20
4.374109891464624
 30
0.0
  0
SPLINE
  5
102D
330
1F
100
AcDbEntity
  8
0
100
AcDbSpline
210
0.0
220
0.0
230
1.0
 70
     8
 71
     3
 72
    27
 73
    23
 74
     0
 42
0.0000000001
 43
0.0000000001
 40
0.0
 40
0.0
 40
0.0
 40
0.0
 40
0.0204840956748368
 40
0.0752693204736257
 40
0.1319712545860354
 40
0.1844776545394337
 40
0.2377925215563403
 40
0.2918631672295178
 40
0.346513831342726
 40
0.4015101793535111
 40
0.4566281957163023
 40
0.5116899738498438
 40
0.5665281879858166
 40
0.6210535171309494
 40
0.6751588803535337
 40
0.7286624511931276
 40
0.781184898297759
 40
0.8317689197173228
 40
0.8805343981445435
 40
0.9153451419182472
 40
0.9504422859880838
 40
1.0
 40
1.0
 40
1.0
 40
1.0
 10
4.868542513947465
 20
4.37427749965682
 30
0.0
 10
4.868584334989428
 20
4.375629888438747
 30
0.0
 10
4.86873800745123
 20
4.380599274749361
 30
0.0
 10
4.867393256538804
 20
4.389279712288055
 30
0.0
 10
4.86454409548407
 20
4.399835318157214
 30
0.0
 10
4.860201774418799
 20
4.409939597327975
 30
0.0
 10
4.854684856400695
 20
4.419457123083872
 30
0.0
 10
4.847870438973856
 20
4.428608133675222
 30
0.0
 10
4.83982888739232
 20
4.437309693491423
 30
0.0
 10
4.830640236034245
 20
4.445486710845759
 30
0.0
 10
4.820401932489272
 20
4.453076962670682
 30
0.0
 10
4.809220710852799
 20
4.460030513458669
 30
0.0
 10
4.797207552135281
 20
4.466310096635572
 30
0.0
 10
4.784478974265552
 20
4.471886922713037
 30
0.0
 10
4.771161709817194
 20
4.476737905155423
 30
0.0
 10
4.757415530509619
 20
4.480840710486327
 30
0.0
 10
4.743485003671662
 20
4.484170504139877
 30
0.0
 10
4.729600671271708
 20
4.486738298833488
 30
0.0
 10
4.717086315758641
 20
4.488436531892227
 30
0.0
 10
4.705886031913599
 20
4.489497958280127
 30
0.0
 10
4.694531559708174
 20
4.490230358623796
 30
0.0
 10
4.686444167196749
 20
4.490334958463469
 30
0.0
 10
4.681709735006263
 20
4.490396192148784
 30
0.0
  0
LINE
  5
102E
330
1F
100
AcDbEntity
  8
0
100
AcDbLine
 10
4.494701860989941
 20
4.374117736386438
 30
0.0
 11
4.494701860989941
 21
4.341970460327945
 31
0.0
  0
LINE
  5
102F
330
1F
100
AcDbEntity
  8
0
100
AcDbLine
 10
4.868717609021437
 20
4.341970460327945
 30
0.0
 11
4.868717609021437
 21
4.374117736386438
 31
0.0
  0
LINE
  5
1030
330
1F
100
AcDbEntity
  8
0
100
AcDbLine
 10
4.47698532555687
 20
4.303393729057752
 30
0.0
 11
4.47698532555687
 21
3.92405587156758
 31
0.0
  0
LINE
  5
1031
330
1F
100
AcDbEntity
  8
0
100
AcDbLine
 10
4.886434144454508
 20
3.92405587156758
 30
0.0
 11
4.886434144454508
 21
4.303393729057752
 31
0.0
  0
SPLINE
  5
1032
330
1F
100
AcDbEntity
  8
0
100
AcDbSpline
210
0.0
220
0.0
230
1.0
 70
     8
 71
     3
 72
    22
 73
    18
 74
     0
 42
0.0000000001
 43
0.0000000001
 40
0.0
 40
0.0
 40
0.0
 40
0.0
 40
0.0698817613199632
 40
0.1530149423550432
 40
0.2291638673390784
 40
0.3024298067812674
 40
0.3746178914828763
 40
0.446527086667974
 40
0.5184222489589529
 40
0.5904087378584267
 40
0.6621268524293117
 40
0.732602935020806
 40
0.7991444314183797
 40
0.8570418776253667
 40
0.9036808809603421
 40
0.9584625284015478
 40
1.0
 40
1.0
 40
1.0
 40
1.0
 10
4.759744479579283
 20
4.374082979169269
 30
0.0
 10
4.759744855586984
 20
4.373253608647843
 30
0.0
 10
4.759745678903336
 20
4.371437597143121
 30
0.0
 10
4.758743295569461
 20
4.368397295764191
 30
0.0
 10
4.75684399954659
 20
4.364840122248049
 30
0.0
 10
4.75392531832221
 20
4.361103484514083
 30
0.0
 10
4.74995301954753
 20
4.357277528329697
 30
0.0
 10
4.744919933900131
 20
4.353496841630815
 30
0.0
 10
4.738885697685975
 20
4.349898207164353
 30
0.0
 10
4.731958325294462
 20
4.346607431799415
 30
0.0
 10
4.724308472029646
 20
4.343737278616347
 30
0.0
 10
4.716238062996026
 20
4.341394548089086
 30
0.0
 10
4.708262988050261
 20
4.339662302595351
 30
0.0
 10
4.701000370027787
 20
4.338527575917701
 30
0.0
 10
4.694091822974097
 20
4.337790808429039
 30
0.0
 10
4.68780471505841
 20
4.33739000517132
 30
0.0
 10
4.683546209124633
 20
4.337343913819716
 30
0.0
 10
4.681709735005687
 20
4.337324036995393
 30
0.0
  0
SPLINE
  5
1033
330
1F
100
AcDbEntity
  8
0
100
AcDbSpline
210
0.0
220
0.0
230
1.0
 70
     8
 71
     3
 72
    23
 73
    19
 74
     0
 42
0.0000000001
 43
0.0000000001
 40
0.0
 40
0.0
 40
0.0
 40
0.0
 40
0.0832200757221394
 40
0.1171982499350628
 40
0.1732059399258925
 40
0.2308035191883207
 40
0.291894762007588
 40
0.3547685031287344
 40
0.4186966586482615
 40
0.4831344749818226
 40
0.5477735549697562
 40
0.6125386409761961
 40
0.6776488760276742
 40
0.7436054411805863
 40
0.8115588964087558
 40
0.8838503953671906
 40
0.9653354468007147
 40
1.0
 40
1.0
 40
1.0
 40
1.0
 10
4.681709735005687
 20
4.337324036995393
 30
0.0
 10
4.678013390378686
 20
4.337398791640892
 30
0.0
 10
4.672807854122175
 20
4.337504068084719
 30
0.0
 10
4.665228766342719
 20
4.338202359695907
 30
0.0
 10
4.658864405451194
 20
4.339033535824181
 30
0.0
 10
4.651546529914575
 20
4.340395932258177
 30
0.0
 10
4.644249972608821
 20
4.342193781386389
 30
0.0
 10
4.637121609427358
 20
4.344441031967097
 30
0.0
 10
4.630398853888584
 20
4.347088877497175
 30
0.0
 10
4.624251962385682
 20
4.35007400488416
 30
0.0
 10
4.618812335528362
 20
4.353314975345162
 30
0.0
 10
4.614171743175264
 20
4.356718531717558
 30
0.0
 10
4.610383921399854
 20
4.360182830711646
 30
0.0
 10
4.607466776751118
 20
4.363607132951037
 30
0.0
 10
4.605376383354978
 20
4.366908994271884
 30
0.0
 10
4.604100731781374
 20
4.370076844707084
 30
0.0
 10
4.603516795018085
 20
4.372412174599303
 30
0.0
 10
4.60364216915504
 20
4.373817149077383
 30
0.0
 10
4.603679586746379
 20
4.374236460126207
 30
0.0
  0
SPLINE
  5
1034
330
1F
100
AcDbEntity
  8
0
100
AcDbSpline
210
0.0
220
0.0
230
1.0
 70
     8
 71
     3
 72
    28
 73
    24
 74
     0
 42
0.0000000001
 43
0.0000000001
 40
0.0
 40
0.0
 40
0.0
 40
0.0
 40
0.0597842274473547
 40
0.0840939508095858
 40
0.1243554371323515
 40
0.1660297074822835
 40
0.2105995776813901
 40
0.2569518505661775
 40
0.3046475930922449
 40
0.3533436400220526
 40
0.4028061711602765
 40
0.4528703811834243
 40
0.5034181269333646
 40
0.5543607827846929
 40
0.6056105584666039
 40
0.6570746273944729
 40
0.7086694860075848
 40
0.7603180971477089
 40
0.8119773894102618
 40
0.863679483691836
 40
0.9155731914855206
 40
0.9679481141282906
 40
1.0
 40
1.0
 40
1.0
 40
1.0
 10
4.392185698614249
 20
4.657534860710913
 30
0.0
 10
4.386468285950218
 20
4.657448507649727
 30
0.0
 10
4.378426034007588
 20
4.657327041330102
 30
0.0
 10
4.366609761292287
 20
4.65651607275974
 30
0.0
 10
4.356576844142389
 20
4.655544214569332
 30
0.0
 10
4.344776030886984
 20
4.653925921929999
 30
0.0
 10
4.332617628694744
 20
4.651739535856151
 30
0.0
 10
4.320199384543908
 20
4.64891901188906
 30
0.0
 10
4.307786422984139
 20
4.645457674550171
 30
0.0
 10
4.295561408376524
 20
4.641351992945781
 30
0.0
 10
4.283678128774161
 20
4.636607689289958
 30
0.0
 10
4.272265758449585
 20
4.63123522419959
 30
0.0
 10
4.261436006299174
 20
4.625248101669026
 30
0.0
 10
4.251289220670078
 20
4.618662252017303
 30
0.0
 10
4.241918969345881
 20
4.6114964605014
 30
0.0
 10
4.233414145462957
 20
4.603772968133777
 30
0.0
 10
4.225860964988474
 20
4.595518254891497
 30
0.0
 10
4.219341054945442
 20
4.586763786855009
 30
0.0
 10
4.21394080985673
 20
4.577546824578046
 30
0.0
 10
4.2097172200276
 20
4.567909544463296
 30
0.0
 10
4.206826640313509
 20
4.557896661143326
 30
0.0
 10
4.205289134746862
 20
4.548949845599817
 30
0.0
 10
4.205336922820561
 20
4.543367752103496
 30
0.0
 10
4.205355065137096
 20
4.541248560026745
 30
0.0
  0
SPLINE
  5
1035
330
1F
100
AcDbEntity
  8
0
100
AcDbSpline
210
0.0
220
0.0
230
1.0
 70
     8
 71
     3
 72
    27
 73
    23
 74
     0
 42
0.0000000001
 43
0.0000000001
 40
0.0
 40
0.0
 40
0.0
 40
0.0
 40
0.0204840956747654
 40
0.0752693204734266
 40
0.1319712545857013
 40
0.1844776545389743
 40
0.2377925215557572
 40
0.2918631672288088
 40
0.3465138313418868
 40
0.4015101793525436
 40
0.4566281957152065
 40
0.5116899738486238
 40
0.5665281879844688
 40
0.6210535171294741
 40
0.6751588803519307
 40
0.728662451191399
 40
0.7811848982959138
 40
0.8317689197153585
 40
0.8805343981424647
 40
0.9153451419160807
 40
0.9504422859853345
 40
1.0
 40
1.0
 40
1.0
 40
1.0
 10
4.579018477556124
 20
4.541416168218948
 30
0.0
 10
4.579060298598087
 20
4.542768557000874
 30
0.0
 10
4.579213971059888
 20
4.547737943311486
 30
0.0
 10
4.577869220147462
 20
4.556418380850178
 30
0.0
 10
4.575020059092731
 20
4.566973986719338
 30
0.0
 10
4.57067773802746
 20
4.5770782658901
 30
0.0
 10
4.565160820009356
 20
4.586595791645995
 30
0.0
 10
4.558346402582518
 20
4.595746802237346
 30
0.0
 10
4.550304851000983
 20
4.604448362053549
 30
0.0
 10
4.541116199642909
 20
4.612625379407885
 30
0.0
 10
4.530877896097936
 20
4.620215631232808
 30
0.0
 10
4.519696674461462
 20
4.627169182020796
 30
0.0
 10
4.507683515743944
 20
4.633448765197699
 30
0.0
 10
4.494954937874215
 20
4.639025591275164
 30
0.0
 10
4.481637673425857
 20
4.643876573717551
 30
0.0
 10
4.467891494118283
 20
4.647979379048456
 30
0.0
 10
4.453960967280325
 20
4.651309172702006
 30
0.0
 10
4.440076634880369
 20
4.653876967395618
 30
0.0
 10
4.427562279367304
 20
4.655575200454356
 30
0.0
 10
4.416361995522311
 20
4.656636626842251
 30
0.0
 10
4.405007523316661
 20
4.657369027185938
 30
0.0
 10
4.396920130805009
 20
4.657473627025601
 30
0.0
 10
4.392185698614249
 20
4.657534860710913
 30
0.0
  0
LINE
  5
1036
330
1F
100
AcDbEntity
  8
0
100
AcDbLine
 10
4.2051778245986
 20
4.541256404948569
 30
0.0
 11
4.2051778245986
 21
4.509109128890075
 31
0.0
  0
LINE
  5
1037
330
1F
100
AcDbEntity
  8
0
100
AcDbLine
 10
4.579193572630096
 20
4.509109128890075
 30
0.0
 11
4.579193572630096
 21
4.541256404948569
 31
0.0
  0
LINE
  5
1038
330
1F
100
AcDbEntity
  8
0
100
AcDbLine
 10
4.187461289165528
 20
4.470532397619881
 30
0.0
 11
4.187461289165528
 21
4.104331834394174
 31
0.0
  0
SPLINE
  5
1039
330
1F
100
AcDbEntity
  8
0
100
AcDbSpline
210
0.0
220
0.0
230
1.0
 70
     8
 71
     3
 72
    22
 73
    18
 74
     0
 42
0.0000000001
 43
0.0000000001
 40
0.0
 40
0.0
 40
0.0
 40
0.0
 40
0.0698817613199466
 40
0.1530149423550287
 40
0.2291638673390644
 40
0.3024298067812529
 40
0.3746178914828638
 40
0.4465270866679612
 40
0.5184222489589391
 40
0.5904087378584149
 40
0.6621268524293017
 40
0.7326029350207966
 40
0.7991444314183746
 40
0.8570418776253633
 40
0.9036808809603355
 40
0.9584625284015306
 40
1.0
 40
1.0
 40
1.0
 40
1.0
 10
4.470220443187941
 20
4.5412216477314
 30
0.0
 10
4.470220819195643
 20
4.540392277209972
 30
0.0
 10
4.470221642511994
 20
4.538576265705251
 30
0.0
 10
4.469219259178119
 20
4.535535964326321
 30
0.0
 10
4.467319963155248
 20
4.53197879081018
 30
0.0
 10
4.464401281930869
 20
4.528242153076212
 30
0.0
 10
4.460428983156189
 20
4.524416196891827
 30
0.0
 10
4.455395897508791
 20
4.520635510192946
 30
0.0
 10
4.449361661294633
 20
4.517036875726484
 30
0.0
 10
4.442434288903122
 20
4.513746100361545
 30
0.0
 10
4.434784435638306
 20
4.510875947178478
 30
0.0
 10
4.426714026604686
 20
4.508533216651215
 30
0.0
 10
4.41873895165892
 20
4.506800971157481
 30
0.0
 10
4.411476333636446
 20
4.505666244479832
 30
0.0
 10
4.404567786582758
 20
4.504929476991168
 30
0.0
 10
4.398280678667068
 20
4.50452867373345
 30
0.0
 10
4.394022172733293
 20
4.504482582381847
 30
0.0
 10
4.392185698614345
 20
4.504462705557522
 30
0.0
  0
SPLINE
  5
103A
330
1F
100
AcDbEntity
  8
0
100
AcDbSpline
210
0.0
220
0.0
230
1.0
 70
     8
 71
     3
 72
    23
 73
    19
 74
     0
 42
0.0000000001
 43
0.0000000001
 40
0.0
 40
0.0
 40
0.0
 40
0.0
 40
0.0832200757221424
 40
0.11719824993506
 40
0.173205939925896
 40
0.2308035191883174
 40
0.2918947620075853
 40
0.354768503128733
 40
0.4186966586482578
 40
0.4831344749818198
 40
0.5477735549697539
 40
0.6125386409761933
 40
0.6776488760276717
 40
0.743605441180585
 40
0.8115588964087546
 40
0.8838503953671882
 40
0.9653354468007076
 40
0.9999999999999998
 40
0.9999999999999998
 40
0.9999999999999998
 40
0.9999999999999998
 10
4.392185698614345
 20
4.504462705557522
 30
0.0
 10
4.388489353987345
 20
4.504537460203021
 30
0.0
 10
4.383283817730834
 20
4.504642736646848
 30
0.0
 10
4.375704729951379
 20
4.505341028258036
 30
0.0
 10
4.369340369059853
 20
4.506172204386311
 30
0.0
 10
4.362022493523233
 20
4.507534600820306
 30
0.0
 10
4.35472593621748
 20
4.509332449948519
 30
0.0
 10
4.347597573036018
 20
4.511579700529225
 30
0.0
 10
4.340874817497242
 20
4.514227546059305
 30
0.0
 10
4.334727925994341
 20
4.517212673446289
 30
0.0
 10
4.32928829913702
 20
4.520453643907292
 30
0.0
 10
4.324647706783923
 20
4.523857200279688
 30
0.0
 10
4.320859885008513
 20
4.527321499273776
 30
0.0
 10
4.317942740359776
 20
4.530745801513167
 30
0.0
 10
4.315852346963637
 20
4.534047662834013
 30
0.0
 10
4.314576695390033
 20
4.537215513269215
 30
0.0
 10
4.313992758626745
 20
4.539550843161432
 30
0.0
 10
4.3141181327637
 20
4.540955817639512
 30
0.0
 10
4.314155550355038
 20
4.541375128688336
 30
0.0
  0
LINE
  5
103B
330
1F
100
AcDbEntity
  8
0
100
AcDbLine
 10
4.831316034218287
 20
3.827614043392039
 30
0.0
 11
4.831316034218287
 21
3.843379962217091
 31
0.0
  0
LINE
  5
103C
330
1F
100
AcDbEntity
  8
0
100
AcDbLine
 10
4.332223307361199
 20
3.943330653731599
 30
0.0
 11
4.332223307361199
 21
3.467550968065886
 31
0.0
  0
LINE
  5
103D
330
1F
100
AcDbEntity
  8
0
100
AcDbLine
 10
4.741672126258837
 20
3.467550968065886
 30
0.0
 11
4.741672126258837
 21
3.748488646089555
 31
0.0
  0
LINE
  5
103E
330
1F
100
AcDbEntity
  8
0
100
AcDbLine
 10
4.187461289165528
 20
4.18697109930878
 30
0.0
 11
4.040631213539533
 21
4.102207900885303
 31
0.0
  0
LINE
  5
103F
330
1F
100
AcDbEntity
  8
0
100
AcDbLine
 10
4.198098730490094
 20
3.829436605647291
 30
0.0
 11
4.332223307361199
 21
3.906865075763653
 31
0.0
  0
LINE
  5
1040
330
1F
100
AcDbEntity
  8
0
100
AcDbLine
 10
4.34993984279427
 20
3.419458574333428
 30
0.0
 11
4.34993984279427
 21
3.396826960737199
 31
0.0
  0
LINE
  5
1041
330
1F
100
AcDbEntity
  8
0
100
AcDbLine
 10
4.723955590825766
 20
3.396826960737199
 30
0.0
 11
4.723955590825766
 21
3.419458574333428
 31
0.0
  0
SPLINE
  5
1042
330
1F
100
AcDbEntity
  8
0
100
AcDbSpline
210
0.0
220
0.0
230
1.0
 70
     8
 71
     3
 72
    27
 73
    23
 74
     0
 42
0.0000000001
 43
0.0000000001
 40
0.0
 40
0.0
 40
0.0
 40
0.0
 40
0.0213244027338492
 40
0.076062628386399
 40
0.1327159190460652
 40
0.1851772748113789
 40
0.2384464040725156
 40
0.2924706636225599
 40
0.3470744440264376
 40
0.4020236117726087
 40
0.4570943434939461
 40
0.5121088852316875
 40
0.566900054762928
 40
0.6213786077210885
 40
0.6754375550370466
 40
0.7288952262356405
 40
0.7813726153856658
 40
0.8319132417871538
 40
0.8806368852857499
 40
0.9154177656176967
 40
0.9504848005430892
 40
1.0
 40
1.0
 40
1.0
 40
1.0
 10
4.350117338742649
 20
3.396837201152437
 30
0.0
 10
4.350073079633439
 20
3.395428111510384
 30
0.0
 10
4.349915210537708
 20
3.39040198894347
 30
0.0
 10
4.351262498634035
 20
3.381664950685786
 30
0.0
 10
4.354113779505246
 20
3.371109387483987
 30
0.0
 10
4.358455565879313
 20
3.361005097551039
 30
0.0
 10
4.363972625952273
 20
3.351487574654402
 30
0.0
 10
4.370787004514285
 20
3.342336563280788
 30
0.0
 10
4.378828566680445
 20
3.333635003677632
 30
0.0
 10
4.38801721517357
 20
3.325457986265632
 30
0.0
 10
4.398255519489328
 20
3.317867734456226
 30
0.0
 10
4.409436740919487
 20
3.310914183664085
 30
0.0
 10
4.421449899691991
 20
3.30463460048829
 30
0.0
 10
4.434178477547112
 20
3.299057774410534
 30
0.0
 10
4.447495741999339
 20
3.294206791968225
 30
0.0
 10
4.461241921305895
 20
3.290103986637302
 30
0.0
 10
4.475172448144118
 20
3.286774192983758
 30
0.0
 10
4.48905678054381
 20
3.284206398290182
 30
0.0
 10
4.501571136056463
 20
3.282508165231489
 30
0.0
 10
4.512771419900302
 20
3.28144673884367
 30
0.0
 10
4.524125892106096
 20
3.280714338499888
 30
0.0
 10
4.532213284618142
 20
3.280609738660194
 30
0.0
 10
4.536947716810018
 20
3.280548504974854
 30
0.0
  0
SPLINE
  5
1043
330
1F
100
AcDbEntity
  8
0
100
AcDbSpline
210
0.0
220
0.0
230
1.0
 70
     8
 71
     3
 72
    28
 73
    24
 74
     0
 42
0.0000000001
 43
0.0000000001
 40
0.0
 40
0.0
 40
0.0
 40
0.0
 40
0.0599506847531851
 40
0.0843280937040634
 40
0.1247016801368868
 40
0.1664919842119765
 40
0.2111859503589677
 40
0.2576672819377887
 40
0.3054958237821996
 40
0.3543274551792285
 40
0.4039277049076738
 40
0.4541313087763609
 40
0.5048197946810004
 40
0.5559042902357496
 40
0.6072967607352312
 40
0.6589041211376467
 40
0.7106426353831994
 40
0.7624350518190005
 40
0.8142381791166922
 40
0.8660842276071193
 40
0.9181224231193978
 40
0.9706431733278652
 40
1.0
 40
1.0
 40
1.0
 40
1.0
 10
4.536947716810018
 20
3.280548504974854
 30
0.0
 10
4.542665129474336
 20
3.280634858036045
 30
0.0
 10
4.550707381416684
 20
3.280756324355668
 30
0.0
 10
4.562523654131791
 20
3.281567292926009
 30
0.0
 10
4.572556571281186
 20
3.282539151116341
 30
0.0
 10
4.584357384536648
 20
3.28415744375565
 30
0.0
 10
4.596515786728812
 20
3.28634382982946
 30
0.0
 10
4.608934030879792
 20
3.289164353796505
 30
0.0
 10
4.621346992438988
 20
3.292625691135376
 30
0.0
 10
4.633572007048853
 20
3.296731372739635
 30
0.0
 10
4.645455286642715
 20
3.301475676395769
 30
0.0
 10
4.656867656999724
 20
3.306848141484766
 30
0.0
 10
4.66769740902752
 20
3.312835264020333
 30
0.0
 10
4.677844195119673
 20
3.319421113652989
 30
0.0
 10
4.687214444700777
 20
3.326586905240499
 30
0.0
 10
4.695719275128806
 20
3.334310397339087
 30
0.0
 10
4.703272431088476
 20
3.342565111588895
 30
0.0
 10
4.709792432765576
 20
3.351319575859204
 30
0.0
 10
4.715192335643085
 20
3.360536552200983
 30
0.0
 10
4.719417205266308
 20
3.370173779716322
 30
0.0
 10
4.722302975942434
 20
3.380186860687178
 30
0.0
 10
4.723824615707751
 20
3.388950812875742
 30
0.0
 10
4.72378484081849
 20
3.394349061593585
 30
0.0
 10
4.723770579715824
 20
3.396284578715372
 30
0.0
  0
SPLINE
  5
1044
330
1F
100
AcDbEntity
  8
0
100
AcDbSpline
210
0.0
220
0.0
230
1.0
 70
     8
 71
     3
 72
    10
 73
     6
 74
     0
 42
0.0000000001
 43
0.0000000001
 40
0.0
 40
0.0
 40
0.0
 40
0.0
 40
0.5
 40
0.5
 40
1.0
 40
1.0
 40
1.0
 40
1.0
 10
4.563394623980381
 20
4.458493234164634
 30
0.0
 10
4.628694509655966
 20
4.496190055765739
 30
0.0
 10
4.734724960355412
 20
4.496190055765739
 30
0.0
 10
4.865324731706582
 20
4.420796412563527
 30
0.0
 10
4.865324731706582
 20
4.359586336267845
 30
0.0
 10
4.800024846030996
 20
4.321889514666739
 30
0.0
  0
SPLINE
  5
1045
330
1F
100
AcDbEntity
  8
0
100
AcDbSpline
210
0.0
220
0.0
230
1.0
 70
     8
 71
     3
 72
    10
 73
     6
 74
     0
 42
0.0000000001
 43
0.0000000001
 40
0.0
 40
0.0
 40
0.0
 40
0.0
 40
0.5
 40
0.5
 40
1.0
 40
1.0
 40
1.0
 40
1.0
 10
4.800024846030996
 20
4.321889514666739
 30
0.0
 10
4.734724960355412
 20
4.284192693065633
 30
0.0
 10
4.628694509655966
 20
4.284192693065633
 30
0.0
 10
4.498094738304796
 20
4.359586336267845
 30
0.0
 10
4.498094738304796
 20
4.420796412563527
 30
0.0
 10
4.563394623980381
 20
4.458493234164634
 30
0.0
  0
LWPOLYLINE
  5
1046
330
1F
100
AcDbEntity
  8
0
100
AcDbPolyline
 90
       35
 70
   128
 43
0.0
 10
4.868717609021437
 20
4.341970460327945
 10
4.868664647399089
 20
4.339401324018725
 10
4.867395067769394
 20
4.329153865198168
 10
4.864443893012107
 20
4.319022475447807
 10
4.859837849422828
 20
4.309098906202103
 10
4.853618650045566
 20
4.299473026840848
 10
4.845842616912951
 20
4.290232010818143
 10
4.836580170985176
 20
4.281459546206096
 10
4.825915194406893
 20
4.273235077802683
 10
4.813944270857502
 20
4.265633087667356
 10
4.800775810874415
 20
4.258722420599979
 10
4.786529070070422
 20
4.252565660671654
 10
4.771333069136407
 20
4.247218564453694
 10
4.755325425409987
 20
4.242729556077465
 10
4.738651106591595
 20
4.239139288697963
 10
4.721461117894532
 20
4.236480276332541
 10
4.703911134518373
 20
4.234776599408943
 10
4.686160091830254
 20
4.234043686689206
 10
4.668368746021578
 20
4.234288175544415
 10
4.650698218275047
 20
4.235507851845639
 10
4.633308535626278
 20
4.237691670015422
 10
4.616357181734202
 20
4.240819853058245
 10
4.599997670684645
 20
4.244864071664062
 10
4.584378156743007
 20
4.249787700762914
 10
4.569640092646282
 20
4.255546151207242
 10
4.555916948585177
 20
4.2620872735781
 10
4.543333003477392
 20
4.269351830458385
 10
4.532002219478494
 20
4.277274032896039
 10
4.522027209922993
 20
4.285782136199009
 10
4.513498310042091
 20
4.294799089666265
 10
4.506492758873843
 20
4.304243234370902
 10
4.501073999774464
 20
4.314029042676011
 10
4.497291105865476
 20
4.324067892786213
 10
4.495178335619914
 20
4.334268871320351
 10
4.494701860989941
 20
4.341970460327945
  0
SPLINE
  5
1047
330
1F
100
AcDbEntity
  8
0
100
AcDbSpline
210
0.0
220
0.0
230
1.0
 70
     8
 71
     3
 72
    28
 73
    24
 74
     0
 42
0.0000000001
 43
0.0000000001
 40
0.0
 40
0.0
 40
0.0
 40
0.0
 40
0.0201640490269297
 40
0.0401652102244843
 40
0.0600824515057758
 40
0.0799957391846164
 40
0.0999850870233986
 40
0.1201296024749018
 40
0.185076701851513
 40
0.2500925112009222
 40
0.3150396415016377
 40
0.3800554818069848
 40
0.4400081548277141
 40
0.5000288542312496
 40
0.5599815462829178
 40
0.6200022598681383
 40
0.6849493592449008
 40
0.7499651685941571
 40
0.814912298895061
 40
0.8799281392002226
 40
0.920013406950596
 40
0.9598238932000338
 40
1.0
 40
1.0
 40
1.0
 40
1.0
 10
4.750889276393428
 20
4.350254875244831
 30
0.0
 10
4.749403840348236
 20
4.349427682900419
 30
0.0
 10
4.746444967804807
 20
4.347779980379708
 30
0.0
 10
4.741693299368805
 20
4.345522515305331
 30
0.0
 10
4.736742399205886
 20
4.343440327049458
 30
0.0
 10
4.731568775329434
 20
4.341547360517974
 30
0.0
 10
4.726178137980186
 20
4.339839994739529
 30
0.0
 10
4.716443799107105
 20
4.337199207908458
 30
0.0
 10
4.701697450273988
 20
4.33447595354378
 30
0.0
 10
4.681717675079997
 20
4.333330973175967
 30
0.0
 10
4.661725458496843
 20
4.334475967383753
 30
0.0
 10
4.643083695280328
 20
4.337915785629085
 30
0.0
 10
4.626376569757392
 20
4.343185882872875
 30
0.0
 10
4.612135054337993
 20
4.350021099844685
 30
0.0
 10
4.600289018188351
 20
4.358244743440829
 30
0.0
 10
4.591161399368424
 20
4.367885632564479
 30
0.0
 10
4.585199141161537
 20
4.378650568796282
 30
0.0
 10
4.583213395273877
 20
4.390187846665936
 30
0.0
 10
4.585197814437651
 20
4.401725970997017
 30
0.0
 10
4.590531579379645
 20
4.411369995716484
 30
0.0
 10
4.597271988549512
 20
4.41901034129815
 30
0.0
 10
4.604139144475219
 20
4.424927144056637
 30
0.0
 10
4.609724666720296
 20
4.428389022301633
 30
0.0
 10
4.612530193617949
 20
4.430127873586541
 30
0.0
  0
SPLINE
  5
1048
330
1F
100
AcDbEntity
  8
0
100
AcDbSpline
210
0.0
220
0.0
230
1.0
 70
     8
 71
     3
 72
    28
 73
    24
 74
     0
 42
0.0000000001
 43
0.0000000001
 40
0.0
 40
0.0
 40
0.0
 40
0.0
 40
0.0201640490269786
 40
0.0401652102245625
 40
0.0600824515058636
 40
0.0799957391846947
 40
0.0999850870234487
 40
0.1201296024749058
 40
0.1850767018516254
 40
0.2500925112009233
 40
0.3150396415016691
 40
0.3800554818069855
 40
0.4400081548276549
 40
0.5000288542312472
 40
0.5599815462827596
 40
0.6200022598681351
 40
0.6849493592447507
 40
0.7499651685941549
 40
0.8149122988946732
 40
0.8799281392002093
 40
0.9200134069503043
 40
0.9598238931997419
 40
1.0
 40
1.0
 40
1.0
 40
1.0
 10
4.612530193617949
 20
4.430127873586541
 30
0.0
 10
4.614015629663145
 20
4.430955065930955
 30
0.0
 10
4.616974502206582
 20
4.432602768451669
 30
0.0
 10
4.621726170642588
 20
4.43486023352605
 30
0.0
 10
4.626677070805509
 20
4.436942421781924
 30
0.0
 10
4.631850694681959
 20
4.438835388313408
 30
0.0
 10
4.637241332031201
 20
4.44054275409185
 30
0.0
 10
4.64697567090429
 20
4.443183540922916
 30
0.0
 10
4.661722019737402
 20
4.44590679528759
 30
0.0
 10
4.681701794931396
 20
4.447051775655407
 30
0.0
 10
4.701694011514537
 20
4.445906781447616
 30
0.0
 10
4.720335774731048
 20
4.44246696320229
 30
0.0
 10
4.737042900253976
 20
4.437196865958496
 30
0.0
 10
4.751284415673371
 20
4.430361648986697
 30
0.0
 10
4.763130451823016
 20
4.422138005390549
 30
0.0
 10
4.772258070642943
 20
4.412497116266909
 30
0.0
 10
4.778220328849839
 20
4.401732180035099
 30
0.0
 10
4.780206074737504
 20
4.390194902165466
 30
0.0
 10
4.77822165557371
 20
4.37865677783438
 30
0.0
 10
4.77288789063175
 20
4.369012753114927
 30
0.0
 10
4.766147481461922
 20
4.361372407533242
 30
0.0
 10
4.759280325536204
 20
4.355455604774758
 30
0.0
 10
4.753694803291104
 20
4.351993726529752
 30
0.0
 10
4.750889276393428
 20
4.350254875244831
 30
0.0
  0
LWPOLYLINE
  5
1049
330
1F
100
AcDbEntity
  8
0
100
AcDbPolyline
 90
       37
 70
   128
 43
0.0
 10
4.886434144454508
 20
3.92405587156758
 10
4.886431985087799
 20
3.923513053637742
 10
4.885482600077013
 20
3.912674321354618
 10
4.882814956663132
 20
3.901931560850105
 10
4.878451549012448
 20
3.891375357485031
 10
4.872429170354811
 20
3.881094723528671
 10
4.864798602734882
 20
3.871176347587375
 10
4.855624188806574
 20
3.861703863626833
 10
4.844983289281382
 20
3.852757145751763
 10
4.832965630605559
 20
3.844411634689582
 10
4.819672548366637
 20
3.836737701657312
 10
4.805216132809077
 20
3.829800054975721
 10
4.789718283664235
 20
3.82365719443429
 10
4.773309682264557
 20
3.818360918007893
 10
4.756128689609324
 20
3.81395588508467
 10
4.738320179673747
 20
3.81047923988809
 10
4.720034317799189
 20
3.807960298268529
 10
4.701425294465391
 20
3.80642030050547
 10
4.682650025121843
 20
3.805872232204703
 10
4.663866827041596
 20
3.806320714800802
 10
4.645234084354584
 20
3.807761966588143
 10
4.626908912517193
 20
3.810183834609101
 10
4.609045833479568
 20
3.813565897130503
 10
4.591795472721953
 20
3.817879635844256
 10
4.575303289146922
 20
3.823088676340103
 10
4.559708348537367
 20
3.829149094822787
 10
4.54514215092269
 20
3.836009788487326
 10
4.531727521741125
 20
3.843612906429305
 10
4.519577576148153
 20
3.85189433745664
 10
4.5087947652042
 20
3.860784250689508
 10
4.499470011984362
 20
3.870207684389947
 10
4.491681944894686
 20
3.88008517805601
 10
4.485496234659863
 20
3.8903334424505
 10
4.480965040572964
 20
3.900866061914459
 10
4.478126570676625
 20
3.911594223043342
 10
4.477004759584265
 20
3.922427463581525
 10
4.47698532555687
 20
3.92405587156758
  0
LWPOLYLINE
  5
104A
330
1F
100
AcDbEntity
  8
0
100
AcDbPolyline
 90
       46
 70
   128
 43
0.0
 10
4.868717609021437
 20
4.35148612279021
 10
4.869521188594168
 20
4.350430959406939
 10
4.876206254779461
 20
4.340282312767036
 10
4.881249750951688
 20
4.329822322803807
 10
4.88460910950045
 20
4.319139272875127
 10
4.886255977104759
 20
4.308323328987214
 10
4.886176454037882
 20
4.297465778784543
 10
4.884371211482431
 20
4.286658261073039
 10
4.880855485865509
 20
4.275991992379412
 10
4.87565895026175
 20
4.265556997074581
 10
4.868825463949605
 20
4.255441347559012
 10
4.860412702234667
 20
4.245730420922879
 10
4.850491669664341
 20
4.236506178354919
 10
4.839146100742387
 20
4.227846473381815
 10
4.826471753201359
 20
4.219824394776686
 10
4.812575599797803
 20
4.212507649682549
 10
4.797574925451524
 20
4.205957992157286
 10
4.781596337349177
 20
4.200230701963237
 10
4.764774696366989
 20
4.1953741180005
 10
4.747251978831526
 20
4.191429230321793
 10
4.729176078225338
 20
4.188429334172329
 10
4.710699556951233
 20
4.186399748974615
 10
4.691978358690387
 20
4.185357604630019
 10
4.673170492222131
 20
4.185311696940685
 10
4.654434697814106
 20
4.186262413372084
 10
4.635929107438578
 20
4.188201729782774
 10
4.61780991012284
 20
4.191113278148951
 10
4.600230033698242
 20
4.1949724847122
 10
4.583337854074056
 20
4.199746777384464
 10
4.567275942930018
 20
4.205395860659721
 10
4.552179864397129
 20
4.211872055712063
 10
4.538177030882891
 20
4.219120702809737
 10
4.525385627697876
 20
4.227080622648747
 10
4.513913615559932
 20
4.235684632712253
 10
4.503857819394961
 20
4.244860114297726
 10
4.495303111124892
 20
4.254529625426033
 10
4.488321693340203
 20
4.264611554459454
 10
4.48297248990286
 20
4.275020808912046
 10
4.479300648623051
 20
4.2856695336387
 10
4.477337160207162
 20
4.296467852341326
 10
4.47709859669313
 20
4.307324626133766
 10
4.478586971580792
 20
4.318148222763078
 10
4.481789722837747
 20
4.328847289994881
 10
4.486679818924154
 20
4.339331526635327
 10
4.493215986941632
 20
4.349512444682167
 10
4.494701860989941
 20
4.35148612279021
  0
LWPOLYLINE
  5
104B
330
1F
100
AcDbEntity
  8
0
100
AcDbPolyline
 90
       29
 70
   128
 43
0.0
 10
4.48903582368037
 20
4.366408933035473
 10
4.472074313353438
 20
4.361717273057552
 10
4.454438535155319
 20
4.357944023576937
 10
4.436277336811828
 20
4.355121031195336
 10
4.417744000647176
 20
4.35327212224983
 10
4.398994949865878
 20
4.352412901716206
 10
4.380188428325314
 20
4.352550621501409
 10
4.3614831649418
 20
4.353684119236724
 10
4.343037034002717
 20
4.355803828088286
 10
4.325005722691782
 20
4.35889185750211
 10
4.307541417073707
 20
4.362922144202146
 10
4.290791517628638
 20
4.367860672166934
 10
4.274897395177416
 20
4.37366575972821
 10
4.259993197697752
 20
4.380288411368341
 10
4.246204718101934
 20
4.387672731247381
 10
4.233648332532094
 20
4.395756394969531
 10
4.222430018133987
 20
4.404471175607246
 10
4.2126444585993
 20
4.413743519543309
 10
4.204374245025869
 20
4.423495167270695
 10
4.197689178840574
 20
4.433643813910597
 10
4.192645682668348
 20
4.444103803873827
 10
4.189286324119585
 20
4.454786853802506
 10
4.187639456515277
 20
4.46560279769042
 10
4.187718979582155
 20
4.476460347893091
 10
4.189524222137605
 20
4.487267865604594
 10
4.193039947754526
 20
4.497934134298222
 10
4.198236483358287
 20
4.508369129603053
 10
4.205069969670431
 20
4.518484779118622
 10
4.2051778245986
 20
4.51862479135234
  0
ARC
  5
104C
330
1F
100
AcDbEntity
  8
0
100
AcDbCircle
 10
4.515984575005897
 20
4.467707499296966
 30
0.0
 40
0.0811661752881594
100
AcDbArc
 50
7.073336332983487
 51
38.85278770266358
  0
LINE
  5
104D
330
1F
100
AcDbEntity
  8
0
100
AcDbLine
 10
4.48903582368037
 20
4.366408933035473
 30
0.0
 11
4.494701860989941
 21
4.36313799932044
 31
0.0
  0
SPLINE
  5
104E
330
1F
100
AcDbEntity
  8
0
100
AcDbSpline
210
0.0
220
0.0
230
1.0
 70
     8
 71
     3
 72
    10
 73
     6
 74
     0
 42
0.0000000001
 43
0.0000000001
 40
0.0
 40
0.0
 40
0.0
 40
0.0
 40
0.5
 40
0.5
 40
1.0
 40
1.0
 40
1.0
 40
1.0
 10
4.510500809639656
 20
4.489028183228869
 30
0.0
 10
4.445200923964069
 20
4.451331361627762
 30
0.0
 10
4.339170473264625
 20
4.451331361627762
 30
0.0
 10
4.208570701913453
 20
4.526725004829975
 30
0.0
 10
4.208570701913453
 20
4.587935081125657
 30
0.0
 10
4.27387058758904
 20
4.625631902726762
 30
0.0
  0
SPLINE
  5
104F
330
1F
100
AcDbEntity
  8
0
100
AcDbSpline
210
0.0
220
0.0
230
1.0
 70
     8
 71
     3
 72
    10
 73
     6
 74
     0
 42
0.0000000001
 43
0.0000000001
 40
0.0
 40
0.0
 40
0.0
 40
0.0
 40
0.5
 40
0.5
 40
1.0
 40
1.0
 40
1.0
 40
1.0
 10
4.27387058758904
 20
4.625631902726762
 30
0.0
 10
4.339170473264625
 20
4.663328724327869
 30
0.0
 10
4.445200923964071
 20
4.663328724327869
 30
0.0
 10
4.575800695315241
 20
4.587935081125656
 30
0.0
 10
4.575800695315241
 20
4.526725004829975
 30
0.0
 10
4.510500809639656
 20
4.489028183228869
 30
0.0
  0
ARC
  5
1050
330
1F
100
AcDbEntity
  8
0
100
AcDbCircle
 10
4.506135916812908
 20
4.510975986237394
 30
0.0
 40
0.0730815040202231
100
AcDbArc
 50
319.2478002121647
 51
358.5362276713531
  0
LWPOLYLINE
  5
1051
330
1F
100
AcDbEntity
  8
0
100
AcDbPolyline
 90
       26
 70
   128
 43
0.0
 10
4.51577367833032
 20
4.428087140484226
 10
4.511251774483073
 20
4.425861089162108
 10
4.49700503367908
 20
4.419704329233785
 10
4.481809032745065
 20
4.414357233015825
 10
4.465801389018646
 20
4.409868224639595
 10
4.449127070200253
 20
4.406277957260092
 10
4.431937081503189
 20
4.403618944894671
 10
4.41438709812703
 20
4.401915267971072
 10
4.396636055438913
 20
4.401182355251336
 10
4.378844709630237
 20
4.401426844106546
 10
4.361174181883704
 20
4.40264652040777
 10
4.343784499234937
 20
4.404830338577553
 10
4.32683314534286
 20
4.407958521620376
 10
4.310473634293304
 20
4.412002740226191
 10
4.294854120351664
 20
4.416926369325045
 10
4.28011605625494
 20
4.422684819769371
 10
4.266392912193836
 20
4.429225942140231
 10
4.253808967086051
 20
4.436490499020513
 10
4.242478183087152
 20
4.44441270145817
 10
4.232503173531651
 20
4.452920804761138
 10
4.223974273650749
 20
4.461937758228395
 10
4.216968722482501
 20
4.471381902933031
 10
4.211549963383124
 20
4.481167711238142
 10
4.207767069474135
 20
4.491206561348342
 10
4.205654299228571
 20
4.501407539882482
 10
4.2051778245986
 20
4.509109128890075
  0
SPLINE
  5
1052
330
1F
100
AcDbEntity
  8
0
100
AcDbSpline
210
0.0
220
0.0
230
1.0
 70
     8
 71
     3
 72
    28
 73
    24
 74
     0
 42
0.0000000001
 43
0.0000000001
 40
0.0
 40
0.0
 40
0.0
 40
0.0
 40
0.020164049027037
 40
0.0401652102246557
 40
0.0600824515059684
 40
0.0799957391847881
 40
0.0999850870235084
 40
0.1201296024749105
 40
0.185076701851707
 40
0.2500925112009225
 40
0.3150396415016635
 40
0.3800554818069862
 40
0.4400081548277399
 40
0.5000288542312498
 40
0.5599815462828418
 40
0.620002259868136
 40
0.6849493592448245
 40
0.7499651685941574
 40
0.8149122988948677
 40
0.879928139200215
 40
0.9200134069504242
 40
0.959823893199862
 40
1.0
 40
1.0
 40
1.0
 40
1.0
 10
4.461365240002086
 20
4.517393543806961
 30
0.0
 10
4.459879803956886
 20
4.516566351462544
 30
0.0
 10
4.456920931413445
 20
4.514918648941826
 30
0.0
 10
4.45216926297743
 20
4.51266118386744
 30
0.0
 10
4.447218362814507
 20
4.510578995611565
 30
0.0
 10
4.442044738938058
 20
4.508686029080083
 30
0.0
 10
4.436654101588826
 20
4.506978663301645
 30
0.0
 10
4.426919762715731
 20
4.504337876470586
 30
0.0
 10
4.412173413882624
 20
4.501614622105917
 30
0.0
 10
4.392193638688634
 20
4.500469641738095
 30
0.0
 10
4.372201422105499
 20
4.501614635945884
 30
0.0
 10
4.353559658888981
 20
4.505054454191214
 30
0.0
 10
4.336852533366051
 20
4.510324551435006
 30
0.0
 10
4.322611017946655
 20
4.517159768406812
 30
0.0
 10
4.31076498179702
 20
4.525383412002959
 30
0.0
 10
4.301637362977086
 20
4.5350243011266
 30
0.0
 10
4.295675104770192
 20
4.545789237358406
 30
0.0
 10
4.293689358882534
 20
4.557326515228051
 30
0.0
 10
4.295673778046324
 20
4.568864639559134
 30
0.0
 10
4.301007542988294
 20
4.578508664278592
 30
0.0
 10
4.307747952158138
 20
4.586149009860267
 30
0.0
 10
4.314615108083851
 20
4.592065812618752
 30
0.0
 10
4.320200630328941
 20
4.595527690863756
 30
0.0
 10
4.323006157226608
 20
4.597266542148671
 30
0.0
  0
SPLINE
  5
1053
330
1F
100
AcDbEntity
  8
0
100
AcDbSpline
210
0.0
220
0.0
230
1.0
 70
     8
 71
     3
 72
    28
 73
    24
 74
     0
 42
0.0000000001
 43
0.0000000001
 40
0.0
 40
0.0
 40
0.0
 40
0.0
 40
0.0201640490268713
 40
0.040165210224391
 40
0.0600824515056709
 40
0.079995739184523
 40
0.0999850870233388
 40
0.1201296024748971
 40
0.1850767018513841
 40
0.250092511200921
 40
0.3150396415015452
 40
0.3800554818069819
 40
0.4400081548275779
 40
0.5000288542312468
 40
0.5599815462828608
 40
0.6200022598681383
 40
0.6849493592448522
 40
0.7499651685941544
 40
0.8149122988948667
 40
0.8799281392002173
 40
0.9200134069504759
 40
0.9598238931999137
 40
1.0
 40
1.0
 40
1.0
 40
1.0
 10
4.323006157226608
 20
4.597266542148671
 30
0.0
 10
4.324491593271797
 20
4.598093734493081
 30
0.0
 10
4.327450465815219
 20
4.599741437013787
 30
0.0
 10
4.332202134251214
 20
4.601998902088159
 30
0.0
 10
4.337153034414129
 20
4.604081090344031
 30
0.0
 10
4.342326658290584
 20
4.605974056875518
 30
0.0
 10
4.347717295639839
 20
4.607681422653965
 30
0.0
 10
4.357451634512912
 20
4.610322209485042
 30
0.0
 10
4.372197983346033
 20
4.613045463849724
 30
0.0
 10
4.392177758540018
 20
4.614190444217535
 30
0.0
 10
4.412169975123183
 20
4.613045450009747
 30
0.0
 10
4.430811738339687
 20
4.609605631764424
 30
0.0
 10
4.447518863862632
 20
4.604335534520632
 30
0.0
 10
4.461760379282028
 20
4.597500317548825
 30
0.0
 10
4.473606415431688
 20
4.589276673952677
 30
0.0
 10
4.482734034251609
 20
4.579635784829028
 30
0.0
 10
4.48869629245849
 20
4.568870848597222
 30
0.0
 10
4.490682038346162
 20
4.557333570727579
 30
0.0
 10
4.488697619182382
 20
4.545795446396495
 30
0.0
 10
4.483363854240399
 20
4.536151421677036
 30
0.0
 10
4.476623445070547
 20
4.52851107609536
 30
0.0
 10
4.469756289144836
 20
4.522594273336875
 30
0.0
 10
4.464170766899749
 20
4.519132395091874
 30
0.0
 10
4.461365240002086
 20
4.517393543806961
 30
0.0
  0
LINE
  5
1054
330
1F
100
AcDbEntity
  8
0
100
AcDbLine
 10
4.48903582368037
 20
4.343342905151654
 30
0.0
 11
4.48903582368037
 21
4.366408933035473
 31
0.0
  0
ARC
  5
1055
330
1F
100
AcDbEntity
  8
0
100
AcDbCircle
 10
4.397440465953594
 20
4.287620331146029
 30
0.0
 40
0.3142300327096214
100
AcDbArc
 50
278.737099651909
 51
284.6635254386213
  0
LWPOLYLINE
  5
1056
330
1F
100
AcDbEntity
  8
0
100
AcDbPolyline
 90
       18
 70
   128
 43
0.0
 10
4.445172274777102
 20
3.977036706524373
 10
4.426796265793023
 20
3.974710821658452
 10
4.408128001208374
 20
3.973368538676976
 10
4.389325117991356
 20
3.973021191971457
 10
4.370546389845348
 20
3.973671714577331
 10
4.351950386505544
 20
3.975314613407073
 10
4.333694134757899
 20
3.977936015634453
 10
4.315931792486946
 20
3.981513785838274
 10
4.298813346948923
 20
3.986017712916416
 10
4.282483348262172
 20
3.991409765191834
 10
4.267079688809353
 20
3.997644411556415
 10
4.252732438858347
 20
4.004669005940877
 10
4.239562748233985
 20
4.012424231864216
 10
4.227681823315025
 20
4.020844603308877
 10
4.217189987994734
 20
4.029859017692206
 10
4.208175836534421
 20
4.039391356264808
 10
4.200715485463324
 20
4.04936112686601
 10
4.19487193084195
 20
4.059684143608843
  0
SPLINE
  5
1057
330
1F
100
AcDbEntity
  8
0
100
AcDbSpline
210
0.0
220
0.0
230
1.0
 70
     8
 71
     3
 72
    12
 73
     8
 74
     0
 42
0.0000000001
 43
0.0000000001
 40
0.0
 40
0.0
 40
0.0
 40
0.0
 40
0.2187467384016626
 40
0.4393543135822105
 40
0.6655093969413276
 40
0.8934462663204989
 40
0.9999999999999998
 40
0.9999999999999998
 40
0.9999999999999998
 40
0.9999999999999998
 10
4.19487193084195
 20
4.059684143608844
 30
0.0
 10
4.193908849004213
 20
4.063250460123939
 30
0.0
 10
4.191974492575246
 20
4.070413431128471
 30
0.0
 10
4.189756424291103
 20
4.080724413343143
 30
0.0
 10
4.188276665520834
 20
4.090656802489736
 30
0.0
 10
4.18736244613254
 20
4.098674598337026
 30
0.0
 10
4.187652798220106
 20
4.102961155645375
 30
0.0
 10
4.187745291398476
 20
4.104326660929107
 30
0.0
  0
LWPOLYLINE
  5
1058
330
1F
100
AcDbEntity
  8
0
100
AcDbPolyline
 90
       27
 70
   128
 43
0.0
 10
4.544583446478571
 20
3.793080724499936
 10
4.551833866634478
 20
3.784745606397369
 10
4.560598997471322
 20
3.776910452454468
 10
4.570776613398892
 20
3.769666642166998
 10
4.582248015356729
 20
3.763098658333425
 10
4.594879415172412
 20
3.75728310175257
 10
4.608523495900493
 20
3.752287797847118
 10
4.623021129944216
 20
3.748171005632196
 10
4.638203234922001
 20
3.744980738254643
 10
4.653892745634149
 20
3.742754203027353
 10
4.669906679131228
 20
3.741517367489429
 10
4.686058268799737
 20
3.741284656553081
 10
4.702159142575701
 20
3.742058784269393
 10
4.718021519882277
 20
3.743830722174991
 10
4.733460401668969
 20
3.746579804588831
 10
4.748295728010576
 20
3.750273969630999
 10
4.762354478102336
 20
3.754870133152635
 10
4.77547268815951
 20
3.760314691215877
 10
4.787497363687141
 20
3.766544145263569
 10
4.798288263817662
 20
3.773485842687486
 10
4.807719536906039
 20
3.78105882415805
 10
4.815681188306917
 20
3.789174767833305
 10
4.822080363215424
 20
3.797739019435094
 10
4.826842429610199
 20
3.806651696178892
 10
4.829911848668501
 20
3.815808851682444
 10
4.831252822502007
 20
3.825103688267149
 10
4.831316034218287
 20
3.827614043392039
  0
LINE
  5
1059
330
1F
100
AcDbEntity
  8
0
100
AcDbLine
 10
4.544583446478571
 20
3.793080724499936
 30
0.0
 11
4.544583446478572
 21
3.825228000558427
 31
0.0
  0
LINE
  5
105A
330
1F
100
AcDbEntity
  8
0
100
AcDbLine
 10
4.544583446478573
 20
3.825228000558427
 30
0.0
 11
4.5391414721753
 21
3.839256496843473
 31
0.0
  0
LWPOLYLINE
  5
105B
330
1F
100
AcDbEntity
  8
0
100
AcDbPolyline
 90
       19
 70
   128
 43
0.0
 10
4.544583446478572
 20
3.825228000558427
 10
4.525876435190652
 20
3.825318712136564
 10
4.507261872026471
 20
3.82639485457577
 10
4.488895193501685
 20
3.828447441802635
 10
4.470929766229781
 20
3.831459334172039
 10
4.453515606270381
 20
3.835405381587726
 10
4.436798126455538
 20
3.84025263351223
 10
4.420916922154213
 20
3.845960614112572
 10
4.406004605614096
 20
3.85248166024414
 10
4.392185698614345
 20
3.859761319450531
 10
4.379575592675845
 20
3.867738804655941
 10
4.368279585511569
 20
3.87634750175328
 10
4.358392001762869
 20
3.885515525849556
 10
4.349995405363835
 20
3.895166321523704
 10
4.343159910110643
 20
3.905219302084558
 10
4.337942594192858
 20
3.915590522490993
 10
4.334387023575482
 20
3.926193380315178
 10
4.332522888211647
 20
3.9369393388957
 10
4.332365754123673
 20
3.947738666642062
  0
LWPOLYLINE
  5
105C
330
1F
100
AcDbEntity
  8
0
100
AcDbPolyline
 90
       27
 70
   128
 43
0.0
 10
4.392185698614346
 20
3.383981633784822
 10
4.405949384643359
 20
3.376728508790192
 10
4.420798564108918
 20
3.370227967296469
 10
4.436610192033416
 20
3.364533874837728
 10
4.453253248288207
 20
3.359693414457365
 10
4.470589823267648
 20
3.355746695734528
 10
4.488476260651533
 20
3.352726422423525
 10
4.506764347786599
 20
3.350657621460205
 10
4.525302543823252
 20
3.349557435580892
 10
4.543937235430767
 20
3.349434981272272
 10
4.562514009685734
 20
3.35029127322931
 10
4.580878933586163
 20
3.352119215947174
 10
4.598879829588821
 20
3.354903662516816
 10
4.616367536600284
 20
3.358621540137034
 10
4.633197145972731
 20
3.363242041302973
 10
4.649229202262635
 20
3.368726879086803
 10
4.66433085880249
 20
3.375030604395268
 10
4.67837697851014
 20
3.382100982575189
 10
4.691251170814044
 20
3.389879426246242
 10
4.702846756102215
 20
3.398301480774451
 10
4.713067649703074
 20
3.407297358363576
 10
4.721829158073308
 20
3.416792516338785
 10
4.729058680595241
 20
3.426708274830713
 10
4.73469631116841
 20
3.436962468741662
 10
4.738695334610389
 20
3.44747012859146
 10
4.741022613753497
 20
3.458144184601341
 10
4.741672126258837
 20
3.467550968065886
  0
ARC
  5
105D
330
1F
100
AcDbEntity
  8
0
100
AcDbCircle
 10
4.434813565904493
 20
3.477864514661194
 30
0.0
 40
0.1031073731182864
100
AcDbArc
 50
185.7407394358374
 51
245.5794015217792
  0
SPLINE
  5
105E
330
1F
100
AcDbEntity
  8
0
100
AcDbSpline
210
0.0
220
0.0
230
1.0
 70
     8
 71
     3
 72
    10
 73
     6
 74
     0
 42
0.0000000001
 43
0.0000000001
 40
0.0
 40
0.0
 40
0.0
 40
0.0
 40
0.5
 40
0.5
 40
1.0
 40
1.0
 40
1.0
 40
1.0
 10
4.396953972753772
 20
3.959791591227127
 30
0.0
 10
4.385853320476555
 20
3.956286497343024
 30
0.0
 10
4.374907805567678
 20
3.95355160633749
 30
0.0
 10
4.353332743159471
 20
3.949534322828792
 30
0.0
 10
4.342627483115212
 20
3.948251645160685
 30
0.0
 10
4.332365754123672
 20
3.947738666642062
 30
0.0
  0
SPLINE
  5
105F
330
1F
100
AcDbEntity
  8
0
100
AcDbSpline
210
0.0
220
0.0
230
1.0
 70
     8
 71
     3
 72
    11
 73
     7
 74
     0
 42
0.0000000001
 43
0.0000000001
 40
0.0
 40
0.0
 40
0.0
 40
0.0
 40
0.1105914876009419
 40
0.3855171180192133
 40
0.6917368167702946
 40
0.9999999999999998
 40
0.9999999999999998
 40
0.9999999999999998
 40
0.9999999999999998
 10
4.476907323310553
 20
3.924086819366037
 30
0.0
 10
4.473936838397067
 20
3.926089567929357
 30
0.0
 10
4.463581857124919
 20
3.93307106235535
 30
0.0
 10
4.444902947170873
 20
3.942580073118305
 30
0.0
 10
4.421160115812564
 20
3.952422028155934
 30
0.0
 10
4.4050405558283
 20
3.957329630069029
 30
0.0
 10
4.396953972753775
 20
3.95979159122713
 30
0.0
  0
LINE
  5
1060
330
1F
100
AcDbEntity
  8
0
100
AcDbLine
 10
4.396953972753775
 20
3.959791591227129
 30
0.0
 11
4.396953972753776
 21
3.973041714967181
 31
0.0
  0
LINE
  5
1061
330
1F
100
AcDbEntity
  8
0
100
AcDbLine
 10
4.445172274777102
 20
3.977036706524373
 30
0.0
 11
4.47698532555687
 21
3.958671423225259
 31
0.0
  0
ARC
  5
1062
330
1F
100
AcDbEntity
  8
0
100
AcDbCircle
 10
4.369409961027129
 20
4.075936956691887
 30
0.0
 40
0.164569054915118
100
AcDbArc
 50
233.9853415502711
 51
256.9913440905377
  0
SPLINE
  5
1063
330
1F
100
AcDbEntity
  8
0
100
AcDbSpline
210
0.0
220
0.0
230
1.0
 70
     8
 71
     3
 72
    10
 73
     6
 74
     0
 42
0.0000000001
 43
0.0000000001
 40
0.0
 40
0.0
 40
0.0
 40
0.0
 40
0.3958344450636406
 40
0.8024937892750577
 40
0.9999999999999998
 40
0.9999999999999998
 40
0.9999999999999998
 40
0.9999999999999998
 10
4.272644638645296
 20
3.942822546427702
 30
0.0
 10
4.271785414076608
 20
3.95014382106182
 30
0.0
 10
4.270043467693309
 20
3.96498658549712
 30
0.0
 10
4.265774749467046
 20
3.984616446629238
 30
0.0
 10
4.262573566993299
 20
3.996744023215555
 30
0.0
 10
4.261527076647958
 20
4.000708618146977
 30
0.0
  0
LWPOLYLINE
  5
1064
330
1F
100
AcDbEntity
  8
0
100
AcDbPolyline
 90
       44
 70
   128
 43
0.0
 10
4.177826556286142
 20
3.932073099037405
 10
4.177203552700816
 20
3.922603321391205
 10
4.175347820184633
 20
3.914054680243364
 10
4.172298910454345
 20
3.906609375038224
 10
4.168121805727486
 20
3.900426089530062
 10
4.16290553373923
 20
3.895636609714375
 10
4.156761270270774
 20
3.892343015038177
 10
4.149819969630582
 20
3.890615502753815
 10
4.142229573590663
 20
3.890490891786411
 10
4.134151858264536
 20
3.89197183800239
 10
4.125758986130254
 20
3.895026777604305
 10
4.117229836686068
 20
3.899590599858375
 10
4.1087461939445
 20
3.905566034816734
 10
4.100488872021706
 20
3.9128257264575
 10
4.09263386139852
 20
3.921214947057263
 10
4.085348577988898
 20
3.930554894943887
 10
4.078788294960367
 20
3.940646505343721
 10
4.073092833356045
 20
3.951274693101645
 10
4.068383582051851
 20
3.962212936847729
 10
4.064760910563367
 20
3.973228106906958
 10
4.062302029843866
 20
3.984085434053512
 10
4.0610593466669
 20
3.99455351320921
 10
4.0610593466669
 20
4.004409235441011
 10
4.062302029843866
 20
4.013442543140554
 10
4.064760910563367
 20
4.021460907037403
 10
4.068383582051851
 20
4.028293429626184
 10
4.073092833356047
 20
4.033794487550199
 10
4.078788294960368
 20
4.037846835310463
 10
4.085348577988898
 20
4.040364104149949
 10
4.092633861398521
 20
4.041292642853701
 10
4.100488872021707
 20
4.040612661231332
 10
4.108746193944501
 20
4.038338651910569
 10
4.117229836686069
 20
4.034519081452067
 10
4.125758986130254
 20
4.029235357368798
 10
4.134151858264537
 20
4.022600093066259
 10
4.142229573590664
 20
4.014754707683243
 10
4.149819969630584
 20
4.005866411988421
 10
4.156761270270775
 20
3.996124644573112
 10
4.16290553373923
 20
3.985737034296602
 10
4.168121805727487
 20
3.974924975037481
 10
4.172298910454345
 20
3.963918907067501
 10
4.175347820184633
 20
3.952953405617253
 10
4.177203552700816
 20
3.942262181312392
 10
4.177826556286142
 20
3.932073099037405
  0
LWPOLYLINE
  5
1065
330
1F
100
AcDbEntity
  8
0
100
AcDbPolyline
 90
       61
 70
   128
 43
0.0
 10
4.008009573402758
 20
4.030106356559424
 10
4.008619589927663
 20
4.043195422973968
 10
4.010442956033675
 20
4.055436772749819
 10
4.013459694540174
 20
4.066696287097166
 10
4.01763675342879
 20
4.076850604420612
 10
4.022928367968231
 20
4.085788471894636
 10
4.029276562122264
 20
4.093411964372823
 10
4.036611783747292
 20
4.099637557276262
 10
4.044853666620197
 20
4.104397041706316
 10
4.053911910947498
 20
4.107638271755582
 10
4.063687272708786
 20
4.109325735829369
 10
4.074072650994979
 20
4.109440945718161
 10
4.084954261428292
 20
4.107982639158308
 10
4.096212882807696
 20
4.104966793661647
 10
4.107725163321338
 20
4.100426451462549
 10
4.119364972014814
 20
4.094411357500272
 10
4.131004780708289
 20
4.08698741440301
 10
4.142517061221931
 20
4.078235960444892
 10
4.153775682601335
 20
4.068252878386846
 10
4.164657293034649
 20
4.057147544964992
 10
4.175042671320841
 20
4.045041632536242
 10
4.184818033082129
 20
4.032067776010489
 10
4.19387627740943
 20
4.018368119674784
 10
4.202118160282335
 20
4.004092759830778
 10
4.209453381907362
 20
3.989398100308234
 10
4.215801576061395
 20
3.974445138871934
 10
4.221093190600837
 20
3.959397703296484
 10
4.225270249489453
 20
3.944420656434927
 10
4.228286987995951
 20
3.929678089946827
 10
4.230110354101963
 20
3.915331526475707
 10
4.230720370626868
 20
3.90153814997317
 10
4.230110354101963
 20
3.888449083558624
 10
4.228286987995951
 20
3.876207733782773
 10
4.225270249489452
 20
3.864948219435427
 10
4.221093190600837
 20
3.85479390211198
 10
4.215801576061394
 20
3.845856034637957
 10
4.20945338190736
 20
3.838232542159771
 10
4.202118160282334
 20
3.832006949256332
 10
4.193876277409429
 20
3.827247464826278
 10
4.184818033082128
 20
3.824006234777013
 10
4.17504267132084
 20
3.822318770703225
 10
4.164657293034647
 20
3.822203560814433
 10
4.153775682601334
 20
3.823661867374286
 10
4.14251706122193
 20
3.826677712870946
 10
4.131004780708287
 20
3.831218055070046
 10
4.119364972014812
 20
3.837233149032321
 10
4.107725163321337
 20
3.844657092129584
 10
4.096212882807694
 20
3.853408546087703
 10
4.084954261428291
 20
3.863391628145749
 10
4.074072650994978
 20
3.874496961567603
 10
4.063687272708786
 20
3.886602873996353
 10
4.053911910947497
 20
3.899576730522106
 10
4.044853666620196
 20
3.913276386857811
 10
4.036611783747291
 20
3.927551746701817
 10
4.029276562122264
 20
3.942246406224361
 10
4.022928367968231
 20
3.957199367660661
 10
4.017636753428789
 20
3.97224680323611
 10
4.013459694540174
 20
3.987223850097667
 10
4.010442956033675
 20
4.001966416585768
 10
4.008619589927663
 20
4.016312980056888
 10
4.008009573402758
 20
4.030106356559424
  0
LWPOLYLINE
  5
1066
330
1F
100
AcDbEntity
  8
0
100
AcDbPolyline
 90
       25
 70
   128
 43
0.0
 10
4.404713180958203
 20
3.352636864135105
 10
4.417881640941291
 20
3.345726197067728
 10
4.432128381745284
 20
3.339569437139403
 10
4.447324382679298
 20
3.334222340921443
 10
4.463332026405717
 20
3.329733332545214
 10
4.480006345224111
 20
3.326143065165711
 10
4.497196333921174
 20
3.32348405280029
 10
4.514746317297333
 20
3.32178037587669
 10
4.532497359985451
 20
3.321047463156953
 10
4.550288705794127
 20
3.321291952012163
 10
4.567959233540659
 20
3.322511628313388
 10
4.585348916189427
 20
3.32469544648317
 10
4.602300270081504
 20
3.327823629525993
 10
4.618659781131061
 20
3.331867848131809
 10
4.634279295072699
 20
3.336791477230661
 10
4.649017359169423
 20
3.342549927674989
 10
4.662740503230528
 20
3.349091050045848
 10
4.675324448338314
 20
3.356355606926131
 10
4.686655232337211
 20
3.364277809363787
 10
4.696630241892713
 20
3.372785912666755
 10
4.705159141773616
 20
3.381802866134012
 10
4.712164692941864
 20
3.391247010838648
 10
4.717583452041242
 20
3.401032819143757
 10
4.721366345950229
 20
3.411071669253959
 10
4.723036645052393
 20
3.418284967483984
  0
ARC
  5
1067
330
1F
100
AcDbEntity
  8
0
100
AcDbCircle
 10
4.447020069159488
 20
3.442257066157996
 30
0.0
 40
0.0991042552058182
100
AcDbArc
 50
193.9979797653995
 51
244.7294726442868
  0
LWPOLYLINE
  5
1068
330
1F
100
AcDbEntity
  8
0
100
AcDbPolyline
 90
       35
 70
   128
 43
0.0
 10
4.868717467632903
 20
4.374250489364381
 10
4.868664647399089
 20
4.371548600077219
 10
4.867395067769394
 20
4.361301141256663
 10
4.864443893012107
 20
4.351169751506302
 10
4.859837849422828
 20
4.341246182260597
 10
4.853618650045566
 20
4.331620302899342
 10
4.845842616912951
 20
4.322379286876636
 10
4.836580170985176
 20
4.31360682226459
 10
4.825915194406893
 20
4.305382353861178
 10
4.813944270857502
 20
4.29778036372585
 10
4.800775810874415
 20
4.290869696658472
 10
4.786529070070422
 20
4.284712936730149
 10
4.771333069136407
 20
4.279365840512189
 10
4.755325425409987
 20
4.27487683213596
 10
4.738651106591595
 20
4.271286564756457
 10
4.721461117894532
 20
4.268627552391036
 10
4.703911134518373
 20
4.266923875467437
 10
4.686160091830254
 20
4.266190962747701
 10
4.668368746021578
 20
4.26643545160291
 10
4.650698218275047
 20
4.267655127904133
 10
4.633308535626278
 20
4.269838946073917
 10
4.616357181734202
 20
4.272967129116739
 10
4.599997670684645
 20
4.277011347722555
 10
4.584378156743007
 20
4.281934976821409
 10
4.569640092646282
 20
4.287693427265735
 10
4.555916948585177
 20
4.294234549636595
 10
4.543333003477392
 20
4.301499106516879
 10
4.532002219478494
 20
4.309421308954534
 10
4.522027209922993
 20
4.317929412257502
 10
4.513498310042091
 20
4.32694636572476
 10
4.506492758873843
 20
4.336390510429397
 10
4.501073999774464
 20
4.346176318734506
 10
4.497291105865476
 20
4.356215168844706
 10
4.495178335619914
 20
4.366416147378846
 10
4.494701862125552
 20
4.374105838986912
  0
LWPOLYLINE
  5
1069
330
1F
100
AcDbEntity
  8
0
100
AcDbPolyline
 90
       17
 70
   128
 43
0.0
 10
4.626449618444457
 20
4.406018722645653
 10
4.635302921290595
 20
4.410417010271863
 10
4.645192875670177
 20
4.414004432102216
 10
4.65589855634502
 20
4.41670085106106
 10
4.667180816099453
 20
4.418446033604551
 10
4.678787627893937
 20
4.419200995238496
 10
4.69045971473266
 20
4.418948871367528
 10
4.70193634148319
 20
4.417695294022304
 10
4.712961139268472
 20
4.415468266049241
 10
4.723287832323916
 20
4.412317535573204
 10
4.732685739391007
 20
4.408313484706602
 10
4.740944926755442
 20
4.403545557329302
 10
4.747880897819396
 20
4.398120261060148
 10
4.753338714450646
 20
4.392158788052761
 10
4.757196458044421
 20
4.38579430776309
 10
4.759367952983567
 20
4.379168992163816
 10
4.759859278000821
 20
4.374060313308286
  0
ARC
  5
106A
330
1F
100
AcDbEntity
  8
0
100
AcDbCircle
 10
4.64211276666265
 20
4.370593781440364
 30
0.0
 40
0.0387331985705193
100
AcDbArc
 50
113.8526321738264
 51
174.4511180489844
  0
LWPOLYLINE
  5
106B
330
1F
100
AcDbEntity
  8
0
100
AcDbPolyline
 90
       35
 70
   128
 43
0.0
 10
4.579193431241561
 20
4.54138915792651
 10
4.579140611007748
 20
4.538687268639349
 10
4.577871031378053
 20
4.528439809818793
 10
4.574919856620764
 20
4.51830842006843
 10
4.570313813031486
 20
4.508384850822726
 10
4.564094613654225
 20
4.498758971461471
 10
4.556318580521608
 20
4.489517955438767
 10
4.547056134593836
 20
4.480745490826719
 10
4.53639115801555
 20
4.472521022423307
 10
4.524420234466162
 20
4.46491903228798
 10
4.511251774483073
 20
4.458008365220602
 10
4.49700503367908
 20
4.451851605292279
 10
4.481809032745065
 20
4.446504509074317
 10
4.465801389018646
 20
4.442015500698088
 10
4.449127070200253
 20
4.438425233318586
 10
4.431937081503189
 20
4.435766220953166
 10
4.41438709812703
 20
4.434062544029566
 10
4.396636055438913
 20
4.433329631309829
 10
4.378844709630237
 20
4.433574120165039
 10
4.361174181883704
 20
4.434793796466264
 10
4.343784499234937
 20
4.436977614636045
 10
4.32683314534286
 20
4.440105797678868
 10
4.310473634293304
 20
4.444150016284686
 10
4.294854120351664
 20
4.449073645383538
 10
4.28011605625494
 20
4.454832095827866
 10
4.266392912193836
 20
4.461373218198725
 10
4.253808967086051
 20
4.468637775079008
 10
4.242478183087152
 20
4.476559977516664
 10
4.232503173531651
 20
4.485068080819632
 10
4.223974273650749
 20
4.494085034286888
 10
4.216968722482501
 20
4.503529178991525
 10
4.211549963383124
 20
4.513314987296634
 10
4.207767069474135
 20
4.523353837406836
 10
4.205654299228571
 20
4.533554815940976
 10
4.205177825734209
 20
4.541244507549034
  0
LWPOLYLINE
  5
106C
330
1F
100
AcDbEntity
  8
0
100
AcDbPolyline
 90
       17
 70
   128
 43
0.0
 10
4.336925582053114
 20
4.573157391207783
 10
4.345778884899253
 20
4.577555678833992
 10
4.355668839278835
 20
4.581143100664346
 10
4.366374519953678
 20
4.583839519623189
 10
4.377656779708112
 20
4.58558470216668
 10
4.389263591502595
 20
4.586339663800625
 10
4.400935678341319
 20
4.586087539929658
 10
4.412412305091847
 20
4.584833962584433
 10
4.423437102877131
 20
4.58260693461137
 10
4.433763795932573
 20
4.579456204135333
 10
4.443161702999666
 20
4.575452153268732
 10
4.451420890364101
 20
4.57068422589143
 10
4.458356861428054
 20
4.565258929622277
 10
4.463814678059304
 20
4.559297456614891
 10
4.46767242165308
 20
4.552932976325219
 10
4.469843916592225
 20
4.546307660725946
 10
4.470335241609481
 20
4.541198981870415
  0
ARC
  5
106D
330
1F
100
AcDbEntity
  8
0
100
AcDbCircle
 10
4.352588730271311
 20
4.537732450002493
 30
0.0
 40
0.0387331985705221
100
AcDbArc
 50
113.8526321738302
 51
174.4511180489822
  0
LWPOLYLINE
  5
106E
330
1F
100
AcDbEntity
  8
0
100
AcDbPolyline
 90
       26
 70
   128
 43
0.0
 10
4.404713180958203
 20
3.32048958807661
 10
4.417881640941291
 20
3.313578921009233
 10
4.432128381745284
 20
3.307422161080909
 10
4.447324382679298
 20
3.302075064862949
 10
4.463332026405717
 20
3.29758605648672
 10
4.480006345224111
 20
3.293995789107216
 10
4.497196333921174
 20
3.291336776741796
 10
4.514746317297333
 20
3.289633099818197
 10
4.532497359985451
 20
3.28890018709846
 10
4.550288705794127
 20
3.28914467595367
 10
4.567959233540659
 20
3.290364352254893
 10
4.585348916189427
 20
3.292548170424676
 10
4.602300270081504
 20
3.295676353467499
 10
4.618659781131061
 20
3.299720572073315
 10
4.634279295072699
 20
3.304644201172168
 10
4.649017359169423
 20
3.310402651616494
 10
4.662740503230528
 20
3.316943773987354
 10
4.675324448338314
 20
3.324208330867638
 10
4.686655232337211
 20
3.332130533305293
 10
4.696630241892713
 20
3.340638636608261
 10
4.705159141773616
 20
3.349655590075518
 10
4.712164692941864
 20
3.359099734780155
 10
4.717583452041242
 20
3.368885543085265
 10
4.721366345950229
 20
3.378924393195465
 10
4.723479116195793
 20
3.389125371729605
 10
4.723955590825766
 20
3.396826960737199
  0
ARC
  5
106F
330
1F
100
AcDbEntity
  8
0
100
AcDbCircle
 10
4.443010440733996
 20
3.405787588946689
 30
0.0
 40
0.0935009575286089
100
AcDbArc
 50
185.4993588806847
 51
245.82078207693
  0
DIMENSION
  5
10C9
330
1F
100
AcDbEntity
  8
DIM
100
AcDbDimension
  2
*D18
 10
2.322353084035668
 20
1.183450166134768
 30
0.0
 11
2.117628674586849
 21
1.240210873136808
 31
0.0
 70
    32
 71
     5
 42
0.409448818897638
 73
     0
 74
     0
 75
     0
  3
Standard
100
AcDbAlignedDimension
 13
1.91290426513803
 23
1.541908383619048
 33
0.0
 14
2.322353084035668
 24
1.541908383619048
 34
0.0
100
AcDbRotatedDimension
  0
TEXT
  5
117A
330
1F
100
AcDbEntity
  8
0
 62
     7
100
AcDbText
 10
1.97514921843528
 20
3.220449899388926
 30
0.0
 40
0.08
  1
TOP
100
AcDbText
  0
TEXT
  5
1180
330
1F
100
AcDbEntity
  8
0
 62
     7
100
AcDbText
 10
1.953192444443399
 20
0.9550019985467447
 30
0.0
 40
0.08
  1
FRONT
100
AcDbText
  0
TEXT
  5
1186
330
1F
100
AcDbEntity
  8
0
 62
     7
100
AcDbText
 10
4.497060617017883
 20
1.016320016662632
 30
0.0
 40
0.08
  1
SIDE
100
AcDbText
  0
DIMENSION
  5
1188
330
1F
100
AcDbEntity
  8
DIM
100
AcDbDimension
  2
*D20
 10
1.215788205197249
 20
2.065530430863142
 30
0.0
 11
1.159027498195209
 21
2.366711533225347
 31
0.0
 70
    32
 71
     5
 42
0.6023622047244089
 73
     0
 74
     0
 75
     0
  3
Standard
100
AcDbAlignedDimension
 13
1.708179855689212
 23
2.667892635587551
 33
0.0
 14
1.735738910807321
 24
2.065530430863142
 34
0.0
 50
90.0
100
AcDbRotatedDimension
  0
DIMENSION
  5
11C0
330
1F
100
AcDbEntity
  8
DIM
100
AcDbDimension
  2
*D21
 10
1.804622372090271
 20
2.111253318268772
 30
0.0
 11
1.278343209392228
 21
1.761924140381948
 31
0.0
 70
   163
 71
     5
 42
0.1653543307086629
 73
     0
 74
     0
 75
     0
  3
Standard
100
AcDbDiametricDimension
 15
1.666855449524372
 25
2.019807543457513
 35
0.0
 40
0.0
1001
ACAD
1000
DSTYLE
1002
{
1070
   288
1070
     1
1002
}
  0
DIMENSION
  5
11CC
330
1F
100
AcDbEntity
  8
DIM
100
AcDbDimension
  2
*D22
 10
2.252956596689792
 20
3.843814609071759
 30
0.0
 11
2.838027548789209
 21
4.146796255659356
 31
0.0
 70
   163
 71
     5
 42
0.156299212598427
 73
     0
 74
     0
 75
     0
  3
Standard
100
AcDbDiametricDimension
 15
2.391749571381543
 25
3.915689180619026
 35
0.0
 40
0.0
1001
ACAD
1000
DSTYLE
1002
{
1070
   288
1070
     1
1002
}
  0
DIMENSION
  5
11D8
330
1F
100
AcDbEntity
  8
DIM
100
AcDbDimension
  2
*D23
 10
1.970871385878483
 20
3.827338405381479
 30
0.0
 11
1.459171462163974
 21
4.290014112190897
 31
0.0
 70
   163
 71
     5
 42
0.1562992125984255
 73
     0
 74
     0
 75
     0
  3
Standard
100
AcDbDiametricDimension
 15
1.854937144397578
 25
3.932165384309307
 35
0.0
 40
0.0
1001
ACAD
1000
DSTYLE
1002
{
1070
   288
1070
     1
1002
}
  0
DIMENSION
  5
11E4
330
1F
100
AcDbEntity
  8
DIM
100
AcDbDimension
  2
*D24
 10
2.058191631909891
 20
3.93049240058331
 30
0.0
 11
2.577687914606836
 21
3.487006269278373
 31
0.0
 70
   163
 71
     5
 42
0.1562992125984259
 73
     0
 74
     0
 75
     0
  3
Standard
100
AcDbDiametricDimension
 15
2.177065717263806
 25
3.829011389107478
 35
0.0
 40
0.0
1001
ACAD
1000
DSTYLE
1002
{
1070
   288
1070
     1
1002
}
  0
DIMENSION
  5
12EC
330
1F
100
AcDbEntity
  8
DIM
100
AcDbDimension
  2
*D25
 10
1.893219225767952
 20
3.422947654190259
 30
0.0
 11
1.735738910807322
 21
3.479708361192299
 31
0.0
 70
    32
 71
     5
 42
0.3149606299212602
 73
     0
 74
     0
 75
     0
  3
Standard
100
AcDbAlignedDimension
 13
1.578258595846691
 23
3.671090477522558
 33
0.0
 14
1.893219225767952
 24
3.671090477522558
 34
0.0
100
AcDbRotatedDimension
  0
DIMENSION
  5
12F9
330
1F
100
AcDbEntity
  8
DIM
100
AcDbDimension
  2
*D26
 10
5.237976227800441
 20
1.435609171020622
 30
0.0
 11
5.181215520798401
 21
2.104900509603301
 31
0.0
 70
    32
 71
     5
 42
1.338582677165354
 73
     0
 74
     0
 75
     0
  3
Standard
100
AcDbAlignedDimension
 13
4.784378384470029
 23
2.774191848185977
 33
0.0
 14
4.784378384470028
 24
1.435609171020622
 34
0.0
 50
90.0
100
AcDbRotatedDimension
  0
ENDSEC
  0
SECTION
  2
OBJECTS
  0
DICTIONARY
  5
C
330
0
100
AcDbDictionary
281
     1
  3
ACAD_COLOR
350
FC
  3
ACAD_GROUP
350
D
  3
ACAD_LAYOUT
350
1A
  3
ACAD_MATERIAL
350
E7
  3
ACAD_MLINESTYLE
350
17
  3
ACAD_PLOTSETTINGS
350
19
  3
ACAD_PLOTSTYLENAME
350
E
  3
ACAD_TABLESTYLE
350
FD
  3
ACAD_VISUALSTYLE
350
EB
  3
AcDbVariableDictionary
350
3CB
  0
DICTIONARY
  5
4DC
330
8
100
AcDbDictionary
280
     1
281
     1
  0
DICTIONARY
  5
61E
330
2
100
AcDbDictionary
280
     1
281
     1
  3
ACAD_LAYERFILTERS
360
622
  3
ACLYDICTIONARY
360
621
  0
DICTIONARY
  5
40A
330
409
100
AcDbDictionary
280
     1
281
     1
  3
ACAD_SORTENTS
360
40B
  0
DICTIONARY
  5
FC
102
{ACAD_REACTORS
330
C
102
}
330
C
100
AcDbDictionary
281
     1
  0
DICTIONARY
  5
D
102
{ACAD_REACTORS
330
C
102
}
330
C
100
AcDbDictionary
281
     1
  0
DICTIONARY
  5
1A
102
{ACAD_REACTORS
330
C
102
}
330
C
100
AcDbDictionary
281
     1
  3
Layout1
350
1E
  3
Layout2
350
26
  3
Model
350
22
  0
DICTIONARY
  5
E7
102
{ACAD_REACTORS
330
C
102
}
330
C
100
AcDbDictionary
281
     1
  3
ByBlock
350
E9
  3
ByLayer
350
E8
  3
Global
350
EA
  0
DICTIONARY
  5
17
102
{ACAD_REACTORS
330
C
102
}
330
C
100
AcDbDictionary
281
     1
  3
Standard
350
18
  0
DICTIONARY
  5
19
102
{ACAD_REACTORS
330
C
102
}
330
C
100
AcDbDictionary
281
     1
  3
JPG
350
BC0
  3
PDF
350
BB7
  0
ACDBDICTIONARYWDFLT
  5
E
102
{ACAD_REACTORS
330
C
102
}
330
C
100
AcDbDictionary
281
     1
  3
Normal
350
F
100
AcDbDictionaryWithDefault
340
F
  0
DICTIONARY
  5
FD
102
{ACAD_REACTORS
330
C
102
}
330
C
100
AcDbDictionary
281
     1
  3
Standard
350
FE
  0
DICTIONARY
  5
EB
102
{ACAD_REACTORS
330
C
102
}
330
C
100
AcDbDictionary
281
     1
  3
2dWireframe
350
F1
  3
3D Hidden
350
F3
  3
3dWireframe
350
F2
  3
Basic
350
F0
  3
Brighten
350
F7
  3
ColorChange
350
FB
  3
Conceptual
350
F4
  3
Dim
350
F6
  3
Facepattern
350
FA
  3
Flat
350
EC
  3
FlatWithEdges
350
ED
  3
Gouraud
350
EE
  3
GouraudWithEdges
350
EF
  3
Linepattern
350
F9
  3
Realistic
350
F5
  3
Thicken
350
F8
  0
DICTIONARY
  5
3CB
102
{ACAD_REACTORS
330
C
102
}
330
C
100
AcDbDictionary
281
     1
  3
CTABLESTYLE
350
3CC
  0
DICTIONARY
  5
622
102
{ACAD_REACTORS
330
61E
102
}
330
61E
100
AcDbDictionary
281
     1
  0
DICTIONARY
  5
621
102
{ACAD_REACTORS
330
61E
102
}
330
61E
100
AcDbDictionary
281
     1
1001
ACAD
1000
<All
  0
SORTENTSTABLE
  5
40B
102
{ACAD_REACTORS
330
40A
102
}
330
40A
100
AcDbSortentsTable
330
409
331
410
  5
69
331
40E
  5
6B
331
40F
  5
6D
331
40D
  5
6A
  0
LAYOUT
  5
1E
102
{ACAD_REACTORS
330
1A
102
}
330
1A
100
AcDbPlotSettings
  1

  2
none_device
  4

  6

 40
0.0
 41
0.0
 42
0.0
 43
0.0
 44
0.0
 45
0.0
 46
0.0
 47
0.0
 48
0.0
 49
0.0
140
0.0
141
0.0
142
1.0
143
1.0
 70
   688
 72
     0
 73
     0
 74
     5
  7

 75
    16
147
1.0
 76
     0
 77
     2
 78
   300
148
0.0
149
0.0
100
AcDbLayout
  1
Layout1
 70
     1
 71
     1
 10
0.0
 20
0.0
 11
12.0
 21
9.0
 12
0.0
 22
0.0
 32
0.0
 14
1.000000000000000E+20
 24
1.000000000000000E+20
 34
1.000000000000000E+20
 15
-1.000000000000000E+20
 25
-1.000000000000000E+20
 35
-1.000000000000000E+20
146
0.0
 13
0.0
 23
0.0
 33
0.0
 16
1.0
 26
0.0
 36
0.0
 17
0.0
 27
1.0
 37
0.0
 76
     0
330
1B
  0
LAYOUT
  5
26
102
{ACAD_REACTORS
330
1A
102
}
330
1A
100
AcDbPlotSettings
  1

  2
none_device
  4

  6

 40
0.0
 41
0.0
 42
0.0
 43
0.0
 44
0.0
 45
0.0
 46
0.0
 47
0.0
 48
0.0
 49
0.0
140
0.0
141
0.0
142
1.0
143
1.0
 70
   688
 72
     0
 73
     0
 74
     5
  7

 75
    16
147
1.0
 76
     0
 77
     2
 78
   300
148
0.0
149
0.0
100
AcDbLayout
  1
Layout2
 70
     1
 71
     2
 10
0.0
 20
0.0
 11
0.0
 21
0.0
 12
0.0
 22
0.0
 32
0.0
 14
0.0
 24
0.0
 34
0.0
 15
0.0
 25
0.0
 35
0.0
146
0.0
 13
0.0
 23
0.0
 33
0.0
 16
1.0
 26
0.0
 36
0.0
 17
0.0
 27
1.0
 37
0.0
 76
     0
330
23
  0
LAYOUT
  5
22
102
{ACAD_REACTORS
330
1A
102
}
330
1A
100
AcDbPlotSettings
  1

  2
none_device
  4
Letter_(8.50_x_11.00_Inches)
  6

 40
6.349999904632568
 41
6.349999904632568
 42
6.350006103515625
 43
6.350006103515625
 44
215.8999938964844
 45
279.3999938964844
 46
0.0
 47
0.0
 48
0.0
 49
0.0
140
0.0
141
0.0
142
1.0
143
2.383658744906425
 70
 11952
 72
     0
 73
     1
 74
     0
  7

 75
     0
147
0.4195231394329716
 76
     0
 77
     2
 78
   300
148
135.2900774710282
149
-27.52084133435472
100
AcDbLayout
  1
Model
 70
     1
 71
     0
 10
0.0
 20
0.0
 11
16.53543307086614
 21
11.69291338582677
 12
0.0
 22
0.0
 32
0.0
 14
0.0
 24
0.0
 34
0.0
 15
16.53543307086614
 25
11.69291338582677
 35
0.0
146
0.0
 13
0.0
 23
0.0
 33
0.0
 16
1.0
 26
0.0
 36
0.0
 17
0.0
 27
1.0
 37
0.0
 76
     0
330
1F
331
29
1001
ACAD_PSEXT
1000
None
1000
None
1000
Not applicable
1000
The layout will not be plotted unless a new plotter configuration name is selected.
1070
     0
  0
MATERIAL
  5
E9
102
{ACAD_REACTORS
330
E7
102
}
330
E7
100
AcDbMaterial
  1
ByBlock
  0
MATERIAL
  5
E8
102
{ACAD_REACTORS
330
E7
102
}
330
E7
100
AcDbMaterial
  1
ByLayer
  0
MATERIAL
  5
EA
102
{ACAD_REACTORS
330
E7
102
}
330
E7
100
AcDbMaterial
  1
Global
  0
MLINESTYLE
  5
18
102
{ACAD_REACTORS
330
17
102
}
330
17
100
AcDbMlineStyle
  2
STANDARD
 70
     0
  3

 62
   256
 51
90.0
 52
90.0
 71
     2
 49
0.5
 62
   256
  6
BYLAYER
 49
-0.5
 62
   256
  6
BYLAYER
  0
PLOTSETTINGS
  5
BC0
102
{ACAD_REACTORS
330
19
102
}
330
19
100
AcDbPlotSettings
  1
JPG
  2
PublishToWeb JPG.pc3
  4
User-1
  6

 40
75.0
 41
75.0
 42
75.000244140625
 43
75.000244140625
 44
2550.0
 45
3300.0
 46
7.281523769336217
 47
0.0
 48
0.0
 49
0.0
140
6.2540257450236
141
4.736058331182942
142
1.0
143
0.0019854051522989
 70
 11956
 72
     2
 73
     1
 74
     4
  7

 75
     0
147
503.6755338536726
 76
     0
 77
     2
 78
   300
148
0.0
149
0.0
1001
ACAD_PSEXT
1000
PublishToWeb JPG.pc3
1000
Independent JPEG Group JFIF (JPEG Compression)
1000
File
1000

1070
     0
  0
PLOTSETTINGS
  5
BB7
102
{ACAD_REACTORS
330
19
102
}
330
19
100
AcDbPlotSettings
  1
PDF
  2
DWG To PDF.pc3
  4
ISO_expand_A1_(841.00_x_594.00_MM)
  6

 40
5.793749809265136
 41
10.79374980926513
 42
5.79376220703125
 43
10.79376220703125
 44
841.0
 45
594.0
 46
36.76722948979284
 47
0.0
 48
0.0
 49
0.0
140
6.2540257450236
141
4.736058331182942
142
1.0
143
0.0082738557082594
 70
 11956
 72
     1
 73
     0
 74
     4
  7

 75
     0
147
120.8626346966318
 76
     0
 77
     2
 78
   300
148
0.0
149
0.0
1001
ACAD_PSEXT
1000
DWG To PDF.pc3
1000
PDF
1000
File
1000

1070
     0
  0
ACDBPLACEHOLDER
  5
F
102
{ACAD_REACTORS
330
E
102
}
330
E
  0
TABLESTYLE
  5
FE
102
{ACAD_REACTORS
330
FD
102
}
330
FD
100
AcDbTableStyle
  3
Standard
 70
     0
 71
     0
 40
0.06
 41
0.06
280
     0
281
     0
  7
Standard
140
0.18
170
     2
 62
     0
 63
     7
283
     0
 90
      512
 91
        0
  1

274
    -2
284
     1
 64
     0
275
    -2
285
     1
 65
     0
276
    -2
286
     1
 66
     0
277
    -2
287
     1
 67
     0
278
    -2
288
     1
 68
     0
279
    -2
289
     1
 69
     0
  7
Standard
140
0.25
170
     5
 62
     0
 63
     7
283
     0
 90
      512
 91
        0
  1

274
    -2
284
     1
 64
     0
275
    -2
285
     1
 65
     0
276
    -2
286
     1
 66
     0
277
    -2
287
     1
 67
     0
278
    -2
288
     1
 68
     0
279
    -2
289
     1
 69
     0
  7
Standard
140
0.18
170
     5
 62
     0
 63
     7
283
     0
 90
      512
 91
        0
  1

274
    -2
284
     1
 64
     0
275
    -2
285
     1
 65
     0
276
    -2
286
     1
 66
     0
277
    -2
287
     1
 67
     0
278
    -2
288
     1
 68
     0
279
    -2
289
     1
 69
     0
  0
VISUALSTYLE
  5
F1
102
{ACAD_REACTORS
330
EB
102
}
330
EB
100
AcDbVisualStyle
  2
2dWireframe
 70
     4
 71
     0
 72
     2
 73
     0
 90
        0
 40
-0.6
 41
-30.0
 62
     5
 63
     7
421
 16777215
 74
     1
 91
        4
 64
     7
 65
   257
 75
     1
175
     1
 42
1.0
 92
        0
 66
   257
 43
1.0
 76
     1
 77
     6
 78
     2
 67
     7
 79
     5
170
     0
171
     0
290
     0
174
     0
 93
        1
 44
0.0
173
     0
291
     0
 45
0.0
  0
VISUALSTYLE
  5
F3
102
{ACAD_REACTORS
330
EB
102
}
330
EB
100
AcDbVisualStyle
  2
3D Hidden
 70
     6
 71
     1
 72
     2
 73
     2
 90
        0
 40
-0.6
 41
-30.0
 62
     5
 63
     7
421
 16777215
 74
     2
 91
        2
 64
     7
 65
   257
 75
     2
175
     1
 42
40.0
 92
        0
 66
   257
 43
1.0
 76
     1
 77
     6
 78
     2
 67
     7
 79
     3
170
     0
171
     0
290
     0
174
     0
 93
        1
 44
0.0
173
     0
291
     0
 45
0.0
  0
VISUALSTYLE
  5
F2
102
{ACAD_REACTORS
330
EB
102
}
330
EB
100
AcDbVisualStyle
  2
3dWireframe
 70
     5
 71
     0
 72
     2
 73
     0
 90
        0
 40
-0.6
 41
-30.0
 62
     5
 63
     7
421
 16777215
 74
     1
 91
        4
 64
     7
 65
   257
 75
     1
175
     1
 42
1.0
 92
        0
 66
   257
 43
1.0
 76
     1
 77
     6
 78
     2
 67
     7
 79
     5
170
     0
171
     0
290
     0
174
     0
 93
        1
 44
0.0
173
     0
291
     0
 45
0.0
  0
VISUALSTYLE
  5
F0
102
{ACAD_REACTORS
330
EB
102
}
330
EB
100
AcDbVisualStyle
  2
Basic
 70
     7
 71
     1
 72
     0
 73
     1
 90
        0
 40
-0.6
 41
-30.0
 62
     5
 63
     7
421
 16777215
 74
     0
 91
        4
 64
     7
 65
   257
 75
     1
175
     1
 42
1.0
 92
        8
 66
     7
 43
1.0
 76
     1
 77
     6
 78
     2
 67
     7
 79
     5
170
     0
171
     0
290
     0
174
     0
 93
        1
 44
0.0
173
     0
291
     1
 45
0.0
  0
VISUALSTYLE
  5
F7
102
{ACAD_REACTORS
330
EB
102
}
330
EB
100
AcDbVisualStyle
  2
Brighten
 70
    12
 71
     2
 72
     2
 73
     0
 90
        0
 40
-0.6
 41
-30.0
 62
     5
 63
     7
421
 16777215
 74
     1
 91
        4
 64
     7
 65
   257
 75
     1
175
     1
 42
1.0
 92
        8
 66
     7
 43
1.0
 76
     1
 77
     6
 78
     2
 67
     7
 79
     5
170
     0
171
     0
290
     0
174
     0
 93
        1
 44
50.0
173
     0
291
     1
 45
0.0
  0
VISUALSTYLE
  5
FB
102
{ACAD_REACTORS
330
EB
102
}
330
EB
100
AcDbVisualStyle
  2
ColorChange
 70
    16
 71
     2
 72
     2
 73
     3
 90
        0
 40
-0.6
 41
-30.0
 62
     5
 63
     8
421
  8421504
 74
     1
 91
        4
 64
     7
 65
   257
 75
     1
175
     1
 42
1.0
 92
        8
 66
     8
424
  8421504
 43
1.0
 76
     1
 77
     6
 78
     2
 67
     7
 79
     5
170
     0
171
     0
290
     0
174
     0
 93
        1
 44
0.0
173
     0
291
     1
 45
0.0
  0
VISUALSTYLE
  5
F4
102
{ACAD_REACTORS
330
EB
102
}
330
EB
100
AcDbVisualStyle
  2
Conceptual
 70
     9
 71
     3
 72
     2
 73
     0
 90
        0
 40
-0.6
 41
-30.0
 62
     5
 63
     7
421
 16777215
 74
     2
 91
        2
 64
     7
 65
   257
 75
     1
175
     1
 42
40.0
 92
        8
 66
     7
 43
1.0
 76
     1
 77
     6
 78
     2
 67
     7
 79
     3
170
     0
171
     0
290
     0
174
     0
 93
        1
 44
0.0
173
     0
291
     0
 45
0.0
  0
VISUALSTYLE
  5
F6
102
{ACAD_REACTORS
330
EB
102
}
330
EB
100
AcDbVisualStyle
  2
Dim
 70
    11
 71
     2
 72
     2
 73
     0
 90
        0
 40
-0.6
 41
-30.0
 62
     5
 63
     7
421
 16777215
 74
     1
 91
        4
 64
     7
 65
   257
 75
     1
175
     1
 42
1.0
 92
        8
 66
     7
 43
1.0
 76
     1
 77
     6
 78
     2
 67
     7
 79
     5
170
     0
171
     0
290
     0
174
     0
 93
        1
 44
-50.0
173
     0
291
     1
 45
0.0
  0
VISUALSTYLE
  5
FA
102
{ACAD_REACTORS
330
EB
102
}
330
EB
100
AcDbVisualStyle
  2
Facepattern
 70
    15
 71
     2
 72
     2
 73
     0
 90
        0
 40
-0.6
 41
-30.0
 62
     5
 63
     7
421
 16777215
 74
     1
 91
        4
 64
     7
 65
   257
 75
     1
175
     1
 42
1.0
 92
        8
 66
     7
 43
1.0
 76
     1
 77
     6
 78
     2
 67
     7
 79
     5
170
     0
171
     0
290
     0
174
     0
 93
        1
 44
0.0
173
     0
291
     1
 45
0.0
  0
VISUALSTYLE
  5
EC
102
{ACAD_REACTORS
330
EB
102
}
330
EB
100
AcDbVisualStyle
  2
Flat
 70
     0
 71
     2
 72
     1
 73
     1
 90
        2
 40
-0.6
 41
30.0
 62
     5
 63
     7
421
 16777215
 74
     0
 91
        4
 64
     7
 65
   257
 75
     1
175
     1
 42
1.0
 92
        8
 66
     7
 43
1.0
 76
     1
 77
     6
 78
     2
 67
     7
 79
     5
170
     0
171
     0
290
     0
174
     0
 93
       13
 44
0.0
173
     0
291
     1
 45
0.0
  0
VISUALSTYLE
  5
ED
102
{ACAD_REACTORS
330
EB
102
}
330
EB
100
AcDbVisualStyle
  2
FlatWithEdges
 70
     1
 71
     2
 72
     1
 73
     1
 90
        2
 40
-0.6
 41
30.0
 62
     5
 63
     7
421
 16777215
 74
     1
 91
        4
 64
     7
 65
   257
 75
     1
175
     1
 42
1.0
 92
        0
 66
   257
 43
1.0
 76
     1
 77
     6
 78
     2
 67
     7
 79
     5
170
     0
171
     0
290
     0
174
     0
 93
       13
 44
0.0
173
     0
291
     1
 45
0.0
  0
VISUALSTYLE
  5
EE
102
{ACAD_REACTORS
330
EB
102
}
330
EB
100
AcDbVisualStyle
  2
Gouraud
 70
     2
 71
     2
 72
     2
 73
     1
 90
        2
 40
-0.6
 41
30.0
 62
     5
 63
     7
421
 16777215
 74
     0
 91
        4
 64
     7
 65
   257
 75
     1
175
     1
 42
1.0
 92
        0
 66
     7
 43
1.0
 76
     1
 77
     6
 78
     2
 67
     7
 79
     5
170
     0
171
     0
290
     0
174
     0
 93
       13
 44
0.0
173
     0
291
     1
 45
0.0
  0
VISUALSTYLE
  5
EF
102
{ACAD_REACTORS
330
EB
102
}
330
EB
100
AcDbVisualStyle
  2
GouraudWithEdges
 70
     3
 71
     2
 72
     2
 73
     1
 90
        2
 40
-0.6
 41
30.0
 62
     5
 63
     7
421
 16777215
 74
     1
 91
        4
 64
     7
 65
   257
 75
     1
175
     1
 42
1.0
 92
        0
 66
   257
 43
1.0
 76
     1
 77
     6
 78
     2
 67
     7
 79
     5
170
     0
171
     0
290
     0
174
     0
 93
       13
 44
0.0
173
     0
291
     1
 45
0.0
  0
VISUALSTYLE
  5
F9
102
{ACAD_REACTORS
330
EB
102
}
330
EB
100
AcDbVisualStyle
  2
Linepattern
 70
    14
 71
     2
 72
     2
 73
     0
 90
        0
 40
-0.6
 41
-30.0
 62
     5
 63
     7
421
 16777215
 74
     1
 91
        4
 64
     7
 65
   257
 75
     7
175
     7
 42
1.0
 92
        8
 66
     7
 43
1.0
 76
     1
 77
     6
 78
     2
 67
     7
 79
     5
170
     0
171
     0
290
     0
174
     0
 93
        1
 44
0.0
173
     0
291
     1
 45
0.0
  0
VISUALSTYLE
  5
F5
102
{ACAD_REACTORS
330
EB
102
}
330
EB
100
AcDbVisualStyle
  2
Realistic
 70
     8
 71
     2
 72
     2
 73
     0
 90
        0
 40
-0.6
 41
-30.0
 62
     5
 63
     7
421
 16777215
 74
     1
 91
        0
 64
     7
 65
   257
 75
     1
175
     1
 42
1.0
 92
        8
 66
     8
424
  7895160
 43
1.0
 76
     1
 77
     6
 78
     2
 67
     7
 79
     5
170
     0
171
     0
290
     0
174
     0
 93
       13
 44
0.0
173
     0
291
     0
 45
0.0
  0
VISUALSTYLE
  5
F8
102
{ACAD_REACTORS
330
EB
102
}
330
EB
100
AcDbVisualStyle
  2
Thicken
 70
    13
 71
     2
 72
     2
 73
     0
 90
        0
 40
-0.6
 41
-30.0
 62
     5
 63
     7
421
 16777215
 74
     1
 91
        4
 64
     7
 65
   257
 75
     1
175
     1
 42
1.0
 92
       12
 66
     7
 43
1.0
 76
     1
 77
     6
 78
     2
 67
     7
 79
     5
170
     0
171
     0
290
     0
174
     0
 93
        1
 44
0.0
173
     0
291
     1
 45
0.0
  0
DICTIONARYVAR
  5
3CC
102
{ACAD_REACTORS
330
3CB
102
}
330
3CB
100
DictionaryVariables
280
     0
  1
STANDARD
  0
ENDSEC
  0
EOF
