  0
SECTION
  2
HEADER
  9
$ACADVER
  1
AC1018
  9
$ACADMAINTVER
 70
   104
  9
$DWGCODEPAGE
  3
ANSI_1252
  9
$AUTHOR
  1
‘Created by Cad / Cam Services, Inc. for Amazon Services LLC on November, 2012’
  9
$LASTSAVEDBY
  1
om
  9
$INSBASE
 10
0.0
 20
0.0
 30
0.0
  9
$EXTMIN
 10
-0.0005045828716064
 20
-0.0003568121734894
 30
-0.0015258207003583
  9
$EXTMAX
 10
3.128147899060216
 20
2.368164679608977
 30
0.0000000349246037
  9
$LIMMIN
 10
0.0
 20
0.0
  9
$LIMMAX
 10
16.53543307086614
 20
11.69291338582677
  9
$ORTHOMODE
 70
     1
  9
$REGENMODE
 70
     1
  9
$FILLMODE
 70
     1
  9
$QTEXTMODE
 70
     0
  9
$MIRRTEXT
 70
     1
  9
$LTSCALE
 40
1.0
  9
$ATTMODE
 70
     1
  9
$TEXTSIZE
 40
0.2
  9
$TRACEWID
 40
0.05
  9
$TEXTSTYLE
  7
SLDTEXTSTYLE0
  9
$CLAYER
  8
0
  9
$CELTYPE
  6
ByLayer
  9
$CECOLOR
 62
   256
  9
$CELTSCALE
 40
1.0
  9
$DISPSILH
 70
     0
  9
$DIMSCALE
 40
1.0
  9
$DIMASZ
 40
0.02
  9
$DIMEXO
 40
0.01
  9
$DIMDLI
 40
0.38
  9
$DIMRND
 40
0.0
  9
$DIMDLE
 40
0.0
  9
$DIMEXE
 40
0.01
  9
$DIMTP
 40
0.0
  9
$DIMTM
 40
0.0
  9
$DIMTXT
 40
0.02
  9
$DIMCEN
 40
0.09
  9
$DIMTSZ
 40
0.0
  9
$DIMTOL
 70
     0
  9
$DIMLIM
 70
     0
  9
$DIMTIH
 70
     0
  9
$DIMTOH
 70
     0
  9
$DIMSE1
 70
     0
  9
$DIMSE2
 70
     0
  9
$DIMTAD
 70
     1
  9
$DIMZIN
 70
     0
  9
$DIMBLK
  1

  9
$DIMASO
 70
     1
  9
$DIMSHO
 70
     1
  9
$DIMPOST
  1

  9
$DIMAPOST
  1

  9
$DIMALT
 70
     0
  9
$DIMALTD
 70
     2
  9
$DIMALTF
 40
25.4
  9
$DIMLFAC
 40
1.0
  9
$DIMTOFL
 70
     1
  9
$DIMTVP
 40
0.0
  9
$DIMTIX
 70
     0
  9
$DIMSOXD
 70
     0
  9
$DIMSAH
 70
     0
  9
$DIMBLK1
  1

  9
$DIMBLK2
  1

  9
$DIMSTYLE
  2
Standard
  9
$DIMCLRD
 70
     0
  9
$DIMCLRE
 70
     0
  9
$DIMCLRT
 70
     0
  9
$DIMTFAC
 40
1.0
  9
$DIMGAP
 40
0.01
  9
$DIMJUST
 70
     0
  9
$DIMSD1
 70
     0
  9
$DIMSD2
 70
     0
  9
$DIMTOLJ
 70
     1
  9
$DIMTZIN
 70
     0
  9
$DIMALTZ
 70
     0
  9
$DIMALTTZ
 70
     0
  9
$DIMUPT
 70
     0
  9
$DIMDEC
 70
     3
  9
$DIMTDEC
 70
     3
  9
$DIMALTU
 70
     2
  9
$DIMALTTD
 70
     2
  9
$DIMTXSTY
  7
Standard
  9
$DIMAUNIT
 70
     0
  9
$DIMADEC
 70
     0
  9
$DIMALTRND
 40
0.0
  9
$DIMAZIN
 70
     0
  9
$DIMDSEP
 70
    46
  9
$DIMATFIT
 70
     3
  9
$DIMFRAC
 70
     0
  9
$DIMLDRBLK
  1

  9
$DIMLUNIT
 70
     2
  9
$DIMLWD
 70
    -2
  9
$DIMLWE
 70
    -2
  9
$DIMTMOVE
 70
     0
  9
$LUNITS
 70
     2
  9
$LUPREC
 70
     2
  9
$SKETCHINC
 40
0.1
  9
$FILLETRAD
 40
0.5
  9
$AUNITS
 70
     0
  9
$AUPREC
 70
     2
  9
$MENU
  1
.
  9
$ELEVATION
 40
0.0
  9
$PELEVATION
 40
0.0
  9
$THICKNESS
 40
0.0
  9
$LIMCHECK
 70
     0
  9
$CHAMFERA
 40
0.5
  9
$CHAMFERB
 40
0.5
  9
$CHAMFERC
 40
1.0
  9
$CHAMFERD
 40
0.0
  9
$SKPOLY
 70
     0
  9
$TDCREATE
 40
2456300.516637002
  9
$TDUCREATE
 40
2456300.287470336
  9
$TDUPDATE
 40
2456366.393271655
  9
$TDUUPDATE
 40
2456366.164104988
  9
$TDINDWG
 40
0.0076421528
  9
$TDUSRTIMER
 40
0.0076421528
  9
$USRTIMER
 70
     1
  9
$ANGBASE
 50
0.0
  9
$ANGDIR
 70
     0
  9
$PDMODE
 70
     0
  9
$PDSIZE
 40
-1.0
  9
$PLINEWID
 40
0.0
  9
$SPLFRAME
 70
     0
  9
$SPLINETYPE
 70
     6
  9
$SPLINESEGS
 70
     8
  9
$HANDSEED
  5
1079
  9
$SURFTAB1
 70
     6
  9
$SURFTAB2
 70
     6
  9
$SURFTYPE
 70
     6
  9
$SURFU
 70
     6
  9
$SURFV
 70
     6
  9
$UCSBASE
  2

  9
$UCSNAME
  2

  9
$UCSORG
 10
0.0
 20
0.0
 30
0.0
  9
$UCSXDIR
 10
1.0
 20
0.0
 30
0.0
  9
$UCSYDIR
 10
0.0
 20
1.0
 30
0.0
  9
$UCSORTHOREF
  2

  9
$UCSORTHOVIEW
 70
     0
  9
$UCSORGTOP
 10
0.0
 20
0.0
 30
0.0
  9
$UCSORGBOTTOM
 10
0.0
 20
0.0
 30
0.0
  9
$UCSORGLEFT
 10
0.0
 20
0.0
 30
0.0
  9
$UCSORGRIGHT
 10
0.0
 20
0.0
 30
0.0
  9
$UCSORGFRONT
 10
0.0
 20
0.0
 30
0.0
  9
$UCSORGBACK
 10
0.0
 20
0.0
 30
0.0
  9
$PUCSBASE
  2

  9
$PUCSNAME
  2

  9
$PUCSORG
 10
0.0
 20
0.0
 30
0.0
  9
$PUCSXDIR
 10
1.0
 20
0.0
 30
0.0
  9
$PUCSYDIR
 10
0.0
 20
1.0
 30
0.0
  9
$PUCSORTHOREF
  2

  9
$PUCSORTHOVIEW
 70
     0
  9
$PUCSORGTOP
 10
0.0
 20
0.0
 30
0.0
  9
$PUCSORGBOTTOM
 10
0.0
 20
0.0
 30
0.0
  9
$PUCSORGLEFT
 10
0.0
 20
0.0
 30
0.0
  9
$PUCSORGRIGHT
 10
0.0
 20
0.0
 30
0.0
  9
$PUCSORGFRONT
 10
0.0
 20
0.0
 30
0.0
  9
$PUCSORGBACK
 10
0.0
 20
0.0
 30
0.0
  9
$USERI1
 70
     0
  9
$USERI2
 70
     0
  9
$USERI3
 70
     0
  9
$USERI4
 70
     0
  9
$USERI5
 70
     0
  9
$USERR1
 40
0.0
  9
$USERR2
 40
0.0
  9
$USERR3
 40
0.0
  9
$USERR4
 40
0.0
  9
$USERR5
 40
0.0
  9
$WORLDVIEW
 70
     1
  9
$SHADEDGE
 70
     3
  9
$SHADEDIF
 70
    70
  9
$TILEMODE
 70
     1
  9
$MAXACTVP
 70
    64
  9
$PINSBASE
 10
0.0
 20
0.0
 30
0.0
  9
$PLIMCHECK
 70
     0
  9
$PEXTMIN
 10
1.000000000000000E+20
 20
1.000000000000000E+20
 30
1.000000000000000E+20
  9
$PEXTMAX
 10
-1.000000000000000E+20
 20
-1.000000000000000E+20
 30
-1.000000000000000E+20
  9
$PLIMMIN
 10
0.0
 20
0.0
  9
$PLIMMAX
 10
12.0
 20
9.0
  9
$UNITMODE
 70
     0
  9
$VISRETAIN
 70
     1
  9
$PLINEGEN
 70
     0
  9
$PSLTSCALE
 70
     1
  9
$TREEDEPTH
 70
  3020
  9
$CMLSTYLE
  2
Standard
  9
$CMLJUST
 70
     0
  9
$CMLSCALE
 40
1.0
  9
$PROXYGRAPHICS
 70
     1
  9
$MEASUREMENT
 70
     0
  9
$CELWEIGHT
370
    -1
  9
$ENDCAPS
280
     0
  9
$JOINSTYLE
280
     0
  9
$LWDISPLAY
290
     1
  9
$INSUNITS
 70
     1
  9
$HYPERLINKBASE
  1

  9
$STYLESHEET
  1

  9
$XEDIT
290
     1
  9
$CEPSNTYPE
380
     0
  9
$PSTYLEMODE
290
     1
  9
$FINGERPRINTGUID
  2
{1C885022-76FC-4E23-8C0B-D1500384DF21}
  9
$VERSIONGUID
  2
{6FC6436F-2A01-4936-BE3C-A0FEADBD3D39}
  9
$EXTNAMES
290
     1
  9
$PSVPSCALE
 40
0.0
  9
$OLESTARTUP
290
     0
  9
$SORTENTS
280
   127
  9
$INDEXCTL
280
     0
  9
$HIDETEXT
280
     0
  9
$XCLIPFRAME
290
     0
  9
$HALOGAP
280
     0
  9
$OBSCOLOR
 70
   257
  9
$OBSLTYPE
280
     0
  9
$INTERSECTIONDISPLAY
280
     0
  9
$INTERSECTIONCOLOR
 70
   257
  9
$DIMASSOC
280
     1
  9
$PROJECTNAME
  1

  0
ENDSEC
  0
SECTION
  2
CLASSES
  0
CLASS
  1
ACDBDICTIONARYWDFLT
  2
AcDbDictionaryWithDefault
  3
ObjectDBX Classes
 90
        0
 91
        1
280
     0
281
     0
  0
CLASS
  1
VISUALSTYLE
  2
AcDbVisualStyle
  3
ObjectDBX Classes
 90
     4095
 91
       19
280
     0
281
     0
  0
CLASS
  1
MATERIAL
  2
AcDbMaterial
  3
ObjectDBX Classes
 90
     1153
 91
        3
280
     0
281
     0
  0
CLASS
  1
TABLESTYLE
  2
AcDbTableStyle
  3
ObjectDBX Classes
 90
     4095
 91
        1
280
     0
281
     0
  0
CLASS
  1
DICTIONARYVAR
  2
AcDbDictionaryVar
  3
ObjectDBX Classes
 90
        0
 91
        7
280
     0
281
     0
  0
CLASS
  1
SORTENTSTABLE
  2
AcDbSortentsTable
  3
ObjectDBX Classes
 90
        0
 91
        2
280
     0
281
     0
  0
CLASS
  1
PLOTSETTINGS
  2
AcDbPlotSettings
  3
ObjectDBX Classes
 90
        0
 91
        2
280
     0
281
     0
  0
CLASS
  1
SCALE
  2
AcDbScale
  3
ObjectDBX Classes
 90
     1153
 91
       33
280
     0
281
     0
  0
CLASS
  1
MLEADERSTYLE
  2
AcDbMLeaderStyle
  3
ACDB_MLEADERSTYLE_CLASS
 90
     4095
 91
        1
280
     0
281
     0
  0
CLASS
  1
CELLSTYLEMAP
  2
AcDbCellStyleMap
  3
ObjectDBX Classes
 90
     1152
 91
        1
280
     0
281
     0
  0
ENDSEC
  0
SECTION
  2
TABLES
  0
TABLE
  2
VPORT
  5
8
102
{ACAD_XDICTIONARY
360
4DC
102
}
330
0
100
AcDbSymbolTable
 70
     1
  0
VPORT
  5
29
330
8
100
AcDbSymbolTableRecord
100
AcDbViewportTableRecord
  2
*Active
 70
     0
 10
0.0
 20
0.0
 11
1.0
 21
1.0
 12
1.563821658094305
 22
1.183903933717743
 13
0.0
 23
0.0
 14
0.5
 24
0.5
 15
0.5
 25
0.5
 16
0.0
 26
0.0
 36
1.0
 17
0.0
 27
0.0
 37
0.0
 40
2.397702454720238
 41
2.588477366255144
 42
50.0
 43
0.0
 44
0.0
 50
0.0
 51
0.0
 71
     0
 72
  2000
 73
     1
 74
     3
 75
     0
 76
     0
 77
     0
 78
     0
281
     0
 65
     1
110
0.0
120
0.0
130
0.0
111
1.0
121
0.0
131
0.0
112
0.0
122
1.0
132
0.0
 79
     0
146
0.0
  0
ENDTAB
  0
TABLE
  2
LTYPE
  5
5
330
0
100
AcDbSymbolTable
 70
     2
  0
LTYPE
  5
14
330
5
100
AcDbSymbolTableRecord
100
AcDbLinetypeTableRecord
  2
ByBlock
 70
     0
  3

 72
    65
 73
     0
 40
0.0
  0
LTYPE
  5
15
330
5
100
AcDbSymbolTableRecord
100
AcDbLinetypeTableRecord
  2
ByLayer
 70
     0
  3

 72
    65
 73
     0
 40
0.0
  0
LTYPE
  5
16
330
5
100
AcDbSymbolTableRecord
100
AcDbLinetypeTableRecord
  2
Continuous
 70
     0
  3
Solid line
 72
    65
 73
     0
 40
0.0
  0
LTYPE
  5
C51
330
5
100
AcDbSymbolTableRecord
100
AcDbLinetypeTableRecord
  2
HIDDEN
 70
     0
  3
Hidden __ __ __ __ __ __ __ __ __ __ __ __ __ __
 72
    65
 73
     2
 40
0.075
 49
0.05
 74
     0
 49
-0.025
 74
     0
  0
ENDTAB
  0
TABLE
  2
LAYER
  5
2
102
{ACAD_XDICTIONARY
360
61E
102
}
330
0
100
AcDbSymbolTable
 70
     4
  0
LAYER
  5
10
102
{ACAD_XDICTIONARY
360
1014
102
}
330
2
100
AcDbSymbolTableRecord
100
AcDbLayerTableRecord
  2
0
 70
     0
 62
     7
  6
Continuous
370
    -3
390
F
  0
LAYER
  5
44
102
{ACAD_XDICTIONARY
360
1016
102
}
330
2
100
AcDbSymbolTableRecord
100
AcDbLayerTableRecord
  2
FORMAT
 70
     0
 62
     7
  6
Continuous
370
    -3
390
F
  0
LAYER
  5
125
330
2
100
AcDbSymbolTableRecord
100
AcDbLayerTableRecord
  2
Defpoints
 70
     0
 62
     7
  6
Continuous
290
     0
370
    -3
390
F
  0
LAYER
  5
61C
102
{ACAD_XDICTIONARY
360
1018
102
}
330
2
100
AcDbSymbolTableRecord
100
AcDbLayerTableRecord
  2
DIM
 70
     0
 62
     8
  6
Continuous
370
    -3
390
F
1001
AcAecLayerStandard
1000

1000

  0
ENDTAB
  0
TABLE
  2
STYLE
  5
3
330
0
100
AcDbSymbolTable
 70
     6
  0
STYLE
  5
11
330
3
100
AcDbSymbolTableRecord
100
AcDbTextStyleTableRecord
  2
Standard
 70
     0
 40
0.0
 41
1.0
 50
0.0
 71
     0
 42
0.2
  3
GOTHIC.TTF
  4

1001
ACAD
1000
Century Gothic
1071
       34
  0
STYLE
  5
66
330
3
100
AcDbSymbolTableRecord
100
AcDbTextStyleTableRecord
  2
SLDTEXTSTYLE0
 70
     0
 40
0.0
 41
0.75
 50
0.0
 71
     0
 42
0.2
  3
GOTHIC.TTF
  4

1001
ACAD
1000
Century Gothic
1071
       34
  0
STYLE
  5
6A
330
3
100
AcDbSymbolTableRecord
100
AcDbTextStyleTableRecord
  2
SLDTEXTSTYLE1
 70
     0
 40
0.0
 41
0.6875
 50
0.0
 71
     0
 42
0.2
  3
GOTHIC.TTF
  4

1001
ACAD
1000
Century Gothic
1071
       34
  0
STYLE
  5
412
330
3
100
AcDbSymbolTableRecord
100
AcDbTextStyleTableRecord
  2
style2
 70
     0
 40
0.0
 41
1.0
 50
0.0
 71
     0
 42
0.2
  3

  4

1001
ACAD
1000
Euphemia
1071
       34
  0
STYLE
  5
B37
330
3
100
AcDbSymbolTableRecord
100
AcDbTextStyleTableRecord
  2
style1
 70
     0
 40
0.0
 41
1.0
 50
0.0
 71
     0
 42
0.2
  3

  4

1001
ACAD
1000
@MS PGothic
1071
    32802
  0
STYLE
  5
E80
330
3
100
AcDbSymbolTableRecord
100
AcDbTextStyleTableRecord
  2
Annotative
 70
     0
 40
0.0
 41
1.0
 50
0.0
 71
     0
 42
0.2
  3
txt
  4

1001
AcadAnnotative
1000
AnnotativeData
1002
{
1070
     1
1070
     1
1002
}
  0
ENDTAB
  0
TABLE
  2
VIEW
  5
6
330
0
100
AcDbSymbolTable
 70
     2
  0
ENDTAB
  0
TABLE
  2
UCS
  5
7
330
0
100
AcDbSymbolTable
 70
     0
  0
ENDTAB
  0
TABLE
  2
APPID
  5
9
330
0
100
AcDbSymbolTable
 70
     8
  0
APPID
  5
12
330
9
100
AcDbSymbolTableRecord
100
AcDbRegAppTableRecord
  2
ACAD
 70
     0
  0
APPID
  5
3B8
330
9
100
AcDbSymbolTableRecord
100
AcDbRegAppTableRecord
  2
ACAD_EXEMPT_FROM_CAD_STANDARDS
 70
     0
  0
APPID
  5
413
330
9
100
AcDbSymbolTableRecord
100
AcDbRegAppTableRecord
  2
ACAD_PSEXT
 70
     0
  0
APPID
  5
61D
330
9
100
AcDbSymbolTableRecord
100
AcDbRegAppTableRecord
  2
AcAecLayerStandard
 70
     0
  0
APPID
  5
B19
330
9
100
AcDbSymbolTableRecord
100
AcDbRegAppTableRecord
  2
PE_URL
 70
     0
  0
APPID
  5
E16
330
9
100
AcDbSymbolTableRecord
100
AcDbRegAppTableRecord
  2
ACAD_DSTYLE_DIMRADIAL_EXTENSION
 70
     0
  0
APPID
  5
E82
330
9
100
AcDbSymbolTableRecord
100
AcDbRegAppTableRecord
  2
AcadAnnotative
 70
     0
  0
APPID
  5
1070
330
9
100
AcDbSymbolTableRecord
100
AcDbRegAppTableRecord
  2
ACAD_MLEADERVER
 70
     0
  0
ENDTAB
  0
TABLE
  2
DIMSTYLE
  5
A
330
0
100
AcDbSymbolTable
 70
     3
100
AcDbDimStyleTable
 71
     1
340
27
  0
DIMSTYLE
105
27
102
{ACAD_REACTORS
330
E4A
330
E23
330
E17
330
D27
330
DD5
330
DE2
330
DC8
330
DFC
330
DEF
330
E56
330
E09
330
E3D
102
}
330
A
100
AcDbSymbolTableRecord
100
AcDbDimStyleTableRecord
  2
Standard
 70
     0
 41
0.02
 42
0.01
 44
0.01
 73
     0
 74
     0
 77
     1
140
0.02
147
0.01
172
     1
271
     3
272
     3
340
11
  0
DIMSTYLE
105
C52
330
A
100
AcDbSymbolTableRecord
100
AcDbDimStyleTableRecord
  2
SLDDIMSTYLE0
 70
     0
 41
0.13
 44
0.0
 78
     4
140
0.125
147
0.03125
173
     1
271
     2
272
     2
284
    12
340
11
  0
DIMSTYLE
105
E81
330
A
100
AcDbSymbolTableRecord
100
AcDbDimStyleTableRecord
  2
Annotative
 70
     0
340
11
1001
AcadAnnotative
1000
AnnotativeData
1002
{
1070
     1
1070
     1
1002
}
  0
ENDTAB
  0
TABLE
  2
BLOCK_RECORD
  5
1
330
0
100
AcDbSymbolTable
 70
    22
  0
BLOCK_RECORD
  5
1F
102
{ACAD_XDICTIONARY
360
EA4
102
}
330
1
100
AcDbSymbolTableRecord
100
AcDbBlockTableRecord
  2
*Model_Space
340
22
  0
BLOCK_RECORD
  5
1B
330
1
100
AcDbSymbolTableRecord
100
AcDbBlockTableRecord
  2
*Paper_Space
340
1E
  0
BLOCK_RECORD
  5
23
330
1
100
AcDbSymbolTableRecord
100
AcDbBlockTableRecord
  2
*Paper_Space0
340
26
  0
BLOCK_RECORD
  5
3F9
330
1
100
AcDbSymbolTableRecord
100
AcDbBlockTableRecord
  2
Block3
340
0
102
{BLKREFS
331
407
102
}
  0
BLOCK_RECORD
  5
405
330
1
100
AcDbSymbolTableRecord
100
AcDbBlockTableRecord
  2
Block2
340
0
102
{BLKREFS
331
44A
102
}
  0
BLOCK_RECORD
  5
409
102
{ACAD_XDICTIONARY
360
40A
102
}
330
1
100
AcDbSymbolTableRecord
100
AcDbBlockTableRecord
  2
amazon
340
0
310
2800000020000000200000000100080000000000000400000000000000000000000000000000000000000000000080000080000000808000800000008000800080800000C0C0C000C0DCC000F0CAA6000020400000206000002080000020A0000020C0000020E00000400000004020000040400000406000004080000040A0
310
000040C0000040E00000600000006020000060400000606000006080000060A0000060C0000060E00000800000008020000080400000806000008080000080A0000080C0000080E00000A0000000A0200000A0400000A0600000A0800000A0A00000A0C00000A0E00000C0000000C0200000C0400000C0600000C0800000C0
310
A00000C0C00000C0E00000E0000000E0200000E0400000E0600000E0800000E0A00000E0C00000E0E00040000000400020004000400040006000400080004000A0004000C0004000E00040200000402020004020400040206000402080004020A0004020C0004020E000404000004040200040404000404060004040800040
310
40A0004040C0004040E00040600000406020004060400040606000406080004060A0004060C0004060E00040800000408020004080400040806000408080004080A0004080C0004080E00040A0000040A0200040A0400040A0600040A0800040A0A00040A0C00040A0E00040C0000040C0200040C0400040C0600040C08000
310
40C0A00040C0C00040C0E00040E0000040E0200040E0400040E0600040E0800040E0A00040E0C00040E0E00080000000800020008000400080006000800080008000A0008000C0008000E00080200000802020008020400080206000802080008020A0008020C0008020E00080400000804020008040400080406000804080
310
008040A0008040C0008040E00080600000806020008060400080606000806080008060A0008060C0008060E00080800000808020008080400080806000808080008080A0008080C0008080E00080A0000080A0200080A0400080A0600080A0800080A0A00080A0C00080A0E00080C0000080C0200080C0400080C0600080C0
310
800080C0A00080C0C00080C0E00080E0000080E0200080E0400080E0600080E0800080E0A00080E0C00080E0E000C0000000C0002000C0004000C0006000C0008000C000A000C000C000C000E000C0200000C0202000C0204000C0206000C0208000C020A000C020C000C020E000C0400000C0402000C0404000C0406000C0
310
408000C040A000C040C000C040E000C0600000C0602000C0604000C0606000C0608000C060A000C060C000C060E000C0800000C0802000C0804000C0806000C0808000C080A000C080C000C080E000C0A00000C0A02000C0A04000C0A06000C0A08000C0A0A000C0A0C000C0A0E000C0C00000C0C02000C0C04000C0C06000
310
C0C08000C0C0A000F0FBFF00A4A0A000808080000000FF0000FF000000FFFF00FF000000FF00FF00FFFF0000FFFFFF0000000000000000000000000000000000000000000000000000000000000000000000000000000000000000000000000000000000000000000000000000000000000000000000000000000000000000
310
00000000000000000000000000000000000000000000000000000000000000000000000000000000000000000000000000000000000000000000000000000000000000000000000000000000000000000000000000000000000000000000000000000000000000000000000000000000000000000000000000000000000000
310
00000000000000000000000000000000000000000000000000000000000000000000000000000000000000000000000000000000000000000000000000000000000000000000000000000000000000000000000000000000000000000000000000000000000000000000000000000000000000000000000000000000000000
310
0000000000000000000000000000000000000000000000000000000000000000000000000000000000000000000000000000000000000000000000000000000000000000000000000000000000000000000000000000000000FFFFFFFFFF00000000000000000000000000000000000000000000000000FFFFFFFFFFFFFFFF
310
00000000000000000000FC00FC0000FCFC00000000FFFFFFFFFFFFFFFFFFFFFFFFFFFFFFFFFCFCFCFCFCFCFCFCFCFCFCFCFC00000000FFFFFFFFFFFFFFFFFFFFFFFFFFFFFFFCFCFC00FCFCFCFC00FCFCFCFC00000000FFFFFFFFFFFFFFFFFFFFFFFFFFFFFFFCFCFC00FCFCFCFCFCFCFCFCFC00000000000000000000000000
310
00000000000000000000000000000000FC0000000000000000000000000000000000000000000000000000000000000000000000000000000000000000000000000000000000000000000000000000000000000000000000000000000000000000000000000000000000000000000000000000000000000000000000000000
310
00000000000000000000000000000000000000000000000000000000000000000000000000000000000000000000000000000000000000000000000000000000000000000000000000000000000000000000000000000000000000000000000000000000000000000000000000000000000000000000000000000000000000
310
00000000000000000000000000000000000000000000000000000000000000000000000000000000000000000000000000000000000000000000000000000000000000000000000000000000000000000000000000000000000000000000000000000000000000000000000000000000000000000000000000000000000000
310
0000000000000000000000000000000000000000000000000000000000000000000000000000000000000000000000000000000000000000
1001
ACAD
1000
DesignCenter Data
1002
{
1070
     1
1070
     1
1002
}
  0
BLOCK_RECORD
  5
B30
330
1
100
AcDbSymbolTableRecord
100
AcDbBlockTableRecord
  2
amazon block
340
0
310
2800000020000000200000000100080000000000000400000000000000000000000000000000000000000000000080000080000000808000800000008000800080800000C0C0C000C0DCC000F0CAA6000020400000206000002080000020A0000020C0000020E00000400000004020000040400000406000004080000040A0
310
000040C0000040E00000600000006020000060400000606000006080000060A0000060C0000060E00000800000008020000080400000806000008080000080A0000080C0000080E00000A0000000A0200000A0400000A0600000A0800000A0A00000A0C00000A0E00000C0000000C0200000C0400000C0600000C0800000C0
310
A00000C0C00000C0E00000E0000000E0200000E0400000E0600000E0800000E0A00000E0C00000E0E00040000000400020004000400040006000400080004000A0004000C0004000E00040200000402020004020400040206000402080004020A0004020C0004020E000404000004040200040404000404060004040800040
310
40A0004040C0004040E00040600000406020004060400040606000406080004060A0004060C0004060E00040800000408020004080400040806000408080004080A0004080C0004080E00040A0000040A0200040A0400040A0600040A0800040A0A00040A0C00040A0E00040C0000040C0200040C0400040C0600040C08000
310
40C0A00040C0C00040C0E00040E0000040E0200040E0400040E0600040E0800040E0A00040E0C00040E0E00080000000800020008000400080006000800080008000A0008000C0008000E00080200000802020008020400080206000802080008020A0008020C0008020E00080400000804020008040400080406000804080
310
008040A0008040C0008040E00080600000806020008060400080606000806080008060A0008060C0008060E00080800000808020008080400080806000808080008080A0008080C0008080E00080A0000080A0200080A0400080A0600080A0800080A0A00080A0C00080A0E00080C0000080C0200080C0400080C0600080C0
310
800080C0A00080C0C00080C0E00080E0000080E0200080E0400080E0600080E0800080E0A00080E0C00080E0E000C0000000C0002000C0004000C0006000C0008000C000A000C000C000C000E000C0200000C0202000C0204000C0206000C0208000C020A000C020C000C020E000C0400000C0402000C0404000C0406000C0
310
408000C040A000C040C000C040E000C0600000C0602000C0604000C0606000C0608000C060A000C060C000C060E000C0800000C0802000C0804000C0806000C0808000C080A000C080C000C080E000C0A00000C0A02000C0A04000C0A06000C0A08000C0A0A000C0A0C000C0A0E000C0C00000C0C02000C0C04000C0C06000
310
C0C08000C0C0A000F0FBFF00A4A0A000808080000000FF0000FF000000FFFF00FF000000FF00FF00FFFF0000FFFFFF0000000000000000000000000000000000000000000000000000000000000000000000000000000000000000000000000000000000000000000000000000000000000000000000000000000000000000
310
00000000000000000000000000000000000000000000000000000000000000000000000000000000000000000000000000000000000000000000000000000000000000000000000000000000000000000000000000000000000000000000000000000000000000000000000000000000000000000000000000000000000000
310
00000000000000000000000000000000000000000000000000000000000000000000000000000000000000000000000000000000000000000000000000000000000000000000000000000000000000000000000000000000000000000000000000000000000000000000000000000000000000000000000000000000000000
310
0000000000000000000000000000000000000000000000000000000000000000000000000000000000000000000000000000000000000000000000000000000000000000000000000000000000000000000000000000000000FFFFFFFFFF00000000000000000000000000000000000000000000000000FFFFFFFFFFFFFFFF
310
00000000000000000000E000E0E000E0E0E0000000FFFFFFFFFFFFFFFFFFFFFFFFFFFFFFFFE0E0E0E0E0E0E0E0E0E0E0E0E000000000FFFFFFFFFFFFFFFFFFFFFFFFFFFFFFE0E0E0E0E0E0E0E0E0E0E0E0E000000000FFFFFFFFFFFFFFFFFFFFFFFFFFFFFFE0E0E0E0E0E0E0E0E0E0E0E0E0E0000000000000000000000000
310
00000000000000000000000000000000E00000000000000000000000000000000000000000000000000000000000000000000000000000000000000000000000000000000000000000000000000000000000000000000000000000000000000000000000000000000000000000000000000000000000000000000000000000
310
00000000000000000000000000000000000000000000000000000000000000000000000000000000000000000000000000000000000000000000000000000000000000000000000000000000000000000000000000000000000000000000000000000000000000000000000000000000000000000000000000000000000000
310
00000000000000000000000000000000000000000000000000000000000000000000000000000000000000000000000000000000000000000000000000000000000000000000000000000000000000000000000000000000000000000000000000000000000000000000000000000000000000000000000000000000000000
310
0000000000000000000000000000000000000000000000000000000000000000000000000000000000000000000000000000000000000000
102
{BLKREFS
331
B40
102
}
1001
ACAD
1000
DesignCenter Data
1002
{
1070
     1
1070
     1
1002
}
  0
BLOCK_RECORD
  5
C3B
330
1
100
AcDbSymbolTableRecord
100
AcDbBlockTableRecord
  2
SW_CENTERMARKSYMBOL_0
340
0
102
{BLKREFS
331
D4F
102
}
  0
BLOCK_RECORD
  5
C46
330
1
100
AcDbSymbolTableRecord
100
AcDbBlockTableRecord
  2
SW_CENTERMARKSYMBOL_2
340
0
102
{BLKREFS
331
D6B
102
}
  0
BLOCK_RECORD
  5
D93
330
1
100
AcDbSymbolTableRecord
100
AcDbBlockTableRecord
  2
*D7
340
0
  0
BLOCK_RECORD
  5
DC9
330
1
100
AcDbSymbolTableRecord
100
AcDbBlockTableRecord
  2
*D8
340
0
  0
BLOCK_RECORD
  5
DD6
330
1
100
AcDbSymbolTableRecord
100
AcDbBlockTableRecord
  2
*D9
340
0
  0
BLOCK_RECORD
  5
DE3
330
1
100
AcDbSymbolTableRecord
100
AcDbBlockTableRecord
  2
*D10
340
0
  0
BLOCK_RECORD
  5
DF0
330
1
100
AcDbSymbolTableRecord
100
AcDbBlockTableRecord
  2
*D11
340
0
  0
BLOCK_RECORD
  5
DFD
330
1
100
AcDbSymbolTableRecord
100
AcDbBlockTableRecord
  2
*D12
340
0
  0
BLOCK_RECORD
  5
E0A
330
1
100
AcDbSymbolTableRecord
100
AcDbBlockTableRecord
  2
*D13
340
0
  0
BLOCK_RECORD
  5
E18
330
1
100
AcDbSymbolTableRecord
100
AcDbBlockTableRecord
  2
*D14
340
0
  0
BLOCK_RECORD
  5
E24
330
1
100
AcDbSymbolTableRecord
100
AcDbBlockTableRecord
  2
*D15
340
0
  0
BLOCK_RECORD
  5
E3E
330
1
100
AcDbSymbolTableRecord
100
AcDbBlockTableRecord
  2
*D16
340
0
  0
BLOCK_RECORD
  5
E4B
330
1
100
AcDbSymbolTableRecord
100
AcDbBlockTableRecord
  2
*D17
340
0
  0
BLOCK_RECORD
  5
E57
330
1
100
AcDbSymbolTableRecord
100
AcDbBlockTableRecord
  2
*D18
340
0
  0
BLOCK_RECORD
  5
E63
330
1
100
AcDbSymbolTableRecord
100
AcDbBlockTableRecord
  2
*D19
340
0
  0
BLOCK_RECORD
  5
E70
330
1
100
AcDbSymbolTableRecord
100
AcDbBlockTableRecord
  2
*D20
340
0
  0
BLOCK_RECORD
  5
E7B
330
1
100
AcDbSymbolTableRecord
100
AcDbBlockTableRecord
  2
DIM2
340
0
310
2800000020000000200000000100080000000000000400000000000000000000000000000000000000000000000080000080000000808000800000008000800080800000C0C0C000C0DCC000F0CAA6000020400000206000002080000020A0000020C0000020E00000400000004020000040400000406000004080000040A0
310
000040C0000040E00000600000006020000060400000606000006080000060A0000060C0000060E00000800000008020000080400000806000008080000080A0000080C0000080E00000A0000000A0200000A0400000A0600000A0800000A0A00000A0C00000A0E00000C0000000C0200000C0400000C0600000C0800000C0
310
A00000C0C00000C0E00000E0000000E0200000E0400000E0600000E0800000E0A00000E0C00000E0E00040000000400020004000400040006000400080004000A0004000C0004000E00040200000402020004020400040206000402080004020A0004020C0004020E000404000004040200040404000404060004040800040
310
40A0004040C0004040E00040600000406020004060400040606000406080004060A0004060C0004060E00040800000408020004080400040806000408080004080A0004080C0004080E00040A0000040A0200040A0400040A0600040A0800040A0A00040A0C00040A0E00040C0000040C0200040C0400040C0600040C08000
310
40C0A00040C0C00040C0E00040E0000040E0200040E0400040E0600040E0800040E0A00040E0C00040E0E00080000000800020008000400080006000800080008000A0008000C0008000E00080200000802020008020400080206000802080008020A0008020C0008020E00080400000804020008040400080406000804080
310
008040A0008040C0008040E00080600000806020008060400080606000806080008060A0008060C0008060E00080800000808020008080400080806000808080008080A0008080C0008080E00080A0000080A0200080A0400080A0600080A0800080A0A00080A0C00080A0E00080C0000080C0200080C0400080C0600080C0
310
800080C0A00080C0C00080C0E00080E0000080E0200080E0400080E0600080E0800080E0A00080E0C00080E0E000C0000000C0002000C0004000C0006000C0008000C000A000C000C000C000E000C0200000C0202000C0204000C0206000C0208000C020A000C020C000C020E000C0400000C0402000C0404000C0406000C0
310
408000C040A000C040C000C040E000C0600000C0602000C0604000C0606000C0608000C060A000C060C000C060E000C0800000C0802000C0804000C0806000C0808000C080A000C080C000C080E000C0A00000C0A02000C0A04000C0A06000C0A08000C0A0A000C0A0C000C0A0E000C0C00000C0C02000C0C04000C0C06000
310
C0C08000C0C0A000F0FBFF00A4A0A000808080000000FF0000FF000000FFFF00FF000000FF00FF00FFFF0000FFFFFF00A4A4A4A4A4A4A4A4A4A4A4A4A4A4A4A4A4A4A4A4A4A4A4A4A4A4A4A4A4A4A4A4A4A4A4A4A4A4A4A4A4A4A4A4A4A4A4A4A4A4A4A4A4A4A4A4A4A4A4A4A4A4A4A4A4A4A4A4A4A4A4A4A4A4A4A4A4A4A4
310
A4A4A4A4A4A4A4A4A4A4A4A4A4A4A4A4A4A4A4A4A4A4A4A4A4A4A4A4A4A4A4A4A4A4A4A4A4A4A4A4A4A4A4A4A4A4A4A4A4A4A4A4A4A4A4A4A4A4A4A4A4A4A4A4A4A4A4A4A4A4A4A4A4A4A4A4A4A4A4A4A4A4A4A4A4A4A4A4A4A4A4A4A4A4A4A4A4A4A4A4A4A4A4A4A4A4A4A4A4A4A4A4A4A4A4A4A4A4A4A4A4A4A4A4A4A4A4
310
A4A4A4A4A4A4A4A4A4A4A4A4A4A4A4A4A4A4A4A4A4A4A4A4A4A4A4A4A4A4A4A4A4A4A4A4A4A4A4A4A4A4A4A4A4A4A4A4A4A4A4A4A4A4A4A4A4A4A4A4A4A4A4A4A4A4A4A4A4A4A4A4A4A4A4A4A4A4A4A4A4A4A4A4A4A4A4A4A4A4A4A4A4A4A4A4A4A4A4A4A4A4A4A4A4A4A4A4A4A4A4A4A4A4A4A4A4A4A4A4A4A4A4A4A4A4A4
310
A4A4A4A4A4070707070707070707070707A4A4A4A4A4A4A4A4A4A4A4A4A4A4A4A4A4A4A4A4A4A4A4A4A4A4A4A4A40707A4A4A4A4A4A4A4A4A4A4A4A4A4A4A4A4A4A4A4A4A4A4A4A4A4A4A4A4A4A4A407A4A4A4A4A4A4A4A4A4A4A4A4A4A4A4A4A4A4A4A4A4A4A4A4A4A4A4A4A40707070707A4A4A4A4A4A4A4A4A4A4A4A4A4
310
A4A4A4A4A4A4A4A4A4A4A4A4A4A40707070707A4A4A4A4A4A4A4A4A4A4A4A4A4A4A407A407A4A4A4A4A4A4A4A4A4A4A407A4A4A4A4A4A4A4A4A4A4A4A4A4A4A4A4A40707A4A4A4A4A4A4A4A4A4A4A4A407A4A4A4A4A4A4A4A4A4A4A4A4A4A4A4A407A4A4A4A4A4A4A4A4A4A4A4A4A40707A4A4A4A4A4A4A4A4A4A4A4A4A4A4
310
A4A407A4A4A4A4070707070707070707070707A4A4A4A4A4A4A4A4A4A4A4A4A40707A4A4A4A4A4A4A4A4A4A4A4A4A4A4A4A4A4A4A4A407070707070707070707A4A4A4A4A4A4A4A4A4A4A4A4A4A4A4A4A4A4A4A4A4A4A40707070707A4A4A4A4A4A4A4A4A4A4A4A4A4A4A4A4A4A4A4A4A4A4A4A4A4A4A4A4A4A4A4A4A4A4A4
310
A4A4A4A4A4A4A4A4A4A4A4A4A4A4A4A4A4A4A4A4A4A4A4A4A4A4A4A4A4A4A4A4A4A4A4A4A4A4A4A4A4A4A4A4A4A4A4A4A4A4A4A4A4A4A4A4A4A4A4A4A4A4A4A4A4A4A4A4A4A4A4A4A4A4A4A4A4A4A4A4A4A4A4A4A4A4A4A4A4A4A4A4A4A4A4A4A4A4A4A4A4A4A4A4A4A4A4A4A4A4A4A4A4A4A4A4A4A4A4A4A4A4A4A4A4A4A4
310
A4A4A4A4A4A4A4A4A4A4A4A4A4A4A4A4A4A4A4A4A4A4A4A4A4A4A4A4A4A4A4A4A4A4A4A4A4A4A4A4A4A4A4A4A4A4A4A4A4A4A4A4A4A4A4A4A4A4A4A4A4A4A4A4A4A4A4A4A4A4A4A4A4A4A4A4A4A4A4A4A4A4A4A4A4A4A4A4A4A4A4A4A4A4A4A4A4A4A4A4A4A4A4A4A4A4A4A4A4A4A4A4A4A4A4A4A4A4A4A4A4A4A4A4A4A4A4
310
A4A4A4A4A4A4A4A4A4A4A4A4A4A4A4A4A4A4A4A4A4A4A4A4A4A4A4A4A4A4A4A4A4A4A4A4A4A4A4A4A4A4A4A4A4A4A4A4A4A4A4A4A4A4A4A4
1001
ACAD
1000
DesignCenter Data
1002
{
1070
     1
1070
     1
1002
}
  0
ENDTAB
  0
ENDSEC
  0
SECTION
  2
BLOCKS
  0
BLOCK
  5
20
330
1F
100
AcDbEntity
  8
0
100
AcDbBlockBegin
  2
*Model_Space
 70
     0
 10
0.0
 20
0.0
 30
0.0
  3
*Model_Space
  1

  0
ENDBLK
  5
21
330
1F
100
AcDbEntity
  8
0
100
AcDbBlockEnd
  0
BLOCK
  5
1C
330
1B
100
AcDbEntity
 67
     1
  8
0
100
AcDbBlockBegin
  2
*Paper_Space
 70
     0
 10
0.0
 20
0.0
 30
0.0
  3
*Paper_Space
  1

  0
ENDBLK
  5
1D
330
1B
100
AcDbEntity
 67
     1
  8
0
100
AcDbBlockEnd
  0
BLOCK
  5
24
330
23
100
AcDbEntity
 67
     1
  8
0
100
AcDbBlockBegin
  2
*Paper_Space0
 70
     0
 10
0.0
 20
0.0
 30
0.0
  3
*Paper_Space0
  1

  0
ENDBLK
  5
25
330
23
100
AcDbEntity
 67
     1
  8
0
100
AcDbBlockEnd
  0
BLOCK
  5
3FA
330
3F9
100
AcDbEntity
  8
0
100
AcDbBlockBegin
  2
Block3
 70
     0
 10
0.0
 20
0.0
 30
0.0
  3
Block3
  1

  0
CIRCLE
  5
3FB
330
3F9
100
AcDbEntity
  8
FORMAT
 62
     7
370
    15
100
AcDbCircle
 10
9.623096090023436
 20
2.115622186524885
 30
0.0
 40
0.0998031496062924
  0
CIRCLE
  5
3FC
330
3F9
100
AcDbEntity
  8
FORMAT
 62
     7
370
    15
100
AcDbCircle
 10
9.623096090023436
 20
2.115622186524885
 30
0.0
 40
0.1996062992125948
  0
LINE
  5
3FD
330
3F9
100
AcDbEntity
  8
FORMAT
 62
     7
370
    15
100
AcDbLine
 10
10.05890680910872
 20
2.020396293772344
 30
0.0
 11
10.05890680910872
 21
2.210848079277426
 31
0.0
  0
LINE
  5
3FE
330
3F9
100
AcDbEntity
  8
FORMAT
 62
     7
370
    15
100
AcDbLine
 10
10.05890680910872
 20
2.210848079277426
 30
0.0
 11
10.55986477488565
 21
2.315228485737483
 31
0.0
  0
LINE
  5
3FF
330
3F9
100
AcDbEntity
  8
FORMAT
 62
     7
370
    15
100
AcDbLine
 10
10.55986477488565
 20
2.315228485737483
 30
0.0
 11
10.55986477488565
 21
1.916015887312285
 31
0.0
  0
LINE
  5
400
330
3F9
100
AcDbEntity
  8
FORMAT
 62
     7
370
    15
100
AcDbLine
 10
10.55986477488565
 20
1.916015887312285
 30
0.0
 11
10.05890680910872
 21
2.020396293772344
 31
0.0
  0
LINE
  5
401
330
3F9
100
AcDbEntity
  8
FORMAT
 62
     7
370
    15
100
AcDbLine
 10
9.987169396213419
 20
2.115622186524885
 30
0.0
 11
10.59626953693931
 21
2.115622186524885
 31
0.0
  0
LINE
  5
402
330
3F9
100
AcDbEntity
  8
FORMAT
 62
     7
370
    15
100
AcDbLine
 10
9.368122674365656
 20
2.115622186524885
 30
0.0
 11
9.87806950568121
 21
2.115622186524885
 31
0.0
  0
LINE
  5
403
330
3F9
100
AcDbEntity
  8
FORMAT
 62
     7
370
    15
100
AcDbLine
 10
9.623096090023436
 20
1.872691387914879
 30
0.0
 11
9.623096090023436
 21
2.382638219230431
 31
0.0
  0
ENDBLK
  5
404
330
3F9
100
AcDbEntity
  8
0
100
AcDbBlockEnd
  0
BLOCK
  5
406
330
405
100
AcDbEntity
  8
0
100
AcDbBlockBegin
  2
Block2
 70
     0
 10
0.0
 20
0.0
 30
0.0
  3
Block2
  1

  0
INSERT
  5
407
330
405
100
AcDbEntity
  8
0
  6
Continuous
 62
     7
100
AcDbBlockReference
  2
Block3
 10
-0.0282699124868556
 20
0.0201145539810274
 30
0.0
  0
ENDBLK
  5
408
330
405
100
AcDbEntity
  8
0
100
AcDbBlockEnd
  0
BLOCK
  5
40C
330
409
100
AcDbEntity
  8
0
100
AcDbBlockBegin
  2
amazon
 70
     0
 10
0.0
 20
0.0
 30
0.0
  3
amazon
  1

  0
HATCH
  5
40D
330
409
100
AcDbEntity
  8
0
100
AcDbHatch
 10
0.0
 20
0.0
 30
0.0
210
0.0
220
0.0
230
0.9999999999999998
  2
SOLID
 70
     1
 71
     0
 91
        1
 92
        5
 93
        1
 72
     4
 94
        3
 73
     0
 74
     0
 95
       18
 96
       14
 40
0.0
 40
0.0
 40
0.0
 40
0.0
 40
0.0596755466403443
 40
0.1035834707990989
 40
0.1695571134872838
 40
0.2000964637947284
 40
0.2237461165360023
 40
0.2565225897680324
 40
0.2756876256135649
 40
0.3018435697278741
 40
0.3302551352352805
 40
0.3457181605243852
 40
0.3618589112597388
 40
0.3618589112597388
 40
0.3618589112597388
 40
0.3618589112597388
 10
0.9280407135556529
 20
0.3678371450737368
 10
1.014164084729102
 20
0.3851494268204694
 10
1.144945011486449
 20
0.4024842103214663
 10
1.481904894757406
 20
0.3990648758382389
 10
1.309526957346704
 20
0.1657833910269666
 10
1.071996456892463
 20
0.0025828528301117
 10
1.213429780952147
 20
0.147260900816045
 10
1.269689397936616
 20
0.2055836989094448
 10
1.328770741103362
 20
0.3426132943554165
 10
1.182110533057802
 20
0.3629915346337151
 10
1.077363991359149
 20
0.3586993230536737
 10
1.01802908590988
 20
0.3618658313307459
 10
0.904746484263093
 20
0.3631546035627498
 10
0.9280407135556529
 20
0.3678371450737368
 97
        0
 75
     0
 76
     1
 47
0.0083360314226261
 98
        1
 10
1.350036184717041
 20
0.3275823953230534
450
        0
451
        0
460
0.0
461
0.0
452
        1
462
1.0
453
        2
463
0.0
 63
     5
421
      255
463
1.0
 63
     7
421
 16777215
470
LINEAR
1001
ACAD
1010
0.0
1020
0.0
1030
0.0
  0
HATCH
  5
40E
330
409
100
AcDbEntity
  8
0
100
AcDbHatch
 10
0.0
 20
0.0
 30
0.0
210
0.0
220
0.0
230
0.9999999999999998
  2
SOLID
 70
     1
 71
     0
 91
        9
 92
        7
 72
     1
 73
     1
 93
       20
 10
-1.397399278738596
 20
0.888299103756417
 42
0.0
 10
-1.517557092146972
 20
0.8521069912840207
 42
0.0
 10
-1.634457615432786
 20
0.8260486703038981
 42
0.113500075695427
 10
-1.796297882939342
 20
0.77249506361993
 42
0.335029435887297
 10
-1.882119182302076
 20
0.5660893728218724
 42
0.2523749963765925
 10
-1.737967057103837
 20
0.4398788302234422
 42
0.1008759599722844
 10
-1.585598263595066
 20
0.4319165654795154
 42
0.1558313267708922
 10
-1.397230403062579
 20
0.516966153393244
 42
0.0
 10
-1.397399278738596
 20
0.5017673425512395
 42
0.1600174655974661
 10
-1.372064800007926
 20
0.4395169090987201
 42
0.0
 10
-1.217886400875514
 20
0.4395169090987201
 42
-0.1096578030042886
 10
-1.250459302100694
 20
0.4735374948229208
 42
-0.1371553684281488
 10
-1.269279200586318
 20
0.540854824021424
 42
0.0
 10
-1.269279200586318
 20
0.9244912162288137
 42
0.267077244638994
 10
-1.391608540743007
 20
1.084460353356798
 42
0.1085027846705916
 10
-1.618171164820246
 20
1.110518674336923
 42
0.3343505200399534
 10
-1.854867580389672
 20
0.9063951599926172
 42
0.0
 10
-1.71371834174733
 20
0.9063951599926172
 42
-0.2815324590939715
 10
-1.623703637535193
 20
0.9970774848409384
 42
-0.1775171235246243
 10
-1.454582816445004
 20
0.984570122933
 42
-0.2483479329952881
 97
        0
 92
       22
 72
     1
 73
     1
 93
        8
 10
-1.397399278738596
 20
0.7768273973414295
 42
0.0
 10
-1.397399278738596
 20
0.658841110681435
 42
-0.2004737922071577
 10
-1.563882996111615
 20
0.5415786662708722
 42
-0.1115040980661369
 10
-1.686936178517754
 20
0.5404929028967014
 42
-0.2738586692622027
 10
-1.742672031725241
 20
0.6002098884761536
 42
-0.289643054085014
 10
-1.707203761502306
 20
0.6928616964054842
 42
-0.1190249358109779
 10
-1.625409587314685
 20
0.7261584398800891
 42
-0.0006545690929014
 10
-1.500908720409647
 20
0.7514929186107651
 42
0.031014715336947
 97
        0
 92
        7
 72
     1
 73
     1
 93
       27
 10
-1.062984159493659
 20
0.4395169090987201
 42
0.0
 10
-0.9348640813413879
 20
0.4395169090987201
 42
0.0
 10
-0.9348640813413879
 20
0.8535546757829193
 42
-0.1716644096531924
 10
-0.8769567013855592
 20
0.9534449062067299
 42
-0.1448545784781812
 10
-0.7799618399595332
 20
0.9997708101713946
 42
-0.1340090766267909
 10
-0.6862242686560336
 20
0.9885512553049524
 42
-0.2563461470910333
 10
-0.6192688605821033
 20
0.8998805797475881
 42
0.0
 10
-0.6192688605821033
 20
0.4395169090987201
 42
0.0
 10
-0.4904249401803611
 20
0.4395169090987201
 42
0.0
 10
-0.4904249401803753
 20
0.8641979875178154
 42
-0.1830801363087423
 10
-0.4212980053581035
 20
0.9621310132001053
 42
-0.1206854715101709
 10
-0.3311796453018374
 20
0.9975992834230517
 42
-0.2157527517618656
 10
-0.216674861049178
 20
0.9774303127070119
 42
-0.2679983488848178
 10
-0.1748297194210906
 20
0.9063951599927708
 42
0.0
 10
-0.1748297194210977
 20
0.4395169090987201
 42
0.0
 10
-0.0467096412688122
 20
0.4395169090987201
 42
0.0
 10
-0.0467096412688122
 20
0.9063951599926172
 42
0.0
 10
-0.0467096412688122
 20
0.9360726922199805
 42
0.2784603970195297
 10
-0.1675912969266093
 20
1.094594144849069
 42
0.1495326253440701
 10
-0.3521710705358245
 20
1.102556409592997
 42
0.1796241607690637
 10
-0.5034541006704388
 20
0.9896370186791244
 42
0.1190036376854939
 10
-0.5809052213613626
 20
1.073602719615081
 42
0.1510696384071214
 10
-0.753179676729971
 20
1.112690201085266
 42
0.122416550902687
 10
-0.8494506959065404
 20
1.081564984359008
 42
0.0903817772246913
 10
-0.9348640813413879
 20
1.001218494670287
 42
0.0
 10
-0.9348640813413879
 20
1.101108725094101
 42
0.0
 10
-1.062984159493659
 20
1.101108725094101
 42
0.0
 97
        0
 92
        7
 72
     1
 73
     1
 93
       20
 10
0.1120662149268909
 20
0.5660893728218764
 42
0.2523749963765703
 10
0.256218340125109
 20
0.4398788302234467
 42
0.100875959972303
 10
0.4085871336339224
 20
0.4319165654795159
 42
0.1558313267708855
 10
0.5969549941663886
 20
0.516966153393244
 42
0.0
 10
0.5967861184903711
 20
0.5017673425512395
 42
0.1600174655974661
 10
0.6221205972210555
 20
0.4395169090987201
 42
0.0
 10
0.7762989963534466
 20
0.4395169090987201
 42
-0.1096578030036369
 10
0.7437260951284089
 20
0.4735374948226645
 42
-0.1371553684287215
 10
0.7249061966426496
 20
0.540854824021424
 42
0.0
 10
0.7249061966426496
 20
0.9244912162288137
 42
0.2670772446390557
 10
0.6025768564859249
 20
1.084460353356814
 42
0.1085027846705556
 10
0.3760142324087567
 20
1.110518674336923
 42
0.3343505200399825
 10
0.1393178168393021
 20
0.9063951599926172
 42
0.0
 10
0.2804670554816368
 20
0.9063951599926172
 42
-0.2815324590939487
 10
0.370481759693746
 20
0.9970774848409313
 42
-0.1775171235246857
 10
0.539602580783992
 20
0.9845701229329858
 42
-0.2483479329952225
 10
0.5967861184903711
 20
0.888299103756417
 42
0.0
 10
0.4766283050820306
 20
0.8521069912840264
 42
0.0
 10
0.359727781796181
 20
0.8260486703038981
 42
0.113500075695427
 10
0.1978875142896257
 20
0.77249506361993
 42
0.335029435887291
 97
        0
 92
       22
 72
     1
 73
     1
 93
        8
 10
0.2869816357266757
 20
0.6928616964054842
 42
-0.1190249358109779
 10
0.3687758099142826
 20
0.7261584398800891
 42
-0.0006545690929014
 10
0.4932766768193205
 20
0.7514929186107651
 42
0.0310147153369478
 10
0.5967861184903711
 20
0.7768273973414419
 42
0.0
 10
0.5967861184903711
 20
0.658841110681435
 42
-0.2004737922071577
 10
0.430302401117352
 20
0.5415786662708722
 42
-0.1115040980661369
 10
0.3072492187112061
 20
0.5404929028967014
 42
-0.2738586692622027
 10
0.251513365503726
 20
0.6002098884761536
 42
-0.289643054085014
 97
        0
 92
        7
 72
     1
 73
     1
 93
       10
 10
1.490731296558529
 20
0.9717250567569255
 42
0.0
 10
1.490731296558529
 20
1.101108725094102
 42
0.0
 10
0.9246866574902696
 20
1.101108725094102
 42
0.0
 10
0.9246866574902767
 20
0.9648744605637409
 42
0.0
 10
1.298313112053691
 20
0.9648744605637409
 42
0.0
 10
0.8993521787595994
 20
0.5408548240214275
 42
0.0
 10
0.8993521787595994
 20
0.4395169090987241
 42
-0.1473109550280885
 10
1.52402804003313
 20
0.4395169090987184
 42
0.0
 10
1.52402804003313
 20
0.581774738538516
 42
0.0747823019347494
 10
1.16328520907988
 20
0.6214717791056393
 42
0.0
 97
        0
 92
        7
 72
     1
 73
     1
 93
        2
 10
1.658662698430447
 20
0.7829800564617493
 42
1.0
 10
2.353551257900427
 20
0.7829800564617493
 42
1.0
 97
        0
 92
       22
 72
     1
 73
     1
 93
        2
 10
2.212041370259932
 20
0.7829800564617493
 42
-1.0
 10
1.800172586070949
 20
0.7829800564617493
 42
-1.0
 97
        0
 92
        7
 72
     1
 73
     1
 93
       15
 10
2.520758817522896
 20
0.4395169090987201
 42
0.0
 10
2.649602737924617
 20
0.4395169090987201
 42
0.0
 10
2.649602737924617
 20
0.7753797128425455
 42
-0.1884880930389393
 10
2.726330016366098
 20
0.9404157457166672
 42
-0.0825504763720134
 10
2.808124190553712
 20
1.002666179169187
 42
-0.1879859195515259
 10
2.9333488997082
 20
1.010628443913113
 42
-0.3400688989443128
 10
3.022381496390295
 20
0.8948632846375158
 42
0.0
 10
3.022381496390295
 20
0.4395169090987201
 42
0.0
 10
3.151225416792009
 20
0.4395169090987201
 42
0.0
 10
3.151225416792023
 20
0.9382442189683235
 42
0.3709832727766776
 10
2.952118968473769
 20
1.109868265359158
 42
0.160618198198489
 10
2.773379762580219
 20
1.083012668857902
 42
0.0920112842116662
 10
2.649602737924617
 20
0.9831224384341012
 42
0.0
 10
2.649602737924631
 20
1.101108725094101
 42
0.0
 10
2.520758817522896
 20
1.1011087250941
 42
0.0
 97
        0
 75
     0
 76
     1
 47
0.0079344138681199
 98
        9
 10
-1.376638647914745
 20
0.8943652481782571
 10
-1.376638647914745
 20
0.8943652481782571
 10
-1.008011843667617
 20
0.7810537369378041
 10
0.2295103337683244
 20
0.706616395506853
 10
0.2295103337683244
 20
0.706616395506853
 10
1.173803717490862
 20
0.7215039733471374
 10
1.736822720547962
 20
0.9152585806937842
 10
1.736822720547962
 20
0.9152585806937842
 10
2.581717008623201
 20
0.8854836988984509
450
        0
451
        0
460
0.0
461
0.0
452
        1
462
1.0
453
        2
463
0.0
 63
     5
421
      255
463
1.0
 63
     7
421
 16777215
470
LINEAR
1001
ACAD
1010
0.0
1020
0.0
1030
0.0
  0
TEXT
  5
40F
330
409
100
AcDbEntity
  8
0
 62
   150
100
AcDbText
 10
3.411151618523078
 20
0.4239129498757777
 30
0.0
 40
1.05
  1
supply
 41
1.08
  7
style2
100
AcDbText
  0
HATCH
  5
410
330
409
100
AcDbEntity
  8
0
100
AcDbHatch
 10
0.0
 20
0.0
 30
0.0
210
0.0
220
0.0
230
0.9999999999999998
  2
SOLID
 70
     1
 71
     0
 91
        1
 92
        7
 72
     1
 73
     1
 93
        2
 10
-1.177902949885989
 20
0.4051926481048067
 42
0.3081272588713221
 10
1.212164975232198
 20
0.2933070771634125
 42
-0.177724595219735
 97
        0
 75
     0
 76
     1
 47
0.0009928164167271
 98
        1
 10
0.1755697210077258
 20
0.0593374821502257
450
        0
451
        0
460
0.0
461
0.0
452
        1
462
1.0
453
        2
463
0.0
 63
     5
421
      255
463
1.0
 63
     7
421
 16777215
470
LINEAR
1001
ACAD
1010
0.0
1020
0.0
1030
0.0
  0
ENDBLK
  5
411
330
409
100
AcDbEntity
  8
0
100
AcDbBlockEnd
  0
BLOCK
  5
B31
330
B30
100
AcDbEntity
  8
0
100
AcDbBlockBegin
  2
amazon block
 70
     0
 10
0.0
 20
0.0
 30
0.0
  3
amazon block
  1

  0
HATCH
  5
B32
330
B30
100
AcDbEntity
  8
0
100
AcDbHatch
 10
0.0
 20
0.0
 30
0.0
210
0.0
220
0.0
230
1.0
  2
SOLID
 70
     1
 71
     0
 91
        1
 92
        7
 72
     1
 73
     1
 93
        2
 10
0.1428560650202613
 20
0.0268249692297831
 42
0.3005568377796329
 10
0.6100026189360293
 20
0.0009915743964171
 42
-0.1486648242730099
 97
        0
 75
     0
 76
     1
 47
0.0083360314226261
 98
        1
 10
0.3681872109149253
 20
-0.0332769951503647
450
        0
451
        0
460
0.0
461
0.0
452
        1
462
1.0
453
        2
463
0.0
 63
     5
421
      255
463
1.0
 63
     7
421
 16777215
470
LINEAR
1001
ACAD
1010
0.0
1020
0.0
1030
0.0
  0
HATCH
  5
B33
330
B30
100
AcDbEntity
  8
0
100
AcDbHatch
 10
0.0
 20
0.0
 30
0.0
210
0.0
220
0.0
230
1.0
  2
SOLID
 70
     1
 71
     0
 91
        1
 92
        5
 93
        1
 72
     4
 94
        3
 73
     0
 74
     0
 95
       18
 96
       14
 40
0.0
 40
0.0
 40
0.0
 40
0.0
 40
0.3060284443094571
 40
0.531197286149225
 40
0.8695236589091486
 40
1.026135711767838
 40
1.14741598223591
 40
1.315500460348882
 40
1.413679231894078
 40
1.543957423309552
 40
1.719337158993241
 40
1.76919128251474
 40
1.852441399548553
 40
1.852441399548553
 40
1.852441399548553
 40
1.852441399548553
 10
0.5476248318910955
 20
0.0189472839500944
 10
0.5671265702171127
 20
0.0228674694218305
 10
0.5967407336623403
 20
0.0267937023518194
 10
0.6730410215606746
 20
0.0260155775369224
 10
0.6340109953118472
 20
-0.0267925718215847
 10
0.5802183818763105
 20
-0.0637796196110996
 10
0.6122605658026537
 20
-0.030937261100445
 10
0.624929189918916
 20
-0.0180757154749651
 10
0.6383573330340191
 20
0.013562833138125
 10
0.6020518241954172
 20
0.0146147000415664
 10
0.5794789444548947
 20
0.0158864032827642
 10
0.5641956865595646
 20
0.0167018526831093
 10
0.5423196975867733
 20
0.017880860532975
 10
0.5476248318910955
 20
0.0189472839500944
 97
        0
 75
     0
 76
     1
 47
0.0083360314226261
 98
        1
 10
0.644363460657651
 20
0.0075847933888076
450
        0
451
        0
460
0.0
461
0.0
452
        1
462
1.0
453
        2
463
0.0
 63
     5
421
      255
463
1.0
 63
     7
421
 16777215
470
LINEAR
1001
ACAD
1010
0.0
1020
0.0
1030
0.0
  0
HATCH
  5
B34
330
B30
100
AcDbEntity
  8
0
100
AcDbHatch
 10
0.0
 20
0.0
 30
0.0
210
0.0
220
0.0
230
1.0
  2
SOLID
 70
     1
 71
     0
 91
        9
 92
        7
 72
     1
 73
     1
 93
       20
 10
0.1000542808940033
 20
0.1169245515333142
 42
0.0
 10
0.076623507279372
 20
0.1098670896011966
 42
0.0
 10
0.0538279052386379
 20
0.1047857170100728
 42
0.113500075695427
 10
0.0222690530748579
 20
0.0943427637066989
 42
0.335029435887297
 10
0.0055338996991239
 20
0.0540936540010777
 42
0.2523749963765925
 10
0.0336435641127828
 20
0.0294825981943836
 42
0.1008759599722844
 10
0.0633554788469937
 20
0.0279299565693179
 42
0.1558313267708922
 10
0.1000872116508269
 20
0.0445146262124951
 42
0.0
 10
0.1000542808940033
 20
0.0415508580983044
 42
0.1600174655974661
 10
0.1049945042464841
 20
0.029412023575063
 42
0.0
 10
0.1350592920773046
 20
0.029412023575063
 42
-0.1096578030042886
 10
0.128707576338396
 20
0.0360460377912819
 42
-0.1371553684281488
 10
0.125037696133699
 20
0.0491729169849902
 42
0.0
 10
0.125037696133699
 20
0.1239820134654312
 42
0.267077244638994
 10
0.1011834748031433
 20
0.1551759952053882
 42
0.1085027846705916
 10
0.0570037631080815
 20
0.1602573677965124
 42
0.3343505200399534
 10
0.0108479620720452
 20
0.1204532824993727
 42
0.0
 10
0.0383720636073015
 20
0.1204532824993727
 42
-0.2815324590939715
 10
0.0559249309286685
 20
0.1381363358447958
 42
-0.1775171235246243
 10
0.0889034910412541
 20
0.1356974002727478
 42
-0.2483479329952881
 97
        0
 92
       22
 72
     1
 73
     1
 93
        8
 10
0.1000542808940033
 20
0.0951875687823911
 42
0.0
 10
0.1000542808940033
 20
0.0721802428836922
 42
-0.2004737922071577
 10
0.0675899560062661
 20
0.0493140662236327
 42
-0.1115040980661369
 10
0.0435945854370701
 20
0.0491023423656691
 42
-0.2738586692622027
 10
0.0327260940616085
 20
0.0607471545536624
 42
-0.289643054085014
 10
0.0396424067550818
 20
0.0788142570998818
 42
-0.1190249358109779
 10
0.0555922707216681
 20
0.0853071220774298
 42
-0.0006545690929014
 10
0.0798699397681482
 20
0.090247345429912
 42
0.031014715336947
 97
        0
 92
        7
 72
     1
 73
     1
 93
       27
 10
0.1652652291467689
 20
0.029412023575063
 42
0.0
 10
0.190248644386461
 20
0.029412023575063
 42
0.0
 10
0.190248644386461
 20
0.1101493880784821
 42
-0.1716644096531924
 10
0.201540583477847
 20
0.1296279830111251
 42
-0.1448545784781812
 10
0.2204545814559218
 20
0.1386615342842345
 42
-0.1340090766267909
 10
0.2387334078601029
 20
0.1364737210852782
 42
-0.2563461470910333
 10
0.251789712434519
 20
0.1191829393515924
 42
0.0
 10
0.251789712434519
 20
0.029412023575063
 42
0.0
 10
0.2769142769128621
 20
0.029412023575063
 42
0.0
 10
0.2769142769128585
 20
0.1122248338667866
 42
-0.1830801363087423
 10
0.290394029203199
 20
0.1313217738748333
 42
-0.1206854715101709
 10
0.3079671094141716
 20
0.1382380865683075
 42
-0.2157527517618656
 10
0.3302955423434426
 20
0.1343051372786799
 42
-0.2679983488848178
 10
0.33845534496092
 20
0.1204532824994029
 42
0.0
 10
0.3384553449609164
 20
0.029412023575063
 42
0.0
 10
0.3634387602006122
 20
0.029412023575063
 42
0.0
 10
0.3634387602006122
 20
0.1204532824993727
 42
0.0
 10
0.3634387602006122
 20
0.1262404012837086
 42
0.2784603970195297
 10
0.3398668373473406
 20
0.1571520845463814
 42
0.1495326253440701
 10
0.3038737814935466
 20
0.1587047261714471
 42
0.1796241607690637
 10
0.2743735906172944
 20
0.1366854449432417
 42
0.1190036376854939
 10
0.259270622082564
 20
0.1530587566257537
 42
0.1510696384071214
 10
0.2256771032856868
 20
0.1606808155124395
 42
0.122416550902687
 10
0.2069042545462558
 20
0.154611398250819
 42
0.0903817772246913
 10
0.190248644386461
 20
0.1389438327615187
 42
0.0
 10
0.190248644386461
 20
0.1584224276941626
 42
0.0
 10
0.1652652291467689
 20
0.1584224276941626
 42
0.0
 97
        0
 92
        7
 72
     1
 73
     1
 93
       20
 10
0.394400052158776
 20
0.0540936540010786
 42
0.2523749963765703
 10
0.4225097165724279
 20
0.0294825981943845
 42
0.100875959972303
 10
0.4522216313066459
 20
0.0279299565693183
 42
0.1558313267708855
 10
0.4889533641104756
 20
0.0445146262124951
 42
0.0
 10
0.4889204333536519
 20
0.0415508580983044
 42
0.1600174655974661
 10
0.4938606567061364
 20
0.029412023575063
 42
0.0
 10
0.5239254445369533
 20
0.029412023575063
 42
-0.1096578030036369
 10
0.5175737287980695
 20
0.0360460377912322
 42
-0.1371553684287215
 10
0.5139038485933476
 20
0.0491729169849902
 42
0.0
 10
0.5139038485933476
 20
0.1239820134654312
 42
0.2670772446390557
 10
0.4900496272627848
 20
0.1551759952053913
 42
0.1085027846705556
 10
0.4458699155677373
 20
0.1602573677965129
 42
0.3343505200399825
 10
0.3997141145316938
 20
0.1204532824993727
 42
0.0
 10
0.4272382160669502
 20
0.1204532824993727
 42
-0.2815324590939487
 10
0.44479108338831
 20
0.138136335844794
 42
-0.1775171235246857
 10
0.4777696435009098
 20
0.1356974002727447
 42
-0.2483479329952225
 10
0.4889204333536519
 20
0.1169245515333142
 42
0.0
 10
0.4654896597390277
 20
0.1098670896011979
 42
0.0
 10
0.4426940576982866
 20
0.1047857170100728
 42
0.113500075695427
 10
0.4111352055345066
 20
0.0943427637066989
 42
0.335029435887291
 97
        0
 92
       22
 72
     1
 73
     1
 93
        8
 10
0.428508559214734
 20
0.0788142570998818
 42
-0.1190249358109779
 10
0.4444584231813167
 20
0.0853071220774298
 42
-0.0006545690929014
 10
0.4687360922277968
 20
0.090247345429912
 42
0.0310147153369478
 10
0.4889204333536519
 20
0.0951875687823938
 42
0.0
 10
0.4889204333536519
 20
0.0721802428836922
 42
-0.2004737922071577
 10
0.4564561084659147
 20
0.0493140662236327
 42
-0.1115040980661369
 10
0.4324607378967152
 20
0.0491023423656691
 42
-0.2738586692622027
 10
0.4215922465212572
 20
0.0607471545536624
 42
-0.289643054085014
 97
        0
 92
        7
 72
     1
 73
     1
 93
       10
 10
0.663239743076943
 20
0.1331926123684131
 42
0.0
 10
0.663239743076943
 20
0.1584224276941626
 42
0.0
 10
0.5528610384586337
 20
0.1584224276941626
 42
0.0
 10
0.5528610384586337
 20
0.131856746110742
 42
0.0
 10
0.6257181970985002
 20
0.131856746110742
 42
0.0
 10
0.5479208151061528
 20
0.0491729169849911
 42
0.0
 10
0.5479208151061528
 20
0.0294120235750635
 42
-0.1473109550280885
 10
0.6697326080544919
 20
0.0294120235750626
 42
0.0
 10
0.6697326080544919
 20
0.0571523003158232
 42
0.0747823019347494
 10
0.5993877560186079
 20
0.0648932232264121
 42
0.0
 97
        0
 92
        7
 72
     1
 73
     1
 93
        2
 10
0.6959863664419679
 20
0.0963873373108535
 42
1.0
 10
0.8314896355386132
 20
0.0963873373108535
 42
1.0
 97
        0
 92
       22
 72
     1
 73
     1
 93
        2
 10
0.8038952074487184
 20
0.0963873373108535
 42
-1.0
 10
0.7235807945318662
 20
0.0963873373108535
 42
-1.0
 97
        0
 92
        7
 72
     1
 73
     1
 93
       15
 10
0.8640951096649978
 20
0.029412023575063
 42
0.0
 10
0.8892196741433302
 20
0.029412023575063
 42
0.0
 10
0.8892196741433302
 20
0.0949052703051088
 42
-0.1884880930389393
 10
0.9041814934394203
 20
0.1270872967155627
 42
-0.0825504763720134
 10
0.9201313574060066
 20
0.1392261312388041
 42
-0.1879859195515259
 10
0.9445501756911305
 20
0.1407787728638694
 42
-0.3400688989443128
 10
0.9619115320441373
 20
0.1182045668051281
 42
0.0
 10
0.9619115320441373
 20
0.029412023575063
 42
0.0
 10
0.9870360965224733
 20
0.029412023575063
 42
0.0
 10
0.9870360965224769
 20
0.1266638489996357
 42
0.3709832727766776
 10
0.9482103391004166
 20
0.1601305380458484
 42
0.160618198198489
 10
0.9133561939511736
 20
0.1548936967281036
 42
0.0920112842116662
 10
0.8892196741433302
 20
0.1354151017954623
 42
0.0
 10
0.8892196741433338
 20
0.1584224276941626
 42
0.0
 10
0.8640951096649978
 20
0.1584224276941621
 42
0.0
 97
        0
 75
     0
 76
     1
 47
0.0079344138681199
 98
        9
 10
0.1041026039046571
 20
0.1181074496955725
 10
0.1041026039046571
 20
0.1181074496955725
 10
0.175984830732844
 20
0.0960117050036842
 10
0.4173016553328531
 20
0.0814964234246487
 10
0.4173016553328531
 20
0.0814964234246487
 10
0.6014388651587482
 20
0.0843995011035044
 10
0.7112275707548826
 20
0.1221816495361003
 10
0.7112275707548826
 20
0.1221816495361003
 10
0.8759819569295572
 20
0.1163755475860104
450
        0
451
        0
460
0.0
461
0.0
452
        1
462
1.0
453
        2
463
0.0
 63
     5
421
      255
463
1.0
 63
     7
421
 16777215
470
LINEAR
1001
ACAD
1010
0.0
1020
0.0
1030
0.0
  0
HATCH
  5
B35
330
B30
100
AcDbEntity
  8
0
 62
   150
100
AcDbHatch
 10
0.0
 20
0.0
 30
0.0
210
0.0
220
0.0
230
1.0
  2
SOLID
 70
     1
 71
     0
 91
        8
 92
        7
 72
     1
 73
     1
 93
       22
 10
1.131716859301388
 20
0.0982802106585603
 42
0.0484183422992068
 10
1.088571435005292
 20
0.1135920246412381
 42
-0.1024497749852004
 10
1.063583383368957
 20
0.125237861247649
 42
-0.5197370575112227
 10
1.065952625421378
 20
0.1500864950045506
 42
-0.1784163181567931
 10
1.097462280584622
 20
0.1562497626075707
 42
-0.1611556671223822
 10
1.130948711999153
 20
0.1417059730721331
 42
0.0
 10
1.143877562730139
 20
0.1560685971400009
 42
0.0879608039459819
 10
1.125754289819187
 20
0.1671964668262178
 42
0.096844267443967
 10
1.086490181797579
 20
0.1727441735534061
 42
0.1289645081611661
 10
1.053342092127955
 20
0.1633533786648891
 42
0.2520599057044872
 10
1.037629278411372
 20
0.1399706628121899
 42
0.2998873610886212
 10
1.050463850241648
 20
0.1096908005921695
 42
0.087968247036807
 10
1.088782354168369
 20
0.0932096049078468
 42
-0.0908267507933147
 10
1.119928772767817
 20
0.0811747820304691
 42
-0.4466858316882535
 10
1.125453128485816
 20
0.0540976492614389
 42
-0.2058443735084833
 10
1.094059901125532
 20
0.0433269295271455
 42
-0.2322683613354944
 10
1.04833474053288
 20
0.0635860005622337
 42
0.0
 10
1.033442870302863
 20
0.0487121861500608
 42
0.0897498636939959
 10
1.054992265021407
 20
0.0336893058402592
 42
0.1162784600455089
 10
1.100093060274716
 20
0.0271838680846326
 42
0.1305494116801128
 10
1.134902795650507
 20
0.0379471166909786
 42
0.2700443324603339
 10
1.150563716135536
 20
0.0687356163070478
 42
0.2747552069495999
 97
        0
 92
        7
 72
     1
 73
     1
 93
       17
 10
1.204964925758659
 20
0.0711619205531866
 42
0.0
 10
1.204964925758659
 20
0.1705032481376225
 42
0.0
 10
1.182530424786222
 20
0.1705032481376221
 42
0.0
 10
1.182530424786222
 20
0.068114123580882
 42
0.231056446390574
 10
1.200275679141658
 20
0.0337787716591849
 42
0.1033983125445035
 10
1.222016181175408
 20
0.0271400549874108
 42
0.1113661879093152
 10
1.256252700835137
 20
0.0321455417860066
 42
0.060456799039856
 10
1.280359576718197
 20
0.0437750658039402
 42
0.0
 10
1.282436740080608
 20
0.0292528824702614
 42
0.0
 10
1.305008011852606
 20
0.0292528824702614
 42
0.0
 10
1.303035750365566
 20
0.045573054697837
 42
0.0
 10
1.303035750365566
 20
0.1704535782767582
 42
0.0
 10
1.280726706724607
 20
0.1704535782767582
 42
0.0
 10
1.280726706724607
 20
0.0603385752977079
 42
-0.0926529444633646
 10
1.271406905425951
 20
0.0542136206901671
 42
-0.0664344377826394
 10
1.252018117536273
 20
0.0470706779667407
 42
-0.0713593701437487
 10
1.22596399727168
 20
0.0462232117768133
 42
-0.3666103947779491
 97
        0
 92
        7
 72
     1
 73
     1
 93
       12
 10
1.34888971452673
 20
-0.0300855190343001
 42
0.0
 10
1.37158389411627
 20
-0.0300855190342997
 42
0.0
 10
1.37158389411627
 20
0.0381322242109672
 42
0.2065475696655794
 10
1.43316687203049
 20
0.0295489681525751
 42
0.2194428372319613
 10
1.471434120104095
 20
0.0681246169490031
 42
0.1323036971285341
 10
1.475462458348772
 20
0.1210354643912233
 42
0.1641390880683366
 10
1.453695611337639
 20
0.1611617476764042
 42
0.205639974219759
 10
1.404711616991345
 20
0.1717914749112652
 42
0.0657328919071964
 10
1.371062306057382
 20
0.1603071107053626
 42
0.0
 10
1.369185970032088
 20
0.1704922854774775
 42
0.0
 10
1.347893491957236
 20
0.1704922854774775
 42
0.0
 10
1.348889714526734
 20
0.1571025974974671
 42
0.0
 97
        0
 92
       22
 72
     1
 73
     1
 93
        8
 10
1.37158389411627
 20
0.1447873628418232
 42
-0.1242339830404592
 10
1.408127279067805
 20
0.1549128436768488
 42
-0.229840994742505
 10
1.439329608924591
 20
0.143501077402358
 42
-0.1934262502536381
 10
1.452032531529923
 20
0.1169919663469652
 42
-0.1013985410677669
 10
1.45007247035501
 20
0.0757878280977211
 42
-0.2083357761076617
 10
1.426144858393048
 20
0.0470888301796872
 42
-0.1496858148879605
 10
1.383365488627418
 20
0.0497243925890185
 42
-0.0899155484976542
 10
1.37158389411627
 20
0.0564933659367366
 42
0.0
 97
        0
 92
        7
 72
     1
 73
     1
 93
       12
 10
1.536384209201344
 20
0.0381322242109672
 42
0.2065475696655794
 10
1.597967187115564
 20
0.0295489681525751
 42
0.2194428372319613
 10
1.63623443518917
 20
0.0681246169490031
 42
0.1323036971285341
 10
1.640262773433846
 20
0.1210354643912233
 42
0.1641390880683366
 10
1.618495926422713
 20
0.1611617476764042
 42
0.205639974219759
 10
1.569511932076419
 20
0.1717914749112652
 42
0.0657328919071964
 10
1.535862621142456
 20
0.1603071107053626
 42
0.0
 10
1.533986285117165
 20
0.1704922854774775
 42
0.0
 10
1.51269380704231
 20
0.1704922854774775
 42
0.0
 10
1.513690029611812
 20
0.1571025974974671
 42
0.0
 10
1.513690029611804
 20
-0.0300855190343001
 42
0.0
 10
1.536384209201344
 20
-0.0300855190342997
 42
0.0
 97
        0
 92
       22
 72
     1
 73
     1
 93
        8
 10
1.53638420920134
 20
0.0564933659367348
 42
0.0
 10
1.536384209201344
 20
0.1447873628418232
 42
-0.1242339830404592
 10
1.572927594152879
 20
0.1549128436768488
 42
-0.229840994742505
 10
1.604129924009665
 20
0.143501077402358
 42
-0.1934262502536381
 10
1.616832846614997
 20
0.1169919663469652
 42
-0.1013985410677669
 10
1.614872785440084
 20
0.0757878280977211
 42
-0.2083357761076617
 10
1.590945173478122
 20
0.0470888301796872
 42
-0.1496858148879605
 10
1.548165803712493
 20
0.0497243925890185
 42
-0.0899155484976689
 97
        0
 92
        7
 72
     1
 73
     1
 93
        9
 10
1.700061888317705
 20
0.2342426883985293
 42
0.0
 10
1.677630680467434
 20
0.2342426883985293
 42
0.0
 10
1.67763068046743
 20
0.0525526462764159
 42
0.3003574180393968
 10
1.689763445472692
 20
0.0294232917661481
 42
0.1772930531369512
 10
1.716213749579594
 20
0.0296692382956376
 42
0.0
 10
1.726340843842322
 20
0.0328930300171466
 42
0.0
 10
1.722947015877874
 20
0.0450847282577249
 42
0.0
 10
1.715478639728772
 20
0.0445718860057287
 42
-0.4033750267256485
 10
1.700061888317705
 20
0.0551463102997136
 42
0.0
 97
        0
 92
        7
 72
     1
 73
     1
 93
       13
 10
1.756550300014353
 20
0.1705037737446156
 42
0.0
 10
1.733158403445031
 20
0.1705037737446147
 42
0.0
 10
1.789004390745333
 20
0.0387212794769898
 42
-0.1248046720339364
 10
1.779651976914252
 20
0.0098440558334927
 42
-0.2041270254703542
 10
1.758338890268429
 20
-0.0108879300937863
 42
-0.1582846410265598
 10
1.728104948139659
 20
-0.0088290148710986
 42
0.0
 10
1.723524002749954
 20
-0.0288461752875353
 42
0.0503996825504031
 10
1.752727303871125
 20
-0.0310194851179708
 42
0.1573307408029109
 10
1.778748174224848
 20
-0.02185783610684
 42
0.1379639421479074
 10
1.7998397718477
 20
0.0061205808064937
 42
0.0
 10
1.863932002621172
 20
0.1705037737446151
 42
0.0
 10
1.84037943355916
 20
0.1705037737446147
 42
0.0
 10
1.801429340670335
 20
0.0575527643750102
 42
0.0
 97
        0
 75
     0
 76
     1
 47
0.0008892483299936
 98
        8
 10
1.136466178840407
 20
0.0806040287034282
 10
1.218376325116423
 20
0.039698608137611
 10
1.365280380260387
 20
0.0654868019383397
 10
1.365280380260387
 20
0.0654868019383397
 10
1.532067085388874
 20
0.0510462190903649
 10
1.532067085388874
 20
0.0510462190903649
 10
1.692326025665067
 20
0.0661634458554534
 10
1.78937173321124
 20
0.0643849607353548
450
        0
451
        0
460
0.0
461
0.0
452
        1
462
1.0
453
        2
463
0.0
 63
     5
421
      255
463
1.0
 63
     7
421
 16777215
470
LINEAR
1001
ACAD
1010
0.0
1020
0.0
1030
0.0
  0
ENDBLK
  5
B36
330
B30
100
AcDbEntity
  8
0
100
AcDbBlockEnd
  0
BLOCK
  5
C3C
330
C3B
100
AcDbEntity
  8
0
100
AcDbBlockBegin
  2
SW_CENTERMARKSYMBOL_0
 70
     0
 10
0.0
 20
0.0
 30
0.0
  3
SW_CENTERMARKSYMBOL_0
  1

  0
LINE
  5
C3D
330
C3B
100
AcDbEntity
  8
0
  6
Continuous
 62
     0
370
     0
100
AcDbLine
 10
0.0
 20
0.0
 30
0.0
 11
0.0
 21
0.0999999999999995
 31
0.0
  0
LINE
  5
C3E
330
C3B
100
AcDbEntity
  8
0
  6
Continuous
 62
     0
370
     0
100
AcDbLine
 10
0.0
 20
0.0
 30
0.0
 11
-0.0999999999999995
 21
0.0
 31
0.0
  0
LINE
  5
C3F
330
C3B
100
AcDbEntity
  8
0
  6
Continuous
 62
     0
370
     0
100
AcDbLine
 10
0.0
 20
0.0
 30
0.0
 11
0.0
 21
-0.1000000000000006
 31
0.0
  0
LINE
  5
C40
330
C3B
100
AcDbEntity
  8
0
  6
Continuous
 62
     0
370
     0
100
AcDbLine
 10
0.0
 20
0.0
 30
0.0
 11
0.1000000000000017
 21
0.0
 31
0.0
  0
LINE
  5
C41
330
C3B
100
AcDbEntity
  8
0
  6
Continuous
 62
     0
370
     0
100
AcDbLine
 10
0.0
 20
0.0999999999999995
 30
0.0
 11
0.0
 21
0.1780999999999999
 31
0.0
  0
LINE
  5
C42
330
C3B
100
AcDbEntity
  8
0
  6
Continuous
 62
     0
370
     0
100
AcDbLine
 10
-0.0999999999999995
 20
0.0
 30
0.0
 11
-0.1780999999999999
 21
0.0
 31
0.0
  0
LINE
  5
C43
330
C3B
100
AcDbEntity
  8
0
  6
Continuous
 62
     0
370
     0
100
AcDbLine
 10
0.0
 20
-0.1000000000000006
 30
0.0
 11
0.0
 21
-0.1780999999999999
 31
0.0
  0
LINE
  5
C44
330
C3B
100
AcDbEntity
  8
0
  6
Continuous
 62
     0
370
     0
100
AcDbLine
 10
0.1000000000000017
 20
0.0
 30
0.0
 11
0.1780999999999999
 21
0.0
 31
0.0
  0
ENDBLK
  5
C45
330
C3B
100
AcDbEntity
  8
0
100
AcDbBlockEnd
  0
BLOCK
  5
C47
330
C46
100
AcDbEntity
  8
0
100
AcDbBlockBegin
  2
SW_CENTERMARKSYMBOL_2
 70
     0
 10
0.0
 20
0.0
 30
0.0
  3
SW_CENTERMARKSYMBOL_2
  1

  0
LINE
  5
C48
330
C46
100
AcDbEntity
  8
0
  6
Continuous
 62
     0
370
     0
100
AcDbLine
 10
0.0
 20
0.0
 30
0.0
 11
0.0
 21
0.0999999999999995
 31
0.0
  0
LINE
  5
C49
330
C46
100
AcDbEntity
  8
0
  6
Continuous
 62
     0
370
     0
100
AcDbLine
 10
0.0
 20
0.0
 30
0.0
 11
-0.0999999999999995
 21
0.0
 31
0.0
  0
LINE
  5
C4A
330
C46
100
AcDbEntity
  8
0
  6
Continuous
 62
     0
370
     0
100
AcDbLine
 10
0.0
 20
0.0
 30
0.0
 11
0.0
 21
-0.0999999999999995
 31
0.0
  0
LINE
  5
C4B
330
C46
100
AcDbEntity
  8
0
  6
Continuous
 62
     0
370
     0
100
AcDbLine
 10
0.0
 20
0.0
 30
0.0
 11
0.0999999999999995
 21
0.0
 31
0.0
  0
LINE
  5
C4C
330
C46
100
AcDbEntity
  8
0
  6
Continuous
 62
     0
370
     0
100
AcDbLine
 10
0.0
 20
0.2
 30
0.0
 11
0.0
 21
0.3500000000000003
 31
0.0
  0
LINE
  5
C4D
330
C46
100
AcDbEntity
  8
0
  6
Continuous
 62
     0
370
     0
100
AcDbLine
 10
-0.199999999999999
 20
0.0
 30
0.0
 11
-0.3500000000000003
 21
0.0
 31
0.0
  0
LINE
  5
C4E
330
C46
100
AcDbEntity
  8
0
  6
Continuous
 62
     0
370
     0
100
AcDbLine
 10
0.0
 20
-0.2
 30
0.0
 11
0.0
 21
-0.3500000000000003
 31
0.0
  0
LINE
  5
C4F
330
C46
100
AcDbEntity
  8
0
  6
Continuous
 62
     0
370
     0
100
AcDbLine
 10
0.2000000000000011
 20
0.0
 30
0.0
 11
0.3500000000000003
 21
0.0
 31
0.0
  0
ENDBLK
  5
C50
330
C46
100
AcDbEntity
  8
0
100
AcDbBlockEnd
  0
BLOCK
  5
D94
330
D93
100
AcDbEntity
  8
0
100
AcDbBlockBegin
  2
*D7
 70
     1
 10
0.0
 20
0.0
 30
0.0
  3
*D7
  1

  0
LINE
  5
FC4
330
D93
100
AcDbEntity
  8
DIM
 62
     0
370
    -2
100
AcDbLine
 10
1.065751240198941
 20
0.7281049974881848
 30
0.0
 11
1.245137908347871
 21
0.7281049974881848
 31
0.0
  0
LINE
  5
FC5
330
D93
100
AcDbEntity
  8
DIM
 62
     0
370
    -2
100
AcDbLine
 10
1.065751240198941
 20
1.228104997488184
 30
0.0
 11
1.245137908347871
 21
1.228104997488184
 31
0.0
  0
LINE
  5
FC6
330
D93
100
AcDbEntity
  8
DIM
 62
     0
370
    -2
100
AcDbLine
 10
1.235137908347871
 20
0.7481049974881849
 30
0.0
 11
1.235137908347871
 21
1.208104997488184
 31
0.0
  0
SOLID
  5
FC7
330
D93
100
AcDbEntity
  8
DIM
 62
     0
100
AcDbTrace
 10
1.231804575014538
 20
0.7481049974881849
 30
0.0
 11
1.238471241681205
 21
0.7481049974881849
 31
0.0
 12
1.235137908347871
 22
0.7281049974881848
 32
0.0
 13
1.235137908347871
 23
0.7281049974881848
 33
0.0
  0
SOLID
  5
FC8
330
D93
100
AcDbEntity
  8
DIM
 62
     0
100
AcDbTrace
 10
1.231804575014538
 20
1.208104997488184
 30
0.0
 11
1.238471241681205
 21
1.208104997488184
 31
0.0
 12
1.235137908347871
 22
1.228104997488184
 32
0.0
 13
1.235137908347871
 23
1.228104997488184
 33
0.0
  0
MTEXT
  5
FC9
330
D93
100
AcDbEntity
  8
DIM
 62
     0
100
AcDbMText
 10
1.204131790060991
 20
0.9781049974881847
 30
0.0
 40
0.02
 41
0.0
 71
     2
 72
     1
  1
\A1;0.500
 11
0.0000000000000001
 21
1.0
 31
0.0
 73
     1
 44
1.0
  0
POINT
  5
FCA
330
D93
100
AcDbEntity
  8
Defpoints
 62
     0
100
AcDbPoint
 10
1.055751240198941
 20
0.7281049974881848
 30
0.0
  0
POINT
  5
FCB
330
D93
100
AcDbEntity
  8
Defpoints
 62
     0
100
AcDbPoint
 10
1.055751240198941
 20
1.228104997488184
 30
0.0
  0
POINT
  5
FCC
330
D93
100
AcDbEntity
  8
Defpoints
 62
     0
100
AcDbPoint
 10
1.235137908347871
 20
1.228104997488184
 30
0.0
  0
ENDBLK
  5
D95
330
D93
100
AcDbEntity
  8
0
100
AcDbBlockEnd
  0
BLOCK
  5
DCA
330
DC9
100
AcDbEntity
  8
0
100
AcDbBlockBegin
  2
*D8
 70
     1
 10
0.0
 20
0.0
 30
0.0
  3
*D8
  1

  0
LINE
  5
EEF
330
DC9
100
AcDbEntity
  8
DIM
 62
     0
370
    -2
100
AcDbLine
 10
1.065751240198941
 20
0.72810499748692
 30
0.0
 11
1.173658967827643
 21
0.72810499748692
 31
0.0
  0
LINE
  5
EF0
330
DC9
100
AcDbEntity
  8
DIM
 62
     0
370
    -2
100
AcDbLine
 10
1.065751240198941
 20
0.8531049974881847
 30
0.0
 11
1.173658967827643
 21
0.8531049974881847
 31
0.0
  0
LINE
  5
EF1
330
DC9
100
AcDbEntity
  8
DIM
 62
     0
370
    -2
100
AcDbLine
 10
1.163658967827643
 20
0.7481049974869201
 30
0.0
 11
1.163658967827643
 21
0.8331049974881848
 31
0.0
  0
SOLID
  5
EF2
330
DC9
100
AcDbEntity
  8
DIM
 62
     0
100
AcDbTrace
 10
1.16032563449431
 20
0.7481049974869201
 30
0.0
 11
1.166992301160977
 21
0.7481049974869201
 31
0.0
 12
1.163658967827643
 22
0.72810499748692
 32
0.0
 13
1.163658967827643
 23
0.72810499748692
 33
0.0
  0
SOLID
  5
EF3
330
DC9
100
AcDbEntity
  8
DIM
 62
     0
100
AcDbTrace
 10
1.16032563449431
 20
0.8331049974881848
 30
0.0
 11
1.166992301160977
 21
0.8331049974881848
 31
0.0
 12
1.163658967827643
 22
0.8531049974881847
 32
0.0
 13
1.163658967827643
 23
0.8531049974881847
 33
0.0
  0
MTEXT
  5
EF4
330
DC9
100
AcDbEntity
  8
DIM
 62
     0
100
AcDbMText
 10
1.143155908684203
 20
0.7906049974875526
 30
0.0
 40
0.02
 41
0.0
 71
     5
 72
     1
  1
\A1;0.125
 11
0.0000000000000001
 21
1.0
 31
0.0
 73
     1
 44
1.0
  0
POINT
  5
EF5
330
DC9
100
AcDbEntity
  8
Defpoints
 62
     0
100
AcDbPoint
 10
1.055751240198941
 20
0.72810499748692
 30
0.0
  0
POINT
  5
EF6
330
DC9
100
AcDbEntity
  8
Defpoints
 62
     0
100
AcDbPoint
 10
1.055751240198941
 20
0.8531049974881847
 30
0.0
  0
POINT
  5
EF7
330
DC9
100
AcDbEntity
  8
Defpoints
 62
     0
100
AcDbPoint
 10
1.163658967827643
 20
0.8531049974881847
 30
0.0
  0
ENDBLK
  5
DCB
330
DC9
100
AcDbEntity
  8
0
100
AcDbBlockEnd
  0
BLOCK
  5
DD7
330
DD6
100
AcDbEntity
  8
0
100
AcDbBlockBegin
  2
*D9
 70
     1
 10
0.0
 20
0.0
 30
0.0
  3
*D9
  1

  0
LINE
  5
EDD
330
DD6
100
AcDbEntity
  8
DIM
 62
     0
370
    -2
100
AcDbLine
 10
1.065751240198941
 20
0.8531049974881847
 30
0.0
 11
1.173658967827643
 21
0.8531049974881847
 31
0.0
  0
LINE
  5
EDE
330
DD6
100
AcDbEntity
  8
DIM
 62
     0
370
    -2
100
AcDbLine
 10
1.065751240200298
 20
1.103104997490376
 30
0.0
 11
1.173658967827643
 21
1.103104997490376
 31
0.0
  0
LINE
  5
EDF
330
DD6
100
AcDbEntity
  8
DIM
 62
     0
370
    -2
100
AcDbLine
 10
1.163658967827643
 20
0.8731049974881848
 30
0.0
 11
1.163658967827643
 21
1.083104997490376
 31
0.0
  0
SOLID
  5
EE0
330
DD6
100
AcDbEntity
  8
DIM
 62
     0
100
AcDbTrace
 10
1.16032563449431
 20
0.8731049974881848
 30
0.0
 11
1.166992301160977
 21
0.8731049974881848
 31
0.0
 12
1.163658967827643
 22
0.8531049974881847
 32
0.0
 13
1.163658967827643
 23
0.8531049974881847
 33
0.0
  0
SOLID
  5
EE1
330
DD6
100
AcDbEntity
  8
DIM
 62
     0
100
AcDbTrace
 10
1.16032563449431
 20
1.083104997490376
 30
0.0
 11
1.166992301160977
 21
1.083104997490376
 31
0.0
 12
1.163658967827643
 22
1.103104997490376
 32
0.0
 13
1.163658967827643
 23
1.103104997490376
 33
0.0
  0
MTEXT
  5
EE2
330
DD6
100
AcDbEntity
  8
DIM
 62
     0
100
AcDbMText
 10
1.143155908684203
 20
0.9781049974892809
 30
0.0
 40
0.02
 41
0.0
 71
     5
 72
     1
  1
\A1;0.250
 11
0.0000000000000001
 21
1.0
 31
0.0
 73
     1
 44
1.0
  0
POINT
  5
EE3
330
DD6
100
AcDbEntity
  8
Defpoints
 62
     0
100
AcDbPoint
 10
1.055751240198941
 20
0.8531049974881847
 30
0.0
  0
POINT
  5
EE4
330
DD6
100
AcDbEntity
  8
Defpoints
 62
     0
100
AcDbPoint
 10
1.055751240200298
 20
1.103104997490376
 30
0.0
  0
POINT
  5
EE5
330
DD6
100
AcDbEntity
  8
Defpoints
 62
     0
100
AcDbPoint
 10
1.163658967827643
 20
1.103104997490376
 30
0.0
  0
ENDBLK
  5
DD8
330
DD6
100
AcDbEntity
  8
0
100
AcDbBlockEnd
  0
BLOCK
  5
DE4
330
DE3
100
AcDbEntity
  8
0
100
AcDbBlockBegin
  2
*D10
 70
     1
 10
0.0
 20
0.0
 30
0.0
  3
*D10
  1

  0
LINE
  5
EE6
330
DE3
100
AcDbEntity
  8
DIM
 62
     0
370
    -2
100
AcDbLine
 10
1.065751240200298
 20
1.103104997490376
 30
0.0
 11
1.173658967827643
 21
1.103104997490376
 31
0.0
  0
LINE
  5
EE7
330
DE3
100
AcDbEntity
  8
DIM
 62
     0
370
    -2
100
AcDbLine
 10
1.065751240198941
 20
1.228104997488184
 30
0.0
 11
1.173658967827643
 21
1.228104997488184
 31
0.0
  0
LINE
  5
EE8
330
DE3
100
AcDbEntity
  8
DIM
 62
     0
370
    -2
100
AcDbLine
 10
1.163658967827643
 20
1.123104997490376
 30
0.0
 11
1.163658967827643
 21
1.208104997488184
 31
0.0
  0
SOLID
  5
EE9
330
DE3
100
AcDbEntity
  8
DIM
 62
     0
100
AcDbTrace
 10
1.16032563449431
 20
1.123104997490376
 30
0.0
 11
1.166992301160977
 21
1.123104997490376
 31
0.0
 12
1.163658967827643
 22
1.103104997490376
 32
0.0
 13
1.163658967827643
 23
1.103104997490376
 33
0.0
  0
SOLID
  5
EEA
330
DE3
100
AcDbEntity
  8
DIM
 62
     0
100
AcDbTrace
 10
1.16032563449431
 20
1.208104997488184
 30
0.0
 11
1.166992301160977
 21
1.208104997488184
 31
0.0
 12
1.163658967827643
 22
1.228104997488184
 32
0.0
 13
1.163658967827643
 23
1.228104997488184
 33
0.0
  0
MTEXT
  5
EEB
330
DE3
100
AcDbEntity
  8
DIM
 62
     0
100
AcDbMText
 10
1.143155908684203
 20
1.165604997489281
 30
0.0
 40
0.02
 41
0.0
 71
     5
 72
     1
  1
\A1;0.125
 11
0.0000000000000001
 21
1.0
 31
0.0
 73
     1
 44
1.0
  0
POINT
  5
EEC
330
DE3
100
AcDbEntity
  8
Defpoints
 62
     0
100
AcDbPoint
 10
1.055751240200298
 20
1.103104997490376
 30
0.0
  0
POINT
  5
EED
330
DE3
100
AcDbEntity
  8
Defpoints
 62
     0
100
AcDbPoint
 10
1.055751240198941
 20
1.228104997488184
 30
0.0
  0
POINT
  5
EEE
330
DE3
100
AcDbEntity
  8
Defpoints
 62
     0
100
AcDbPoint
 10
1.163658967827643
 20
1.228104997488184
 30
0.0
  0
ENDBLK
  5
DE5
330
DE3
100
AcDbEntity
  8
0
100
AcDbBlockEnd
  0
BLOCK
  5
DF1
330
DF0
100
AcDbEntity
  8
0
100
AcDbBlockBegin
  2
*D11
 70
     1
 10
0.0
 20
0.0
 30
0.0
  3
*D11
  1

  0
LINE
  5
F01
330
DF0
100
AcDbEntity
  8
DIM
 62
     0
370
    -2
100
AcDbLine
 10
0.8366512401983804
 20
1.238104997485854
 30
0.0
 11
0.8366512401983804
 21
1.298394819093216
 31
0.0
  0
LINE
  5
F02
330
DF0
100
AcDbEntity
  8
DIM
 62
     0
370
    -2
100
AcDbLine
 10
0.9928512401994996
 20
1.238104997485854
 30
0.0
 11
0.9928512401994996
 21
1.298394819093216
 31
0.0
  0
LINE
  5
F03
330
DF0
100
AcDbEntity
  8
DIM
 62
     0
370
    -2
100
AcDbLine
 10
0.8566512401983805
 20
1.288394819093216
 30
0.0
 11
0.9728512401994997
 21
1.288394819093216
 31
0.0
  0
SOLID
  5
F04
330
DF0
100
AcDbEntity
  8
DIM
 62
     0
100
AcDbTrace
 10
0.8566512401983805
 20
1.29172815242655
 30
0.0
 11
0.8566512401983805
 21
1.285061485759883
 31
0.0
 12
0.8366512401983804
 22
1.288394819093216
 32
0.0
 13
0.8366512401983804
 23
1.288394819093216
 33
0.0
  0
SOLID
  5
F05
330
DF0
100
AcDbEntity
  8
DIM
 62
     0
100
AcDbTrace
 10
0.9728512401994997
 20
1.29172815242655
 30
0.0
 11
0.9728512401994997
 21
1.285061485759883
 31
0.0
 12
0.9928512401994996
 22
1.288394819093216
 32
0.0
 13
0.9928512401994996
 23
1.288394819093216
 33
0.0
  0
MTEXT
  5
F06
330
DF0
100
AcDbEntity
  8
DIM
 62
     0
100
AcDbMText
 10
0.9147512401989402
 20
1.308897878236656
 30
0.0
 40
0.02
 41
0.0
 71
     5
 72
     1
  1
\A1;0.156
 73
     1
 44
1.0
  0
POINT
  5
F07
330
DF0
100
AcDbEntity
  8
Defpoints
 62
     0
100
AcDbPoint
 10
0.8366512401983804
 20
1.228104997485854
 30
0.0
  0
POINT
  5
F08
330
DF0
100
AcDbEntity
  8
Defpoints
 62
     0
100
AcDbPoint
 10
0.9928512401994996
 20
1.228104997485854
 30
0.0
  0
POINT
  5
F09
330
DF0
100
AcDbEntity
  8
Defpoints
 62
     0
100
AcDbPoint
 10
0.9928512401994996
 20
1.288394819093216
 30
0.0
  0
ENDBLK
  5
DF2
330
DF0
100
AcDbEntity
  8
0
100
AcDbBlockEnd
  0
BLOCK
  5
DFE
330
DFD
100
AcDbEntity
  8
0
100
AcDbBlockBegin
  2
*D12
 70
     1
 10
0.0
 20
0.0
 30
0.0
  3
*D12
  1

  0
LINE
  5
FE8
330
DFD
100
AcDbEntity
  8
DIM
 62
     0
370
    -2
100
AcDbLine
 10
0.7727512401989416
 20
0.7181049974862131
 30
0.0
 11
0.7727512401989416
 21
0.637855618361275
 31
0.0
  0
LINE
  5
FE9
330
DFD
100
AcDbEntity
  8
DIM
 62
     0
370
    -2
100
AcDbLine
 10
1.055751240198941
 20
0.7181049974881848
 30
0.0
 11
1.055751240198941
 21
0.637855618361275
 31
0.0
  0
LINE
  5
FEA
330
DFD
100
AcDbEntity
  8
DIM
 62
     0
370
    -2
100
AcDbLine
 10
0.7927512401989416
 20
0.647855618361275
 30
0.0
 11
1.035751240198941
 21
0.647855618361275
 31
0.0
  0
SOLID
  5
FEB
330
DFD
100
AcDbEntity
  8
DIM
 62
     0
100
AcDbTrace
 10
0.7927512401989416
 20
0.6511889516946083
 30
0.0
 11
0.7927512401989416
 21
0.6445222850279416
 31
0.0
 12
0.7727512401989416
 22
0.647855618361275
 32
0.0
 13
0.7727512401989416
 23
0.647855618361275
 33
0.0
  0
SOLID
  5
FEC
330
DFD
100
AcDbEntity
  8
DIM
 62
     0
100
AcDbTrace
 10
1.035751240198941
 20
0.6511889516946083
 30
0.0
 11
1.035751240198941
 21
0.6445222850279416
 31
0.0
 12
1.055751240198941
 22
0.647855618361275
 32
0.0
 13
1.055751240198941
 23
0.647855618361275
 33
0.0
  0
MTEXT
  5
FED
330
DFD
100
AcDbEntity
  8
DIM
 62
     0
100
AcDbMText
 10
0.9142512401989414
 20
0.6683586775047149
 30
0.0
 40
0.02
 41
0.0
 71
     5
 72
     1
  1
\A1;0.283
 73
     1
 44
1.0
  0
POINT
  5
FEE
330
DFD
100
AcDbEntity
  8
Defpoints
 62
     0
100
AcDbPoint
 10
0.7727512401989416
 20
0.728104997486213
 30
0.0
  0
POINT
  5
FEF
330
DFD
100
AcDbEntity
  8
Defpoints
 62
     0
100
AcDbPoint
 10
1.055751240198941
 20
0.7281049974881848
 30
0.0
  0
POINT
  5
FF0
330
DFD
100
AcDbEntity
  8
Defpoints
 62
     0
100
AcDbPoint
 10
1.055751240198941
 20
0.647855618361275
 30
0.0
  0
ENDBLK
  5
DFF
330
DFD
100
AcDbEntity
  8
0
100
AcDbBlockEnd
  0
BLOCK
  5
E0B
330
E0A
100
AcDbEntity
  8
0
100
AcDbBlockBegin
  2
*D13
 70
     1
 10
0.0
 20
0.0
 30
0.0
  3
*D13
  1

  0
LINE
  5
FFA
330
E0A
100
AcDbEntity
  8
DIM
 62
     0
370
    -2
100
AcDbLine
 10
1.065751240198941
 20
1.690098542598607
 30
0.0
 11
1.172461743177182
 21
1.690098542598607
 31
0.0
  0
LINE
  5
FFB
330
E0A
100
AcDbEntity
  8
DIM
 62
     0
370
    -2
100
AcDbLine
 10
1.065751240198941
 20
1.940098542599872
 30
0.0
 11
1.172461743177182
 21
1.940098542599872
 31
0.0
  0
LINE
  5
FFC
330
E0A
100
AcDbEntity
  8
DIM
 62
     0
370
    -2
100
AcDbLine
 10
1.162461743177182
 20
1.710098542598607
 30
0.0
 11
1.162461743177182
 21
1.920098542599872
 31
0.0
  0
SOLID
  5
FFD
330
E0A
100
AcDbEntity
  8
DIM
 62
     0
100
AcDbTrace
 10
1.159128409843849
 20
1.710098542598607
 30
0.0
 11
1.165795076510516
 21
1.710098542598607
 31
0.0
 12
1.162461743177182
 22
1.690098542598607
 32
0.0
 13
1.162461743177182
 23
1.690098542598607
 33
0.0
  0
SOLID
  5
FFE
330
E0A
100
AcDbEntity
  8
DIM
 62
     0
100
AcDbTrace
 10
1.159128409843849
 20
1.920098542599872
 30
0.0
 11
1.165795076510516
 21
1.920098542599872
 31
0.0
 12
1.162461743177182
 22
1.940098542599872
 32
0.0
 13
1.162461743177182
 23
1.940098542599872
 33
0.0
  0
MTEXT
  5
FFF
330
E0A
100
AcDbEntity
  8
DIM
 62
     0
100
AcDbMText
 10
1.141958684033742
 20
1.81509854259924
 30
0.0
 40
0.02
 41
0.0
 71
     5
 72
     1
  1
\A1;0.250
 11
0.0000000000000001
 21
1.0
 31
0.0
 73
     1
 44
1.0
  0
POINT
  5
1000
330
E0A
100
AcDbEntity
  8
Defpoints
 62
     0
100
AcDbPoint
 10
1.055751240198941
 20
1.690098542598607
 30
0.0
  0
POINT
  5
1001
330
E0A
100
AcDbEntity
  8
Defpoints
 62
     0
100
AcDbPoint
 10
1.055751240198941
 20
1.940098542599872
 30
0.0
  0
POINT
  5
1002
330
E0A
100
AcDbEntity
  8
Defpoints
 62
     0
100
AcDbPoint
 10
1.162461743177182
 20
1.940098542599872
 30
0.0
  0
ENDBLK
  5
E0C
330
E0A
100
AcDbEntity
  8
0
100
AcDbBlockEnd
  0
BLOCK
  5
E19
330
E18
100
AcDbEntity
  8
0
100
AcDbBlockBegin
  2
*D14
 70
     1
 10
0.0
 20
0.0
 30
0.0
  3
*D14
  1

  0
LINE
  5
F97
330
E18
100
AcDbEntity
  8
DIM
 62
     0
370
    -2
100
AcDbLine
 10
0.5897491203315175
 20
2.046415528130119
 30
0.0
 11
0.6905852862050728
 21
2.046415528130119
 31
0.0
  0
LINE
  5
F98
330
E18
100
AcDbEntity
  8
DIM
 62
     0
370
    -2
100
AcDbLine
 10
0.6905852862050728
 20
2.046415528130119
 30
0.0
 11
0.8353696616811918
 21
1.977747480738224
 31
0.0
  0
LINE
  5
F99
330
E18
100
AcDbEntity
  8
DIM
 62
     0
370
    -2
100
AcDbLine
 10
0.9941328187166899
 20
1.902449604461521
 30
0.0
 11
1.012203421956626
 21
1.893879114478748
 31
0.0
  0
MTEXT
  5
F9A
102
{ACAD_XDICTIONARY
360
1075
102
}
330
E18
100
AcDbEntity
  8
DIM
 62
     0
100
AcDbMText
 10
0.6351672032682951
 20
2.067544012154592
 30
0.0
 40
0.02
 41
0.0
 71
     5
 72
     1
  1
\A1;\U+22050.136
 73
     1
 44
1.0
  0
LINE
  5
F9B
330
E18
100
AcDbEntity
  8
DIM
 62
     0
370
    -2
100
AcDbLine
 10
0.9760622154767537
 20
1.911020094444293
 30
0.0
 11
0.853440264921128
 21
1.969176990755451
 31
0.0
  0
SOLID
  5
F9C
330
E18
100
AcDbEntity
  8
DIM
 62
     0
100
AcDbTrace
 10
0.9955612337138187
 20
1.905461371668177
 30
0.0
 11
0.992704403719561
 21
1.899437837254864
 31
0.0
 12
0.9760622154767537
 22
1.911020094444293
 32
0.0
 13
0.9760622154767537
 23
1.911020094444293
 33
0.0
  0
SOLID
  5
F9D
330
E18
100
AcDbEntity
  8
DIM
 62
     0
100
AcDbTrace
 10
0.8367980766783206
 20
1.98075924794488
 30
0.0
 11
0.8339412466840631
 21
1.974735713531567
 31
0.0
 12
0.853440264921128
 22
1.969176990755451
 32
0.0
 13
0.853440264921128
 23
1.969176990755451
 33
0.0
  0
POINT
  5
F9E
330
E18
100
AcDbEntity
  8
Defpoints
 62
     0
100
AcDbPoint
 10
0.853440264921128
 20
1.969176990755451
 30
0.0
  0
POINT
  5
F9F
330
E18
100
AcDbEntity
  8
Defpoints
 62
     0
100
AcDbPoint
 10
0.9760622154767537
 20
1.911020094444293
 30
0.0
  0
ENDBLK
  5
E1A
330
E18
100
AcDbEntity
  8
0
100
AcDbBlockEnd
  0
BLOCK
  5
E25
330
E24
100
AcDbEntity
  8
0
100
AcDbBlockBegin
  2
*D15
 70
     1
 10
0.0
 20
0.0
 30
0.0
  3
*D15
  1

  0
LINE
  5
F72
330
E24
100
AcDbEntity
  8
DIM
 62
     0
370
    -2
100
AcDbLine
 10
1.18634696173291
 20
2.0478393033729
 30
0.0
 11
1.085361237735629
 21
2.0478393033729
 31
0.0
  0
LINE
  5
F73
330
E24
100
AcDbEntity
  8
DIM
 62
     0
370
    -2
100
AcDbLine
 10
1.085361237735629
 20
2.0478393033729
 30
0.0
 11
1.004841163265073
 21
1.996990618030805
 31
0.0
  0
LINE
  5
F74
330
E24
100
AcDbEntity
  8
DIM
 62
     0
370
    -2
100
AcDbLine
 10
0.8246613171328085
 20
1.883206467168936
 30
0.0
 11
0.8077509608444854
 21
1.872527522923274
 31
0.0
  0
MTEXT
  5
F75
102
{ACAD_XDICTIONARY
360
1073
102
}
330
E24
100
AcDbEntity
  8
DIM
 62
     0
100
AcDbMText
 10
1.14085409973427
 20
2.068967787397373
 30
0.0
 40
0.02
 41
0.0
 71
     5
 72
     1
  1
\A1;\U+22050.173
 73
     1
 44
1.0
  0
LINE
  5
F76
330
E24
100
AcDbEntity
  8
DIM
 62
     0
370
    -2
100
AcDbLine
 10
0.8415716734211319
 20
1.893885411414599
 30
0.0
 11
0.9879308069767503
 21
1.986311673785142
 31
0.0
  0
SOLID
  5
F77
330
E24
100
AcDbEntity
  8
DIM
 62
     0
100
AcDbTrace
 10
0.8228814930918648
 20
1.886024859883657
 30
0.0
 11
0.8264411411737524
 21
1.880388074454216
 31
0.0
 12
0.8415716734211319
 22
1.893885411414599
 32
0.0
 13
0.8415716734211319
 23
1.893885411414599
 33
0.0
  0
SOLID
  5
F78
330
E24
100
AcDbEntity
  8
DIM
 62
     0
100
AcDbTrace
 10
1.003061339224129
 20
1.999809010745526
 30
0.0
 11
1.006620987306017
 21
1.994172225316084
 31
0.0
 12
0.9879308069767503
 22
1.986311673785142
 32
0.0
 13
0.9879308069767503
 23
1.986311673785142
 33
0.0
  0
ARC
  5
F79
330
E24
100
AcDbEntity
  8
DIM
 62
     0
370
    -2
100
AcDbCircle
 10
0.9147512401989411
 20
1.940098542599871
 30
0.0
 40
0.0865499999291449
100
AcDbArc
 50
25.65257910399159
 51
125.2520314517747
  0
POINT
  5
F7A
330
E24
100
AcDbEntity
  8
Defpoints
 62
     0
100
AcDbPoint
 10
0.9879308069767503
 20
1.986311673785142
 30
0.0
  0
POINT
  5
F7B
330
E24
100
AcDbEntity
  8
Defpoints
 62
     0
100
AcDbPoint
 10
0.8415716734211319
 20
1.893885411414599
 30
0.0
  0
ENDBLK
  5
E26
330
E24
100
AcDbEntity
  8
0
100
AcDbBlockEnd
  0
BLOCK
  5
E3F
330
E3E
100
AcDbEntity
  8
0
100
AcDbBlockBegin
  2
*D16
 70
     1
 10
0.0
 20
0.0
 30
0.0
  3
*D16
  1

  0
LINE
  5
FD6
330
E3E
100
AcDbEntity
  8
DIM
 62
     0
370
    -2
100
AcDbLine
 10
0.7577512401989411
 20
1.695098542597901
 30
0.0
 11
0.7577512401989411
 21
1.57770618943215
 31
0.0
  0
LINE
  5
FD7
330
E3E
100
AcDbEntity
  8
DIM
 62
     0
370
    -2
100
AcDbLine
 10
1.070751240200471
 20
1.695098542597901
 30
0.0
 11
1.070751240200471
 21
1.57770618943215
 31
0.0
  0
LINE
  5
FD8
330
E3E
100
AcDbEntity
  8
DIM
 62
     0
370
    -2
100
AcDbLine
 10
0.7777512401989411
 20
1.58770618943215
 30
0.0
 11
1.050751240200471
 21
1.58770618943215
 31
0.0
  0
SOLID
  5
FD9
330
E3E
100
AcDbEntity
  8
DIM
 62
     0
100
AcDbTrace
 10
0.7777512401989411
 20
1.591039522765484
 30
0.0
 11
0.7777512401989411
 21
1.584372856098817
 31
0.0
 12
0.7577512401989411
 22
1.58770618943215
 32
0.0
 13
0.7577512401989411
 23
1.58770618943215
 33
0.0
  0
SOLID
  5
FDA
330
E3E
100
AcDbEntity
  8
DIM
 62
     0
100
AcDbTrace
 10
1.050751240200471
 20
1.591039522765484
 30
0.0
 11
1.050751240200471
 21
1.584372856098817
 31
0.0
 12
1.070751240200471
 22
1.58770618943215
 32
0.0
 13
1.070751240200471
 23
1.58770618943215
 33
0.0
  0
MTEXT
  5
FDB
330
E3E
100
AcDbEntity
  8
DIM
 62
     0
100
AcDbMText
 10
0.9142512401997059
 20
1.60820924857559
 30
0.0
 40
0.02
 41
0.0
 71
     5
 72
     1
  1
\A1;0.313
 73
     1
 44
1.0
  0
POINT
  5
FDC
330
E3E
100
AcDbEntity
  8
Defpoints
 62
     0
100
AcDbPoint
 10
0.7577512401989411
 20
1.705098542597901
 30
0.0
  0
POINT
  5
FDD
330
E3E
100
AcDbEntity
  8
Defpoints
 62
     0
100
AcDbPoint
 10
1.070751240200471
 20
1.705098542597901
 30
0.0
  0
POINT
  5
FDE
330
E3E
100
AcDbEntity
  8
Defpoints
 62
     0
100
AcDbPoint
 10
1.070751240200471
 20
1.58770618943215
 30
0.0
  0
ENDBLK
  5
E40
330
E3E
100
AcDbEntity
  8
0
100
AcDbBlockEnd
  0
BLOCK
  5
E4C
330
E4B
100
AcDbEntity
  8
0
100
AcDbBlockBegin
  2
*D17
 70
     1
 10
0.0
 20
0.0
 30
0.0
  3
*D17
  1

  0
LINE
  5
FA9
330
E4B
100
AcDbEntity
  8
DIM
 62
     0
370
    -2
100
AcDbLine
 10
2.446517211702478
 20
1.173080301071119
 30
0.0
 11
2.34535473719534
 21
1.17308030107112
 31
0.0
  0
LINE
  5
FAA
330
E4B
100
AcDbEntity
  8
DIM
 62
     0
370
    -2
100
AcDbLine
 10
2.34535473719534
 20
1.17308030107112
 30
0.0
 11
2.247690180425578
 21
1.07880777444072
 31
0.0
  0
LINE
  5
FAB
330
E4B
100
AcDbEntity
  8
DIM
 62
     0
370
    -2
100
AcDbLine
 10
2.039037831154986
 20
0.8774022205356486
 30
0.0
 11
2.024648013963906
 21
0.8635121823352942
 31
0.0
  0
MTEXT
  5
FAC
102
{ACAD_XDICTIONARY
360
1077
102
}
330
E4B
100
AcDbEntity
  8
DIM
 62
     0
100
AcDbMText
 10
2.400935974448909
 20
1.194208785095593
 30
0.0
 40
0.02
 41
0.0
 71
     5
 72
     1
  1
\A1;\U+22050.250
 73
     1
 44
1.0
  0
LINE
  5
FAD
330
E4B
100
AcDbEntity
  8
DIM
 62
     0
370
    -2
100
AcDbLine
 10
2.053427648346066
 20
0.8912922587360029
 30
0.0
 11
2.233300363234498
 21
1.064917736240366
 31
0.0
  0
SOLID
  5
FAE
330
E4B
100
AcDbEntity
  8
DIM
 62
     0
100
AcDbTrace
 10
2.03672282478826
 20
0.8798005234008284
 30
0.0
 11
2.041352837521712
 21
0.8750039176704685
 31
0.0
 12
2.053427648346066
 22
0.8912922587360029
 32
0.0
 13
2.053427648346066
 23
0.8912922587360029
 33
0.0
  0
SOLID
  5
FAF
330
E4B
100
AcDbEntity
  8
DIM
 62
     0
100
AcDbTrace
 10
2.245375174058852
 20
1.0812060773059
 30
0.0
 11
2.250005186792304
 21
1.076409471575541
 31
0.0
 12
2.233300363234498
 22
1.064917736240366
 32
0.0
 13
2.233300363234498
 23
1.064917736240366
 33
0.0
  0
POINT
  5
FB0
330
E4B
100
AcDbEntity
  8
Defpoints
 62
     0
100
AcDbPoint
 10
2.233300363234498
 20
1.064917736240366
 30
0.0
  0
POINT
  5
FB1
330
E4B
100
AcDbEntity
  8
Defpoints
 62
     0
100
AcDbPoint
 10
2.053427648346066
 20
0.8912922587360029
 30
0.0
  0
ENDBLK
  5
E4D
330
E4B
100
AcDbEntity
  8
0
100
AcDbBlockEnd
  0
BLOCK
  5
E58
330
E57
100
AcDbEntity
  8
0
100
AcDbBlockBegin
  2
*D18
 70
     1
 10
0.0
 20
0.0
 30
0.0
  3
*D18
  1

  0
LINE
  5
1003
330
E57
100
AcDbEntity
  8
DIM
 62
     0
370
    -2
100
AcDbLine
 10
2.088515730217269
 20
1.238104997488184
 30
0.0
 11
2.088515730217269
 21
1.389410587069973
 31
0.0
  0
LINE
  5
1004
330
E57
100
AcDbEntity
  8
DIM
 62
     0
370
    -2
100
AcDbLine
 10
2.198212281363295
 20
1.238104997485687
 30
0.0
 11
2.198212281363295
 21
1.389410587069973
 31
0.0
  0
LINE
  5
1005
330
E57
100
AcDbEntity
  8
DIM
 62
     0
370
    -2
100
AcDbLine
 10
2.108515730217269
 20
1.379410587069973
 30
0.0
 11
2.178212281363295
 21
1.379410587069973
 31
0.0
  0
SOLID
  5
1006
330
E57
100
AcDbEntity
  8
DIM
 62
     0
100
AcDbTrace
 10
2.108515730217269
 20
1.382743920403306
 30
0.0
 11
2.108515730217269
 21
1.376077253736639
 31
0.0
 12
2.088515730217269
 22
1.379410587069973
 32
0.0
 13
2.088515730217269
 23
1.379410587069973
 33
0.0
  0
SOLID
  5
1007
330
E57
100
AcDbEntity
  8
DIM
 62
     0
100
AcDbTrace
 10
2.178212281363295
 20
1.382743920403306
 30
0.0
 11
2.178212281363295
 21
1.376077253736639
 31
0.0
 12
2.198212281363295
 22
1.379410587069973
 32
0.0
 13
2.198212281363295
 23
1.379410587069973
 33
0.0
  0
MTEXT
  5
1008
330
E57
100
AcDbEntity
  8
DIM
 62
     0
100
AcDbMText
 10
2.143364005790282
 20
1.399913646213412
 30
0.0
 40
0.02
 41
0.0
 71
     5
 72
     1
  1
\A1;0.110
 73
     1
 44
1.0
  0
POINT
  5
1009
330
E57
100
AcDbEntity
  8
Defpoints
 62
     0
100
AcDbPoint
 10
2.088515730217269
 20
1.228104997488184
 30
0.0
  0
POINT
  5
100A
330
E57
100
AcDbEntity
  8
Defpoints
 62
     0
100
AcDbPoint
 10
2.198212281363295
 20
1.228104997485687
 30
0.0
  0
POINT
  5
100B
330
E57
100
AcDbEntity
  8
Defpoints
 62
     0
100
AcDbPoint
 10
2.198212281363295
 20
1.379410587069973
 30
0.0
  0
ENDBLK
  5
E59
330
E57
100
AcDbEntity
  8
0
100
AcDbBlockEnd
  0
BLOCK
  5
E64
330
E63
100
AcDbEntity
  8
0
100
AcDbBlockBegin
  2
*D19
 70
     1
 10
0.0
 20
0.0
 30
0.0
  3
*D19
  1

  0
LINE
  5
E65
330
E63
100
AcDbEntity
  8
DIM
 62
     0
370
    -2
100
AcDbLine
 10
18.57925234222106
 20
5.581322946606483
 30
0.0
 11
20.59082414926372
 21
5.581322946606483
 31
0.0
  0
LINE
  5
E66
330
E63
100
AcDbEntity
  8
DIM
 62
     0
370
    -2
100
AcDbLine
 10
18.57925234222106
 20
4.164000111960817
 30
0.0
 11
20.59082414926372
 21
4.164000111960817
 31
0.0
  0
LINE
  5
E67
330
E63
100
AcDbEntity
  8
DIM
 62
     0
370
    -2
100
AcDbLine
 10
20.41082414926372
 20
5.401322946606484
 30
0.0
 11
20.41082414926372
 21
5.054626058615165
 31
0.0
  0
LINE
  5
E68
330
E63
100
AcDbEntity
  8
DIM
 62
     0
370
    -2
100
AcDbLine
 10
20.41082414926372
 20
4.344000111960816
 30
0.0
 11
20.41082414926372
 21
4.690696999952136
 31
0.0
  0
SOLID
  5
E69
330
E63
100
AcDbEntity
  8
DIM
 62
     0
100
AcDbTrace
 10
20.38082414926372
 20
5.401322946606484
 30
0.0
 11
20.44082414926372
 21
5.401322946606484
 31
0.0
 12
20.41082414926372
 22
5.581322946606483
 32
0.0
 13
20.41082414926372
 23
5.581322946606483
 33
0.0
  0
SOLID
  5
E6A
330
E63
100
AcDbEntity
  8
DIM
 62
     0
100
AcDbTrace
 10
20.38082414926372
 20
4.344000111960816
 30
0.0
 11
20.44082414926372
 21
4.344000111960816
 31
0.0
 12
20.41082414926372
 22
4.164000111960817
 32
0.0
 13
20.41082414926372
 23
4.164000111960817
 33
0.0
  0
MTEXT
  5
E6B
330
E63
100
AcDbEntity
  8
DIM
 62
     0
100
AcDbMText
 10
20.41082414926372
 20
4.872661529283654
 30
0.0
 40
0.18
 41
0.0
 71
     5
 72
     1
  1
\A1;1.4173
 73
     1
 44
1.0
  0
POINT
  5
E6C
330
E63
100
AcDbEntity
  8
Defpoints
 62
     0
100
AcDbPoint
 10
18.51675234222106
 20
5.581322946606483
 30
0.0
  0
POINT
  5
E6D
330
E63
100
AcDbEntity
  8
Defpoints
 62
     0
100
AcDbPoint
 10
18.51675234222106
 20
4.164000111960817
 30
0.0
  0
POINT
  5
E6E
330
E63
100
AcDbEntity
  8
Defpoints
 62
     0
100
AcDbPoint
 10
20.41082414926372
 20
4.164000111960817
 30
0.0
  0
ENDBLK
  5
E6F
330
E63
100
AcDbEntity
  8
0
100
AcDbBlockEnd
  0
BLOCK
  5
E71
330
E70
100
AcDbEntity
  8
0
100
AcDbBlockBegin
  2
*D20
 70
     1
 10
0.0
 20
0.0
 30
0.0
  3
*D20
  1

  0
LINE
  5
E72
330
E70
100
AcDbEntity
  8
DIM
 62
     0
370
    -2
100
AcDbLine
 10
16.4980600141298
 20
6.071520957749203
 30
0.0
 11
17.08167244131455
 21
6.071520957749204
 31
0.0
  0
LINE
  5
E73
330
E70
100
AcDbEntity
  8
DIM
 62
     0
370
    -2
100
AcDbLine
 10
17.08167244131455
 20
6.071520957749204
 30
0.0
 11
17.59709028052076
 21
5.556103118542996
 31
0.0
  0
MTEXT
  5
E74
102
{ACAD_XDICTIONARY
360
1071
102
}
330
E70
100
AcDbEntity
  8
DIM
 62
     0
100
AcDbMText
 10
15.93632740839992
 20
6.071520957749206
 30
0.0
 40
0.18
 41
0.0
 71
     5
 72
     1
  1
\A1;\U+22050.5709
 73
     1
 44
1.0
  0
SOLID
  5
E75
330
E70
100
AcDbEntity
  8
DIM
 62
     0
100
AcDbTrace
 10
17.61830348395635
 20
5.577316321978593
 30
0.0
 11
17.57587707708516
 21
5.5348899151074
 31
0.0
 12
17.72436950113433
 22
5.428823897929419
 32
0.0
 13
17.72436950113433
 23
5.428823897929419
 33
0.0
  0
LINE
  5
E76
330
E70
100
AcDbEntity
  8
DIM
 62
     0
370
    -2
100
AcDbLine
 10
17.83620116111868
 20
5.226992237945064
 30
0.0
 11
18.01620116111869
 21
5.226992237945065
 31
0.0
  0
LINE
  5
E77
330
E70
100
AcDbEntity
  8
DIM
 62
     0
370
    -2
100
AcDbLine
 10
17.92620116111869
 20
5.136992237945063
 30
0.0
 11
17.92620116111869
 21
5.316992237945064
 31
0.0
  0
POINT
  5
E78
330
E70
100
AcDbEntity
  8
Defpoints
 62
     0
100
AcDbPoint
 10
17.72436950113433
 20
5.428823897929419
 30
0.0
  0
POINT
  5
E79
330
E70
100
AcDbEntity
  8
Defpoints
 62
     0
100
AcDbPoint
 10
18.12803282110304
 20
5.025160577960711
 30
0.0
  0
ENDBLK
  5
E7A
330
E70
100
AcDbEntity
  8
0
100
AcDbBlockEnd
  0
BLOCK
  5
E7C
330
E7B
100
AcDbEntity
  8
0
100
AcDbBlockBegin
  2
DIM2
 70
     0
 10
0.0
 20
0.0
 30
0.0
  3
DIM2
  1

  0
DIMENSION
  5
E7D
330
E7B
100
AcDbEntity
  8
DIM
100
AcDbDimension
  2
*D19
 10
1.452028258700607
 20
-0.8966749500563366
 30
0.0
 11
1.452028258700607
 21
-0.1880135327334997
 31
0.0
 12
-18.95879589056311
 22
-5.060675062017153
 32
0.0
 71
     5
 42
1.417322834645666
  3
Standard
100
AcDbAlignedDimension
 13
-0.4420435483420491
 23
0.5206478845893301
 33
0.0
 14
-0.4420435483420491
 24
-0.8966749500563366
 34
0.0
 50
90.0
100
AcDbRotatedDimension
  0
DIMENSION
  5
E7E
330
E7B
100
AcDbEntity
  8
DIM
100
AcDbDimension
  2
*D20
 10
-0.8307630694600689
 20
-0.0355144840564421
 30
0.0
 11
-3.022468482163191
 21
1.010845895732052
 31
0.0
 12
-18.95879589056311
 22
-5.060675062017153
 32
0.0
 70
   131
 71
     5
 42
0.5708661417322958
  3
Standard
100
AcDbDiametricDimension
 15
-1.234426389428776
 25
0.3681488359122653
 35
0.0
 40
0.0
1001
ACAD_DSTYLE_DIMRADIAL_EXTENSION
1070
   387
1070
     1
1070
   388
1040
0.0
1070
   390
1040
0.0
1001
ACAD
1000
DSTYLE
1002
{
1070
    73
1070
     1
1070
    74
1070
     1
1002
}
  0
ENDBLK
  5
E7F
330
E7B
100
AcDbEntity
  8
0
100
AcDbBlockEnd
  0
ENDSEC
  0
SECTION
  2
ENTITIES
  0
LWPOLYLINE
  5
43D
330
1F
100
AcDbEntity
  8
FORMAT
370
    15
100
AcDbPolyline
 90
        4
 70
     1
 43
0.0
 10
0.0
 20
0.0
 10
3.127012872511799
 20
0.0
 10
3.127012872511799
 20
2.36802916559147
 10
0.0
 20
2.36802916559147
  0
LINE
  5
43E
330
1F
100
AcDbEntity
  8
FORMAT
370
    15
100
AcDbLine
 10
1.232856387340597
 20
0.3680291655914705
 30
0.0
 11
3.127012872511799
 21
0.3680291655914705
 31
0.0
  0
LINE
  5
43F
330
1F
100
AcDbEntity
  8
FORMAT
370
    15
100
AcDbLine
 10
0.0
 20
0.3680291655914705
 30
0.0
 11
1.232856387340597
 21
0.3680291655914705
 31
0.0
  0
LINE
  5
440
330
1F
100
AcDbEntity
  8
FORMAT
370
    15
100
AcDbLine
 10
1.813882353669228
 20
0.1929929433556223
 30
0.0
 11
1.232856387340597
 21
0.1929929433556223
 31
0.0
  0
LINE
  5
441
330
1F
100
AcDbEntity
  8
FORMAT
370
    15
100
AcDbLine
 10
1.813882353669228
 20
0.3680291655914705
 30
0.0
 11
1.813882353669228
 21
0.0
 31
0.0
  0
LINE
  5
442
330
1F
100
AcDbEntity
  8
FORMAT
370
    15
100
AcDbLine
 10
2.664845300110489
 20
0.3680291655914705
 30
0.0
 11
2.664845300110489
 21
0.1929929433556223
 31
0.0
  0
LINE
  5
443
330
1F
100
AcDbEntity
  8
FORMAT
370
    15
100
AcDbLine
 10
3.127012872511799
 20
0.1150589930370017
 30
0.0
 11
2.48133683124845
 21
0.1150589930370017
 31
0.0
  0
LINE
  5
444
330
1F
100
AcDbEntity
  8
FORMAT
370
    15
100
AcDbLine
 10
2.48133683124845
 20
0.0
 30
0.0
 11
2.48133683124845
 21
0.1929929433556223
 31
0.0
  0
LINE
  5
445
330
1F
100
AcDbEntity
  8
FORMAT
370
    15
100
AcDbLine
 10
2.659260241805547
 20
2.36802916559147
 30
0.0
 11
2.659260241805547
 21
2.285405186232519
 31
0.0
  0
LINE
  5
446
330
1F
100
AcDbEntity
  8
FORMAT
370
    15
100
AcDbLine
 10
3.127012872511799
 20
0.1929929433556223
 30
0.0
 11
1.813882353669228
 21
0.1929929433556223
 31
0.0
  0
LINE
  5
447
330
1F
100
AcDbEntity
  8
FORMAT
370
    15
100
AcDbLine
 10
2.659260241805547
 20
2.285405186232519
 30
0.0
 11
3.127012872511799
 21
2.285405186232519
 31
0.0
  0
LINE
  5
448
330
1F
100
AcDbEntity
  8
FORMAT
370
    15
100
AcDbLine
 10
1.232856387340597
 20
0.3680291655914705
 30
0.0
 11
1.232856387340597
 21
0.0
 31
0.0
  0
MTEXT
  5
449
330
1F
100
AcDbEntity
  8
0
  6
Continuous
 62
   160
370
     0
100
AcDbMText
 10
2.515666810237285
 20
0.180326299282189
 30
0.0
 40
0.025299456897345
 41
0.0
 71
     1
 72
     1
  1
http://www.amazonsupply.com
  7
SLDTEXTSTYLE0
 73
     1
 44
1.0
1001
PE_URL
1000
http://www.amazonsupply.com/
1002
{
1000
http://www.amazonsupply.com/
1002
{
1071
        1
1002
}
1002
}
  0
INSERT
  5
44A
330
1F
100
AcDbEntity
  8
0
  6
Continuous
 62
     7
100
AcDbBlockReference
  2
Block2
 10
-0.1387251191572457
 20
-0.3673117869084053
 30
0.0
 41
0.3035934827681488
 42
0.3035934827681359
 43
0.3035934827681373
  0
TEXT
  5
44B
330
1F
100
AcDbEntity
  8
FORMAT
 62
     7
100
AcDbText
 10
1.82575370347989
 20
0.32367327423526
 30
0.0
 40
0.0303593482768137
  1
MATERIAL :
 41
0.9
  7
SLDTEXTSTYLE1
100
AcDbText
  0
TEXT
  5
44C
330
1F
100
AcDbEntity
  8
FORMAT
 62
     7
100
AcDbText
 10
1.336500302937747
 20
0.2399426342544266
 30
0.0
 40
0.0379491853460172
  1
B0026H63GK 
 41
0.9
  7
SLDTEXTSTYLE1
100
AcDbText
  0
TEXT
  5
44D
330
1F
100
AcDbEntity
  8
FORMAT
 62
     7
100
AcDbText
 10
2.728774027778438
 20
2.304400585720207
 30
0.0
 40
0.0379491853460172
  1
B0026H63GK 
  7
SLDTEXTSTYLE1
100
AcDbText
  0
TEXT
  5
44E
330
1F
100
AcDbEntity
  8
FORMAT
 62
     7
100
AcDbText
 10
1.336877270991709
 20
0.0562545238729027
 30
0.0
 40
0.0379491853460172
  1
Climax Metal 
 41
0.9
  7
SLDTEXTSTYLE1
100
AcDbText
  0
TEXT
  5
44F
330
1F
100
AcDbEntity
  8
FORMAT
 62
     0
100
AcDbText
 10
1.973139968020221
 20
0.2489517612951166
 30
0.0
 40
0.0379491853460176
  1
Steel 
 41
0.9
  7
SLDTEXTSTYLE1
100
AcDbText
  0
TEXT
  5
450
330
1F
100
AcDbEntity
  8
FORMAT
 62
     7
100
AcDbText
 10
0.0312706440788988
 20
0.2851332625460137
 30
0.0
 40
0.0303593482768137
  1
ITEM NAME:
 41
0.9
  7
SLDTEXTSTYLE1
100
AcDbText
  0
TEXT
  5
451
330
1F
100
AcDbEntity
  8
FORMAT
 62
     7
100
AcDbText
 10
1.256618624257701
 20
0.3091564065827384
 30
0.0
 40
0.0303593482768137
  1
ASIN :
 41
0.9
  7
SLDTEXTSTYLE1
100
AcDbText
  0
TEXT
  5
453
330
1F
100
AcDbEntity
  8
FORMAT
 62
     0
100
AcDbText
 10
1.837347549133877
 20
0.1419969470517364
 30
0.0
 40
0.0189745926730088
  1
# UNLESS OTHERWISE SPECIFIED
 41
0.95
  7
SLDTEXTSTYLE1
100
AcDbText
  0
TEXT
  5
454
330
1F
100
AcDbEntity
  8
FORMAT
 62
     0
100
AcDbText
 10
1.865857809810636
 20
0.1133294864987236
 30
0.0
 40
0.0189745926730088
  1
DIMENSIONS ARE IN INCHES
 41
0.95
  7
SLDTEXTSTYLE1
100
AcDbText
  0
TEXT
  5
455
330
1F
100
AcDbEntity
  8
FORMAT
 62
     0
100
AcDbText
 10
1.837347549133877
 20
0.0575173196982319
 30
0.0
 40
0.0189745926730088
  1
# INFORMATION IN THIS DRAWING IS PROVIDED FOR
 41
0.95
  7
SLDTEXTSTYLE1
100
AcDbText
  0
TEXT
  5
456
330
1F
100
AcDbEntity
  8
FORMAT
 62
     0
100
AcDbText
 10
1.865780415143036
 20
0.0288498591452194
 30
0.0
 40
0.0189745926730088
  1
REFERENCE ONLY
 41
0.95
  7
SLDTEXTSTYLE1
100
AcDbText
  0
TEXT
  5
457
330
1F
100
AcDbEntity
  8
FORMAT
 62
     7
100
AcDbText
 10
1.249670029006231
 20
0.130969729540876
 30
0.0
 40
0.0303593482768137
  1
BRAND :
 41
0.9
  7
SLDTEXTSTYLE1
100
AcDbText
  0
MTEXT
  5
50B
330
1F
100
AcDbEntity
  8
FORMAT
 62
     7
100
AcDbMText
 10
0.1156466299182098
 20
0.2530881968828925
 30
0.0
 40
0.0379491853460172
 41
1.106206515269551
 71
     1
 72
     1
  1
{\fCalibri|b0|i0|c0|p34;\H0.91667x;\C256;Climax Metal CRC-025 Steel Set Screw Collar, Corrosion Resistant, Yellow Zinc Plating, 1/4" Bore Size, 1/2" OD, With 10-32 x 1/8 Set Screw}
  7
SLDTEXTSTYLE1
 73
     1
 44
1.0
  0
TEXT
  5
A8A
330
1F
100
AcDbEntity
  8
FORMAT
 62
     7
100
AcDbText
 10
0.8672266393991794
 20
1.458669888386754
 30
0.0
 40
0.04
  1
TOP
 41
0.9
  7
SLDTEXTSTYLE1
100
AcDbText
  0
TEXT
  5
A8B
330
1F
100
AcDbEntity
  8
FORMAT
 62
     7
100
AcDbText
 10
0.8672266393991794
 20
0.5115593637634049
 30
0.0
 40
0.04
  1
FRONT
 41
0.9
  7
SLDTEXTSTYLE1
100
AcDbText
  0
INSERT
  5
B40
330
1F
100
AcDbEntity
  8
0
100
AcDbBlockReference
  2
amazon block
 10
2.514790486511898
 20
0.0314545979922058
 30
0.0
 41
0.3086921489015622
 42
0.3086921489015622
 43
0.3086921489015623
  0
SPLINE
  5
CF5
330
1F
100
AcDbEntity
  8
0
  6
Continuous
 62
     7
370
    15
100
AcDbSpline
210
0.0
220
0.0
230
1.0
 70
    24
 71
     1
 72
     4
 73
     2
 74
     0
 42
0.0000000001
 43
0.0000000001
 40
0.0
 40
0.0
 40
1.0
 40
1.0
 10
0.8197512401994021
 20
1.228104997488184
 30
0.0
 10
0.7727512401989416
 20
1.228104997488184
 30
0.0
  0
SPLINE
  5
CF6
330
1F
100
AcDbEntity
  8
0
  6
Continuous
 62
     7
370
    15
100
AcDbSpline
210
0.0
220
0.0
230
1.0
 70
    24
 71
     1
 72
     4
 73
     2
 74
     0
 42
0.0000000001
 43
0.0000000001
 40
0.0
 40
0.0
 40
1.0
 40
1.0
 10
1.055751240198941
 20
1.228104997488184
 30
0.0
 10
1.009751240198479
 20
1.228104997488184
 30
0.0
  0
SPLINE
  5
CF7
330
1F
100
AcDbEntity
  8
0
  6
Continuous
 62
     7
370
    15
100
AcDbSpline
210
0.0
220
0.0
230
1.0
 70
    24
 71
     1
 72
     4
 73
     2
 74
     0
 42
0.0000000001
 43
0.0000000001
 40
0.0
 40
0.0
 40
1.0
 40
1.0
 10
0.7727512401989416
 20
0.7281049974881848
 30
0.0
 10
1.055751240198941
 20
0.7281049974881848
 30
0.0
  0
SPLINE
  5
CF8
330
1F
100
AcDbEntity
  8
0
  6
Continuous
 62
     7
370
    15
100
AcDbSpline
210
0.0
220
0.0
230
1.0
 70
    24
 71
     1
 72
     4
 73
     2
 74
     0
 42
0.0000000001
 43
0.0000000001
 40
0.0
 40
0.0
 40
1.0
 40
1.0
 10
1.055751240198941
 20
0.72810499748692
 30
0.0
 10
1.070751240200471
 20
0.7431049974884518
 30
0.0
  0
SPLINE
  5
CF9
330
1F
100
AcDbEntity
  8
0
  6
Continuous
 62
     7
370
    15
100
AcDbSpline
210
0.0
220
0.0
230
1.0
 70
    24
 71
     1
 72
     4
 73
     2
 74
     0
 42
0.0000000001
 43
0.0000000001
 40
0.0
 40
0.0
 40
1.0
 40
1.0
 10
1.070751240200471
 20
1.213104997487917
 30
0.0
 10
1.055751240198941
 20
1.228104997489449
 30
0.0
  0
SPLINE
  5
CFA
330
1F
100
AcDbEntity
  8
0
  6
Continuous
 62
     7
370
    15
100
AcDbSpline
210
0.0
220
0.0
230
1.0
 70
    24
 71
     1
 72
     4
 73
     2
 74
     0
 42
0.0000000001
 43
0.0000000001
 40
0.0
 40
0.0
 40
1.0
 40
1.0
 10
0.7727512401989416
 20
1.228104997490156
 30
0.0
 10
0.7577512401989411
 20
1.213104997490155
 30
0.0
  0
SPLINE
  5
CFB
330
1F
100
AcDbEntity
  8
0
  6
Continuous
 62
     7
370
    15
100
AcDbSpline
210
0.0
220
0.0
230
1.0
 70
    24
 71
     1
 72
     4
 73
     2
 74
     0
 42
0.0000000001
 43
0.0000000001
 40
0.0
 40
0.0
 40
1.0
 40
1.0
 10
0.7577512401989411
 20
0.7431049974862136
 30
0.0
 10
0.7727512401989416
 20
0.728104997486213
 30
0.0
  0
SPLINE
  5
CFC
330
1F
100
AcDbEntity
  8
0
  6
Continuous
 62
     7
370
    15
100
AcDbSpline
210
0.0
220
0.0
230
1.0
 70
    24
 71
     1
 72
     4
 73
     2
 74
     0
 42
0.0000000001
 43
0.0000000001
 40
0.0
 40
0.0
 40
1.0
 40
1.0
 10
0.996317197322606
 20
1.224639040362749
 30
0.0
 10
0.9928512401994996
 20
1.228104997485854
 30
0.0
  0
SPLINE
  5
CFD
330
1F
100
AcDbEntity
  8
0
  6
Continuous
 62
     7
370
    15
100
AcDbSpline
210
0.0
220
0.0
230
1.0
 70
    24
 71
     1
 72
     4
 73
     2
 74
     0
 42
0.0000000001
 43
0.0000000001
 40
0.0
 40
0.0
 40
1.0
 40
1.0
 10
0.8366512401983804
 20
1.228104997485854
 30
0.0
 10
0.8331934106386981
 20
1.224647167925711
 30
0.0
  0
SPLINE
  5
CFE
330
1F
100
AcDbEntity
  8
0
  6
Continuous
 62
     7
370
    15
100
AcDbSpline
210
0.0
220
0.0
230
1.0
 70
     8
 71
     3
 72
    14
 73
    10
 74
     0
 42
0.0000000001
 43
0.0000000001
 40
0.0
 40
0.0
 40
0.0
 40
0.0
 40
0.2500000000000001
 40
0.2500000000000001
 40
0.5000000000000002
 40
0.5000000000000002
 40
0.7500000000000001
 40
0.7500000000000001
 40
1.0
 40
1.0
 40
1.0
 40
1.0
 10
1.009751240198479
 20
1.228104997488184
 30
0.0
 10
1.009751240198479
 20
1.228104997488184
 30
0.0
 10
1.008824826839291
 20
1.227846967732008
 30
0.0
 10
1.005241288267493
 20
1.226884304065144
 30
0.0
 10
1.002592306955776
 20
1.226183304071217
 30
0.0
 10
0.995959304291658
 20
1.224531925504559
 30
0.0
 10
0.9919268630448851
 20
1.223571257459451
 30
0.0
 10
0.9829474830365775
 20
1.22161701475334
 30
0.0
 10
0.9779288515200551
 20
1.220607233032956
 30
0.0
 10
0.9725206533994747
 20
1.21965499764245
 30
0.0
  0
SPLINE
  5
CFF
330
1F
100
AcDbEntity
  8
0
  6
Continuous
 62
     7
370
    15
100
AcDbSpline
210
0.0
220
0.0
230
1.0
 70
     8
 71
     3
 72
    14
 73
    10
 74
     0
 42
0.0000000001
 43
0.0000000001
 40
0.0
 40
0.0
 40
0.0
 40
0.0
 40
0.25
 40
0.25
 40
0.5
 40
0.5
 40
0.75
 40
0.75
 40
1.0
 40
1.0
 40
1.0
 40
1.0
 10
0.8569818269928525
 20
1.219654997610265
 30
0.0
 10
0.8515645220435072
 20
1.220608836463753
 30
0.0
 10
0.8465869067360539
 20
1.221610186987837
 30
0.0
 10
0.837562801718175
 20
1.223573929973302
 30
0.0
 10
0.8335352836836115
 20
1.224533886567107
 30
0.0
 10
0.8269171602074848
 20
1.226181568485204
 30
0.0
 10
0.8242455610214761
 20
1.226888477432179
 30
0.0
 10
0.8206816876631627
 20
1.227845909809279
 30
0.0
 10
0.8197512401994021
 20
1.228104997488184
 30
0.0
 10
0.8197512401994021
 20
1.228104997488184
 30
0.0
  0
SPLINE
  5
D00
330
1F
100
AcDbEntity
  8
0
  6
Continuous
 62
     7
370
    15
100
AcDbSpline
210
0.0
220
0.0
230
1.0
 70
     8
 71
     3
 72
    10
 73
     6
 74
     0
 42
0.0000000001
 43
0.0000000001
 40
0.0
 40
0.0
 40
0.0
 40
0.0
 40
0.5000000000000002
 40
0.5000000000000002
 40
1.0
 40
1.0
 40
1.0
 40
1.0
 10
0.8569818272977091
 20
1.219654997719846
 30
0.0
 10
0.8607719697080224
 20
1.21824238932491
 30
0.0
 10
0.8649912451172813
 20
1.216764989280882
 30
0.0
 10
0.8744040854937157
 20
1.213866703411915
 30
0.0
 10
0.8796532761013938
 20
1.212428960711637
 30
0.0
 10
0.8854150850349039
 20
1.211204997490249
 30
0.0
  0
SPLINE
  5
D01
330
1F
100
AcDbEntity
  8
0
  6
Continuous
 62
     7
370
    15
100
AcDbSpline
210
0.0
220
0.0
230
1.0
 70
     8
 71
     3
 72
    10
 73
     6
 74
     0
 42
0.0000000001
 43
0.0000000001
 40
0.0
 40
0.0
 40
0.0
 40
0.0
 40
0.5
 40
0.5
 40
1.0
 40
1.0
 40
1.0
 40
1.0
 10
0.9440873953662073
 20
1.211204997488179
 30
0.0
 10
0.9345883357872665
 20
1.210009519642831
 30
0.0
 10
0.9248139350131236
 20
1.209351619085128
 30
0.0
 10
0.9046885453847565
 20
1.209351619085128
 30
0.0
 10
0.8949141446106438
 20
1.210009519642827
 30
0.0
 10
0.8854150850316994
 20
1.211204997488178
 30
0.0
  0
SPLINE
  5
D02
330
1F
100
AcDbEntity
  8
0
  6
Continuous
 62
     7
370
    15
100
AcDbSpline
210
0.0
220
0.0
230
1.0
 70
     8
 71
     3
 72
    10
 73
     6
 74
     0
 42
0.0000000001
 43
0.0000000001
 40
0.0
 40
0.0
 40
0.0
 40
0.0
 40
0.5
 40
0.5
 40
1.0
 40
1.0
 40
1.0
 40
1.0
 10
0.9440873953648413
 20
1.211204997489041
 30
0.0
 10
0.9498428383806793
 20
1.212427608418489
 30
0.0
 10
0.9550006275853547
 20
1.213838748975984
 30
0.0
 10
0.9644461814473949
 20
1.216742846550294
 30
0.0
 10
0.9687349963911152
 20
1.21824406115736
 30
0.0
 10
0.9725206530981584
 20
1.219654997704399
 30
0.0
  0
LINE
  5
D03
330
1F
100
AcDbEntity
  8
0
  6
Continuous
 62
     7
370
    15
100
AcDbLine
 10
1.055751240198941
 20
0.7281049974881848
 30
0.0
 11
1.055751240198941
 21
1.228104997488184
 31
0.0
  0
LINE
  5
D04
330
1F
100
AcDbEntity
  8
0
  6
Continuous
 62
     7
370
    15
100
AcDbLine
 10
0.7727512401989416
 20
1.228104997488184
 30
0.0
 11
0.7727512401989416
 21
0.7281049974881848
 31
0.0
  0
LINE
  5
D05
330
1F
100
AcDbEntity
  8
0
  6
Continuous
 62
     7
370
    15
100
AcDbLine
 10
1.070751240200471
 20
0.9781049974881847
 30
0.0
 11
1.070751240200471
 21
1.213104997487917
 31
0.0
  0
LINE
  5
D06
330
1F
100
AcDbEntity
  8
0
  6
Continuous
 62
     7
370
    15
100
AcDbLine
 10
1.070751240200471
 20
0.7431049974884518
 30
0.0
 11
1.070751240200471
 21
0.9781049974881847
 31
0.0
  0
LINE
  5
D07
330
1F
100
AcDbEntity
  8
0
  6
Continuous
 62
     7
370
    15
100
AcDbLine
 10
0.7577512401989411
 20
1.213104997490155
 30
0.0
 11
0.7577512401989411
 21
0.7431049974862136
 31
0.0
  0
LINE
  5
D08
330
1F
100
AcDbEntity
  8
0
  6
Continuous
 62
     7
370
    15
100
AcDbLine
 10
0.9147512401989409
 20
1.211204997486591
 30
0.0
 11
0.944087395365527
 21
1.211204997488643
 31
0.0
  0
LINE
  5
D09
330
1F
100
AcDbEntity
  8
0
  6
Continuous
 62
     7
370
    15
100
AcDbLine
 10
0.885415085032076
 20
1.211204997487492
 30
0.0
 11
0.9147512401989409
 21
1.211204997486591
 31
0.0
  0
LINE
  5
D0A
330
1F
100
AcDbEntity
  8
0
  6
Continuous
 62
     7
370
    15
100
AcDbLine
 10
0.9147512401989409
 20
1.228104997484735
 30
0.0
 11
0.9147512401989409
 21
1.211204997486591
 31
0.0
  0
LINE
  5
D0B
330
1F
100
AcDbEntity
  8
0
  6
Continuous
 62
     7
370
    15
100
AcDbLine
 10
0.9928512401994996
 20
1.228104997485854
 30
0.0
 11
0.9147512401989409
 21
1.228104997484735
 31
0.0
  0
LINE
  5
D0C
330
1F
100
AcDbEntity
  8
0
  6
Continuous
 62
     7
370
    15
100
AcDbLine
 10
0.9147512401989409
 20
1.228104997484735
 30
0.0
 11
0.8366512401961422
 21
1.228104997485854
 31
0.0
  0
LINE
  5
D0D
330
1F
100
AcDbEntity
  8
0
  6
HIDDEN
 62
     7
370
     0
100
AcDbLine
 10
0.7727512401979522
 20
0.9781049974881847
 30
0.0
 11
0.7577512401955837
 21
0.9781049974881847
 31
0.0
  0
SPLINE
  5
D0E
330
1F
100
AcDbEntity
  8
0
  6
HIDDEN
 62
     7
370
     0
100
AcDbSpline
210
0.0
220
0.0
230
1.0
 70
     8
 71
     3
 72
    38
 73
    34
 74
     0
 42
0.0000000001
 43
0.0000000001
 40
0.0
 40
0.0
 40
0.0
 40
0.0
 40
0.0446003552637055
 40
0.0676350981906323
 40
0.0906714038639963
 40
0.1352425152963127
 40
0.1809350719666034
 40
0.2291550772838242
 40
0.2784652030684292
 40
0.3057307479358918
 40
0.3329939554286069
 40
0.3611446824143802
 40
0.3892891967164121
 40
0.4117046372927624
 40
0.43411705015625
 40
0.4573174736046004
 40
0.4805162188512943
 40
0.5023314854315318
 40
0.5241479966438272
 40
0.5467217396260057
 40
0.569298568469189
 40
0.6128273016845199
 40
0.6573530338163894
 40
0.7067370660907401
 40
0.7572562326402137
 40
0.7847812493375855
 40
0.8123033096598923
 40
0.8408134535342533
 40
0.869319180769583
 40
0.9144346103793704
 40
0.9377361729766249
 40
0.9610370721662759
 40
1.0
 40
1.0
 40
1.0
 40
1.0
 10
0.9928512401989401
 20
1.103104997488184
 30
0.0
 10
0.9926881744776018
 20
1.103002764529636
 30
0.0
 10
0.9924408902125051
 20
1.102847731320844
 30
0.0
 10
0.9909116627706215
 20
1.101900608705694
 30
0.0
 10
0.9888640322262499
 20
1.10064797669612
 30
0.0
 10
0.9852646466525371
 20
1.098488088296204
 30
0.0
 10
0.97939589901905
 20
1.095127280080063
 30
0.0
 10
0.971919869751526
 20
1.091139095676052
 30
0.0
 10
0.9642775188910629
 20
1.087477891624598
 30
0.0
 10
0.9572604106842955
 20
1.084515974985638
 30
0.0
 10
0.9513145433679838
 20
1.082274080733034
 30
0.0
 10
0.9449577167207706
 20
1.08020676561884
 30
0.0
 10
0.9386658442102241
 20
1.078529127340784
 30
0.0
 10
0.9326132889294779
 20
1.077273249678933
 30
0.0
 10
0.926821867462355
 20
1.076388042760474
 30
0.0
 10
0.9208506695812598
 20
1.075832720357684
 30
0.0
 10
0.91487241913781
 20
1.075642216557122
 30
0.0
 10
0.9090158328159802
 20
1.075817509859968
 30
0.0
 10
0.9032645733874073
 20
1.076320803898996
 30
0.0
 10
0.8975479417968109
 20
1.07715554689976
 30
0.0
 10
0.8901690843582045
 20
1.078642029071131
 30
0.0
 10
0.8813837998755506
 20
1.08110239157077
 30
0.0
 10
0.8713507627339488
 20
1.084792475968306
 30
0.0
 10
0.8618881044411356
 20
1.089002617347718
 30
0.0
 10
0.854652366973783
 20
1.092684989465796
 30
0.0
 10
0.8494759487724405
 20
1.095505394136141
 30
0.0
 10
0.8458627192254709
 20
1.097555951449818
 30
0.0
 10
0.8427495104345869
 20
1.099380750165956
 30
0.0
 10
0.8397036068647366
 20
1.10121363060475
 30
0.0
 10
0.8377468892661749
 20
1.102422187062329
 30
0.0
 10
0.8368226222383569
 20
1.102997640928635
 30
0.0
 10
0.8364685661169989
 20
1.103219032022393
 30
0.0
 10
0.8370525534384064
 20
1.102855232238211
 30
0.0
 10
0.8374179960548907
 20
1.102627576705062
 30
0.0
  0
LINE
  5
D0F
330
1F
100
AcDbEntity
  8
0
  6
HIDDEN
 62
     7
370
     0
100
AcDbLine
 10
0.972520653028765
 20
1.219654997634849
 30
0.0
 11
1.001301240119577
 21
1.219654997565777
 31
0.0
  0
LINE
  5
D10
330
1F
100
AcDbEntity
  8
0
  6
HIDDEN
 62
     7
370
     0
100
AcDbLine
 10
0.8282012402794233
 20
1.219654997565777
 30
0.0
 11
0.8569818275921136
 21
1.219654997595785
 31
0.0
  0
LINE
  5
D11
330
1F
100
AcDbEntity
  8
0
  6
HIDDEN
 62
     7
370
     0
100
AcDbLine
 10
0.9928512401989401
 20
1.11334785463104
 30
0.0
 11
0.83665124019894
 21
1.11334785463104
 31
0.0
  0
LINE
  5
D12
330
1F
100
AcDbEntity
  8
0
  6
HIDDEN
 62
     7
370
     0
100
AcDbLine
 10
0.8468940973423983
 20
1.103104997483662
 30
0.0
 11
0.9826083830554818
 21
1.103104997483662
 31
0.0
  0
LINE
  5
D13
330
1F
100
AcDbEntity
  8
0
  6
HIDDEN
 62
     7
370
     0
100
AcDbLine
 10
0.9147512401989409
 20
1.206104997488184
 30
0.0
 11
0.9622512401989403
 21
1.206104997488184
 31
0.0
  0
LINE
  5
D14
330
1F
100
AcDbEntity
  8
0
  6
HIDDEN
 62
     7
370
     0
100
AcDbLine
 10
0.9147512401989409
 20
1.211204997486591
 30
0.0
 11
0.9147512401989409
 21
1.206104997488184
 31
0.0
  0
LINE
  5
D15
330
1F
100
AcDbEntity
  8
0
  6
HIDDEN
 62
     7
370
     0
100
AcDbLine
 10
0.8672512401989397
 20
1.206104997488184
 30
0.0
 11
0.9147512401989409
 21
1.206104997488184
 31
0.0
  0
LINE
  5
D16
330
1F
100
AcDbEntity
  8
0
  6
HIDDEN
 62
     7
370
     0
100
AcDbLine
 10
0.8672512401989397
 20
1.206104997488184
 30
0.0
 11
0.8672512401989397
 21
1.228104997488184
 31
0.0
  0
LINE
  5
D17
330
1F
100
AcDbEntity
  8
0
  6
HIDDEN
 62
     7
370
     0
100
AcDbLine
 10
0.9622512401989403
 20
1.206104997488184
 30
0.0
 11
0.9622512401989403
 21
1.228104997488184
 31
0.0
  0
SPLINE
  5
D18
330
1F
100
AcDbEntity
  8
0
  6
HIDDEN
 62
     7
370
     0
100
AcDbSpline
210
0.0
220
0.0
230
1.0
 70
    24
 71
     1
 72
     4
 73
     2
 74
     0
 42
0.0000000001
 43
0.0000000001
 40
0.0
 40
0.0
 40
1.0
 40
1.0
 10
0.7577512401967029
 20
0.838104997488058
 30
0.0
 10
0.7727512401968757
 20
0.8531049974904691
 30
0.0
  0
SPLINE
  5
D19
330
1F
100
AcDbEntity
  8
0
  6
HIDDEN
 62
     7
370
     0
100
AcDbSpline
210
0.0
220
0.0
230
1.0
 70
    24
 71
     1
 72
     4
 73
     2
 74
     0
 42
0.0000000001
 43
0.0000000001
 40
0.0
 40
0.0
 40
1.0
 40
1.0
 10
0.7727512401968757
 20
1.1031049974859
 30
0.0
 10
0.7577512402011793
 20
1.118104997481598
 30
0.0
  0
SPLINE
  5
D1A
330
1F
100
AcDbEntity
  8
0
  6
HIDDEN
 62
     7
370
     0
100
AcDbSpline
210
0.0
220
0.0
230
1.0
 70
    24
 71
     1
 72
     4
 73
     2
 74
     0
 42
0.0000000001
 43
0.0000000001
 40
0.0
 40
0.0
 40
1.0
 40
1.0
 10
1.070751240195996
 20
1.118104997483836
 30
0.0
 10
1.055751240200298
 20
1.103104997490376
 30
0.0
  0
SPLINE
  5
D1B
330
1F
100
AcDbEntity
  8
0
  6
HIDDEN
 62
     7
370
     0
100
AcDbSpline
210
0.0
220
0.0
230
1.0
 70
    24
 71
     1
 72
     4
 73
     2
 74
     0
 42
0.0000000001
 43
0.0000000001
 40
0.0
 40
0.0
 40
1.0
 40
1.0
 10
1.055751240200298
 20
0.8531049974859927
 30
0.0
 10
1.070751240195996
 20
0.8381049974925344
 30
0.0
  0
SPLINE
  5
D1C
330
1F
100
AcDbEntity
  8
0
  6
HIDDEN
 62
     7
370
     0
100
AcDbSpline
210
0.0
220
0.0
230
1.0
 70
    24
 71
     1
 72
     4
 73
     2
 74
     0
 42
0.0000000001
 43
0.0000000001
 40
0.0
 40
0.0
 40
1.0
 40
1.0
 10
0.7727512401968757
 20
0.8531049974881847
 30
0.0
 10
1.055751240200298
 20
0.8531049974881847
 30
0.0
  0
SPLINE
  5
D1D
330
1F
100
AcDbEntity
  8
0
  6
HIDDEN
 62
     7
370
     0
100
AcDbSpline
210
0.0
220
0.0
230
1.0
 70
    24
 71
     1
 72
     4
 73
     2
 74
     0
 42
0.0000000001
 43
0.0000000001
 40
0.0
 40
0.0
 40
1.0
 40
1.0
 10
0.8366512401989417
 20
1.103104997488184
 30
0.0
 10
0.7727512401968757
 20
1.103104997488184
 30
0.0
  0
SPLINE
  5
D1E
330
1F
100
AcDbEntity
  8
0
  6
HIDDEN
 62
     7
370
     0
100
AcDbSpline
210
0.0
220
0.0
230
1.0
 70
    24
 71
     1
 72
     4
 73
     2
 74
     0
 42
0.0000000001
 43
0.0000000001
 40
0.0
 40
0.0
 40
1.0
 40
1.0
 10
1.055751240200298
 20
1.103104997488184
 30
0.0
 10
0.9928512401989401
 20
1.103104997488184
 30
0.0
  0
SPLINE
  5
D1F
330
1F
100
AcDbEntity
  8
0
  6
HIDDEN
 62
     7
370
     0
100
AcDbSpline
210
0.0
220
0.0
230
1.0
 70
    24
 71
     1
 72
     4
 73
     2
 74
     0
 42
0.0000000001
 43
0.0000000001
 40
0.0
 40
0.0
 40
1.0
 40
1.0
 10
1.001301240119577
 20
1.219654997565777
 30
0.0
 10
0.996317197322606
 20
1.224639040362749
 30
0.0
  0
SPLINE
  5
D20
330
1F
100
AcDbEntity
  8
0
  6
HIDDEN
 62
     7
370
     0
100
AcDbSpline
210
0.0
220
0.0
230
1.0
 70
    24
 71
     1
 72
     4
 73
     2
 74
     0
 42
0.0000000001
 43
0.0000000001
 40
0.0
 40
0.0
 40
1.0
 40
1.0
 10
0.8331934106386981
 20
1.224647167925711
 30
0.0
 10
0.8282012402794233
 20
1.219654997565777
 30
0.0
  0
SPLINE
  5
D21
330
1F
100
AcDbEntity
  8
0
  6
HIDDEN
 62
     7
370
     0
100
AcDbSpline
210
0.0
220
0.0
230
1.0
 70
    24
 71
     1
 72
     4
 73
     2
 74
     0
 42
0.0000000001
 43
0.0000000001
 40
0.0
 40
0.0
 40
1.0
 40
1.0
 10
0.9928512401989401
 20
1.103104997488184
 30
0.0
 10
0.9928512401989401
 20
1.11334785463104
 30
0.0
  0
SPLINE
  5
D22
330
1F
100
AcDbEntity
  8
0
  6
HIDDEN
 62
     7
370
     0
100
AcDbSpline
210
0.0
220
0.0
230
1.0
 70
    24
 71
     1
 72
     4
 73
     2
 74
     0
 42
0.0000000001
 43
0.0000000001
 40
0.0
 40
0.0
 40
1.0
 40
1.0
 10
0.83665124019894
 20
1.11334785463104
 30
0.0
 10
0.83665124019894
 20
1.103104997488184
 30
0.0
  0
SPLINE
  5
D23
330
1F
100
AcDbEntity
  8
0
  6
HIDDEN
 62
     7
370
     0
100
AcDbSpline
210
0.0
220
0.0
230
1.0
 70
    24
 71
     1
 72
     4
 73
     2
 74
     0
 42
0.0000000001
 43
0.0000000001
 40
0.0
 40
0.0
 40
1.0
 40
1.0
 10
0.8366512401950195
 20
1.11334785463104
 30
0.0
 10
0.8468940973423983
 20
1.103104997483662
 30
0.0
  0
SPLINE
  5
D24
330
1F
100
AcDbEntity
  8
0
  6
HIDDEN
 62
     7
370
     0
100
AcDbSpline
210
0.0
220
0.0
230
1.0
 70
    24
 71
     1
 72
     4
 73
     2
 74
     0
 42
0.0000000001
 43
0.0000000001
 40
0.0
 40
0.0
 40
1.0
 40
1.0
 10
0.9826083830554818
 20
1.103104997483662
 30
0.0
 10
0.9928512402028623
 20
1.11334785463104
 30
0.0
  0
SPLINE
  5
D25
330
1F
100
AcDbEntity
  8
0
  6
HIDDEN
 62
     7
370
     0
100
AcDbSpline
210
0.0
220
0.0
230
1.0
 70
    24
 71
     1
 72
     4
 73
     2
 74
     0
 42
0.0000000001
 43
0.0000000001
 40
0.0
 40
0.0
 40
1.0
 40
1.0
 10
0.8197512401994021
 20
1.228104997488184
 30
0.0
 10
0.8282012401195849
 20
1.219654997565777
 30
0.0
  0
SPLINE
  5
D26
330
1F
100
AcDbEntity
  8
0
  6
HIDDEN
 62
     7
370
     0
100
AcDbSpline
210
0.0
220
0.0
230
1.0
 70
    24
 71
     1
 72
     4
 73
     2
 74
     0
 42
0.0000000001
 43
0.0000000001
 40
0.0
 40
0.0
 40
1.0
 40
1.0
 10
1.001301240278297
 20
1.219654997565777
 30
0.0
 10
1.009751240198479
 20
1.228104997488184
 30
0.0
  0
DIMENSION
  5
D27
330
1F
100
AcDbEntity
  8
DIM
100
AcDbDimension
  2
*D7
 10
1.235137908347871
 20
1.228104997488184
 30
0.0
 11
1.235137908347871
 21
0.9781049974881847
 31
0.0
 70
   160
 71
     2
 42
0.5
  3
Standard
100
AcDbAlignedDimension
 13
1.055751240198941
 23
0.7281049974881848
 33
0.0
 14
1.055751240198941
 24
1.228104997488184
 34
0.0
 50
90.00000000000019
100
AcDbRotatedDimension
  0
SPLINE
  5
D28
330
1F
100
AcDbEntity
  8
0
  6
Continuous
 62
     7
370
    15
100
AcDbSpline
210
0.0
220
0.0
230
1.0
 70
    24
 71
     1
 72
     4
 73
     2
 74
     0
 42
0.0000000001
 43
0.0000000001
 40
0.0
 40
0.0
 40
1.0
 40
1.0
 10
1.055751240198941
 20
2.190098542599872
 30
0.0
 10
0.7727512401989416
 20
2.190098542599872
 30
0.0
  0
SPLINE
  5
D29
330
1F
100
AcDbEntity
  8
0
  6
Continuous
 62
     7
370
    15
100
AcDbSpline
210
0.0
220
0.0
230
1.0
 70
    24
 71
     1
 72
     4
 73
     2
 74
     0
 42
0.0000000001
 43
0.0000000001
 40
0.0
 40
0.0
 40
1.0
 40
1.0
 10
0.7727512401989416
 20
1.690098542599872
 30
0.0
 10
1.055751240198941
 20
1.690098542599872
 30
0.0
  0
SPLINE
  5
D2A
330
1F
100
AcDbEntity
  8
0
  6
Continuous
 62
     7
370
    15
100
AcDbSpline
210
0.0
220
0.0
230
1.0
 70
    24
 71
     1
 72
     4
 73
     2
 74
     0
 42
0.0000000001
 43
0.0000000001
 40
0.0
 40
0.0
 40
1.0
 40
1.0
 10
0.7727512401989416
 20
2.190098542601842
 30
0.0
 10
0.7577512401989411
 20
2.175098542601844
 30
0.0
  0
SPLINE
  5
D2B
330
1F
100
AcDbEntity
  8
0
  6
Continuous
 62
     7
370
    15
100
AcDbSpline
210
0.0
220
0.0
230
1.0
 70
    24
 71
     1
 72
     4
 73
     2
 74
     0
 42
0.0000000001
 43
0.0000000001
 40
0.0
 40
0.0
 40
1.0
 40
1.0
 10
0.7577512401989411
 20
1.705098542597901
 30
0.0
 10
0.7727512401989416
 20
1.6900985425979
 30
0.0
  0
SPLINE
  5
D2C
330
1F
100
AcDbEntity
  8
0
  6
Continuous
 62
     7
370
    15
100
AcDbSpline
210
0.0
220
0.0
230
1.0
 70
    24
 71
     1
 72
     4
 73
     2
 74
     0
 42
0.0000000001
 43
0.0000000001
 40
0.0
 40
0.0
 40
1.0
 40
1.0
 10
1.055751240198941
 20
1.690098542598607
 30
0.0
 10
1.070751240200471
 20
1.705098542600137
 30
0.0
  0
SPLINE
  5
D2D
330
1F
100
AcDbEntity
  8
0
  6
Continuous
 62
     7
370
    15
100
AcDbSpline
210
0.0
220
0.0
230
1.0
 70
    24
 71
     1
 72
     4
 73
     2
 74
     0
 42
0.0000000001
 43
0.0000000001
 40
0.0
 40
0.0
 40
1.0
 40
1.0
 10
1.070751240200471
 20
2.175098542599605
 30
0.0
 10
1.055751240198941
 20
2.190098542601135
 30
0.0
  0
SPLINE
  5
D2E
330
1F
100
AcDbEntity
  8
0
  6
Continuous
 62
     7
370
    15
100
AcDbSpline
210
0.0
220
0.0
230
1.0
 70
     8
 71
     3
 72
    22
 73
    18
 74
     0
 42
0.0000000001
 43
0.0000000001
 40
0.0
 40
0.0
 40
0.0
 40
0.0
 40
0.125
 40
0.125
 40
0.25
 40
0.25
 40
0.375
 40
0.375
 40
0.5
 40
0.5
 40
0.625
 40
0.625
 40
0.75
 40
0.75
 40
0.875
 40
0.875
 40
1.0
 40
1.0
 40
1.0
 40
1.0
 10
0.9725206534050347
 20
2.00454695162919
 30
0.0
 10
0.9779315211003329
 20
2.000976250659307
 30
0.0
 10
0.9829037277699036
 20
1.996917738145153
 30
0.0
 10
0.9919193511862761
 20
1.98773581732257
 30
0.0
 10
0.9959443357107481
 20
1.982601072083595
 30
0.0
 10
1.002560973479687
 20
1.971595826048219
 30
0.0
 10
1.005233791408797
 20
1.965566291469861
 30
0.0
 10
1.008805741003323
 20
1.953149048993659
 30
0.0
 10
1.009742212753089
 20
1.946766287557886
 30
0.0
 10
1.009760139661195
 20
1.933618525090891
 30
0.0
 10
1.008839852399218
 20
1.927205816934949
 30
0.0
 10
1.005264610832475
 20
1.914699436783816
 30
0.0
 10
1.002616608510964
 20
1.908708501193623
 30
0.0
 10
0.9959823825940969
 20
1.897644795256201
 30
0.0
 10
0.9919470548314389
 20
1.892495784691324
 30
0.0
 10
0.9829593731811105
 20
1.883329774860517
 30
0.0
 10
0.9779352932618103
 20
1.879223323849371
 30
0.0
 10
0.9725206533994747
 20
1.875650133577811
 30
0.0
  0
SPLINE
  5
D2F
330
1F
100
AcDbEntity
  8
0
  6
Continuous
 62
     7
370
    15
100
AcDbSpline
210
0.0
220
0.0
230
1.0
 70
     8
 71
     3
 72
    10
 73
     6
 74
     0
 42
0.0000000001
 43
0.0000000001
 40
0.0
 40
0.0
 40
0.0
 40
0.0
 40
0.4999999999999999
 40
0.4999999999999999
 40
1.0
 40
1.0
 40
1.0
 40
1.0
 10
0.9725206531012421
 20
2.0045469513988
 30
0.0
 10
0.9687305106910834
 20
2.00984134988751
 30
0.0
 10
0.9645112352819737
 20
2.014680527426814
 30
0.0
 10
0.9550983949058608
 20
2.023390091770755
 30
0.0
 10
0.9498492042982253
 20
2.027298017371021
 30
0.0
 10
0.9440873953648093
 20
2.030455556713741
 30
0.0
  0
SPLINE
  5
D30
330
1F
100
AcDbEntity
  8
0
  6
Continuous
 62
     7
370
    15
100
AcDbSpline
210
0.0
220
0.0
230
1.0
 70
     8
 71
     3
 72
    10
 73
     6
 74
     0
 42
0.0000000001
 43
0.0000000001
 40
0.0
 40
0.0
 40
0.0
 40
0.0
 40
0.5
 40
0.5
 40
1.0
 40
1.0
 40
1.0
 40
1.0
 10
0.8854150850348453
 20
2.030455556710991
 30
0.0
 10
0.8796596420189576
 20
2.027301505966728
 30
0.0
 10
0.8745018528140406
 20
2.023469441948062
 30
0.0
 10
0.8650562989518157
 20
2.014751643297701
 30
0.0
 10
0.8607674840079994
 20
2.0098350838599
 30
0.0
 10
0.8569818273008497
 20
2.004546951388973
 30
0.0
  0
SPLINE
  5
D31
330
1F
100
AcDbEntity
  8
0
  6
Continuous
 62
     7
370
    15
100
AcDbSpline
210
0.0
220
0.0
230
1.0
 70
     8
 71
     3
 72
    22
 73
    18
 74
     0
 42
0.0000000001
 43
0.0000000001
 40
0.0
 40
0.0
 40
0.0
 40
0.0
 40
0.125
 40
0.125
 40
0.25
 40
0.25
 40
0.375
 40
0.375
 40
0.5
 40
0.5
 40
0.625
 40
0.625
 40
0.75
 40
0.75
 40
0.875
 40
0.875
 40
1.0
 40
1.0
 40
1.0
 40
1.0
 10
0.8569818269928525
 20
1.875650133570523
 30
0.0
 10
0.8515709592975525
 20
1.879220834540407
 30
0.0
 10
0.8465987526279977
 20
1.88327934705457
 30
0.0
 10
0.8375831292116199
 20
1.892461267877155
 30
0.0
 10
0.8335581446871426
 20
1.897596013116131
 30
0.0
 10
0.8269415069181999
 20
1.908601259151511
 30
0.0
 10
0.8242686889890883
 20
1.914630793729871
 30
0.0
 10
0.82069673939456
 20
1.927048036206078
 30
0.0
 10
0.8197602676447925
 20
1.933430797641853
 30
0.0
 10
0.8197423407366887
 20
1.946578560108853
 30
0.0
 10
0.8206626279986636
 20
1.952991268264798
 30
0.0
 10
0.8242378695654121
 20
1.965497648415936
 30
0.0
 10
0.8268858718869228
 20
1.97148858400613
 30
0.0
 10
0.8335200978037974
 20
1.982552289943556
 30
0.0
 10
0.8375554255664571
 20
1.987701300508434
 30
0.0
 10
0.8465431072167945
 20
1.996867310339243
 30
0.0
 10
0.8515671871360982
 20
2.00097376135039
 30
0.0
 10
0.8569818269984356
 20
2.00454695162195
 30
0.0
  0
SPLINE
  5
D32
330
1F
100
AcDbEntity
  8
0
  6
Continuous
 62
     7
370
    15
100
AcDbSpline
210
0.0
220
0.0
230
1.0
 70
     8
 71
     3
 72
    10
 73
     6
 74
     0
 42
0.0000000001
 43
0.0000000001
 40
0.0
 40
0.0
 40
0.0
 40
0.0
 40
0.5000000000000002
 40
0.5000000000000002
 40
1.0
 40
1.0
 40
1.0
 40
1.0
 10
0.8569818272977091
 20
1.875650133801591
 30
0.0
 10
0.8607719697080224
 20
1.870355735313148
 30
0.0
 10
0.8649912451172813
 20
1.865516557774335
 30
0.0
 10
0.8744040854937157
 20
1.856806993431067
 30
0.0
 10
0.8796532761013938
 20
1.852899067831269
 30
0.0
 10
0.8854150850349039
 20
1.84974152848897
 30
0.0
  0
SPLINE
  5
D33
330
1F
100
AcDbEntity
  8
0
  6
Continuous
 62
     7
370
    15
100
AcDbSpline
210
0.0
220
0.0
230
1.0
 70
     8
 71
     3
 72
    10
 73
     6
 74
     0
 42
0.0000000001
 43
0.0000000001
 40
0.0
 40
0.0
 40
0.0
 40
0.0
 40
0.5
 40
0.5
 40
1.0
 40
1.0
 40
1.0
 40
1.0
 10
0.9440873953648413
 20
1.849741528486066
 30
0.0
 10
0.9498428383806793
 20
1.852895579230776
 30
0.0
 10
0.9550006275853547
 20
1.856727643249441
 30
0.0
 10
0.9644461814473949
 20
1.865445441900571
 30
0.0
 10
0.9687349963911152
 20
1.870362001338745
 30
0.0
 10
0.9725206530981584
 20
1.875650133809999
 30
0.0
  0
LINE
  5
D34
330
1F
100
AcDbEntity
  8
0
  6
Continuous
 62
     7
370
    15
100
AcDbLine
 10
1.055751240198941
 20
1.690098542599872
 30
0.0
 11
1.055751240198941
 21
2.190098542599872
 31
0.0
  0
LINE
  5
D35
330
1F
100
AcDbEntity
  8
0
  6
Continuous
 62
     7
370
    15
100
AcDbLine
 10
0.7727512401989416
 20
2.190098542599872
 30
0.0
 11
0.7727512401989416
 21
1.690098542599872
 31
0.0
  0
LINE
  5
D36
330
1F
100
AcDbEntity
  8
0
  6
Continuous
 62
     7
370
    15
100
AcDbLine
 10
0.7577512401989411
 20
2.175098542601844
 30
0.0
 11
0.7577512401989411
 21
1.705098542597901
 31
0.0
  0
LINE
  5
D37
330
1F
100
AcDbEntity
  8
0
  6
Continuous
 62
     7
370
    15
100
AcDbLine
 10
1.070751240200471
 20
1.705098542600137
 30
0.0
 11
1.070751240200471
 21
2.175098542599605
 31
0.0
  0
LINE
  5
D38
330
1F
100
AcDbEntity
  8
0
  6
Continuous
 62
     7
370
    15
100
AcDbLine
 10
0.9147512401989409
 20
1.994946818172885
 30
0.0
 11
0.9622512401989403
 21
1.967522680386378
 31
0.0
  0
LINE
  5
D39
330
1F
100
AcDbEntity
  8
0
  6
Continuous
 62
     7
370
    15
100
AcDbLine
 10
0.8672512401989397
 20
1.967522680386378
 30
0.0
 11
0.9147512401989409
 21
1.994946818172885
 31
0.0
  0
LINE
  5
D3A
330
1F
100
AcDbEntity
  8
0
  6
Continuous
 62
     7
370
    15
100
AcDbLine
 10
0.8672512401989397
 20
1.912674404813363
 30
0.0
 11
0.8672512401989397
 21
1.967522680386378
 31
0.0
  0
LINE
  5
D3B
330
1F
100
AcDbEntity
  8
0
  6
Continuous
 62
     7
370
    15
100
AcDbLine
 10
0.9147512401989409
 20
1.885250267026857
 30
0.0
 11
0.8672512401989397
 21
1.912674404813363
 31
0.0
  0
LINE
  5
D3C
330
1F
100
AcDbEntity
  8
0
  6
Continuous
 62
     7
370
    15
100
AcDbLine
 10
0.9622512401989403
 20
1.912674404813363
 30
0.0
 11
0.9147512401989409
 21
1.885250267026857
 31
0.0
  0
LINE
  5
D3D
330
1F
100
AcDbEntity
  8
0
  6
Continuous
 62
     7
370
    15
100
AcDbLine
 10
0.9622512401989403
 20
1.967522680386378
 30
0.0
 11
0.9622512401989403
 21
1.912674404813363
 31
0.0
  0
ARC
  5
D3E
330
1F
100
AcDbEntity
  8
0
  6
Continuous
 62
     7
370
    15
100
AcDbCircle
 10
0.9147512401989409
 20
1.94009854259987
 30
0.0
 40
0.0781000000027969
100
AcDbArc
 50
270.0000000000008
 51
90.0
  0
ARC
  5
D3F
330
1F
100
AcDbEntity
  8
0
  6
Continuous
 62
     7
370
    15
100
AcDbCircle
 10
0.9147512401989409
 20
1.94009854259987
 30
0.0
 40
0.0781000000027969
100
AcDbArc
 50
90.0
 51
270.0000000000008
  0
ARC
  5
D40
330
1F
100
AcDbEntity
  8
0
  6
Continuous
 62
     7
370
    15
100
AcDbCircle
 10
0.9147512401989409
 20
1.94009854259987
 30
0.0
 40
0.0865499999298037
100
AcDbArc
 50
311.8719944282013
 51
48.12800574630558
  0
ARC
  5
D41
330
1F
100
AcDbEntity
  8
0
  6
Continuous
 62
     7
370
    15
100
AcDbCircle
 10
0.9147512401989409
 20
1.94009854259987
 30
0.0
 40
0.0865499999291451
100
AcDbArc
 50
131.8719944280876
 51
228.128005746417
  0
ARC
  5
D42
330
1F
100
AcDbEntity
  8
0
  6
Continuous
 62
     7
370
    15
100
AcDbCircle
 10
0.9147512401989409
 20
1.94009854259987
 30
0.0
 40
0.0949999999991445
100
AcDbArc
 50
252.012973807951
 51
270.0000000000008
  0
ARC
  5
D43
330
1F
100
AcDbEntity
  8
0
  6
Continuous
 62
     7
370
    15
100
AcDbCircle
 10
0.9147512401989409
 20
1.94009854259987
 30
0.0
 40
0.0949999999986844
100
AcDbArc
 50
90.0
 51
107.987026191612
  0
LINE
  5
D44
330
1F
100
AcDbEntity
  8
0
  6
Continuous
 62
     7
370
    15
100
AcDbLine
 10
0.9147512401989409
 20
2.035098542598555
 30
0.0
 11
0.9147512401989409
 21
2.018198542600431
 31
0.0
  0
LINE
  5
D45
330
1F
100
AcDbEntity
  8
0
  6
Continuous
 62
     7
370
    15
100
AcDbLine
 10
0.9147512401989409
 20
1.861998542597073
 30
0.0
 11
0.9147512401989409
 21
1.845098542600726
 31
0.0
  0
ARC
  5
D46
330
1F
100
AcDbEntity
  8
0
  6
Continuous
 62
     7
370
    15
100
AcDbCircle
 10
0.9147512401989409
 20
1.94009854259987
 30
0.0
 40
0.0949999999991445
100
AcDbArc
 50
270.0000000000008
 51
287.98702619188
  0
ARC
  5
D47
330
1F
100
AcDbEntity
  8
0
  6
Continuous
 62
     7
370
    15
100
AcDbCircle
 10
0.9147512401989409
 20
1.94009854259987
 30
0.0
 40
0.0949999999986844
100
AcDbArc
 50
72.01297380812218
 51
90.0
  0
LINE
  5
D48
330
1F
100
AcDbEntity
  8
0
  6
HIDDEN
 62
     7
370
     0
100
AcDbLine
 10
0.7577512402000602
 20
2.080098542595523
 30
0.0
 11
0.7727512401973926
 21
2.065098542598158
 31
0.0
  0
LINE
  5
D49
330
1F
100
AcDbEntity
  8
0
  6
HIDDEN
 62
     7
370
     0
100
AcDbLine
 10
0.7727512401979522
 20
1.815098542601585
 30
0.0
 11
0.7577512401955837
 21
1.800098542598626
 31
0.0
  0
CIRCLE
  5
D4A
330
1F
100
AcDbEntity
  8
0
  6
HIDDEN
 62
     7
370
     0
100
AcDbCircle
 10
0.9147512401989409
 20
1.940098542599872
 30
0.0
 40
0.0678571428565427
  0
SPLINE
  5
D4B
330
1F
100
AcDbEntity
  8
0
  6
HIDDEN
 62
     7
370
     0
100
AcDbSpline
210
0.0
220
0.0
230
1.0
 70
    24
 71
     1
 72
     4
 73
     2
 74
     0
 42
0.0000000001
 43
0.0000000001
 40
0.0
 40
0.0
 40
1.0
 40
1.0
 10
1.070751240195996
 20
2.080098542595523
 30
0.0
 10
1.055751240200298
 20
2.065098542602063
 30
0.0
  0
SPLINE
  5
D4C
330
1F
100
AcDbEntity
  8
0
  6
HIDDEN
 62
     7
370
     0
100
AcDbSpline
210
0.0
220
0.0
230
1.0
 70
    24
 71
     1
 72
     4
 73
     2
 74
     0
 42
0.0000000001
 43
0.0000000001
 40
0.0
 40
0.0
 40
1.0
 40
1.0
 10
1.055751240200298
 20
1.81509854259768
 30
0.0
 10
1.070751240195996
 20
1.80009854260422
 30
0.0
  0
SPLINE
  5
D4D
330
1F
100
AcDbEntity
  8
0
  6
HIDDEN
 62
     7
370
     0
100
AcDbSpline
210
0.0
220
0.0
230
1.0
 70
    24
 71
     1
 72
     4
 73
     2
 74
     0
 42
0.0000000001
 43
0.0000000001
 40
0.0
 40
0.0
 40
1.0
 40
1.0
 10
0.7727512401968757
 20
1.81509854259987
 30
0.0
 10
1.055751240200298
 20
1.81509854259987
 30
0.0
  0
SPLINE
  5
D4E
330
1F
100
AcDbEntity
  8
0
  6
HIDDEN
 62
     7
370
     0
100
AcDbSpline
210
0.0
220
0.0
230
1.0
 70
    24
 71
     1
 72
     4
 73
     2
 74
     0
 42
0.0000000001
 43
0.0000000001
 40
0.0
 40
0.0
 40
1.0
 40
1.0
 10
1.055751240200298
 20
2.065098542599872
 30
0.0
 10
0.7727512401968757
 20
2.065098542599872
 30
0.0
  0
INSERT
  5
D4F
330
1F
100
AcDbEntity
  8
0
  6
Continuous
 62
     7
370
     0
100
AcDbBlockReference
  2
SW_CENTERMARKSYMBOL_0
 10
0.9147512401989409
 20
1.940098542599872
 30
0.0
  0
SPLINE
  5
D50
330
1F
100
AcDbEntity
  8
0
  6
Continuous
 62
     7
370
    15
100
AcDbSpline
210
0.0
220
0.0
230
1.0
 70
    24
 71
     1
 72
     4
 73
     2
 74
     0
 42
0.0000000001
 43
0.0000000001
 40
0.0
 40
0.0
 40
1.0
 40
1.0
 10
2.048364005790281
 20
1.211204997486806
 30
0.0
 10
2.048364005790281
 20
1.209351619085128
 30
0.0
  0
SPLINE
  5
D51
330
1F
100
AcDbEntity
  8
0
  6
Continuous
 62
     7
370
    15
100
AcDbSpline
210
0.0
220
0.0
230
1.0
 70
    24
 71
     1
 72
     4
 73
     2
 74
     0
 42
0.0000000001
 43
0.0000000001
 40
0.0
 40
0.0
 40
1.0
 40
1.0
 10
2.238364005790283
 20
1.209351619085128
 30
0.0
 10
2.238364005790283
 20
1.211204997488185
 30
0.0
  0
CIRCLE
  5
D52
330
1F
100
AcDbEntity
  8
0
  6
Continuous
 62
     7
370
    15
100
AcDbCircle
 10
2.143364005790282
 20
0.9781049974881847
 30
0.0
 40
0.2499999999999982
  0
CIRCLE
  5
D53
330
1F
100
AcDbEntity
  8
0
  6
Continuous
 62
     7
370
    15
100
AcDbCircle
 10
2.143364005790282
 20
0.9781049974881847
 30
0.0
 40
0.234999999999733
  0
CIRCLE
  5
D54
330
1F
100
AcDbEntity
  8
0
  6
Continuous
 62
     7
370
    15
100
AcDbCircle
 10
2.143364005790282
 20
0.9781049974881847
 30
0.0
 40
0.1399999999956503
  0
CIRCLE
  5
D55
330
1F
100
AcDbEntity
  8
0
  6
Continuous
 62
     7
370
    15
100
AcDbCircle
 10
2.143364005790282
 20
0.9781049974881847
 30
0.0
 40
0.1249999999999538
  0
LINE
  5
D56
330
1F
100
AcDbEntity
  8
0
  6
Continuous
 62
     7
370
    15
100
AcDbLine
 10
2.048364005791136
 20
1.211204997486591
 30
0.0
 11
2.05300699167524
 21
1.211204997488643
 31
0.0
  0
LINE
  5
D57
330
1F
100
AcDbEntity
  8
0
  6
Continuous
 62
     7
370
    15
100
AcDbLine
 10
2.065264005787483
 20
1.228104997484735
 30
0.0
 11
2.048364005791136
 21
1.211204997486591
 31
0.0
  0
LINE
  5
D58
330
1F
100
AcDbEntity
  8
0
  6
Continuous
 62
     7
370
    15
100
AcDbLine
 10
2.221464005790843
 20
1.228104997485854
 30
0.0
 11
2.065264005787483
 21
1.228104997484735
 31
0.0
  0
LINE
  5
D59
330
1F
100
AcDbEntity
  8
0
  6
Continuous
 62
     7
370
    15
100
AcDbLine
 10
2.238364005788966
 20
1.211204997487495
 30
0.0
 11
2.221464005790843
 21
1.228104997485854
 31
0.0
  0
LINE
  5
D5A
330
1F
100
AcDbEntity
  8
0
  6
Continuous
 62
     7
370
    15
100
AcDbLine
 10
2.238364005788966
 20
1.211204997487495
 30
0.0
 11
2.23372101990533
 21
1.211204997488641
 31
0.0
  0
LINE
  5
D5B
330
1F
100
AcDbEntity
  8
0
  6
HIDDEN
 62
     7
370
     0
100
AcDbLine
 10
2.078915596739735
 20
1.219654997634849
 30
0.0
 11
2.207812414987613
 21
1.219654997595684
 31
0.0
  0
LINE
  5
D5C
330
1F
100
AcDbEntity
  8
0
  6
HIDDEN
 62
     7
370
     0
100
AcDbLine
 10
2.221464005790283
 20
1.11334785463104
 30
0.0
 11
2.065264005790281
 21
1.11334785463104
 31
0.0
  0
LINE
  5
D5D
330
1F
100
AcDbEntity
  8
0
  6
HIDDEN
 62
     7
370
     0
100
AcDbLine
 10
2.075506862933739
 20
1.103104997483662
 30
0.0
 11
2.211221148646825
 21
1.103104997483662
 31
0.0
  0
LINE
  5
D5E
330
1F
100
AcDbEntity
  8
0
  6
HIDDEN
 62
     7
370
     0
100
AcDbLine
 10
2.170788143576789
 20
1.206104997488184
 30
0.0
 11
2.198212281363295
 21
1.206104997488184
 31
0.0
  0
LINE
  5
D5F
330
1F
100
AcDbEntity
  8
0
  6
HIDDEN
 62
     7
370
     0
100
AcDbLine
 10
2.170788143576789
 20
1.206104997488184
 30
0.0
 11
2.170788143576789
 21
1.228104997488184
 31
0.0
  0
LINE
  5
D60
330
1F
100
AcDbEntity
  8
0
  6
HIDDEN
 62
     7
370
     0
100
AcDbLine
 10
2.115939868003775
 20
1.206104997488184
 30
0.0
 11
2.170788143576789
 21
1.206104997488184
 31
0.0
  0
LINE
  5
D61
330
1F
100
AcDbEntity
  8
0
  6
HIDDEN
 62
     7
370
     0
100
AcDbLine
 10
2.115939868003775
 20
1.206104997488184
 30
0.0
 11
2.115939868003775
 21
1.228104997488184
 31
0.0
  0
LINE
  5
D62
330
1F
100
AcDbEntity
  8
0
  6
HIDDEN
 62
     7
370
     0
100
AcDbLine
 10
2.088515730217269
 20
1.206104997488184
 30
0.0
 11
2.115939868003775
 21
1.206104997488184
 31
0.0
  0
LINE
  5
D63
330
1F
100
AcDbEntity
  8
0
  6
HIDDEN
 62
     7
370
     0
100
AcDbLine
 10
2.198212281363295
 20
1.206104997488184
 30
0.0
 11
2.198212281363295
 21
1.228104997488184
 31
0.0
  0
LINE
  5
D64
330
1F
100
AcDbEntity
  8
0
  6
HIDDEN
 62
     7
370
     0
100
AcDbLine
 10
2.088515730217269
 20
1.228104997488184
 30
0.0
 11
2.088515730217269
 21
1.206104997488184
 31
0.0
  0
LINE
  5
D65
330
1F
100
AcDbEntity
  8
0
  6
HIDDEN
 62
     7
370
     0
100
AcDbLine
 10
2.283364005785932
 20
0.9781049974881847
 30
0.0
 11
2.26836400578857
 21
0.9781049974881847
 31
0.0
  0
LINE
  5
D66
330
1F
100
AcDbEntity
  8
0
  6
HIDDEN
 62
     7
370
     0
100
AcDbLine
 10
2.018364005791996
 20
0.9781049974881847
 30
0.0
 11
2.003364005789036
 21
0.9781049974881847
 31
0.0
  0
SPLINE
  5
D67
330
1F
100
AcDbEntity
  8
0
  6
HIDDEN
 62
     7
370
     0
100
AcDbSpline
210
0.0
220
0.0
230
1.0
 70
    24
 71
     1
 72
     4
 73
     2
 74
     0
 42
0.0000000001
 43
0.0000000001
 40
0.0
 40
0.0
 40
1.0
 40
1.0
 10
2.221464005790283
 20
1.075804860578232
 30
0.0
 10
2.221464005790283
 20
1.11334785463104
 30
0.0
  0
SPLINE
  5
D68
330
1F
100
AcDbEntity
  8
0
  6
HIDDEN
 62
     7
370
     0
100
AcDbSpline
210
0.0
220
0.0
230
1.0
 70
    24
 71
     1
 72
     4
 73
     2
 74
     0
 42
0.0000000001
 43
0.0000000001
 40
0.0
 40
0.0
 40
1.0
 40
1.0
 10
2.065264005790281
 20
1.11334785463104
 30
0.0
 10
2.065264005790281
 20
1.075703101977975
 30
0.0
  0
SPLINE
  5
D69
330
1F
100
AcDbEntity
  8
0
  6
HIDDEN
 62
     7
370
     0
100
AcDbSpline
210
0.0
220
0.0
230
1.0
 70
    24
 71
     1
 72
     4
 73
     2
 74
     0
 42
0.0000000001
 43
0.0000000001
 40
0.0
 40
0.0
 40
1.0
 40
1.0
 10
2.065264005786361
 20
1.11334785463104
 30
0.0
 10
2.075506862933739
 20
1.103104997483662
 30
0.0
  0
SPLINE
  5
D6A
330
1F
100
AcDbEntity
  8
0
  6
HIDDEN
 62
     7
370
     0
100
AcDbSpline
210
0.0
220
0.0
230
1.0
 70
    24
 71
     1
 72
     4
 73
     2
 74
     0
 42
0.0000000001
 43
0.0000000001
 40
0.0
 40
0.0
 40
1.0
 40
1.0
 10
2.211221148646825
 20
1.103104997483662
 30
0.0
 10
2.221464005794203
 20
1.11334785463104
 30
0.0
  0
INSERT
  5
D6B
330
1F
100
AcDbEntity
  8
0
  6
Continuous
 62
     7
370
     0
100
AcDbBlockReference
  2
SW_CENTERMARKSYMBOL_2
 10
2.143364005790282
 20
0.9781049974881847
 30
0.0
  0
SPLINE
  5
D6C
330
1F
100
AcDbEntity
  8
0
  6
Continuous
 62
     7
370
    15
100
AcDbSpline
210
0.0
220
0.0
230
1.0
 70
    24
 71
     1
 72
     4
 73
     2
 74
     0
 42
0.0000000001
 43
0.0000000001
 40
0.0
 40
0.0
 40
1.0
 40
1.0
 10
2.140393143705614
 20
1.607921176098432
 30
0.0
 10
2.15099802155342
 20
1.614045232107316
 30
0.0
  0
SPLINE
  5
D6D
330
1F
100
AcDbEntity
  8
0
  6
Continuous
 62
     7
370
    15
100
AcDbSpline
210
0.0
220
0.0
230
1.0
 70
    24
 71
     1
 72
     4
 73
     2
 74
     0
 42
0.0000000001
 43
0.0000000001
 40
0.0
 40
0.0
 40
1.0
 40
1.0
 10
2.317141107818582
 20
1.901844682514708
 30
0.0
 10
2.317141107818582
 20
1.914090804193296
 30
0.0
  0
SPLINE
  5
D6E
330
1F
100
AcDbEntity
  8
0
  6
Continuous
 62
     7
370
    15
100
AcDbSpline
210
0.0
220
0.0
230
1.0
 70
    24
 71
     1
 72
     4
 73
     2
 74
     0
 42
0.0000000001
 43
0.0000000001
 40
0.0
 40
0.0
 40
1.0
 40
1.0
 10
2.265354254100558
 20
2.028552005810114
 30
0.0
 10
2.065243035024766
 20
2.144073753633028
 30
0.0
  0
SPLINE
  5
D6F
330
1F
100
AcDbEntity
  8
0
  6
Continuous
 62
     7
370
    15
100
AcDbSpline
210
0.0
220
0.0
230
1.0
 70
    24
 71
     1
 72
     4
 73
     2
 74
     0
 42
0.0000000001
 43
0.0000000001
 40
0.0
 40
0.0
 40
1.0
 40
1.0
 10
1.81526335186575
 20
1.711049322442686
 30
0.0
 10
2.015374570941542
 20
1.595527574619772
 30
0.0
  0
SPLINE
  5
D70
330
1F
100
AcDbEntity
  8
0
  6
Continuous
 62
     7
370
    15
100
AcDbSpline
210
0.0
220
0.0
230
1.0
 70
    24
 71
     1
 72
     4
 73
     2
 74
     0
 42
0.0000000001
 43
0.0000000001
 40
0.0
 40
0.0
 40
1.0
 40
1.0
 10
1.940224462260694
 20
2.131680152154947
 30
0.0
 10
1.92961958441397
 20
2.125556096146687
 30
0.0
  0
SPLINE
  5
D71
330
1F
100
AcDbEntity
  8
0
  6
Continuous
 62
     7
370
    15
100
AcDbSpline
210
0.0
220
0.0
230
1.0
 70
    24
 71
     1
 72
     4
 73
     2
 74
     0
 42
0.0000000001
 43
0.0000000001
 40
0.0
 40
0.0
 40
1.0
 40
1.0
 10
1.763476498147227
 20
1.837756645736556
 30
0.0
 10
1.763476498147227
 20
1.825510524059214
 30
0.0
  0
SPLINE
  5
D72
330
1F
100
AcDbEntity
  8
0
  6
Continuous
 62
     7
370
    15
100
AcDbSpline
210
0.0
220
0.0
230
1.0
 70
    24
 71
     1
 72
     4
 73
     2
 74
     0
 42
0.0000000001
 43
0.0000000001
 40
0.0
 40
0.0
 40
1.0
 40
1.0
 10
1.98542834332091
 20
2.105607320735344
 30
0.0
 10
1.979452320199053
 20
2.102156314612436
 30
0.0
  0
LWPOLYLINE
  5
D73
330
1F
100
AcDbEntity
  8
0
  6
Continuous
 62
     7
370
    15
100
AcDbPolyline
 90
      105
 70
   128
 43
0.0
 10
2.140393143705614
 20
1.607921176098432
 10
2.14036441252105
 20
1.607904587243506
 10
2.132200253324287
 20
1.603409335864996
 10
2.124053516854685
 20
1.599359312390057
 10
2.115941588658426
 20
1.595763159772882
 10
2.107881779999086
 20
1.592628552384387
 10
2.099891290914519
 20
1.589962179634706
 10
2.091987173511111
 20
1.587769731697663
 10
2.084186295573735
 20
1.586055887367643
 10
2.076505304569034
 20
1.584824304074813
 10
2.0689605921189
 20
1.584077610079989
 10
2.061568259019916
 20
1.583817398865787
 10
2.054344080883457
 20
1.58404422573605
 10
2.047303474469729
 20
1.584757606630805
 10
2.040461464787633
 20
1.58595601915927
 10
2.033832653030634
 20
1.587636905848719
 10
2.027431185417084
 20
1.589796679602245
 10
2.02127072300147
 20
1.592430731353819
 10
2.015364412521048
 20
1.595533439904255
 10
2.009724858340034
 20
1.599098183917148
 10
2.004364095551256
 20
1.603117356049126
 10
1.999293564292664
 20
1.607582379184314
 10
1.994524085333491
 20
1.612483724738324
 10
1.990065836982195
 20
1.617810932992742
 10
1.985928333365438
 20
1.623552635416683
 10
1.982120404124441
 20
1.629696578927823
 10
1.978650175572111
 20
1.636229652041081
 10
1.97552505335106
 20
1.643137912849199
 10
1.9727517066296
 20
1.650406618775469
 10
1.970336053869397
 20
1.658020258035136
 10
1.968283250195178
 20
1.665962582738328
 10
1.966597676393437
 20
1.674216643563874
 10
1.965282929563614
 20
1.682764825930005
 10
1.964341815441694
 20
1.691588887584767
 10
1.963776342412647
 20
1.700669997535892
 10
1.963587717224413
 20
1.709988776237106
 10
1.963776342412647
 20
1.719525336945035
 10
1.964341815441695
 20
1.729259328158531
 10
1.965282929563614
 20
1.739169977049798
 10
1.966597676393437
 20
1.749236133794654
 10
1.968283250195178
 20
1.759436316707315
 10
1.970336053869397
 20
1.769748758083408
 10
1.9727517066296
 20
1.780151450653336
 10
1.97552505335106
 20
1.790622194546908
 10
1.978650175572111
 20
1.801138644668984
 10
1.982120404124442
 20
1.811678358385019
 10
1.985928333365438
 20
1.822218843414796
 10
1.990065836982197
 20
1.832737605832066
 10
1.994524085333491
 20
1.843212198067739
 10
1.999293564292666
 20
1.853620266814112
 10
2.004364095551258
 20
1.863939600727963
 10
2.009724858340038
 20
1.874148177830675
 10
2.01536441252105
 20
1.884224212504248
 10
2.021270723001471
 20
1.894146201982903
 10
2.027431185417084
 20
1.903892972241072
 10
2.033832653030636
 20
1.913443723179831
 10
2.040461464787635
 20
1.922778073015368
 10
2.04730347446973
 20
1.931876101774722
 10
2.054344080883458
 20
1.940718393806029
 10
2.061568259019918
 20
1.94928607921248
 10
2.068960592118902
 20
1.95756087412165
 10
2.076505304569038
 20
1.965525119704188
 10
2.084186295573737
 20
1.973161819858666
 10
2.091987173511113
 20
1.980454677482098
 10
2.09989129091452
 20
1.98738812924879
 10
2.107881779999088
 20
1.99394737882326
 10
2.115941588658428
 20
2.000118428436362
 10
2.124053516854687
 20
2.005888108757227
 10
2.132200253324289
 20
2.011244106997286
 10
2.140364412521052
 20
2.016174993186381
 10
2.148528571717817
 20
2.020670244564889
 10
2.156675308187417
 20
2.02472026803983
 10
2.164787236383676
 20
2.028316420657004
 10
2.172847045043015
 20
2.0314510280455
 10
2.180837534127585
 20
2.034117400795179
 10
2.188741651530991
 20
2.036309848732222
 10
2.196542529468367
 20
2.038023693062244
 10
2.204223520473068
 20
2.039255276355072
 10
2.211768232923204
 20
2.040001970349896
 10
2.219160566022186
 20
2.040262181564098
 10
2.226384744158643
 20
2.040035354693837
 10
2.233425350572372
 20
2.039321973799082
 10
2.240267360254467
 20
2.038123561270615
 10
2.246896172011466
 20
2.036442674581166
 10
2.253297639625018
 20
2.034282900827638
 10
2.259458102040631
 20
2.031648849076068
 10
2.265364412521052
 20
2.02854614052563
 10
2.271003966702066
 20
2.024981396512737
 10
2.276364729490844
 20
2.020962224380759
 10
2.281435260749436
 20
2.01649720124557
 10
2.28620473970861
 20
2.011595855691559
 10
2.290662988059905
 20
2.006268647437143
 10
2.294800491676664
 20
2.000526945013202
 10
2.29860842091766
 20
1.994383001502063
 10
2.30207864946999
 20
1.987849928388804
 10
2.30520377169104
 20
1.980941667580686
 10
2.3079771184125
 20
1.973672961654414
 10
2.310392771172705
 20
1.966059322394748
 10
2.312445574846922
 20
1.958116997691556
 10
2.314131148648663
 20
1.949862936866011
 10
2.315445895478486
 20
1.941314754499879
 10
2.316387009600406
 20
1.932490692845119
 10
2.316952482629453
 20
1.923409582893991
 10
2.317141107817688
 20
1.914090804192782
 10
2.317141107817688
 20
1.914090804192782
  0
LWPOLYLINE
  5
D74
330
1F
100
AcDbEntity
  8
0
  6
Continuous
 62
     7
370
    15
100
AcDbPolyline
 90
      133
 70
   128
 43
0.0
 10
1.984800920661279
 20
1.709988776236588
 10
1.984989135015233
 20
1.719227785472136
 10
1.985553351711042
 20
1.728663173047734
 10
1.98649229261642
 20
1.738273564775785
 10
1.987803830728225
 20
1.748037190027994
 10
1.989484994990793
 20
1.757931931052854
 10
1.991531977026351
 20
1.767935373079458
 10
1.993940139762213
 20
1.778024855094164
 10
1.996704027935232
 20
1.788177521175096
 10
1.999817380449736
 20
1.798370372268132
 10
2.003273144560921
 20
1.808580318287182
 10
2.007063491851582
 20
1.818784230420646
 10
2.011179835966002
 20
1.828958993525618
 10
2.01561285206081
 20
1.839081558491116
 10
2.020352497928734
 20
1.849128994451731
 10
2.02538803674746
 20
1.859078540733415
 10
2.030708061401956
 20
1.868907658413728
 10
2.036300520325286
 20
1.878594081379748
 10
2.042152744799258
 20
1.888115866767971
 10
2.048251477653169
 20
1.897451444671966
 10
2.054582903295541
 20
1.906579667005139
 10
2.061132679010896
 20
1.915479855407958
 10
2.067885967450607
 20
1.924131848091091
 10
2.074827470244267
 20
1.932516045508332
 10
2.081941462655431
 20
1.940613454755892
 10
2.089211829203185
 20
1.948405732597419
 10
2.096622100168897
 20
1.955875227017345
 10
2.104155488905439
 20
1.963005017208363
 10
2.111794929864326
 20
1.969778951902508
 10
2.119523117254687
 20
1.976181685958971
 10
2.127322544246429
 20
1.982198715125775
 10
2.135175542628859
 20
1.987816408896578
 10
2.143064322834849
 20
1.993022041388147
 10
2.15097101423993
 20
1.997803820168582
 10
2.158877705645015
 20
2.00215091297096
 10
2.166766485851005
 20
2.006053472231914
 10
2.174619484233434
 20
2.00950265739952
 10
2.182418911225177
 20
2.012490654959998
 10
2.190147098615535
 20
2.015010696137833
 10
2.197786539574423
 20
2.017057072229227
 10
2.205319928310967
 20
2.018625147534148
 10
2.212730199276679
 20
2.019711369857684
 10
2.22000056582443
 20
2.020313278556904
 10
2.227114558235595
 20
2.020429510115014
 10
2.234056061029257
 20
2.02005980123015
 10
2.240809349468966
 20
2.019204989411844
 10
2.247359125184319
 20
2.017867011083804
 10
2.253690550826693
 20
2.016048897197282
 10
2.259789283680604
 20
2.013754766364998
 10
2.265641508154577
 20
2.010989815531157
 10
2.271233967077906
 20
2.007760308198699
 10
2.276553991732404
 20
2.004073560240452
 10
2.281589530551127
 20
1.999937923326328
 10
2.286329176419054
 20
1.995362766004093
 10
2.290762192513858
 20
1.990358452476612
 10
2.294878536628278
 20
1.984936319123583
 10
2.298668883918943
 20
1.979108648820989
 10
2.302124648030126
 20
1.972888643116446
 10
2.30523800054463
 20
1.966290392323436
 10
2.30800188871765
 20
1.959328843602232
 10
2.310410051453511
 20
1.952019767099752
 10
2.312457033489069
 20
1.944379720225126
 10
2.314138197751637
 20
1.936426010141823
 10
2.31544973586344
 20
1.928176654561365
 10
2.316388676768819
 20
1.919650340927414
 10
2.316952893464629
 20
1.910866384082703
 10
2.317141107818582
 20
1.901844682514706
 10
2.316952893464629
 20
1.892605673279159
 10
2.316388676768819
 20
1.883170285703559
 10
2.315449735863439
 20
1.87355989397551
 10
2.314138197751637
 20
1.863796268723299
 10
2.312457033489069
 20
1.853901527698439
 10
2.310410051453511
 20
1.843898085671838
 10
2.30800188871765
 20
1.83380860365713
 10
2.30523800054463
 20
1.823655937576199
 10
2.302124648030126
 20
1.813463086483163
 10
2.298668883918941
 20
1.803253140464112
 10
2.294878536628278
 20
1.793049228330648
 10
2.290762192513858
 20
1.782874465225675
 10
2.286329176419052
 20
1.772751900260178
 10
2.281589530551127
 20
1.762704464299564
 10
2.276553991732403
 20
1.752754918017879
 10
2.271233967077903
 20
1.742925800337565
 10
2.265641508154575
 20
1.733239377371547
 10
2.2597892836806
 20
1.723717591983322
 10
2.253690550826692
 20
1.714382014079329
 10
2.247359125184317
 20
1.705253791746156
 10
2.240809349468964
 20
1.696353603343337
 10
2.234056061029255
 20
1.687701610660204
 10
2.227114558235593
 20
1.679317413242961
 10
2.220000565824428
 20
1.671220003995404
 10
2.212730199276677
 20
1.663427726153876
 10
2.205319928310965
 20
1.655958231733948
 10
2.197786539574421
 20
1.648828441542933
 10
2.190147098615533
 20
1.642054506848786
 10
2.182418911225175
 20
1.635651772792324
 10
2.174619484233432
 20
1.62963474362552
 10
2.166766485851003
 20
1.624017049854717
 10
2.158877705645013
 20
1.618811417363148
 10
2.150971014239928
 20
1.614029638582713
 10
2.143064322834848
 20
1.609682545780335
 10
2.135175542628858
 20
1.605779986519381
 10
2.127322544246427
 20
1.602330801351775
 10
2.119523117254685
 20
1.599342803791297
 10
2.111794929864324
 20
1.596822762613462
 10
2.104155488905436
 20
1.594776386522068
 10
2.096622100168895
 20
1.593208311217147
 10
2.089211829203181
 20
1.592122088893613
 10
2.081941462655429
 20
1.591520180194391
 10
2.074827470244267
 20
1.591403948636281
 10
2.067885967450604
 20
1.591773657521146
 10
2.061132679010894
 20
1.592628469339453
 10
2.05458290329554
 20
1.593966447667493
 10
2.048251477653167
 20
1.595784561554013
 10
2.042152744799258
 20
1.598078692386299
 10
2.036300520325286
 20
1.60084364322014
 10
2.030708061401956
 20
1.604073150552598
 10
2.025388036747456
 20
1.607759898510845
 10
2.020352497928732
 20
1.611895535424969
 10
2.015612852060807
 20
1.616470692747204
 10
2.011179835966002
 20
1.621475006274685
 10
2.00706349185158
 20
1.626897139627714
 10
2.00327314456092
 20
1.632724809930308
 10
1.999817380449736
 20
1.638944815634851
 10
1.996704027935232
 20
1.645543066427861
 10
1.993940139762213
 20
1.652504615149067
 10
1.991531977026351
 20
1.659813691651545
 10
1.989484994990793
 20
1.667453738526171
 10
1.987803830728225
 20
1.675407448609474
 10
1.98649229261642
 20
1.683656804189932
 10
1.985553351711042
 20
1.692183117823883
 10
1.984989135015233
 20
1.700967074668594
 10
1.984800920661279
 20
1.709988776236588
  0
SPLINE
  5
D75
330
1F
100
AcDbEntity
  8
0
  6
Continuous
 62
     7
370
    15
100
AcDbSpline
210
0.0
220
0.0
230
1.0
 70
     8
 71
     3
 72
    22
 73
    18
 74
     0
 42
0.0000000001
 43
0.0000000001
 40
0.0
 40
0.0
 40
0.0
 40
0.0
 40
0.125
 40
0.125
 40
0.25
 40
0.25
 40
0.375
 40
0.375
 40
0.5
 40
0.5
 40
0.625
 40
0.625
 40
0.75
 40
0.75
 40
0.875
 40
0.875
 40
1.0
 40
1.0
 40
1.0
 40
1.0
 10
2.12708340725826
 20
2.069558388493648
 30
0.0
 10
2.128384601628316
 20
2.066669998601021
 30
0.0
 10
2.129030680961542
 20
2.063800247380295
 30
0.0
 10
2.128913090937916
 20
2.057973584208072
 30
0.0
 10
2.128128371611197
 20
2.055017678987546
 30
0.0
 10
2.125025156946029
 20
2.049169122972677
 30
0.0
 10
2.122651599840822
 20
2.046194117077417
 30
0.0
 10
2.116397033262608
 20
2.040450679572454
 30
0.0
 10
2.112545924893325
 20
2.037675835563024
 30
0.0
 10
2.103261729133772
 20
2.032305578526906
 30
0.0
 10
2.098076518347351
 20
2.029854223182151
 30
0.0
 10
2.086705094578164
 20
2.025424122553743
 30
0.0
 10
2.08059644299855
 20
2.023487188425588
 30
0.0
 10
2.068082115371402
 20
2.02033005892726
 30
0.0
 10
2.061587807459293
 20
2.019090245915584
 30
0.0
 10
2.048751209109412
 20
2.017419938343017
 30
0.0
 10
2.042294948772659
 20
2.016968962598743
 30
0.0
 10
2.035939593136829
 20
2.016942184599496
 30
0.0
  0
SPLINE
  5
D76
330
1F
100
AcDbEntity
  8
0
  6
Continuous
 62
     7
370
    15
100
AcDbSpline
210
0.0
220
0.0
230
1.0
 70
     8
 71
     3
 72
    10
 73
     6
 74
     0
 42
0.0000000001
 43
0.0000000001
 40
0.0
 40
0.0
 40
0.0
 40
0.0
 40
0.4999999999999999
 40
0.4999999999999999
 40
1.0
 40
1.0
 40
1.0
 40
1.0
 10
2.127083406880535
 20
2.069558388612672
 30
0.0
 10
2.12814707655432
 20
2.072113282647932
 30
0.0
 10
2.128585413554253
 20
2.0746046224504
 30
0.0
 10
2.128088122302858
 20
2.07963569286323
 30
0.0
 10
2.127139704720781
 20
2.082199689247804
 30
0.0
 10
2.125298208033159
 20
2.084841187467526
 30
0.0
  0
SPLINE
  5
D77
330
1F
100
AcDbEntity
  8
0
  6
Continuous
 62
     7
370
    15
100
AcDbSpline
210
0.0
220
0.0
230
1.0
 70
     8
 71
     3
 72
    22
 73
    18
 74
     0
 42
0.0000000001
 43
0.0000000001
 40
0.0
 40
0.0
 40
0.0
 40
0.0
 40
0.0869371552329884
 40
0.1755513979834541
 40
0.2633590015487019
 40
0.308501711187056
 40
0.3536395518367442
 40
0.3979585949156048
 40
0.4422737506301178
 40
0.4882750464783442
 40
0.5342744936575145
 40
0.61228410199033
 40
0.6926416779677187
 40
0.7706056216784681
 40
0.8504354871037223
 40
0.9368589088992925
 40
0.9999999999999998
 40
0.9999999999999998
 40
0.9999999999999998
 40
0.9999999999999998
 10
1.954241305489219
 20
2.064105602124658
 30
0.0
 10
1.953556034246253
 20
2.067009032847268
 30
0.0
 10
1.95217227232791
 20
2.07287190380199
 30
0.0
 10
1.952317766893191
 20
2.081831103255801
 30
0.0
 10
1.953959885847087
 20
2.089189603011749
 30
0.0
 10
1.956338602916634
 20
2.094835547130098
 30
0.0
 10
1.958671002677615
 20
2.098921127767794
 30
0.0
 10
1.961527139636574
 20
2.102750695344464
 30
0.0
 10
1.964922502232522
 20
2.106332377276156
 30
0.0
 10
1.96888938239444
 20
2.109626111079357
 30
0.0
 10
1.974456555724092
 20
2.1132659706578
 30
0.0
 10
1.982093337376554
 20
2.116809031749116
 30
0.0
 10
1.992015845240861
 20
2.119575934410268
 30
0.0
 10
2.002790374658538
 20
2.121050932976579
 30
0.0
 10
2.014321679074387
 20
2.121279733031577
 30
0.0
 10
2.025392281888394
 20
2.12051275140663
 30
0.0
 10
2.032571695821131
 20
2.119227432913838
 30
0.0
 10
2.03560260215311
 20
2.11868481481229
 30
0.0
  0
SPLINE
  5
D78
330
1F
100
AcDbEntity
  8
0
  6
Continuous
 62
     7
370
    15
100
AcDbSpline
210
0.0
220
0.0
230
1.0
 70
     8
 71
     3
 72
    10
 73
     6
 74
     0
 42
0.0000000001
 43
0.0000000001
 40
0.0
 40
0.0
 40
0.0
 40
0.0
 40
0.5000000000000002
 40
0.5000000000000002
 40
1.0
 40
1.0
 40
1.0
 40
1.0
 10
1.954241305868175
 20
2.064105602184017
 30
0.0
 10
1.953177636194686
 20
2.059243803337375
 30
0.0
 10
1.952739299195206
 20
2.05433974867226
 30
0.0
 10
1.953236590447306
 20
2.044575540866286
 30
0.0
 10
1.954185008029746
 20
2.039663593298175
 30
0.0
 10
1.956026504717728
 20
2.035023263233394
 30
0.0
  0
SPLINE
  5
D79
330
1F
100
AcDbEntity
  8
0
  6
Continuous
 62
     7
370
    15
100
AcDbSpline
210
0.0
220
0.0
230
1.0
 70
     8
 71
     3
 72
    10
 73
     6
 74
     0
 42
0.0000000001
 43
0.0000000001
 40
0.0
 40
0.0
 40
0.0
 40
0.0
 40
0.5
 40
0.5
 40
1.0
 40
1.0
 40
1.0
 40
1.0
 10
1.9975140932171
 20
2.011072988182598
 30
0.0
 10
1.988616488473122
 20
2.012715463141407
 30
0.0
 10
1.980602611901146
 20
2.015531848094922
 30
0.0
 10
1.966371812420904
 20
2.023747113768018
 30
0.0
 10
1.960562598854038
 20
2.028910628894702
 30
0.0
 10
1.956026504711685
 20
2.035023263230827
 30
0.0
  0
SPLINE
  5
D7A
330
1F
100
AcDbEntity
  8
0
  6
Continuous
 62
     7
370
    15
100
AcDbSpline
210
0.0
220
0.0
230
1.0
 70
     8
 71
     3
 72
    10
 73
     6
 74
     0
 42
0.0000000001
 43
0.0000000001
 40
0.0
 40
0.0
 40
0.0
 40
0.0
 40
0.5
 40
0.5
 40
1.0
 40
1.0
 40
1.0
 40
1.0
 10
1.997514093217855
 20
2.011072988184851
 30
0.0
 10
2.003814056672878
 20
2.011009401029711
 30
0.0
 10
2.010170842848975
 20
2.011620488488263
 30
0.0
 10
2.023014272580118
 20
2.013694730050582
 30
0.0
 10
2.029523455228917
 20
2.015176780893358
 30
0.0
 10
2.035939593087948
 20
2.016942184867859
 30
0.0
  0
LWPOLYLINE
  5
D7B
330
1F
100
AcDbEntity
  8
0
  6
Continuous
 62
     7
370
    15
100
AcDbPolyline
 90
       70
 70
   128
 43
0.0
 10
2.065243035024766
 20
2.144073753633028
 10
2.059346882964837
 20
2.147170596898982
 10
2.053186420549224
 20
2.149804648650554
 10
2.046784952935672
 20
2.15196442240408
 10
2.040156141178674
 20
2.153645309093531
 10
2.033314131496578
 20
2.154843721621996
 10
2.02627352508285
 20
2.155557102516751
 10
2.019049346946391
 20
2.155783929387012
 10
2.011657013847408
 20
2.15552371817281
 10
2.004112301397274
 20
2.154777024177986
 10
1.996431310392573
 20
2.153545440885158
 10
1.988630432455197
 20
2.151831596555136
 10
1.98072631505179
 20
2.149639148618092
 10
1.972735825967222
 20
2.146972775868412
 10
1.96467601730788
 20
2.143838168479916
 10
1.956564089111623
 20
2.140242015862742
 10
1.94841735264202
 20
2.136191992387801
 10
1.940253193445258
 20
2.131696741009294
 10
1.932089034248495
 20
2.126765854820198
 10
1.923942297778891
 20
2.121409856580139
 10
1.915830369582634
 20
2.115640176259272
 10
1.907770560923293
 20
2.109469126646172
 10
1.899780071838723
 20
2.102909877071704
 10
1.891875954435319
 20
2.095976425305008
 10
1.884075076497941
 20
2.088683567681577
 10
1.87639408549324
 20
2.081046867527099
 10
1.868849373043105
 20
2.07308262194456
 10
1.861457039944124
 20
2.06480782703539
 10
1.854232861807665
 20
2.056240141628939
 10
1.847192255393937
 20
2.047397849597634
 10
1.840350245711841
 20
2.038299820838278
 10
1.833721433954842
 20
2.028965471002741
 10
1.827319966341291
 20
2.019414720063982
 10
1.821159503925678
 20
2.009667949805812
 10
1.815253193445256
 20
1.999745960327158
 10
1.809613639264242
 20
1.989669925653586
 10
1.804252876475464
 20
1.979461348550873
 10
1.799182345216872
 20
1.969142014637021
 10
1.794412866257698
 20
1.958733945890649
 10
1.789954617906403
 20
1.948259353654977
 10
1.785817114289644
 20
1.937740591237707
 10
1.782009185048649
 20
1.927200106207931
 10
1.778538956496318
 20
1.916660392491894
 10
1.775413834275268
 20
1.906143942369821
 10
1.772640487553808
 20
1.895673198476247
 10
1.770224834793606
 20
1.885270505906317
 10
1.768172031119386
 20
1.874958064530225
 10
1.766486457317645
 20
1.864757881617563
 10
1.76517171048782
 20
1.854691724872709
 10
1.764230596365902
 20
1.844781075981442
 10
1.763665123336855
 20
1.835047084767946
 10
1.76347649814862
 20
1.825510524060017
 10
1.763665123336855
 20
1.816191745358803
 10
1.764230596365902
 20
1.807110635407676
 10
1.765171710487822
 20
1.798286573752917
 10
1.766486457317645
 20
1.789738391386785
 10
1.768172031119386
 20
1.78148433056124
 10
1.770224834793606
 20
1.773542005858048
 10
1.772640487553808
 20
1.765928366598382
 10
1.775413834275268
 20
1.758659660672111
 10
1.778538956496321
 20
1.751751399863992
 10
1.782009185048649
 20
1.745218326750735
 10
1.785817114289646
 20
1.739074383239594
 10
1.789954617906405
 20
1.733332680815654
 10
1.7944128662577
 20
1.728005472561236
 10
1.799182345216874
 20
1.723104127007226
 10
1.804252876475466
 20
1.718639103872038
 10
1.809613639264246
 20
1.714619931740059
 10
1.815253193445258
 20
1.711055187727168
 10
1.81526335186575
 20
1.711049322442686
  0
LWPOLYLINE
  5
D7C
330
1F
100
AcDbEntity
  8
0
  6
Continuous
 62
     7
370
    15
100
AcDbPolyline
 90
      103
 70
   128
 43
0.0
 10
2.249965963599807
 20
1.863065297203289
 10
2.249778202724174
 20
1.855919526238689
 10
2.249215632338583
 20
1.848584077538342
 10
2.248280386465206
 20
1.841086776971745
 10
2.246976012811984
 20
1.833456064367973
 10
2.245307459314967
 20
1.825720885633646
 10
2.243281055369094
 20
1.817910582951202
 10
2.240904487818621
 20
1.810054783473947
 10
2.238186771798309
 20
1.802183286940115
 10
2.23513821653591
 20
1.794325952632247
 10
2.23177038624574
 20
1.786512586110715
 10
2.228096056261664
 20
1.778772826151017
 10
2.22412916457586
 20
1.771136032313747
 10
2.219884758967259
 20
1.763631173573729
 10
2.215378939920154
 20
1.756286718430773
 10
2.210628799549545
 20
1.749130526918903
 10
2.205652356764908
 20
1.742189744923703
 10
2.200468488918286
 20
1.73549070120868
 10
2.195096860196029
 20
1.729058807541242
 10
2.189557847025805
 20
1.722918462297158
 10
2.183872460781819
 20
1.717092957909167
 10
2.17806226808149
 20
1.711604392510799
 10
2.172149308975873
 20
1.706473586110584
 10
2.166156013344194
 20
1.701720001614634
 10
2.160105115809648
 20
1.697361670997169
 10
2.154019569499166
 20
1.693415126899059
 10
2.147922458974365
 20
1.689895339913865
 10
2.141836912663885
 20
1.686815661799237
 10
2.135786015129337
 20
1.684187774829138
 10
2.12979271949766
 20
1.682021647478961
 10
2.12387976039204
 20
1.6803254966117
 10
2.118069567691712
 20
1.67910575630857
 10
2.112384181447728
 20
1.678367053462337
 10
2.106845168277502
 20
1.678112190225918
 10
2.101473539555245
 20
1.678342133382867
 10
2.096289671708622
 20
1.679056010680029
 10
2.091313228923985
 20
1.680251114136292
 10
2.086563088553378
 20
1.681922910314896
 10
2.08205726950627
 20
1.684065057520301
 10
2.07781286389767
 20
1.686669429854414
 10
2.073845972211867
 20
1.689726148040907
 10
2.070171642227789
 20
1.693223616900696
 10
2.066803811937623
 20
1.697148569336421
 10
2.063755256675222
 20
1.701486116659093
 10
2.061037540654912
 20
1.706219805065997
 10
2.058660973104439
 20
1.711331678055596
 10
2.056634569158563
 20
1.71680234454269
 10
2.054966015661547
 20
1.722611052415447
 10
2.053661642008327
 20
1.728735767255274
 10
2.052726396134947
 20
1.735153255920909
 10
2.052163825749359
 20
1.741839174679691
 10
2.051976064873726
 20
1.748768161551662
 10
2.052163825749359
 20
1.755913932516262
 10
2.05272639613495
 20
1.763249381216611
 10
2.053661642008327
 20
1.770746681783204
 10
2.054966015661547
 20
1.778377394386978
 10
2.056634569158563
 20
1.786112573121305
 10
2.058660973104439
 20
1.793922875803749
 10
2.061037540654912
 20
1.801778675281002
 10
2.063755256675224
 20
1.809650171814837
 10
2.066803811937623
 20
1.817507506122703
 10
2.070171642227791
 20
1.825320872644235
 10
2.073845972211869
 20
1.833060632603934
 10
2.077812863897671
 20
1.840697426441206
 10
2.082057269506272
 20
1.848202285181222
 10
2.086563088553378
 20
1.855546740324178
 10
2.091313228923987
 20
1.862702931836048
 10
2.096289671708625
 20
1.869643713831247
 10
2.101473539555245
 20
1.876342757546269
 10
2.106845168277502
 20
1.882774651213707
 10
2.112384181447728
 20
1.888914996457792
 10
2.118069567691714
 20
1.894740500845784
 10
2.123879760392043
 20
1.900229066244154
 10
2.12979271949766
 20
1.905359872644365
 10
2.135786015129339
 20
1.910113457140317
 10
2.141836912663885
 20
1.914471787757782
 10
2.147922458974367
 20
1.91841833185589
 10
2.154019569499168
 20
1.921938118841086
 10
2.160105115809648
 20
1.925017796955712
 10
2.166156013344196
 20
1.927645683925813
 10
2.172149308975873
 20
1.92981181127599
 10
2.178062268081492
 20
1.931507962143251
 10
2.183872460781821
 20
1.932727702446379
 10
2.189557847025805
 20
1.933466405292614
 10
2.195096860196029
 20
1.933721268529033
 10
2.200468488918286
 20
1.933491325372084
 10
2.20565235676491
 20
1.932777448074922
 10
2.210628799549548
 20
1.931582344618657
 10
2.215378939920154
 20
1.929910548440055
 10
2.219884758967263
 20
1.927768401234649
 10
2.224129164575864
 20
1.925164028900537
 10
2.228096056261666
 20
1.922107310714041
 10
2.23177038624574
 20
1.918609841854253
 10
2.23513821653591
 20
1.91468488941853
 10
2.238186771798309
 20
1.910347342095856
 10
2.240904487818621
 20
1.905613653688952
 10
2.243281055369094
 20
1.900501780699353
 10
2.24530745931497
 20
1.89503111421226
 10
2.246976012811986
 20
1.889222406339502
 10
2.248280386465206
 20
1.883097691499676
 10
2.249215632338583
 20
1.876680202834039
 10
2.249778202724174
 20
1.86999428407526
 10
2.249965963599807
 20
1.863065297203289
  0
LWPOLYLINE
  5
D7D
330
1F
100
AcDbEntity
  8
0
  6
Continuous
 62
     7
370
    15
100
AcDbPolyline
 90
       73
 70
   128
 43
0.0
 10
2.052126350617778
 20
1.755151553140366
 10
2.052165311110851
 20
1.754447992222563
 10
2.052732239440795
 20
1.748128318140291
 10
2.05367442218941
 20
1.742082322793309
 10
2.054987824785515
 20
1.736335896061889
 10
2.05666682303756
 20
1.730913645027501
 10
2.058704227217266
 20
1.72583878860152
 10
2.061091312847148
 20
1.721133058098263
 10
2.063817858060064
 20
1.71681660417818
 10
2.066872187370828
 20
1.712907910559637
 10
2.070241221672418
 20
1.709423714868776
 10
2.073910534242739
 20
1.706378936966451
 10
2.077864412522032
 20
1.703786615059086
 10
2.082085925396504
 20
1.701657849867063
 10
2.086556995699919
 20
1.700001757089752
 10
2.091258477622835
 20
1.698825428370672
 10
2.096170238697869
 20
1.698133900929993
 10
2.101271246010029
 20
1.697930135994378
 10
2.106539656262885
 20
1.698215006116569
 10
2.111952909314915
 20
1.698987291438963
 10
2.117487824785492
 20
1.700243684917251
 10
2.123120701316832
 20
1.70197880648167
 10
2.128827418066857
 20
1.704185226075302
 10
2.13458353799833
 20
1.706853495470711
 10
2.140364412522009
 20
1.709972188728708
 10
2.146145287045689
 20
1.713527951125969
 10
2.151901406977162
 20
1.717505556342021
 10
2.157608123727188
 20
1.721887971660671
 10
2.163241000258528
 20
1.726656430906728
 10
2.168775915729107
 20
1.731790514805634
 10
2.174189168781135
 20
1.737268238421932
 10
2.179457579033993
 20
1.743066145302143
 10
2.184558586346153
 20
1.749159407918893
 10
2.189470347421187
 20
1.755521933986206
 10
2.1941718293441
 20
1.762126478190669
 10
2.198642899647519
 20
1.768944758860045
 10
2.202864412521986
 20
1.775947579069752
 10
2.206818290801282
 20
1.783104951668556
 10
2.2104876033716
 20
1.790386227688171
 10
2.213856637673194
 20
1.797760227586839
 10
2.216910966983956
 20
1.805195374764916
 10
2.219637512196874
 20
1.812659830780723
 10
2.222024597826753
 20
1.820121631687633
 10
2.224062002006459
 20
1.82754882490861
 10
2.225741000258505
 20
1.834909606062033
 10
2.227054402854613
 20
1.842172455152961
 10
2.227996585603225
 20
1.849306271546568
 10
2.228563513933167
 20
1.856280507145859
 10
2.228752760170296
 20
1.863065297203289
 10
2.228563513933167
 20
1.869631588206217
 10
2.227996585603224
 20
1.875951262288488
 10
2.227054402854613
 20
1.88199725763547
 10
2.225741000258505
 20
1.88774368436689
 10
2.224062002006459
 20
1.893165935401275
 10
2.222024597826753
 20
1.898240791827258
 10
2.21963751219687
 20
1.902946522330516
 10
2.216910966983956
 20
1.907262976250599
 10
2.213856637673192
 20
1.911171669869142
 10
2.2104876033716
 20
1.914655865560003
 10
2.206818290801282
 20
1.917700643462326
 10
2.202864412521986
 20
1.920292965369694
 10
2.198642899647515
 20
1.922421730561715
 10
2.1941718293441
 20
1.924077823339025
 10
2.189470347421183
 20
1.925254152058106
 10
2.184558586346153
 20
1.925945679498786
 10
2.179457579033992
 20
1.926149444434398
 10
2.174189168781133
 20
1.925864574312208
 10
2.168775915729103
 20
1.925092288989814
 10
2.163241000258527
 20
1.923835895511528
 10
2.157608123727186
 20
1.922100773947109
 10
2.151901406977162
 20
1.919894354353475
 10
2.146145287045689
 20
1.917226084958066
 10
2.145502200107513
 20
1.916900794523603
  0
ARC
  5
D7E
330
1F
100
AcDbEntity
  8
0
  6
Continuous
 62
     7
370
    15
100
AcDbCircle
 10
2.086131219736734
 20
2.069641663727668
 30
0.0
 40
0.0409522718853225
100
AcDbArc
 50
296.0181153783159
 51
359.8834910672982
  0
ARC
  5
D7F
330
1F
100
AcDbEntity
  8
0
  6
Continuous
 62
     7
370
    15
100
AcDbCircle
 10
2.028010636061685
 20
2.117442013891478
 30
0.0
 40
0.1106544565549103
100
AcDbArc
 50
240.4794360886358
 51
254.0021325144034
  0
LINE
  5
D80
330
1F
100
AcDbEntity
  8
0
  6
Continuous
 62
     7
370
    15
100
AcDbLine
 10
1.9854373167611
 20
2.041851028299246
 30
0.0
 11
1.973487212161631
 21
2.021152840036483
 31
0.0
  0
LWPOLYLINE
  5
D81
330
1F
100
AcDbEntity
  8
0
  6
Continuous
 62
     7
370
    15
100
AcDbPolyline
 90
       39
 70
   128
 43
0.0
 10
2.095887395984812
 20
2.105612501834883
 10
2.100259222100579
 20
2.102870922580117
 10
2.104223941193005
 20
2.099930293332824
 10
2.107754470210517
 20
2.096810701572527
 10
2.110826692060014
 20
2.093533457274167
 10
2.113419620351074
 20
2.090120947339391
 10
2.115515542754274
 20
2.086596482671283
 10
2.117100141994362
 20
2.0829841389373
 10
2.118162593651766
 20
2.079308592107998
 10
2.118695640104354
 20
2.07559494989519
 10
2.118695640104354
 20
2.071868580240767
 10
2.118162593651766
 20
2.068154938027956
 10
2.117100141994362
 20
2.064479391198659
 10
2.115515542754274
 20
2.060867047464671
 10
2.113419620351074
 20
2.057342582796568
 10
2.110826692060014
 20
2.053930072861788
 10
2.107754470210516
 20
2.05065282856343
 10
2.104223941193005
 20
2.04753323680313
 10
2.100259222100579
 20
2.044592607555839
 10
2.095887395984812
 20
2.041851028301072
 10
2.091138326851048
 20
2.039327226805066
 10
2.086044455656964
 20
2.037038443191139
 10
2.080640578707932
 20
2.035000312172166
 10
2.074963609962973
 20
2.033226756249651
 10
2.069052328874985
 20
2.031729890608903
 10
2.062947115487761
 20
2.030519940360052
 10
2.05668967459934
 20
2.029605170690169
 10
2.050322750875951
 20
2.028991830403664
 10
2.043889836862602
 20
2.028684109236614
 10
2.037434875884893
 20
2.028684109236614
 10
2.03100196187154
 20
2.028991830403664
 10
2.024635038148151
 20
2.029605170690169
 10
2.018377597259731
 20
2.030519940360052
 10
2.012272383872506
 20
2.031729890608903
 10
2.00636110278452
 20
2.033226756249651
 10
2.000684134039561
 20
2.035000312172166
 10
1.995280257090531
 20
2.037038443191139
 10
1.990186385896445
 20
2.039327226805066
 10
1.9854373167611
 20
2.041851028299246
  0
LINE
  5
D82
330
1F
100
AcDbEntity
  8
0
  6
Continuous
 62
     7
370
    15
100
AcDbLine
 10
2.107837500585539
 20
2.098711610659492
 30
0.0
 11
2.095887395984812
 21
2.105612501834883
 31
0.0
  0
ARC
  5
D83
330
1F
100
AcDbEntity
  8
0
  6
Continuous
 62
     7
370
    15
100
AcDbCircle
 10
2.073862050694519
 20
2.038016428442972
 30
0.0
 40
0.0695574319508261
100
AcDbArc
 50
42.31307262902705
 51
60.76112920108013
  0
LINE
  5
D84
330
1F
100
AcDbEntity
  8
0
  6
Continuous
 62
     7
370
    15
100
AcDbLine
 10
2.079445943967816
 20
2.096121053618529
 30
0.0
 11
2.093641722277141
 21
2.065536716688416
 31
0.0
  0
LINE
  5
D85
330
1F
100
AcDbEntity
  8
0
  6
Continuous
 62
     7
370
    15
100
AcDbLine
 10
2.02646657806442
 20
2.104316101999994
 30
0.0
 11
2.079445943967816
 21
2.096121053618529
 31
0.0
  0
LINE
  5
D86
330
1F
100
AcDbEntity
  8
0
  6
Continuous
 62
     7
370
    15
100
AcDbLine
 10
1.987682990470352
 20
2.081926813451347
 30
0.0
 11
2.02646657806442
 21
2.104316101999994
 31
0.0
  0
LINE
  5
D87
330
1F
100
AcDbEntity
  8
0
  6
Continuous
 62
     7
370
    15
100
AcDbLine
 10
2.001878768779681
 20
2.051342476521234
 30
0.0
 11
1.987682990470352
 21
2.081926813451347
 31
0.0
  0
LINE
  5
D88
330
1F
100
AcDbEntity
  8
0
  6
Continuous
 62
     7
370
    15
100
AcDbLine
 10
2.054858134683075
 20
2.043147428139767
 30
0.0
 11
2.001878768779681
 21
2.051342476521234
 31
0.0
  0
LINE
  5
D89
330
1F
100
AcDbEntity
  8
0
  6
Continuous
 62
     7
370
    15
100
AcDbLine
 10
2.093641722277141
 20
2.065536716688416
 30
0.0
 11
2.054858134683075
 21
2.043147428139767
 31
0.0
  0
LWPOLYLINE
  5
D8A
330
1F
100
AcDbEntity
  8
0
  6
Continuous
 62
     7
370
    15
100
AcDbPolyline
 90
       39
 70
   128
 43
0.0
 10
1.9854373167611
 20
2.041851028299246
 10
1.981065490645207
 20
2.044592607554095
 10
1.977100771552667
 20
2.04753323680148
 10
1.973570242535055
 20
2.050652828561883
 10
1.97049802068547
 20
2.053930072860356
 10
1.967905092394336
 20
2.05734258279526
 10
1.965809169991077
 20
2.060867047463499
 10
1.964224570750943
 20
2.06447939119763
 10
1.963162119093507
 20
2.068154938027075
 10
1.962629072640904
 20
2.07186858024004
 10
1.962629072640904
 20
2.075594949894625
 10
1.963162119093507
 20
2.079308592107599
 10
1.964224570750943
 20
2.082984138937065
 10
1.965809169991077
 20
2.086596482671219
 10
1.967905092394336
 20
2.090120947339494
 10
1.97049802068547
 20
2.093533457274439
 10
1.973570242535055
 20
2.096810701572964
 10
1.977100771552667
 20
2.099930293333426
 10
1.981065490645209
 20
2.102870922580876
 10
1.9854373167611
 20
2.105612501835798
 10
1.990186385895001
 20
2.108136303331952
 10
1.995280257089229
 20
2.11042508694602
 10
2.000684134038417
 20
2.112463217965124
 10
2.00636110278354
 20
2.114236773887762
 10
2.012272383871696
 20
2.115733639528623
 10
2.018377597259095
 20
2.116943589777578
 10
2.024635038147695
 20
2.117858359447552
 10
2.031001961871265
 20
2.118471699734136
 10
2.0374348758848
 20
2.118779420901251
 10
2.043889836862696
 20
2.118779420901306
 10
2.050322750876232
 20
2.118471699734296
 10
2.0566896745998
 20
2.117858359447816
 10
2.062947115488402
 20
2.116943589777946
 10
2.0690523288758
 20
2.115733639529092
 10
2.074963609963957
 20
2.11423677388833
 10
2.080640578709078
 20
2.112463217965785
 10
2.086044455658264
 20
2.110425086946772
 10
2.091138326852496
 20
2.108136303332787
 10
2.095887395984812
 20
2.105612501834883
  0
ARC
  5
D8B
330
1F
100
AcDbEntity
  8
0
  6
Continuous
 62
     7
370
    15
100
AcDbCircle
 10
2.007462662066233
 20
2.081848022262716
 30
0.0
 40
0.0695574319659358
100
AcDbArc
 50
222.3130726262912
 51
240.7611291952266
  0
ARC
  5
D8C
330
1F
100
AcDbEntity
  8
0
  6
Continuous
 62
     7
370
    15
100
AcDbCircle
 10
2.123886979567644
 20
1.821552009785658
 30
0.0
 40
0.3607745907682491
100
AcDbArc
 50
122.5797532900246
 51
177.4256232426748
  0
ARC
  5
D8D
330
1F
100
AcDbEntity
  8
0
  6
Continuous
 62
     7
370
    15
100
AcDbCircle
 10
1.996020321740886
 20
2.063801655420041
 30
0.0
 40
0.041780121551462
100
AcDbArc
 50
113.3628196414846
 51
179.583175018962
  0
LINE
  5
D8E
330
1F
100
AcDbEntity
  8
0
  6
Continuous
 62
     7
370
    15
100
AcDbLine
 10
2.02646657806442
 20
2.086352204138509
 30
0.0
 11
1.994258945957119
 21
2.067759133887592
 31
0.0
  0
LINE
  5
D8F
330
1F
100
AcDbEntity
  8
0
  6
Continuous
 62
     7
370
    15
100
AcDbLine
 10
2.079445943967816
 20
2.078157155757045
 30
0.0
 11
2.02646657806442
 21
2.086352204138509
 31
0.0
  0
LINE
  5
D90
330
1F
100
AcDbEntity
  8
0
  6
Continuous
 62
     7
370
    15
100
AcDbLine
 10
2.087065766790376
 20
2.061740498390686
 30
0.0
 11
2.079445943967816
 21
2.078157155757045
 31
0.0
  0
LINE
  5
D91
330
1F
100
AcDbEntity
  8
0
  6
Continuous
 62
     7
370
    15
100
AcDbLine
 10
2.079445943967816
 20
2.078157155757045
 30
0.0
 11
2.079445943967816
 21
2.096121053618529
 31
0.0
  0
LINE
  5
D92
330
1F
100
AcDbEntity
  8
0
  6
Continuous
 62
     7
370
    15
100
AcDbLine
 10
2.02646657806442
 20
2.086352204138509
 30
0.0
 11
2.02646657806442
 21
2.104316101999994
 31
0.0
  0
DIMENSION
  5
DC8
330
1F
100
AcDbEntity
  8
DIM
100
AcDbDimension
  2
*D8
 10
1.163658967827643
 20
0.8531049974881847
 30
0.0
 11
1.143155908684203
 21
0.7906049974875526
 31
0.0
 70
    32
 71
     5
 42
0.1250000000012648
  3
Standard
100
AcDbAlignedDimension
 13
1.055751240198941
 23
0.72810499748692
 33
0.0
 14
1.055751240198941
 24
0.8531049974881847
 34
0.0
 50
90.0
100
AcDbRotatedDimension
  0
DIMENSION
  5
DD5
330
1F
100
AcDbEntity
  8
DIM
100
AcDbDimension
  2
*D9
 10
1.163658967827643
 20
1.103104997490376
 30
0.0
 11
1.143155908684203
 21
0.9781049974892809
 31
0.0
 70
    32
 71
     5
 42
0.250000000002192
  3
Standard
100
AcDbAlignedDimension
 13
1.055751240198941
 23
0.8531049974881847
 33
0.0
 14
1.055751240200298
 24
1.103104997490376
 34
0.0
 50
90.0
100
AcDbRotatedDimension
  0
DIMENSION
  5
DE2
330
1F
100
AcDbEntity
  8
DIM
100
AcDbDimension
  2
*D10
 10
1.163658967827643
 20
1.228104997488184
 30
0.0
 11
1.143155908684203
 21
1.165604997489281
 31
0.0
 70
    32
 71
     5
 42
0.124999999997808
  3
Standard
100
AcDbAlignedDimension
 13
1.055751240200298
 23
1.103104997490376
 33
0.0
 14
1.055751240198941
 24
1.228104997488184
 34
0.0
 50
90.0
100
AcDbRotatedDimension
  0
DIMENSION
  5
DEF
330
1F
100
AcDbEntity
  8
DIM
100
AcDbDimension
  2
*D11
 10
0.9928512401994996
 20
1.288394819093216
 30
0.0
 11
0.9147512401989402
 21
1.308897878236656
 31
0.0
 70
    32
 71
     5
 42
0.1562000000011192
  3
Standard
100
AcDbAlignedDimension
 13
0.8366512401983804
 23
1.228104997485854
 33
0.0
 14
0.9928512401994996
 24
1.228104997485854
 34
0.0
100
AcDbRotatedDimension
  0
DIMENSION
  5
DFC
330
1F
100
AcDbEntity
  8
DIM
100
AcDbDimension
  2
*D12
 10
1.055751240198941
 20
0.647855618361275
 30
0.0
 11
0.9142512401989414
 21
0.647855618361275
 31
0.0
 70
   160
 71
     5
 42
0.2829999999999995
  3
Standard
100
AcDbAlignedDimension
 13
0.7727512401989416
 23
0.728104997486213
 33
0.0
 14
1.055751240198941
 24
0.7281049974881848
 34
0.0
100
AcDbRotatedDimension
  0
DIMENSION
  5
E09
330
1F
100
AcDbEntity
  8
DIM
100
AcDbDimension
  2
*D13
 10
1.162461743177182
 20
1.940098542599872
 30
0.0
 11
1.162461743177182
 21
1.81509854259924
 31
0.0
 70
   160
 71
     5
 42
0.2500000000012648
  3
Standard
100
AcDbAlignedDimension
 13
1.055751240198941
 23
1.690098542598607
 33
0.0
 14
1.055751240198941
 24
1.940098542599872
 34
0.0
 50
90.0
100
AcDbRotatedDimension
  0
DIMENSION
  5
E17
330
1F
100
AcDbEntity
  8
DIM
100
AcDbDimension
  2
*D14
 10
0.9760622154767537
 20
1.911020094444293
 30
0.0
 11
0.6351672032682951
 21
2.046415528130119
 31
0.0
 70
   163
 71
     5
 42
0.1357142857130856
  3
Standard
100
AcDbDiametricDimension
 15
0.853440264921128
 25
1.969176990755451
 35
0.0
 40
0.0
1001
ACAD_DSTYLE_DIMRADIAL_EXTENSION
1070
   387
1070
     1
1070
   388
1040
0.0
1070
   390
1040
0.0
1001
ACAD
1000
DSTYLE
1002
{
1070
    73
1070
     1
1070
    74
1070
     1
1002
}
  0
DIMENSION
  5
E23
330
1F
100
AcDbEntity
  8
DIM
100
AcDbDimension
  2
*D15
 10
0.8415716734211319
 20
1.893885411414599
 30
0.0
 11
1.14085409973427
 21
2.0478393033729
 31
0.0
 70
   163
 71
     5
 42
0.1730999998582898
  3
Standard
100
AcDbDiametricDimension
 15
0.9879308069767503
 25
1.986311673785142
 35
0.0
 40
0.0
1001
ACAD_DSTYLE_DIMRADIAL_EXTENSION
1070
   387
1070
     1
1070
   388
1040
2.301600493941744
1070
   390
1040
3.98158481628352
1001
ACAD
1000
DSTYLE
1002
{
1070
    73
1070
     1
1070
    74
1070
     1
1002
}
  0
DIMENSION
  5
E3D
330
1F
100
AcDbEntity
  8
DIM
100
AcDbDimension
  2
*D16
 10
1.070751240200471
 20
1.58770618943215
 30
0.0
 11
0.9142512401997059
 21
1.58770618943215
 31
0.0
 70
   160
 71
     5
 42
0.31300000000153
  3
Standard
100
AcDbAlignedDimension
 13
0.7577512401989411
 23
1.705098542597901
 33
0.0
 14
1.070751240200471
 24
1.705098542597901
 34
0.0
100
AcDbRotatedDimension
  0
DIMENSION
  5
E4A
330
1F
100
AcDbEntity
  8
DIM
100
AcDbDimension
  2
*D17
 10
2.053427648346066
 20
0.8912922587360029
 30
0.0
 11
2.400935974448909
 21
1.17308030107112
 31
0.0
 70
   163
 71
     5
 42
0.2499999999999072
  3
Standard
100
AcDbDiametricDimension
 15
2.233300363234498
 25
1.064917736240366
 35
0.0
 40
0.0
1001
ACAD_DSTYLE_DIMRADIAL_EXTENSION
1070
   387
1070
     1
1070
   388
1040
0.0
1070
   390
1040
0.0
1001
ACAD
1000
DSTYLE
1002
{
1070
    73
1070
     1
1070
    74
1070
     1
1002
}
  0
DIMENSION
  5
E56
330
1F
100
AcDbEntity
  8
DIM
100
AcDbDimension
  2
*D18
 10
2.198212281363295
 20
1.379410587069973
 30
0.0
 11
2.143364005790282
 21
1.379410587069973
 31
0.0
 70
   160
 71
     5
 42
0.1096965511460262
  3
Standard
100
AcDbAlignedDimension
 13
2.088515730217269
 23
1.228104997488184
 33
0.0
 14
2.198212281363295
 24
1.228104997485687
 34
0.0
100
AcDbRotatedDimension
  0
TEXT
  5
100C
330
1F
100
AcDbEntity
  8
FORMAT
 62
     7
100
AcDbText
 10
2.093802880849553
 20
0.5115593637634049
 30
0.0
 40
0.04
  1
SIDE
 41
0.9
  7
SLDTEXTSTYLE1
100
AcDbText
  0
ENDSEC
  0
SECTION
  2
OBJECTS
  0
DICTIONARY
  5
C
330
0
100
AcDbDictionary
281
     1
  3
ACAD_COLOR
350
FC
  3
ACAD_GROUP
350
D
  3
ACAD_LAYOUT
350
1A
  3
ACAD_MATERIAL
350
E7
  3
ACAD_MLEADERSTYLE
350
C2B
  3
ACAD_MLINESTYLE
350
17
  3
ACAD_PLOTSETTINGS
350
19
  3
ACAD_PLOTSTYLENAME
350
E
  3
ACAD_SCALELIST
350
C09
  3
ACAD_TABLESTYLE
350
FD
  3
ACAD_VISUALSTYLE
350
EB
  3
ACDB_RECOMPOSE_DATA
350
1042
  3
AcDbVariableDictionary
350
3CB
  0
DICTIONARY
  5
4DC
330
8
100
AcDbDictionary
280
     1
281
     1
  0
DICTIONARY
  5
61E
330
2
100
AcDbDictionary
280
     1
281
     1
  3
ACAD_LAYERFILTERS
360
622
  3
ACAD_LAYERSTATES
360
1032
  3
ACLYDICTIONARY
360
621
  0
DICTIONARY
  5
1014
330
10
100
AcDbDictionary
280
     1
281
     1
  3
ADSK_XREC_LAYER_RECONCILED
360
1015
  0
DICTIONARY
  5
1016
330
44
100
AcDbDictionary
280
     1
281
     1
  3
ADSK_XREC_LAYER_RECONCILED
360
1017
  0
DICTIONARY
  5
1018
330
61C
100
AcDbDictionary
280
     1
281
     1
  3
ADSK_XREC_LAYER_RECONCILED
360
1019
  0
DICTIONARY
  5
EA4
330
1F
100
AcDbDictionary
280
     1
281
     1
  3
ACAD_SORTENTS
360
EA5
  0
DICTIONARY
  5
40A
330
409
100
AcDbDictionary
280
     1
281
     1
  3
ACAD_SORTENTS
360
40B
  0
DICTIONARY
  5
1075
330
F9A
100
AcDbDictionary
280
     1
281
     1
  3
ACAD_MTEXT_2008_RT
360
1076
  0
DICTIONARY
  5
1073
330
F75
100
AcDbDictionary
280
     1
281
     1
  3
ACAD_MTEXT_2008_RT
360
1074
  0
DICTIONARY
  5
1077
330
FAC
100
AcDbDictionary
280
     1
281
     1
  3
ACAD_MTEXT_2008_RT
360
1078
  0
DICTIONARY
  5
1071
330
E74
100
AcDbDictionary
280
     1
281
     1
  3
ACAD_MTEXT_2008_RT
360
1072
  0
DICTIONARY
  5
FC
102
{ACAD_REACTORS
330
C
102
}
330
C
100
AcDbDictionary
281
     1
  0
DICTIONARY
  5
D
102
{ACAD_REACTORS
330
C
102
}
330
C
100
AcDbDictionary
281
     1
  0
DICTIONARY
  5
1A
102
{ACAD_REACTORS
330
C
102
}
330
C
100
AcDbDictionary
281
     1
  3
Layout1
350
1E
  3
Layout2
350
26
  3
Model
350
22
  0
DICTIONARY
  5
E7
102
{ACAD_REACTORS
330
C
102
}
330
C
100
AcDbDictionary
281
     1
  3
ByBlock
350
E9
  3
ByLayer
350
E8
  3
Global
350
EA
  0
DICTIONARY
  5
C2B
102
{ACAD_REACTORS
330
C
102
}
330
C
100
AcDbDictionary
281
     1
  3
Standard
350
C2C
  0
DICTIONARY
  5
17
102
{ACAD_REACTORS
330
C
102
}
330
C
100
AcDbDictionary
281
     1
  3
Standard
350
18
  0
DICTIONARY
  5
19
102
{ACAD_REACTORS
330
C
102
}
330
C
100
AcDbDictionary
281
     1
  3
JPG
350
BEE
  3
PDF
350
BE5
  0
ACDBDICTIONARYWDFLT
  5
E
102
{ACAD_REACTORS
330
C
102
}
330
C
100
AcDbDictionary
281
     1
  3
Normal
350
F
100
AcDbDictionaryWithDefault
340
F
  0
DICTIONARY
  5
C09
102
{ACAD_REACTORS
330
C
102
}
330
C
100
AcDbDictionary
281
     1
  3
A0
350
C0A
  3
A1
350
C0B
  3
A2
350
C0C
  3
A3
350
C0D
  3
A4
350
C0E
  3
A5
350
C0F
  3
A6
350
C10
  3
A7
350
C11
  3
A8
350
C12
  3
A9
350
C13
  3
B0
350
C14
  3
B1
350
C15
  3
B2
350
C16
  3
B3
350
C17
  3
B4
350
C18
  3
B5
350
C19
  3
B6
350
C1A
  3
B7
350
C1B
  3
B8
350
C1C
  3
B9
350
C1D
  3
C0
350
C1E
  3
C1
350
C1F
  3
C2
350
C20
  3
C3
350
C21
  3
C4
350
C22
  3
C5
350
C23
  3
C6
350
C24
  3
C7
350
C25
  3
C8
350
C26
  3
C9
350
C27
  3
D0
350
C28
  3
D1
350
C29
  3
D2
350
C2A
  0
DICTIONARY
  5
FD
102
{ACAD_REACTORS
330
C
102
}
330
C
100
AcDbDictionary
281
     1
  3
Standard
350
FE
  0
DICTIONARY
  5
EB
102
{ACAD_REACTORS
330
C
102
}
330
C
100
AcDbDictionary
281
     1
  3
2dWireframe
350
F1
  3
3D Hidden
350
F3
  3
3dWireframe
350
F2
  3
Basic
350
F0
  3
Brighten
350
F7
  3
ColorChange
350
FB
  3
Conceptual
350
F4
  3
Dim
350
F6
  3
EdgeColorOff
350
C08
  3
Facepattern
350
FA
  3
Flat
350
EC
  3
FlatWithEdges
350
ED
  3
Gouraud
350
EE
  3
GouraudWithEdges
350
EF
  3
JitterOff
350
C06
  3
Linepattern
350
F9
  3
OverhangOff
350
C07
  3
Realistic
350
F5
  3
Thicken
350
F8
  0
XRECORD
  5
1042
102
{ACAD_REACTORS
330
C
102
}
330
C
100
AcDbXrecord
280
     1
 90
        1
330
FE
  0
DICTIONARY
  5
3CB
102
{ACAD_REACTORS
330
C
102
}
330
C
100
AcDbDictionary
281
     1
  3
CANNOSCALE
350
101C
  3
CMLEADERSTYLE
350
101A
  3
CTABLESTYLE
350
3CC
  3
LAYEREVAL
350
101E
  3
LAYERNOTIFY
350
101F
  3
LIGHTINGUNITS
350
101D
  3
MSLTSCALE
350
101B
  0
DICTIONARY
  5
622
102
{ACAD_REACTORS
330
61E
102
}
330
61E
100
AcDbDictionary
281
     1
  0
DICTIONARY
  5
1032
102
{ACAD_REACTORS
330
61E
102
}
330
61E
100
AcDbDictionary
281
     1
  0
DICTIONARY
  5
621
102
{ACAD_REACTORS
330
61E
102
}
330
61E
100
AcDbDictionary
281
     1
1001
ACAD
1000
<All
  0
XRECORD
  5
1015
102
{ACAD_REACTORS
330
1014
102
}
330
1014
100
AcDbXrecord
280
     1
290
     1
  0
XRECORD
  5
1017
102
{ACAD_REACTORS
330
1016
102
}
330
1016
100
AcDbXrecord
280
     1
290
     1
  0
XRECORD
  5
1019
102
{ACAD_REACTORS
330
1018
102
}
330
1018
100
AcDbXrecord
280
     1
290
     1
  0
SORTENTSTABLE
  5
EA5
102
{ACAD_REACTORS
330
EA4
102
}
330
EA4
100
AcDbSortentsTable
330
1F
331
D18
  5
D18
331
D5F
  5
D5F
331
D20
  5
D20
331
A8B
  5
A8B
331
D67
  5
D67
331
D28
  5
D28
331
444
  5
444
331
D6F
  5
D6F
331
D30
  5
D30
331
44C
  5
44C
331
CF9
  5
CF9
331
D38
  5
D38
331
454
  5
454
331
D77
  5
D77
331
D01
  5
D01
331
D40
  5
D40
331
D7F
  5
D7F
331
D09
  5
D09
331
D48
  5
D48
331
D50
  5
D50
331
D11
  5
D11
331
D87
  5
D87
331
D8F
  5
D8F
331
E3D
  5
E3D
331
D58
  5
D58
331
D19
  5
D19
331
D60
  5
D60
331
D21
  5
D21
331
43D
  5
43D
331
D68
  5
D68
331
D29
  5
D29
331
445
  5
445
331
D31
  5
D31
331
44D
  5
44D
331
D70
  5
D70
331
CFA
  5
CFA
331
D39
  5
D39
331
455
  5
455
331
D78
  5
D78
331
D02
  5
D02
331
D41
  5
D41
331
DEF
  5
DEF
331
D80
  5
D80
331
D0A
  5
D0A
331
D49
  5
D49
331
D88
  5
D88
331
D12
  5
D12
331
D51
  5
D51
331
D59
  5
D59
331
D1A
  5
D1A
331
D90
  5
D90
331
D61
  5
D61
331
43E
  5
43E
331
D22
  5
D22
331
DC8
  5
DC8
331
E17
  5
E17
331
D69
  5
D69
331
446
  5
446
331
D2A
  5
D2A
331
D32
  5
D32
331
44E
  5
44E
331
E56
  5
E56
331
D71
  5
D71
331
CFB
  5
CFB
331
D3A
  5
D3A
331
456
  5
456
331
D79
  5
D79
331
D03
  5
D03
331
D42
  5
D42
331
D81
  5
D81
331
D0B
  5
D0B
331
D4A
  5
D4A
331
D52
  5
D52
331
D13
  5
D13
331
D89
  5
D89
331
D5A
  5
D5A
331
D1B
  5
D1B
331
D91
  5
D91
331
D62
  5
D62
331
D23
  5
D23
331
43F
  5
43F
331
D6A
  5
D6A
331
D2B
  5
D2B
331
447
  5
447
331
D33
  5
D33
331
44F
  5
44F
331
D72
  5
D72
331
CFC
  5
CFC
331
D3B
  5
D3B
331
457
  5
457
331
D7A
  5
D7A
331
D43
  5
D43
331
D04
  5
D04
331
D82
  5
D82
331
D0C
  5
D0C
331
D4B
  5
D4B
331
D53
  5
D53
331
D14
  5
D14
331
D8A
  5
D8A
331
E09
  5
E09
331
D5B
  5
D5B
331
D1C
  5
D1C
331
D92
  5
D92
331
D63
  5
D63
331
D24
  5
D24
331
440
  5
440
331
D6B
  5
D6B
331
CF5
  5
CF5
331
D2C
  5
D2C
331
448
  5
448
331
D34
  5
D34
331
450
  5
450
331
D73
  5
D73
331
CFD
  5
CFD
331
D3C
  5
D3C
331
DE2
  5
DE2
331
D7B
  5
D7B
331
D05
  5
D05
331
D44
  5
D44
331
D83
  5
D83
331
D0D
  5
D0D
331
D4C
  5
D4C
331
D54
  5
D54
331
D8B
  5
D8B
331
D15
  5
D15
331
D5C
  5
D5C
331
D1D
  5
D1D
331
D64
  5
D64
331
D25
  5
D25
331
441
  5
441
331
D6C
  5
D6C
331
CF6
  5
CF6
331
D2D
  5
D2D
331
449
  5
449
331
D35
  5
D35
331
451
  5
451
331
D74
  5
D74
331
CFE
  5
CFE
331
D3D
  5
D3D
331
B40
  5
B40
331
D45
  5
D45
331
D06
  5
D06
331
D7C
  5
D7C
331
D84
  5
D84
331
D0E
  5
D0E
331
D4D
  5
D4D
331
D55
  5
D55
331
D16
  5
D16
331
D8C
  5
D8C
331
E4A
  5
E4A
331
D5D
  5
D5D
331
D1E
  5
D1E
331
D65
  5
D65
331
D26
  5
D26
331
442
  5
442
331
D6D
  5
D6D
331
CF7
  5
CF7
331
D2E
  5
D2E
331
44A
  5
44A
331
D36
  5
D36
331
D75
  5
D75
331
CFF
  5
CFF
331
D3E
  5
D3E
331
D7D
  5
D7D
331
D07
  5
D07
331
D46
  5
D46
331
D85
  5
D85
331
D0F
  5
D0F
331
D4E
  5
D4E
331
DFC
  5
DFC
331
D56
  5
D56
331
D17
  5
D17
331
D8D
  5
D8D
331
E23
  5
E23
331
D5E
  5
D5E
331
D1F
  5
D1F
331
A8A
  5
A8A
331
D66
  5
D66
331
D27
  5
D27
331
443
  5
443
331
D6E
  5
D6E
331
D2F
  5
D2F
331
DD5
  5
DD5
331
44B
  5
44B
331
D37
  5
D37
331
CF8
  5
CF8
331
453
  5
453
331
D76
  5
D76
331
D00
  5
D00
331
D3F
  5
D3F
331
D47
  5
D47
331
D08
  5
D08
331
D7E
  5
D7E
331
50B
  5
50B
331
D86
  5
D86
331
D10
  5
D10
331
D4F
  5
D4F
331
D57
  5
D57
331
D8E
  5
D8E
  0
SORTENTSTABLE
  5
40B
102
{ACAD_REACTORS
330
40A
102
}
330
40A
100
AcDbSortentsTable
330
409
331
40F
  5
6D
331
40D
  5
6A
331
410
  5
69
331
40E
  5
6B
  0
XRECORD
  5
1076
102
{ACAD_REACTORS
330
1075
102
}
330
1075
100
AcDbXrecord
280
     1
 40
7278.0
  1
\A1;\U+22050.136
  0
XRECORD
  5
1074
102
{ACAD_REACTORS
330
1073
102
}
330
1073
100
AcDbXrecord
280
     1
 40
7290.0
  1
\A1;\U+22050.173
  0
XRECORD
  5
1078
102
{ACAD_REACTORS
330
1077
102
}
330
1077
100
AcDbXrecord
280
     1
 40
7226.0
  1
\A1;\U+22050.250
  0
XRECORD
  5
1072
102
{ACAD_REACTORS
330
1071
102
}
330
1071
100
AcDbXrecord
280
     1
 40
8267.0
  1
\A1;\U+22050.5709
  0
LAYOUT
  5
1E
102
{ACAD_REACTORS
330
1A
102
}
330
1A
100
AcDbPlotSettings
  1

  2
none_device
  4

  6

 40
0.0
 41
0.0
 42
0.0
 43
0.0
 44
0.0
 45
0.0
 46
0.0
 47
0.0
 48
0.0
 49
0.0
140
0.0
141
0.0
142
1.0
143
1.0
 70
   688
 72
     0
 73
     0
 74
     5
  7

 75
    16
147
1.0
 76
     0
 77
     2
 78
   300
148
0.0
149
0.0
100
AcDbLayout
  1
Layout1
 70
     1
 71
     1
 10
0.0
 20
0.0
 11
12.0
 21
9.0
 12
0.0
 22
0.0
 32
0.0
 14
1.000000000000000E+20
 24
1.000000000000000E+20
 34
1.000000000000000E+20
 15
-1.000000000000000E+20
 25
-1.000000000000000E+20
 35
-1.000000000000000E+20
146
0.0
 13
0.0
 23
0.0
 33
0.0
 16
1.0
 26
0.0
 36
0.0
 17
0.0
 27
1.0
 37
0.0
 76
     0
330
1B
  0
LAYOUT
  5
26
102
{ACAD_REACTORS
330
1A
102
}
330
1A
100
AcDbPlotSettings
  1

  2
none_device
  4

  6

 40
0.0
 41
0.0
 42
0.0
 43
0.0
 44
0.0
 45
0.0
 46
0.0
 47
0.0
 48
0.0
 49
0.0
140
0.0
141
0.0
142
1.0
143
1.0
 70
   688
 72
     0
 73
     0
 74
     5
  7

 75
    16
147
1.0
 76
     0
 77
     2
 78
   300
148
0.0
149
0.0
100
AcDbLayout
  1
Layout2
 70
     1
 71
     2
 10
0.0
 20
0.0
 11
0.0
 21
0.0
 12
0.0
 22
0.0
 32
0.0
 14
0.0
 24
0.0
 34
0.0
 15
0.0
 25
0.0
 35
0.0
146
0.0
 13
0.0
 23
0.0
 33
0.0
 16
1.0
 26
0.0
 36
0.0
 17
0.0
 27
1.0
 37
0.0
 76
     0
330
23
  0
LAYOUT
  5
22
102
{ACAD_XDICTIONARY
360
1037
102
}
102
{ACAD_REACTORS
330
1A
102
}
330
1A
100
AcDbPlotSettings
  1

  2
none_device
  4
Letter_(8.50_x_11.00_Inches)
  6

 40
6.349999904632568
 41
6.349999904632568
 42
6.350006103515625
 43
6.350006103515625
 44
215.8999938964844
 45
279.3999938964844
 46
0.0
 47
0.0
 48
0.0
 49
0.0
140
0.0
141
0.0
142
1.0
143
2.383658744906425
 70
 11952
 72
     0
 73
     1
 74
     0
  7

 75
     0
147
0.4195231394329716
 76
     0
 77
     2
 78
   300
148
135.2900774710282
149
-27.52084133435472
100
AcDbLayout
  1
Model
 70
     1
 71
     0
 10
0.0
 20
0.0
 11
16.53543307086614
 21
11.69291338582677
 12
0.0
 22
0.0
 32
0.0
 14
0.0
 24
0.0
 34
0.0
 15
16.53543307086614
 25
11.69291338582677
 35
0.0
146
0.0
 13
0.0
 23
0.0
 33
0.0
 16
1.0
 26
0.0
 36
0.0
 17
0.0
 27
1.0
 37
0.0
 76
     0
330
1F
331
29
1001
ACAD_PSEXT
1000
None
1000
None
1000
Not applicable
1000
The layout will not be plotted unless a new plotter configuration name is selected.
1070
     0
  0
MATERIAL
  5
E9
102
{ACAD_XDICTIONARY
360
1045
102
}
102
{ACAD_REACTORS
330
E7
102
}
330
E7
100
AcDbMaterial
  1
ByBlock
 73
     1
 78
     1
172
     1
176
     1
270
     1
274
     1
  0
MATERIAL
  5
E8
102
{ACAD_XDICTIONARY
360
1043
102
}
102
{ACAD_REACTORS
330
E7
102
}
330
E7
100
AcDbMaterial
  1
ByLayer
 73
     1
 78
     1
172
     1
176
     1
270
     1
274
     1
  0
MATERIAL
  5
EA
102
{ACAD_XDICTIONARY
360
1047
102
}
102
{ACAD_REACTORS
330
E7
102
}
330
E7
100
AcDbMaterial
  1
Global
 73
     1
 78
     1
172
     1
176
     1
270
     1
274
     1
  0
MLEADERSTYLE
  5
C2C
102
{ACAD_REACTORS
330
C2B
102
}
330
C2B
100
AcDbMLeaderStyle
170
     2
171
     1
172
     0
 90
        2
 40
0.0
 41
0.0
173
     1
 91
-1056964608
340
14
 92
       -2
290
     1
 42
0.09
291
     1
 43
0.36
  3
Standard
 44
0.18
300

342
11
174
     1
178
     6
175
     1
176
     0
 93
-1056964608
 45
0.18
292
     0
297
     0
 46
0.18
 94
-1056964608
 47
1.0
 49
1.0
140
1.0
293
     1
141
0.0
294
     1
177
     0
142
1.0
295
     0
296
     0
143
0.125
1001
ACAD_MLEADERVER
1070
     2
  0
MLINESTYLE
  5
18
102
{ACAD_REACTORS
330
17
102
}
330
17
100
AcDbMlineStyle
  2
STANDARD
 70
     0
  3

 62
   256
 51
90.0
 52
90.0
 71
     2
 49
0.5
 62
   256
  6
BYLAYER
 49
-0.5
 62
   256
  6
BYLAYER
  0
PLOTSETTINGS
  5
BEE
102
{ACAD_REACTORS
330
19
102
}
330
19
100
AcDbPlotSettings
  1
JPG
  2
PublishToWeb JPG.pc3
  4
User-1
  6

 40
75.0
 41
75.0
 42
75.000244140625
 43
75.000244140625
 44
2550.0
 45
3300.0
 46
7.281523769336217
 47
0.0
 48
0.0
 49
0.0
140
3.127012872511799
141
2.36802916559147
142
1.0
143
0.0009927025761495
 70
 11956
 72
     2
 73
     1
 74
     4
  7

 75
     0
147
1007.351067707346
 76
     0
 77
     2
 78
   300
148
0.0
149
0.0
1001
ACAD_PSEXT
1000
PublishToWeb JPG.pc3
1000
Independent JPEG Group JFIF (JPEG Compression)
1000
File
1000

1070
     0
  0
PLOTSETTINGS
  5
BE5
102
{ACAD_REACTORS
330
19
102
}
330
19
100
AcDbPlotSettings
  1
PDF
  2
DWG To PDF.pc3
  4
ISO_expand_A1_(841.00_x_594.00_MM)
  6

 40
5.793749809265136
 41
10.79374980926513
 42
5.79376220703125
 43
10.79376220703125
 44
841.0
 45
594.0
 46
36.76722948979273
 47
0.0
 48
0.0
 49
0.0
140
3.127012872511799
141
2.36802916559147
142
1.0
143
0.0041369278541297
 70
 11956
 72
     1
 73
     0
 74
     4
  7

 75
     0
147
241.7252693932637
 76
     0
 77
     2
 78
   300
148
0.0
149
0.0
1001
ACAD_PSEXT
1000
DWG To PDF.pc3
1000
PDF
1000
File
1000

1070
     0
  0
ACDBPLACEHOLDER
  5
F
102
{ACAD_REACTORS
330
E
102
}
330
E
  0
SCALE
  5
C0A
102
{ACAD_REACTORS
330
C09
102
}
330
C09
100
AcDbScale
 70
     0
300
1:1
140
1.0
141
1.0
290
     1
  0
SCALE
  5
C0B
102
{ACAD_REACTORS
330
C09
102
}
330
C09
100
AcDbScale
 70
     0
300
1:2
140
1.0
141
2.0
290
     0
  0
SCALE
  5
C0C
102
{ACAD_REACTORS
330
C09
102
}
330
C09
100
AcDbScale
 70
     0
300
1:4
140
1.0
141
4.0
290
     0
  0
SCALE
  5
C0D
102
{ACAD_REACTORS
330
C09
102
}
330
C09
100
AcDbScale
 70
     0
300
1:5
140
1.0
141
5.0
290
     0
  0
SCALE
  5
C0E
102
{ACAD_REACTORS
330
C09
102
}
330
C09
100
AcDbScale
 70
     0
300
1:8
140
1.0
141
8.0
290
     0
  0
SCALE
  5
C0F
102
{ACAD_REACTORS
330
C09
102
}
330
C09
100
AcDbScale
 70
     0
300
1:10
140
1.0
141
10.0
290
     0
  0
SCALE
  5
C10
102
{ACAD_REACTORS
330
C09
102
}
330
C09
100
AcDbScale
 70
     0
300
1:16
140
1.0
141
16.0
290
     0
  0
SCALE
  5
C11
102
{ACAD_REACTORS
330
C09
102
}
330
C09
100
AcDbScale
 70
     0
300
1:20
140
1.0
141
20.0
290
     0
  0
SCALE
  5
C12
102
{ACAD_REACTORS
330
C09
102
}
330
C09
100
AcDbScale
 70
     0
300
1:30
140
1.0
141
30.0
290
     0
  0
SCALE
  5
C13
102
{ACAD_REACTORS
330
C09
102
}
330
C09
100
AcDbScale
 70
     0
300
1:40
140
1.0
141
40.0
290
     0
  0
SCALE
  5
C14
102
{ACAD_REACTORS
330
C09
102
}
330
C09
100
AcDbScale
 70
     0
300
1:50
140
1.0
141
50.0
290
     0
  0
SCALE
  5
C15
102
{ACAD_REACTORS
330
C09
102
}
330
C09
100
AcDbScale
 70
     0
300
1:100
140
1.0
141
100.0
290
     0
  0
SCALE
  5
C16
102
{ACAD_REACTORS
330
C09
102
}
330
C09
100
AcDbScale
 70
     0
300
2:1
140
2.0
141
1.0
290
     0
  0
SCALE
  5
C17
102
{ACAD_REACTORS
330
C09
102
}
330
C09
100
AcDbScale
 70
     0
300
4:1
140
4.0
141
1.0
290
     0
  0
SCALE
  5
C18
102
{ACAD_REACTORS
330
C09
102
}
330
C09
100
AcDbScale
 70
     0
300
8:1
140
8.0
141
1.0
290
     0
  0
SCALE
  5
C19
102
{ACAD_REACTORS
330
C09
102
}
330
C09
100
AcDbScale
 70
     0
300
10:1
140
10.0
141
1.0
290
     0
  0
SCALE
  5
C1A
102
{ACAD_REACTORS
330
C09
102
}
330
C09
100
AcDbScale
 70
     0
300
100:1
140
100.0
141
1.0
290
     0
  0
SCALE
  5
C1B
102
{ACAD_REACTORS
330
C09
102
}
330
C09
100
AcDbScale
 70
     0
300
1/128" = 1'-0"
140
0.0078125
141
12.0
290
     0
  0
SCALE
  5
C1C
102
{ACAD_REACTORS
330
C09
102
}
330
C09
100
AcDbScale
 70
     0
300
1/64" = 1'-0"
140
0.015625
141
12.0
290
     0
  0
SCALE
  5
C1D
102
{ACAD_REACTORS
330
C09
102
}
330
C09
100
AcDbScale
 70
     0
300
1/32" = 1'-0"
140
0.03125
141
12.0
290
     0
  0
SCALE
  5
C1E
102
{ACAD_REACTORS
330
C09
102
}
330
C09
100
AcDbScale
 70
     0
300
1/16" = 1'-0"
140
0.0625
141
12.0
290
     0
  0
SCALE
  5
C1F
102
{ACAD_REACTORS
330
C09
102
}
330
C09
100
AcDbScale
 70
     0
300
3/32" = 1'-0"
140
0.09375
141
12.0
290
     0
  0
SCALE
  5
C20
102
{ACAD_REACTORS
330
C09
102
}
330
C09
100
AcDbScale
 70
     0
300
1/8" = 1'-0"
140
0.125
141
12.0
290
     0
  0
SCALE
  5
C21
102
{ACAD_REACTORS
330
C09
102
}
330
C09
100
AcDbScale
 70
     0
300
3/16" = 1'-0"
140
0.1875
141
12.0
290
     0
  0
SCALE
  5
C22
102
{ACAD_REACTORS
330
C09
102
}
330
C09
100
AcDbScale
 70
     0
300
1/4" = 1'-0"
140
0.25
141
12.0
290
     0
  0
SCALE
  5
C23
102
{ACAD_REACTORS
330
C09
102
}
330
C09
100
AcDbScale
 70
     0
300
3/8" = 1'-0"
140
0.375
141
12.0
290
     0
  0
SCALE
  5
C24
102
{ACAD_REACTORS
330
C09
102
}
330
C09
100
AcDbScale
 70
     0
300
1/2" = 1'-0"
140
0.5
141
12.0
290
     0
  0
SCALE
  5
C25
102
{ACAD_REACTORS
330
C09
102
}
330
C09
100
AcDbScale
 70
     0
300
3/4" = 1'-0"
140
0.75
141
12.0
290
     0
  0
SCALE
  5
C26
102
{ACAD_REACTORS
330
C09
102
}
330
C09
100
AcDbScale
 70
     0
300
1" = 1'-0"
140
1.0
141
12.0
290
     0
  0
SCALE
  5
C27
102
{ACAD_REACTORS
330
C09
102
}
330
C09
100
AcDbScale
 70
     0
300
1-1/2" = 1'-0"
140
1.5
141
12.0
290
     0
  0
SCALE
  5
C28
102
{ACAD_REACTORS
330
C09
102
}
330
C09
100
AcDbScale
 70
     0
300
3" = 1'-0"
140
3.0
141
12.0
290
     0
  0
SCALE
  5
C29
102
{ACAD_REACTORS
330
C09
102
}
330
C09
100
AcDbScale
 70
     0
300
6" = 1'-0"
140
6.0
141
12.0
290
     0
  0
SCALE
  5
C2A
102
{ACAD_REACTORS
330
C09
102
}
330
C09
100
AcDbScale
 70
     0
300
1'-0" = 1'-0"
140
12.0
141
12.0
290
     0
  0
TABLESTYLE
  5
FE
102
{ACAD_XDICTIONARY
360
1040
102
}
102
{ACAD_REACTORS
330
FD
102
}
330
FD
100
AcDbTableStyle
  3
Standard
 70
     0
 71
     0
 40
0.06
 41
0.06
280
     0
281
     0
  7
Standard
140
0.18
170
     2
 62
     0
 63
     7
283
     0
274
    -2
284
     1
 64
     0
275
    -2
285
     1
 65
     0
276
    -2
286
     1
 66
     0
277
    -2
287
     1
 67
     0
278
    -2
288
     1
 68
     0
279
    -2
289
     1
 69
     0
  7
Standard
140
0.25
170
     5
 62
     0
 63
     7
283
     0
274
    -2
284
     1
 64
     0
275
    -2
285
     1
 65
     0
276
    -2
286
     1
 66
     0
277
    -2
287
     1
 67
     0
278
    -2
288
     1
 68
     0
279
    -2
289
     1
 69
     0
  7
Standard
140
0.18
170
     5
 62
     0
 63
     7
283
     0
274
    -2
284
     1
 64
     0
275
    -2
285
     1
 65
     0
276
    -2
286
     1
 66
     0
277
    -2
287
     1
 67
     0
278
    -2
288
     1
 68
     0
279
    -2
289
     1
 69
     0
  0
VISUALSTYLE
  5
F1
102
{ACAD_XDICTIONARY
360
1053
102
}
102
{ACAD_REACTORS
330
EB
102
}
330
EB
100
AcDbVisualStyle
  2
2dWireframe
 70
     4
 71
     0
 72
     2
 73
     0
 90
        0
 40
-0.6
 41
-30.0
 62
     5
 63
     7
421
 16777215
 74
     1
 91
        4
 64
     7
 65
   257
 75
     1
175
     1
 42
1.0
 92
        0
 66
   257
 43
1.0
 76
     1
 77
     6
 78
     2
 67
     7
 79
     5
170
     0
171
     0
290
     0
174
     0
 93
        1
 44
0.0
173
     0
291
     0
 45
0.0
1001
ACAD
1000
AcDbSavedByObjectVersion
1070
     0
  0
VISUALSTYLE
  5
F3
102
{ACAD_XDICTIONARY
360
1057
102
}
102
{ACAD_REACTORS
330
EB
102
}
330
EB
100
AcDbVisualStyle
  2
3D Hidden
 70
     6
 71
     1
 72
     2
 73
     2
 90
        0
 40
-0.6
 41
-30.0
 62
     5
 63
     7
421
 16777215
 74
     2
 91
        2
 64
     7
 65
   257
 75
     2
175
     1
 42
40.0
 92
        0
 66
   257
 43
1.0
 76
     1
 77
     6
 78
     2
 67
     7
 79
     3
170
     0
171
     0
290
     0
174
     0
 93
        1
 44
0.0
173
     0
291
     0
 45
0.0
1001
ACAD
1000
AcDbSavedByObjectVersion
1070
     0
  0
VISUALSTYLE
  5
F2
102
{ACAD_XDICTIONARY
360
1055
102
}
102
{ACAD_REACTORS
330
EB
102
}
330
EB
100
AcDbVisualStyle
  2
3dWireframe
 70
     5
 71
     0
 72
     2
 73
     0
 90
        0
 40
-0.6
 41
-30.0
 62
     5
 63
     7
421
 16777215
 74
     1
 91
        4
 64
     7
 65
   257
 75
     1
175
     1
 42
1.0
 92
        0
 66
   257
 43
1.0
 76
     1
 77
     6
 78
     2
 67
     7
 79
     5
170
     0
171
     0
290
     0
174
     0
 93
        1
 44
0.0
173
     0
291
     0
 45
0.0
1001
ACAD
1000
AcDbSavedByObjectVersion
1070
     0
  0
VISUALSTYLE
  5
F0
102
{ACAD_XDICTIONARY
360
1051
102
}
102
{ACAD_REACTORS
330
EB
102
}
330
EB
100
AcDbVisualStyle
  2
Basic
 70
     7
 71
     1
 72
     0
 73
     1
 90
        0
 40
-0.6
 41
-30.0
 62
     5
 63
     7
421
 16777215
 74
     0
 91
        4
 64
     7
 65
   257
 75
     1
175
     1
 42
1.0
 92
        8
 66
     7
 43
1.0
 76
     1
 77
     6
 78
     2
 67
     7
 79
     5
170
     0
171
     0
290
     0
174
     0
 93
        1
 44
0.0
173
     0
291
     1
 45
0.0
1001
ACAD
1000
AcDbSavedByObjectVersion
1070
     0
  0
VISUALSTYLE
  5
F7
102
{ACAD_XDICTIONARY
360
105F
102
}
102
{ACAD_REACTORS
330
EB
102
}
330
EB
100
AcDbVisualStyle
  2
Brighten
 70
    12
 71
     2
 72
     2
 73
     0
 90
        0
 40
-0.6
 41
-30.0
 62
     5
 63
     7
421
 16777215
 74
     1
 91
        4
 64
     7
 65
   257
 75
     1
175
     1
 42
1.0
 92
        8
 66
     7
 43
1.0
 76
     1
 77
     6
 78
     2
 67
     7
 79
     5
170
     0
171
     0
290
     0
174
     0
 93
        1
 44
50.0
173
     0
291
     1
 45
0.0
1001
ACAD
1000
AcDbSavedByObjectVersion
1070
     0
  0
VISUALSTYLE
  5
FB
102
{ACAD_XDICTIONARY
360
1067
102
}
102
{ACAD_REACTORS
330
EB
102
}
330
EB
100
AcDbVisualStyle
  2
ColorChange
 70
    16
 71
     2
 72
     2
 73
     3
 90
        0
 40
-0.6
 41
-30.0
 62
     5
 63
     8
421
  8421504
 74
     1
 91
        4
 64
     7
 65
   257
 75
     1
175
     1
 42
1.0
 92
        8
 66
     8
424
  8421504
 43
1.0
 76
     1
 77
     6
 78
     2
 67
     7
 79
     5
170
     0
171
     0
290
     0
174
     0
 93
        1
 44
0.0
173
     0
291
     1
 45
0.0
1001
ACAD
1000
AcDbSavedByObjectVersion
1070
     0
  0
VISUALSTYLE
  5
F4
102
{ACAD_XDICTIONARY
360
1059
102
}
102
{ACAD_REACTORS
330
EB
102
}
330
EB
100
AcDbVisualStyle
  2
Conceptual
 70
     9
 71
     3
 72
     2
 73
     0
 90
        0
 40
-0.6
 41
-30.0
 62
     5
 63
     7
421
 16777215
 74
     2
 91
        2
 64
     7
 65
   257
 75
     1
175
     1
 42
40.0
 92
        8
 66
     7
 43
1.0
 76
     1
 77
     6
 78
     2
 67
     7
 79
     3
170
     0
171
     0
290
     0
174
     0
 93
        1
 44
0.0
173
     0
291
     0
 45
0.0
1001
ACAD
1000
AcDbSavedByObjectVersion
1070
     0
  0
VISUALSTYLE
  5
F6
102
{ACAD_XDICTIONARY
360
105D
102
}
102
{ACAD_REACTORS
330
EB
102
}
330
EB
100
AcDbVisualStyle
  2
Dim
 70
    11
 71
     2
 72
     2
 73
     0
 90
        0
 40
-0.6
 41
-30.0
 62
     5
 63
     7
421
 16777215
 74
     1
 91
        4
 64
     7
 65
   257
 75
     1
175
     1
 42
1.0
 92
        8
 66
     7
 43
1.0
 76
     1
 77
     6
 78
     2
 67
     7
 79
     5
170
     0
171
     0
290
     0
174
     0
 93
        1
 44
-50.0
173
     0
291
     1
 45
0.0
1001
ACAD
1000
AcDbSavedByObjectVersion
1070
     0
  0
VISUALSTYLE
  5
C08
102
{ACAD_XDICTIONARY
360
106E
102
}
102
{ACAD_REACTORS
330
EB
102
}
330
EB
100
AcDbVisualStyle
  2
EdgeColorOff
 70
    22
 71
     2
 72
     2
 73
     0
 90
        0
 40
-0.6
 41
-30.0
 62
     5
 63
     7
421
 16777215
 74
     1
 91
        4
 64
     7
 65
   257
 75
     1
175
     1
 42
1.0
 92
        8
 66
     7
 43
1.0
 76
     1
 77
     6
 78
     2
 67
     7
 79
     5
170
     0
171
     0
290
     0
174
     0
 93
        1
 44
0.0
173
     0
291
     1
 45
0.0
1001
ACAD
1000
AcDbSavedByObjectVersion
1070
     0
  0
VISUALSTYLE
  5
FA
102
{ACAD_XDICTIONARY
360
1065
102
}
102
{ACAD_REACTORS
330
EB
102
}
330
EB
100
AcDbVisualStyle
  2
Facepattern
 70
    15
 71
     2
 72
     2
 73
     0
 90
        0
 40
-0.6
 41
-30.0
 62
     5
 63
     7
421
 16777215
 74
     1
 91
        4
 64
     7
 65
   257
 75
     1
175
     1
 42
1.0
 92
        8
 66
     7
 43
1.0
 76
     1
 77
     6
 78
     2
 67
     7
 79
     5
170
     0
171
     0
290
     0
174
     0
 93
        1
 44
0.0
173
     0
291
     1
 45
0.0
1001
ACAD
1000
AcDbSavedByObjectVersion
1070
     0
  0
VISUALSTYLE
  5
EC
102
{ACAD_XDICTIONARY
360
1049
102
}
102
{ACAD_REACTORS
330
EB
102
}
330
EB
100
AcDbVisualStyle
  2
Flat
 70
     0
 71
     2
 72
     1
 73
     1
 90
        2
 40
-0.6
 41
30.0
 62
     5
 63
     7
421
 16777215
 74
     0
 91
        4
 64
     7
 65
   257
 75
     1
175
     1
 42
1.0
 92
        8
 66
     7
 43
1.0
 76
     1
 77
     6
 78
     2
 67
     7
 79
     5
170
     0
171
     0
290
     0
174
     0
 93
       13
 44
0.0
173
     0
291
     1
 45
0.0
1001
ACAD
1000
AcDbSavedByObjectVersion
1070
     0
  0
VISUALSTYLE
  5
ED
102
{ACAD_XDICTIONARY
360
104B
102
}
102
{ACAD_REACTORS
330
EB
102
}
330
EB
100
AcDbVisualStyle
  2
FlatWithEdges
 70
     1
 71
     2
 72
     1
 73
     1
 90
        2
 40
-0.6
 41
30.0
 62
     5
 63
     7
421
 16777215
 74
     1
 91
        4
 64
     7
 65
   257
 75
     1
175
     1
 42
1.0
 92
        0
 66
   257
 43
1.0
 76
     1
 77
     6
 78
     2
 67
     7
 79
     5
170
     0
171
     0
290
     0
174
     0
 93
       13
 44
0.0
173
     0
291
     1
 45
0.0
1001
ACAD
1000
AcDbSavedByObjectVersion
1070
     0
  0
VISUALSTYLE
  5
EE
102
{ACAD_XDICTIONARY
360
104D
102
}
102
{ACAD_REACTORS
330
EB
102
}
330
EB
100
AcDbVisualStyle
  2
Gouraud
 70
     2
 71
     2
 72
     2
 73
     1
 90
        2
 40
-0.6
 41
30.0
 62
     5
 63
     7
421
 16777215
 74
     0
 91
        4
 64
     7
 65
   257
 75
     1
175
     1
 42
1.0
 92
        0
 66
     7
 43
1.0
 76
     1
 77
     6
 78
     2
 67
     7
 79
     5
170
     0
171
     0
290
     0
174
     0
 93
       13
 44
0.0
173
     0
291
     1
 45
0.0
1001
ACAD
1000
AcDbSavedByObjectVersion
1070
     0
  0
VISUALSTYLE
  5
EF
102
{ACAD_XDICTIONARY
360
104F
102
}
102
{ACAD_REACTORS
330
EB
102
}
330
EB
100
AcDbVisualStyle
  2
GouraudWithEdges
 70
     3
 71
     2
 72
     2
 73
     1
 90
        2
 40
-0.6
 41
30.0
 62
     5
 63
     7
421
 16777215
 74
     1
 91
        4
 64
     7
 65
   257
 75
     1
175
     1
 42
1.0
 92
        0
 66
   257
 43
1.0
 76
     1
 77
     6
 78
     2
 67
     7
 79
     5
170
     0
171
     0
290
     0
174
     0
 93
       13
 44
0.0
173
     0
291
     1
 45
0.0
1001
ACAD
1000
AcDbSavedByObjectVersion
1070
     0
  0
VISUALSTYLE
  5
C06
102
{ACAD_XDICTIONARY
360
106A
102
}
102
{ACAD_REACTORS
330
EB
102
}
330
EB
100
AcDbVisualStyle
  2
JitterOff
 70
    20
 71
     2
 72
     2
 73
     0
 90
        0
 40
-0.6
 41
-30.0
 62
     5
 63
     7
421
 16777215
 74
     1
 91
        4
 64
     7
 65
   257
 75
     1
175
     1
 42
1.0
 92
       10
 66
     7
 43
1.0
 76
     1
 77
     6
 78
     2
 67
     7
 79
     5
170
     0
171
     0
290
     0
174
     0
 93
        1
 44
0.0
173
     0
291
     1
 45
0.0
1001
ACAD
1000
AcDbSavedByObjectVersion
1070
     0
  0
VISUALSTYLE
  5
F9
102
{ACAD_XDICTIONARY
360
1063
102
}
102
{ACAD_REACTORS
330
EB
102
}
330
EB
100
AcDbVisualStyle
  2
Linepattern
 70
    14
 71
     2
 72
     2
 73
     0
 90
        0
 40
-0.6
 41
-30.0
 62
     5
 63
     7
421
 16777215
 74
     1
 91
        4
 64
     7
 65
   257
 75
     7
175
     7
 42
1.0
 92
        8
 66
     7
 43
1.0
 76
     1
 77
     6
 78
     2
 67
     7
 79
     5
170
     0
171
     0
290
     0
174
     0
 93
        1
 44
0.0
173
     0
291
     1
 45
0.0
1001
ACAD
1000
AcDbSavedByObjectVersion
1070
     0
  0
VISUALSTYLE
  5
C07
102
{ACAD_XDICTIONARY
360
106C
102
}
102
{ACAD_REACTORS
330
EB
102
}
330
EB
100
AcDbVisualStyle
  2
OverhangOff
 70
    21
 71
     2
 72
     2
 73
     0
 90
        0
 40
-0.6
 41
-30.0
 62
     5
 63
     7
421
 16777215
 74
     1
 91
        4
 64
     7
 65
   257
 75
     1
175
     1
 42
1.0
 92
        9
 66
     7
 43
1.0
 76
     1
 77
     6
 78
     2
 67
     7
 79
     5
170
     0
171
     0
290
     0
174
     0
 93
        1
 44
0.0
173
     0
291
     1
 45
0.0
1001
ACAD
1000
AcDbSavedByObjectVersion
1070
     0
  0
VISUALSTYLE
  5
F5
102
{ACAD_XDICTIONARY
360
105B
102
}
102
{ACAD_REACTORS
330
EB
102
}
330
EB
100
AcDbVisualStyle
  2
Realistic
 70
     8
 71
     2
 72
     2
 73
     0
 90
        0
 40
-0.6
 41
-30.0
 62
     5
 63
     7
421
 16777215
 74
     1
 91
        0
 64
     7
 65
   257
 75
     1
175
     1
 42
1.0
 92
        8
 66
     8
424
  7895160
 43
1.0
 76
     1
 77
     6
 78
     2
 67
     7
 79
     5
170
     0
171
     0
290
     0
174
     0
 93
       13
 44
0.0
173
     0
291
     0
 45
0.0
1001
ACAD
1000
AcDbSavedByObjectVersion
1070
     0
  0
VISUALSTYLE
  5
F8
102
{ACAD_XDICTIONARY
360
1061
102
}
102
{ACAD_REACTORS
330
EB
102
}
330
EB
100
AcDbVisualStyle
  2
Thicken
 70
    13
 71
     2
 72
     2
 73
     0
 90
        0
 40
-0.6
 41
-30.0
 62
     5
 63
     7
421
 16777215
 74
     1
 91
        4
 64
     7
 65
   257
 75
     1
175
     1
 42
1.0
 92
       12
 66
     7
 43
1.0
 76
     1
 77
     6
 78
     2
 67
     7
 79
     5
170
     0
171
     0
290
     0
174
     0
 93
        1
 44
0.0
173
     0
291
     1
 45
0.0
1001
ACAD
1000
AcDbSavedByObjectVersion
1070
     0
  0
DICTIONARYVAR
  5
101C
102
{ACAD_REACTORS
330
3CB
102
}
330
3CB
100
DictionaryVariables
280
     0
  1
1:1
  0
DICTIONARYVAR
  5
101A
102
{ACAD_REACTORS
330
3CB
102
}
330
3CB
100
DictionaryVariables
280
     0
  1
STANDARD
  0
DICTIONARYVAR
  5
3CC
102
{ACAD_REACTORS
330
3CB
102
}
330
3CB
100
DictionaryVariables
280
     0
  1
STANDARD
  0
DICTIONARYVAR
  5
101E
102
{ACAD_REACTORS
330
3CB
102
}
330
3CB
100
DictionaryVariables
280
     0
  1
1
  0
DICTIONARYVAR
  5
101F
102
{ACAD_REACTORS
330
3CB
102
}
330
3CB
100
DictionaryVariables
280
     0
  1
15
  0
DICTIONARYVAR
  5
101D
102
{ACAD_REACTORS
330
3CB
102
}
330
3CB
100
DictionaryVariables
280
     0
  1
0
  0
DICTIONARYVAR
  5
101B
102
{ACAD_REACTORS
330
3CB
102
}
330
3CB
100
DictionaryVariables
280
     0
  1
0
  0
DICTIONARY
  5
1037
330
22
100
AcDbDictionary
280
     1
281
     1
  3
ADSK_XREC_LAYOUTTHUMBNAIL
360
1038
  0
DICTIONARY
  5
1045
330
E9
100
AcDbDictionary
280
     1
281
     1
  3
ACAD_XREC_ROUNDTRIP
360
1046
  0
DICTIONARY
  5
1043
330
E8
100
AcDbDictionary
280
     1
281
     1
  3
ACAD_XREC_ROUNDTRIP
360
1044
  0
DICTIONARY
  5
1047
330
EA
100
AcDbDictionary
280
     1
281
     1
  3
ACAD_XREC_ROUNDTRIP
360
1048
  0
DICTIONARY
  5
1040
330
FE
100
AcDbDictionary
280
     1
281
     1
  3
ACAD_ROUNDTRIP_2008_TABLESTYLE_CELLSTYLEMAP
360
1041
  3
ACAD_XREC_ROUNDTRIP
360
1069
  0
DICTIONARY
  5
1053
330
F1
100
AcDbDictionary
280
     1
281
     1
  3
ACAD_XREC_ROUNDTRIP
360
1054
  0
DICTIONARY
  5
1057
330
F3
100
AcDbDictionary
280
     1
281
     1
  3
ACAD_XREC_ROUNDTRIP
360
1058
  0
DICTIONARY
  5
1055
330
F2
100
AcDbDictionary
280
     1
281
     1
  3
ACAD_XREC_ROUNDTRIP
360
1056
  0
DICTIONARY
  5
1051
330
F0
100
AcDbDictionary
280
     1
281
     1
  3
ACAD_XREC_ROUNDTRIP
360
1052
  0
DICTIONARY
  5
105F
330
F7
100
AcDbDictionary
280
     1
281
     1
  3
ACAD_XREC_ROUNDTRIP
360
1060
  0
DICTIONARY
  5
1067
330
FB
100
AcDbDictionary
280
     1
281
     1
  3
ACAD_XREC_ROUNDTRIP
360
1068
  0
DICTIONARY
  5
1059
330
F4
100
AcDbDictionary
280
     1
281
     1
  3
ACAD_XREC_ROUNDTRIP
360
105A
  0
DICTIONARY
  5
105D
330
F6
100
AcDbDictionary
280
     1
281
     1
  3
ACAD_XREC_ROUNDTRIP
360
105E
  0
DICTIONARY
  5
106E
330
C08
100
AcDbDictionary
280
     1
281
     1
  3
ACAD_XREC_ROUNDTRIP
360
106F
  0
DICTIONARY
  5
1065
330
FA
100
AcDbDictionary
280
     1
281
     1
  3
ACAD_XREC_ROUNDTRIP
360
1066
  0
DICTIONARY
  5
1049
330
EC
100
AcDbDictionary
280
     1
281
     1
  3
ACAD_XREC_ROUNDTRIP
360
104A
  0
DICTIONARY
  5
104B
330
ED
100
AcDbDictionary
280
     1
281
     1
  3
ACAD_XREC_ROUNDTRIP
360
104C
  0
DICTIONARY
  5
104D
330
EE
100
AcDbDictionary
280
     1
281
     1
  3
ACAD_XREC_ROUNDTRIP
360
104E
  0
DICTIONARY
  5
104F
330
EF
100
AcDbDictionary
280
     1
281
     1
  3
ACAD_XREC_ROUNDTRIP
360
1050
  0
DICTIONARY
  5
106A
330
C06
100
AcDbDictionary
280
     1
281
     1
  3
ACAD_XREC_ROUNDTRIP
360
106B
  0
DICTIONARY
  5
1063
330
F9
100
AcDbDictionary
280
     1
281
     1
  3
ACAD_XREC_ROUNDTRIP
360
1064
  0
DICTIONARY
  5
106C
330
C07
100
AcDbDictionary
280
     1
281
     1
  3
ACAD_XREC_ROUNDTRIP
360
106D
  0
DICTIONARY
  5
105B
330
F5
100
AcDbDictionary
280
     1
281
     1
  3
ACAD_XREC_ROUNDTRIP
360
105C
  0
DICTIONARY
  5
1061
330
F8
100
AcDbDictionary
280
     1
281
     1
  3
ACAD_XREC_ROUNDTRIP
360
1062
  0
XRECORD
  5
1038
102
{ACAD_REACTORS
330
1037
102
}
330
1037
100
AcDbXrecord
280
     1
310
280000000001000063000000010008000000000000630000000000000000000000010000000000008080800000000000FFFFFF000000000000000000000000000000000000000000000000000000000000000000330000006600000099000000CC000000FF00000000330000333300006633000099330000CC330000FF3300
310
0000660000336600006666000099660000CC660000FF66000000990000339900006699000099990000CC990000FF99000000CC000033CC000066CC000099CC0000CCCC0000FFCC000000FF000033FF000066FF000099FF0000CCFF0000FFFF000000003300330033006600330099003300CC003300FF003300003333003333
310
33006633330099333300CC333300FF33330000663300336633006666330099663300CC663300FF66330000993300339933006699330099993300CC993300FF99330000CC330033CC330066CC330099CC3300CCCC3300FFCC330000FF330033FF330066FF330099FF3300CCFF3300FFFF330000006600330066006600660099
310
006600CC006600FF00660000336600333366006633660099336600CC336600FF33660000666600336666006666660099666600CC666600FF66660000996600339966006699660099996600CC996600FF99660000CC660033CC660066CC660099CC6600CCCC6600FFCC660000FF660033FF660066FF660099FF6600CCFF6600
310
FFFF660000009900330099006600990099009900CC009900FF00990000339900333399006633990099339900CC339900FF33990000669900336699006666990099669900CC669900FF66990000999900339999006699990099999900CC999900FF99990000CC990033CC990066CC990099CC9900CCCC9900FFCC990000FF99
310
0033FF990066FF990099FF9900CCFF9900FFFF99000000CC003300CC006600CC009900CC00CC00CC00FF00CC000033CC003333CC006633CC009933CC00CC33CC00FF33CC000066CC003366CC006666CC009966CC00CC66CC00FF66CC000099CC003399CC006699CC009999CC00CC99CC00FF99CC0000CCCC0033CCCC0066CC
310
CC0099CCCC00CCCCCC00FFCCCC0000FFCC0033FFCC0066FFCC0099FFCC00CCFFCC00FFFFCC000000FF003300FF006600FF009900FF00CC00FF00FF00FF000033FF003333FF006633FF009933FF00CC33FF00FF33FF000066FF003366FF006666FF009966FF00CC66FF00FF66FF000099FF003399FF006699FF009999FF00CC
310
99FF00FF99FF0000CCFF0033CCFF0066CCFF0099CCFF00CCCCFF00FFCCFF0000FFFF0033FFFF0066FFFF0099FFFF00CCFFFF00FFFFFF00000000000D0D0D001A1A1A00282828003535350043434300505050005D5D5D006B6B6B00787878008686860093939300A1A1A100AEAEAE00BBBBBB00C9C9C900D6D6D600E4E4E400
310
F1F1F100FFFFFF0000000000000000000000000000000000000000000000000000000000000000000000000000000000ECECECECECECECECECECECECECECECECECECECECECECECECECECECECECECECECECECECECECECECECECECECECECECECECECECECECECECECECECECECECECECECECECECECECECECECECECECECECECECEC
310
ECECECECECECECECECECECECECECECECECECECECECECECECECECECECECECECECECECECECECECECECECECECECECECECECECECECECECECECECECECECECECECECECECECECECECECECECECECECECECECECECECECECECECECECECECECECECECECECECECECECECECECECECECECECECECECECECECECECECECECECECECECECECECECEC
310
ECECECECECECECECECECECECECECECECECECECECECECECECECECECECECECECECECECECECECECECECECECECECECECECECECECECECECECECECECECECECECECECECECECECECECECECECECECECECECECECECECECECECECECECECECECECECECECECECECECECECECECECECECECECECECECECECECF5F5F5F5F5F5F5F5F5F5F5F5F5F5
310
F5F5F5F5F5F5F5F5F5F5F5F5F5F5F5F5F5F5F5F5F5F5F5F5F5F5F5F5F5F5F5F5F5F5F5F5F5F5F5F5F5F5F5F5F5F5F5F5F5F5F5F5F5F5F5F5F5F5F5F5F5F5F5F5F5F5F5F5F5F5F5F5F5F5F5F5F5F5F5F5F5F5F5F5F5F5F5F5F5F5F5F5F5F5F5F5F5F5F5F5F5F5F5F5F5F5F5F5F5F5F5F5F5F5F5F5ECECECECECECECECECECEC
310
ECECECECECECECECECECECECECECECECECECECECECECECECECECECECECECECECECECECECECECECECECECECECECECECECECECECECECECECECECECECECECECECECECECECECECECECECECECECECECECECECECECECECECECECECECECECECECECECECECECECECECECECECECECECECECECECECECECECF5ECECECECECECECECECECEC
310
ECECECECECECECECECECECECECECECECECECECECECECECECECECECECECECECECECECECECECECECF5ECECECF5F5F5F5F5F5F5F5F5F5F5F5F5ECECECECECECECF5ECF5F5F5F5F5F5F5F5F5ECECECECECECECECECECECECECECECECF5ECF5F5F5F5F5F5F5F5F5F5F5F5F51B1B1B1B1B1B1B1B1B1B1BECF5ECECECECECECECECEC
310
ECECECECECECECECECECECECECECECECECECECECECECECECECECECECECECECECECECECECECECECECECECECECECECECECECECECECECECECECECECECECECECECECECECECECECECECECECECECECECECECECECECECECECECECECECECECECECECECECECECECECECECECECECECECECECECECECECECECECECF5ECECECECECECECECEC
310
ECECECECECECECECECECECECECECECECECECECECECECECECECECECECECECECECECECECECECECECECECF5ECECECF5F5F5F5F5F5F5F5F5F5F5F5F5ECECECECECECECF5F5F5F5F5F5F5F5F5F5F5F5F5F5F5F5F5F5F5F5F5F5F5F5F5F5ECF5ECF5F5F5F5F5F5F5F5F5F5F5F5F51B1B1B1B1B1B1B1B1B1B1BECF5ECECECECECECEC
310
ECECECECECECECECECECECECECECECECECECECECECECECECECECECECECECECECECECECECECECECECECECECECECECECECECECECECECECECECECECECECECECECECECECECECECECECECECECECECECECECECECECECECECECECECECECECECECECECECECECECECECECECECECECECECECECECECECECECECECECECF5ECECECECECECEC
310
ECECECECECECECECECECECECECECECECECECECECECECECECECECECECECECECECECECECECECECECECECECECF5ECECECF5F5F5F5F5F5F5F5F5F5F5F5F5ECECECECECECECF5ECECECECECECECECECECECECECECECECECECECECECECECECECECF5ECF5F5F5F5F5F5F5F5F5F5F5F5F51B1B1B1B1B1B1B1B1B1B1BECF5ECECECECEC
310
ECECECECECECECECECECECECECECECECECECECECECECECECECECECECECECECECECECECECECECECECECECECECECECECECECECECECECECECECECECECECECECECECECECECECECECECECECECECECECECECECECECECECECECECECECECECECECECECECECECECECECECECECECECECECECECECECECECECECECECECECECF5ECECECECEC
310
ECECECECECECECECECECECECECECECECECECECECECECECECECECECECECECECECECECECECECECECECECECECECECF5ECECECECECECECECECECECECECECECECECECECECECECECF5ECF5F5F5F5F5F5F5F5F5F5F5F5F5ECECECECECECECECECECECECF5F5F5F5F5F5F5F5F5F5F5F5F5F5F5F5F5F5F5F5F5F5F51BF5F5F5F5ECECEC
310
ECECECECECECECECECECECECECECECECECECECECECECECECECECECECECECECECECECECECECECECECECECECECECECECECECECECECECECECECECECECECECECECECECECECECECECECECECECECECECECECECECECECECECECECECECECECECECECECECECECECECECECECECECECECECECECECECECECECECECECECECECECECF5ECECEC
310
ECF5F5F5F5F5F5F5F5F5F5F5F5F5F5F5F5F5F5F5F5F5F5F5F5F5F5F5F5F5F5F5F5F5F5F5F5F5F5F5F5F5F5F5F5F5ECF5F5F5F5F5F5F5ECECECECECECECECECECECECECECECECECF5F5F5F5F5F5F5F5F5F5F5F5F5F5F5F5ECECECECECECECECECECECF5ECECECECECECECECECECECECECECECECECECECECECECECECECECF5EC
310
ECECECECECECECECECECECECECECECECECECECECECECECECECECECECECECECECECECECECECECECECECECECECECECECECECECECECECECECECECECECECECECECECECECECECECECECECECECECECECECECECECECECECECECECECECECECECECECECECECECECECECECECECECECECECECECECECECECECECECECECECECECECECECF5EC
310
ECECECF5F5F5F5F5F5F5F5F5F5F5F5F5F5F5F5F5F5F5F5F5F5F5F5F5F5F5F5F5F5F5F5F5F5F5F5F5F5F5F5F5F5F5F5F5ECF5F5F5F5F5F5F5ECECECECECECECECECECECECECECECECECF5ECECECECECECECECECECECECECECECECECECECECECECECECECECF5EC15151515151515151515151515151515ECECECECECECECECEC
310
F5ECECECECECECECECECECECECECECECECECECECECECECECECECECECECECECECECECECECECECECECECECECECECECECECECECECECECECECECECECECECECECECECECECECECECECECECECECECECECECECECECECECECECECECECECECECECECECECECECECECECECECECECECECECECECECECECECECECECECECECECECECECECECECEC
310
F5ECECECECF5F5F5F5F5F5F5F5F5F5F5F5F5F5F5F5F5F5F5F5F5F5F5F5F5F5F5F5F5F5F5F5F5F5F5F5F5F5F5F5F5F5F5F5F5ECF5F5F5F5F5F5F5F5F5F5F5F5F5F5F5F5F5F5F5F5F5F5F5F5F5F5F5F5F5F5F5F5F5F5F5F5F5F5F5F5F5F5F5F5F5F5F5F5F5F5F5F5F5F5F5F5F5F5F5F5F5F5F5F5F5F5F5F5F5F5F5F5F5F5F5F5
310
F5F5F5ECECECECECECECECECECECECECECECECECECECECECECECECECECECECECECECECECECECECECECECECECECECECECECECECECECECECECECECECECECECECECECECECECECECECECECECECECECECECECECECECECECECECECECECECECECECECECECECECECECECECECECECECECECECECECECECECECECECECECECECECECECECEC
310
ECECF5ECECECECF5F5F5F5F5F5F5F5F5F5F5F5F5F5F5F5F5F5F5F5F5F5F5F5F5F5F5F5F5F5F5F5F5F5F5F5F5F5F5F5F5ECECECECECF5ECECECECECECECECECECECECECECECECECECECECECECECF5ECECECECECECECECECECECECECECECECECECECECECECECECECECECECECECECECECECF5ECECECF5ECECECECECECECECECEC
310
ECECECECF5ECECECECECECECECECECECECECECECECECECECECECECECECECECECECECECECECECECECECECECECECECECECECECECECECECECECECECECECECECECECECECECECECECECECECECECECECECECECECECECECECECECECECECECECECECECECECECECECECECECECECECECECECECECECECECECECECECECECECECECECECECEC
310
ECECECECF5ECECECECF5F5F5F5F5F5F5F5F5F5F5F5F5F5F5F5F5F5F5F5F5F5F5F5F5F5F5F5F5F5F5F5F5F5F5F5F5F5F5F5F5ECECECECECF5ECECECF5F5F5F5F5F5F5F5F5F5F5F5F5ECECECECECECECF5ECECECECECF5F5F5F5F5ECECECECECECECECECECECECECECECECECECECECECECECECF5ECF5F5F5F5F5ECECECECECEC
310
ECF5F5F5ECECF5ECECECECECECECECECECECECECECECECECECECECECECECECECECECECECECECECECECECECECECECECECECECECECECECECECECECECECECECECECECECECECECECECECECECECECECECECECECECECECECECECECECECECECECECECECECECECECECECECECECECECECECECECECECECECECECECECECECECECECECECEC
310
ECECECECECECF5ECECECECF5F5F5F5F5F5F5F5F5F5F5F5F5F5F5F5F5F5F5F5F5F5F5F5F5F5F5F5F5F5F5F5F5F5F5F5F5F5F5F5F5ECECECECECF5ECECECF5F5F5F5F5F5F5F5F5F5F5F5F5ECECECECECECECF5ECECECECECF5F5F5F5F5ECECECECECECECECECECECECECECECECECECECECECECECECF5ECF5F5F5F5F5F5ECECF5
310
F5F5F5ECECF5ECECF5ECECECECECECECECECECECECECECECECECECECECECECECECECECECECECECECECECECECECECECECECECECECECECECECECECECECECECECECECECECECECECECECECECECECECECECECECECECECECECECECECECECECECECECECECECECECECECECECECECECECECECECECECECECECECECECECECECECECECECEC
310
ECECECECECECECECF5ECF5F5F5F5F5F5F5F5ECECECECECECECECECECECECECECECECECECECECECECECECECECECECECECECECECECECECECECECECECF5ECECECF5F5F5F5F5F5F5F5F5F5F5F5F5ECECECECECECECF5ECECECECECF5F5F5F5F5ECECECECECECECECECECECECECECECECECECECECECECECECF5F5F5F5F5F5F5F5EC
310
F5F5F5F5F5F5F5F5ECECF5ECECECECECECECECECECECECECECECECECECECECECECECECECECECECECECECECECECECECECECECECECECECECECECECECECECECECECECECECECECECECECECECECECECECECECECECECECECECECECECECECECECECECECECECECECECECECECECECECECECECECECECECECECECECECECECECECECECECEC
310
ECECECECECECECECECECF5ECF5F5F5F5F5F5F5F5ECECECECECECECECECECECECECECECECECECECECECECECECECECECECECECECECECECECECECECECECECF5F5F5F5F5ECECECECECECECECECECECECECECECECECECECF5F5F5F5F5F5F5F5ECECECECECECECECECECECECECECECECECECECECECECECECECECECF5ECF5F5F5F5F5
310
F5ECECF5F5ECECECECF5ECECF5ECECECECECECECECECECECECECECECECECECECECECECECECECECECECECECECECECECECECECECECECECECECECECECECECECECECECECECECECECECECECECECECECECECECECECECECECECECECECECECECECECECECECECECECECECECECECECECECECECECECECECECECECECECECECECECECECECEC
310
ECECECECECECECECECECECECF5ECECECECECECECECECECECECECECECECECECECECECECECECECECECECECECECECECECECECECECECECECECECECECECECECECECF5F5F5F5F5ECECECECECECECECECECECECECECECECECECECF5F5F5F5F5F5F5F5ECECECECECECECECECECECECECECECECECECECECECECECECECECECF5ECF5F5F5
310
F5F5ECECECECECF5F5F5ECF5ECECF5ECECECECECECECECECECECECECECECECECECECECECECECECECECECECECECECECECECECECECECECECECECECECECECECECECECECECECECECECECECECECECECECECECECECECECECECECECECECECECECECECECECECECECECECECECECECECECECECECECECECECECECECECECECECECECECECEC
310
ECECECECECECECECECECECECECECF5ECECECECECECECECECECECECECECECECECECECECECECECECECECECECECECECECECECECECECECECECECECECECECECECECECECF5ECECECECECECECECECECECECECECECECECECECECECECECF5F5F5F5F5F5F5F5ECECECECECECECECECECECECECECECECECECECECECECECECECECECF5ECEC
310
ECF5F5ECECECECECECECECECF5F5ECECF5ECECECECECECECECECECECECECECECECECECECECECECECECECECECECECECECECECECECECECECECECECECECECECECECECECECECECECECECECECECECECECECECECECECECECECECECECECECECECECECECECECECECECECECECECECECECECECECECECECECECECECECECECECECECECECEC
310
ECECECECECECECECECECECECECECECECF5F5F5F5F5F5F5F5F5F5F5F5F5F5F5F5F5F5F5F5F5F5F5F5F5F5F5F5F5F5F5F5F5F5F5F5F5F5F5F5F5F5F5F5F5F5F5F5F5F5F5F5F5F5F5F5F5F5F5F5F5F5F5F5F5F5F5F5F5F5F5F5F5F5F5F5F5F5F5F5F5F5F5F5F5F5F5F5F5F5F5F5F5F5F5F5F5F5F5F5F5F5F5F5F5F5F5F5F5F5F5
310
F5F5F5F5F5F5F5F5F5F5F5F5F5F5F5F5F5F5F5ECECECECECECECECECECECECECECECECECECECECECECECECECECECECECECECECECECECECECECECECECECECECECECECECECECECECECECECECECECECECECECECECECECECECECECECECECECECECECECECECECECECECECECECECECECECECECECECECECECECECECECECECECECECEC
310
ECECECECECECECECECECECECECECECECECECF5ECECECECECECECECECECECECECECECECECECECECECECECECECECECECECECECECECECECECECECECECECECECECECECECECECECECECECECECECECECECECECECECECECECECECECECECECECECECECECECECECECECECECECECECECECECECECECECECECECECECECECECECECECECECEC
310
ECECECECECECECECECECECECECECECECECECECECF5ECECECECECECECECECECECECECECECECECECECECECECECECECECECECECECECECECECECECECECECECECECECECECECECECECECECECECECECECECECECECECECECECECECECECECECECECECECECECECECECECECECECECECECECECECECECECECECECECECECECECECECECECECEC
310
ECECECECECECECECECECECECECECECECECECECECF5ECECECECECECECECECECECECECECECECECECECECECECECECECECECECECECECECECECECECECECECECECECECECECECECECECECECECECECECECECECECECECECECECECECECECECECECECECECECECECECECECECECECECECECECECECECECECECECECECECECECECECECECECECEC
310
ECECECECECECECECECECECECECECECECECECECECECECF5ECECECECECECECECECECECECECECECECECECECECECECECECECECECECECECECECECECECECECECECECECECECECECECECECECECECECECECECECECECECECECECECECECECECECECECECECECECECECECECECECECECECECECECECECECECECECECECECECECECECECECECECEC
310
ECECECECECECECECECECECECECECECECECECECECECECF5ECECECECECECECECECECECECECECECECECECECECECECECECECECECECECECECECECECECECECECECECECECECECECECECECECECECECECECECECECECECECECECECECECECECECECECECECECECECECECECECECECECECECECECECECECECECECECECECECECECECECECECECEC
310
ECECECECECECECECECECECECECECECECECECECECECECECECF5ECECECECECECECECECECECECECECECECECECECECECECECECECECECECECECECECECECECECECECECECECECECECECECECECECECECECECECECECECECECECECECECECECECECECECECECECECECECECECECECECECECECECECECECECECECECECECECECECECECECECECEC
310
ECECECECECECECECECECECECECECECECECECECECECECECECF5ECECECECECECECECECECECECECECECECECECECECECECECECECECECECECECECECECECECECECECECECECECECECECECECECECECECECECECECECECECECECECECECECECECECECECECECECECECECECECECECECECECECECECECECECECECECECECECECECECECECECECEC
310
ECECECECECECECECECECECECECECECECECECECECECECECECECECF5ECECECECECECECECECECECECECECECECECECECECECECECECECECECECECECECECECECECECECECECECECECECECECECECECECECECECECECECECECECECECECECECECECECECECECECECECECECECECECECECECECECECECECECECECECECECECECECECECECECECEC
310
ECECECECECECECECECECECECECECECECECECECECECECECECECECF5ECECECECECECECECECECECECECECECECECECECECECECECECECECECECECECECECECECECF5F5F5F5F5F5ECECECECECECECECECECECECECECECECECECECECECECECECECECECECECECECECECECECECECECECECECECECECF5F5F5F5ECECECECECECECECECECEC
310
ECECECECECECECECECECECECECECECECECECECECECECECECECECECECF5ECECECECECECECECECECECECECECECECECECECECECECECECECECECECECECECECECECECECECECECECECECECECECECECECECECECECECECECECECECECECECECECECECECECECECECECECECECECECECECECECECECECECECECECECECECECECECECECECECEC
310
ECECECECECECECECECECECECECECECECECECECECECECECECECECECECF5ECECECECECECECECECECECECECECECECECECECECECECECECECECECECECECECECECECECF5F5F5F5F5F5ECECECECECECECECECECECECECECECECECECECECECECECECECECECECECECECECECECECECECECECECECECECECF5F5F5F5ECECECECECECECECEC
310
ECECECECECECECECECECECECECECECECECECECECECECECECECECECECECECF5ECECECECECECECECECECECECECECECECECECECECECECECECECECECECECECECECECECECECECECECECECECECECECECECECECECECECECECECECECECECECECECECECECECECECECECECECECECECECECECECECECECECECECECECECECECECECECECECEC
310
ECECECECECECECECECECECECECECECECECECECECECECECECECECECECECECF5ECECECECECECECECECECECECECECECECECECECECECECECECECECECECECECECECECECECF5F5F5F5F5F5ECECECECECECECECECECECECECECECECECECECECECECECECECECECECECECECECECECECECECECECECECECECECF5F5F5F5ECECECECECECEC
310
ECECECECECECECECECECECECECECECECECECECECECECECECECECECECECECECECF5ECECECECECECECECECECECECECECECECECECECECECECECECECECECECECECECECECECECECECECECECECECECECECECECECECECECECECECECECECECECECECECECECECECECECECECECECECECECECECECECECECECECECECECECECECECECECECEC
310
ECECECECECECECECECECECECECECECECECECECECECECECECECECECECECECECECF5ECECECECECECECECECECECECECECECECECECECECECECECECECECECECECECECECECECECECECECECECECECECECECECECECECECECECECECECECECECECECECECECECECECECECECECECECECECECECECECECECECECECECECECECECECECECECECEC
310
ECECECECECECECECECECECECECECECECECECECECECECECECECECECECECECECECECECF5ECECECECECECECECECECECECECECECECECECECECECECECECECECECECECECECECECECECECECECECECECECECECECECECECECECECECECECECECECECECECECECECECECECECECECECECECECECECECECECECECECECECECECECECECECECECEC
310
ECECECECECECECECECECECECECECECECECECECECECECECECECECECECECECECECECECF5ECECECECECECECECECECECECECECECECECECECECECECECECECECECECECECECECECECECECECECECECECECECECECECECECECECECECECECECECECECECECECECECECECECECECECECECECECECECECECECECECECECECECECECECECECECECEC
310
ECECECECECECECECECECECECECECECECECECECECECECECECECECECECECECECECECECECECF5ECECECECECECECECECECECECECECECECECECECECECECECECECECECECECECECECECECECECECECECECECECECECECECECECECECECECECECECECECECECECECECECECECECECECECECECECECECECECECECECECECECECECECECECECECEC
310
ECECECECECECECECECECECECECECECECECECECECECECECECECECECECECECECECECECECECF5ECECECECECECECECECECECECECECECECECECECECECECECECECECECECECECECECECECECECECECECECECECECECECECECECECECECECECECECECECECECECECECECECECECECECECECECECECECECECECECECECECECECECECECECF5ECEC
310
ECECECECECECECECECECECECECECECECECECECECECECECECECECECECECECECECECECECECECECF5ECECECECECECECECECECECECECECECECECECECECECECECECECECECECECECECECECECECECECECECECECECECECECECECECECECECECECECECECECECECECECECECECECECECECECECECECECECECECECECECECECECECECECECECEC
310
ECECECECECECECECECECECECECECECECECECECECECECECECECECECECECECECECECECECECECECF5ECECECECECECECECECECECECECECECECECECECECECECECECECECECECECECECEFEFEFEFEFEFEFEFEFEFEFEFEFECECECECECECECECECECECECECECECECECECECECECECECECECECECECECECECECECECECECECECECECECECECF5
310
ECECECECECECECECECECECECECECECECECECECECECECECECECECECECECECECECECECECECECECECECF5ECECECECECECECECECECECECECECECECECECECECECECECECECECECECECECECECECECECECECECECECECECECECECECECECECECECECECECECECECECECECECECECECECECECECECECECECECECECECECECECECECECECECECEC
310
ECECECECECECECECECECECECECECECECECECECECECECECECECECECECECECECECECECECECECECECECF5ECECECECECECECECECECECECECECECECECECECECECECECECECECECECECECECEFECECECEFEFEFECECECECECEFECECECECECECECECECECECECECECECECECECECECECECECECECECECECECECECECECECECECECECECECECEC
310
ECF5ECECECECECECECECECECECECECECECECECECECECECECECECECECECECECECECECECECECECECECECECF5ECECECECECECECECECECECECECECECECECECECECECECECECECECECECECECECECECECECECECECECECECECECECECECECECECECECECECECECECECECECECECECECECECECECECECECECECECECECECECECECECECECECEC
310
ECECECECECECECECECECECECECECECECECECECECECECECECECECECECECECECECECECECECECECECECECECF5ECECECECECECECECECECECECECECECECECECECECECECECECECECECECECECECEFECECECECECECECECECECECEFECECECECECECECECECECECECECECECECECECECECECECECECECECECECECECECECECECECECECECECEC
310
ECECECF5ECECECECECECECECECECECECECECECECECECECECECECECECECECECECECECECECECECECECECECECECF5ECECECECECECECECECECECECECECECECECECECECECECECECECECECECECECECECECECECECECECECECECECECECECECECECECECECECECECECECECECECECECECECECECECECECECECECECECECECECECECECECECEC
310
ECECECECECECECECECECECECECECECECECECECECECECECECECECECECECECECECECECECECECECECECECECECECF5ECECECECECECECECECECECECECECECECECECECECECECECECECECECECECECECEFF5F5F5F5F5F5F5F5F5F5F5EFEFEFEFEFEFEFEFECECECECECECECECECECECECECECECECECECECECECECECECECECECECECECEC
310
ECECECECF5F5F5F5ECECECECECECECECECECECECECECECECECECECECECECECECECECECECECECECECECECECECECECF5ECECECECECECECECECECECECECECECECECECECECECECECECECECECECECECECECECECECECECECECECECECECECECECECECECECECECECECECECECECECECECECECECECECECECECECECECECECECECECECECEC
310
ECECECECECECECECECECECECECECECECECECECECECECECECECECECECECECECECECECECECECECECECECECECECECECF5ECECECECECECECECECECECECECECECECECECECECECECECECECECECECECECF5F5ECECECECECECECECECECECF5ECECECEFECECEFECECECECECECECECECECECECECECECECECECECECECECECECECECECECEC
310
ECECECF5F5F5F5F5F5F5F5F5F5ECECECECECECECECECECECECECECECECECECECECECECECECECECECECECECECECECECECF5ECECECECECECECECECECECECECECECECECECECECECECECECECECECECECECECECECECECECECECECECECECECECECECECECECECECECECECECECECECECECECECECECECECECECECECECECECECECECECEC
310
ECECECECECECECECECECECECECECECECECECECECECECECECECECECECECECECECECECECECECECECECECECECECECECECECF5ECECECECECECECECECECECECECECECECECECECECECECECECECECECECECECF5F5ECECECECECECECECECECECF5ECECEFEFECECEFECECECECECECECECECECECECECECECECECECECECECECECECECECEC
310
ECECECF5F5F5F5ECECF5ECECECF5F5F5ECECECECECECECECECECECECECECECECECECECECECECECECECECECECECECECECECECF5ECECECECECECECECECECECECECECECECECECECECECECECECECECECECECECECECECECECECECECECECECECECECECECECECECECECECECECECECECECECECECECECECECECECECECECECECECECECEC
310
ECECECECECECECECECECECECECECECECECECECECECECECECECECECECECECECECECECECECECECECECECECECECECECECECECECF5ECECECECECECECECECECECECECECECECECECECECECECECECECECECECECECF5F5ECECECECECECECECECECECF5ECECEFEFECECEFECECECECECECECECECECECECECECECECECECECECECECECECEC
310
ECECECECF5F5F5ECECECECECECECECECECF5F5ECECECECECECECECECECECECECECECECECECECECECECECECECECECECECECECECECF5ECECECECECECECECECECECECECECECECECECECECECECECECECECECECECECECECECECECECECECECECECECECECECECECECECECECECECECECECECECECECECECECECECECECECECECECECECEC
310
ECECECECECECECECECECECECECECECECECECECECECECECECECECECECECECECECECECECECECECECECECECECECECECECECECECECECF5ECECECECECECECECECECECECECECECECECECECECECECECECECECECECECECF5F5ECECECECECECECECECECECF5ECECECEFECECEFECECECECECECECECECECECECECECECECECECECECECECEC
310
ECECECECECF5F5F5ECECECECECECECECECECECECF5F5ECECECECECECECECECECECECECECECECECECECECECECECECECECECECECECECECF5ECECECECECECECECECECECECECECECECECECECECECECECECECECECECECECECECECECECECECECECECECECECECECECECECECECECECECECECECECECECECECECECECECECECECECECECEC
310
ECECECECECECECECECECECECECECECECECECECECECECECECECECECECECECECECECECECECECECECECECECECECECECECECECECECECECECF5ECECECECECECECECECECECECECECECECECECECECECECECECECECECECECECF5F5F5F5F5F5F5F5F5F5F5F5F5EFEFEFEFEFECECEFECECECECECECECECECECECECECECECECECECECECEC
310
ECECECECECECECF5F5ECECECECF5F5F5F5F5F5ECECECECF5F5ECECECECECECECECECECECECECECECECECECECECECECECECECECECECECECECF5ECECECECECECECECECECECECECECECECECECECECECECECECECECECECECECECECECECECECECECECECECECECECECECECECECECECECECECECECECECECECECECECECECECECECECEC
310
ECECECECECECECECECECECECECECECECECECECECECECECECECECECECECECECECECECECECECECECECECECECECECECECECECECECECECECECECF5ECECECECECECECECECECECECECECECECECECECECECECECECECECECECECECF5F5ECECECECECECECECECECECF5ECECECEFECECEFECECECECECECECECECECECECECECECECECECEC
310
ECECECECECECECECF5F5ECECEFEFF5F5F5ECF5F5F5F5ECECECECF5F5ECECECECECECECECECECECECECECECECECECECECECECECECECECECECECECF5ECECECECECECECECECECECECECECECECECECECECECECECECECECECECECECECECECECECECECECECECECECECECECECECECECECECECECECECECECECECECECECECECECECECEC
310
ECECECECECECECECECECECECECECECECECECECECECECECECECECECECECECECECECECECECECECECECECECECECECECECECECECECECECECECECECECF5ECECECECECECECECECECECECECECECECECECECECECECECECECECECECECECF5F5ECECECECECECECECECECECF5ECECECEFECECEFECECECECECECECECECECECECECECECECEC
310
ECECECECECECECECECECF5ECECECF5EFEFECECF5ECECECF5F5ECECECF5F5ECECECECECECECECECECECECECECECECECECECECECECECECECECECECECECF5ECECECECECECECECECECECECECECECECECECECECECECECECECECECECECECECECECECECECECECECECECECECECECECECECECECECECECECECECECECECECECECECECECEC
310
ECECECECECECECECECECECECECECECECECECECECECECECECECECECECECECECECECECECECECECECECECECECECECECECECECECECECECECECECECECECECF5ECECECECECECECECECECECECECECECECECECECECECECECECECECECECECECF5F5ECECECECECECECECECECECF5ECECECEFECECEFECECECECECECECECECECECECECECEC
310
ECECECECECECECECECECECF5F5ECECECF5F5ECEFECF5ECECECECF5F5ECECF5F5ECECECECECECECECECECECECECECECECECECECECECECECECECECECECECECF5ECECECECECECECECECECECECECECECECECECECECECECECECECECECECECECECECECECECECECECECECECECECECECECECECECECECECECECECECECECECECECECECEC
310
ECECECECECECECECECECECECECECECECECECECECECECECECECECECECECECECECECECECECECECECECECECECECECECECECECECECECECECECECECECECECECECF5ECECECECECECECECECECECECECECECECECECECECECECECECECECECECECECF5F5ECECECECECECECECECECECF5ECECEFEFEFEFEFECECECECECECECECECECECECEC
310
ECECECECECECECECECECECECECF5F5ECECECF5ECECECEFF5ECECECECF5F5ECECECF5F5ECECECECECECECECECECECECECECECECECECECECECECECECECECECECECF5ECECECECECECECECECECECECECECECECECECECECECECECECECECECECECECECECECECECECECECECECECECECECECECECECECECECECECECECECECECECECECEC
310
ECECECECECECECECECECECECECECECECECECECECECECECECECECECECECECECECECECECECECECECECECECECECECECECECECECECECECECECECECECECECECECECECF5ECECECECECECECECECECECECECECECECECECECECECECECECECECECECECECF5F5ECECECECECECECECECECECF5ECECEFEFEFEFEFECECECECECECECECECECEC
310
ECECECECECECECECECECECECECECECF5F5ECECECF5ECECECECEFECECECECF5F5ECECECF5F5ECECECECECECECECECECECECECECECECECECECECECECECECECECECECECF5ECECECECECECECECECECECECECECECECECECECECECECECECECECECECECECECECECECECECECECECECECECECECECECECECECECECECECECECECECECECEC
310
ECECECECECECECECECECECECECECECECECECECECECECECECECECECECECECECECECECECECECECECECECECECECECECECECECECECECECECECECECECECECECECECECECECF5ECECECECECECECECECECECECECECECECECECECECECECECECECECECECECECF5F5ECECECECECECECECECECECF5ECECEFEFEFEFEFECECECECECECECECEC
310
ECECECECECECECECECECECECECF5F5F5F5F5F5F5ECECF5F5F5F5F5F5EFF5F5F5F5F5ECECF5F5F5F5F5F5F5ECECECECECECECECECECECECECECECECECECECECECECECECECF5ECECECECECECECECECECECECECECECECECECECECECECECECECECECECECECECECECECECECECECECECECECECECECECECECECECECECECECECECECEC
310
ECECECECECECECECECECECECECECECECECECECECECECECECECECECECECECECECECECECECECECECECECECECECECECECECECECECECECECECECECECECECECECECECECECECECF5ECECECECECECECECECECECECECECECECECECECECECECECECECECECECECECF5F5ECECECECECECECECECECECF5ECECECEFECECEFECECECECECECEC
310
ECECECECECECECECECECECECECECECECECECECF5F5ECECECF5ECECECECF5ECEFECECF5F5ECECECF5F5ECECECECECECECECECECECECECECECECECECECECECECECECECECECECECF5ECECECECECECECECECECECECECECECECECECECECECECECECECECECECECECECECECECECECECECECECECECECECECECECECECECECECECECECEC
310
ECECECECECECECECECECECECECECECECECECECECECECECECECECECECECECECECECECECECECECECECECECECECECECECECECECECECECECECECECECECECECECECECECECECECECECF5ECECECECECECECECECECECECECECECECECECECECECECECECECECECECECECF5F5ECECECECECECECECECECECF5ECECECEFECECEFECECECECEC
310
ECECECECECECECECECECECECECECECECECECECECECF5F5ECECECF5F5ECECECF5ECECEFECF5F5ECECECF5ECECECECECECECECECECECECECECECECECECECECECECECECECECECECECECF5ECECECECECECECECECECECECECECECECECECECECECECECECECECECECECECECECECECECECECECECECECECECECECECECECECECECECECEC
310
ECECECECECECECECECECECECECECECECECECECECECECECECECECECECECECECECECECECECECECECECECECECECECECECECECECECECECECECECECECECECECECECECECECECECECECECECF5ECECECECECECECECECECECECECECECECECECECECECECECECECECECECECECF5F5ECECECECECECECECECECECF5ECECECEFECECEFECECEC
310
ECECECECECECECECECECECECECECECECECECECECECECECECF5ECECECF5F5F5ECECF5ECECECEFF5ECECECF5F5ECECECECECECECECECECECECECECECECECECECECECECECECECECECECECECF5ECECECECECECECECECECECECECECECECECECECECECECECECECECECECECECECECECECECECECECECECECECECECECECECECECECECEC
310
ECECECECECECECECECECECECECECECECECECECECECECECECECECECECECECECECECECECECECECECECECECECECECECECECECECECECECECECECECECECECECECECECECECECECECECECECECECF5ECECECECECECECECECECECECECECECECECECECECECECECECECECECECECECF5F5ECECF5F5F5F5F5F5F5ECECF5ECECECEFECECEFEC
310
ECECECECECECECECECECECECECECECECECECECECECECECECECECF5F5ECECECF5F5F5F5F5ECF5F5F5EFECECECF5F5ECECECECECECECECECECECECECECECECECECECECECECECECECECECECECECF5ECECECECECECECECECECECECECECECECECECECECECECECECECECECECECECECECECECECECECECECECECECECECECECECECECEC
310
ECECECECECECECECECECECECECECECECECECECECECECECECECECECECECECECECECECECECECECECECECECECECECECECECECECECECECECECECECECECECECECECECECECECECECECECECECECECECF5ECECECECECECECECECECECECECECECECECECECECECECECECECECECECECECF5F5F5F5F5F5F5F5F5F5F5F5F5EFEFEFEFEFECEC
310
EFECECECECECECECECECECECECECECECECECECECECECECECECECECECF5F5F5ECECECF5F5F5F5F5F5F5F5ECEFECF5F5ECECECECECECECECECECECECECECECECECECECECECECECECECECECECECECECF5ECECECECECECECECECECECECECECECECECECECECECECECECECECECECECECECECECECECECECECECECECECECECECECECEC
310
ECECECECECECECECECECECECECECECECECECECECECECECECECECECECECECECECECECECECECECECECECECECECECECECECECECECECECECECECECECECECECECECECECECECECECECECECECECECECECECF5ECECECECECECECECECECECECECECECECECECECECECECECECECECECECECECF5F5ECECECECECECECECECECECF5ECECEFEF
310
ECECEFECECECECECECECECECECECECECECECECECECECECECECECECECECECECF5F5ECECECECECECECECECECECECECEFF5F5ECECECECECECECECECECECECECECECECECECECECECECECECECECECECECECECF5ECECECECECECECECECECECECECECECECECECECECECECECECECECECECECECECECECECECECECECECECECECECECECEC
310
ECECECECECECECECECECECECECECECECECECECECECECECECECECECECECECECECECECECECECECECECECECECECECECECECECECECECECECECECECECECECECECECECECECECECECECECECECECECECECECECECF5ECECECECECECECECECECECECECECECECECECECECECECECECECECECECECECF5F5ECECECECECECECECECECECF5ECEC
310
EFEFECECEFECECECECECECECECECECECECECECECECECECECECECECECECECECECECECF5F5F5ECECECECECECECECECECF5F5EFECECECECECECECECECECECECECECECECECECECECECECECECECECECECECECECECF5ECECECECECECECECECECECECECECECECECECECECECECECECECECECECECECECECECECECECECECECECECECECEC
310
ECECECECECECECECECECECECECECECECECECECECECECECECECECECECECECECECECECECECECECECECECECECECECECECECECECECECECECECECECECECECECECECECECECECECECECECECECECECECECECECECECECF5ECECECECECECECECECECECECECECECECECECECECECECECECECECECECECECF5F5ECECECECECECECECECECECF5
310
ECECEFEFECECEFECECECECECECECECECECECECECECECECECECECECECECECECECECECECECECF5F5F5ECECECF5ECECECF5F5F5ECECEFEFEFEFEFECECECECECECECECECECECECECECECECECECECECECECECECECECECF5ECECECECECECECECECECECECECECECECECECECECECECECECECECECECECECECECECECECECECECECECECEC
310
ECECECECECECECECECECECECECECECECECECECECECECECECECECECECECECECECECECECECECECECECECECECECECECECECECECECECECECECECECECECECECECECECECECECECECECECECECECECECECECECECECECECECF5ECECECECECECECECECECECECECECECECECECECECECECECECECECECECECECF5F5ECF5F5F5F5F5F5F5F5EC
310
ECF5ECECECEFECECEFECECECECECECECECECECECECECECECECECECECECECECECECECECECECECECECF5F5F5F5F5F5F5F5F5F5F5ECECECECECECECECECECECECECECECECECECECECECECECECECECECECECECECECECECECF5ECECECECECECECECECECECECECECECECECECECECECECECECECECECECECECECECECECECECECECECEC
310
ECECECECECECECECECECECECECECECECECECECECECECECECECECECECECECECECECECECECECECECECECECECECECECECECECECECECECECECECECECECECECECECECECECECECECECECECECECECECECECECECECECECECECECF5ECECECECECECECECECECECECECECECECECECECECECECECECECECECECECECECF5F5F5EFF5F5F5F5F5
310
EFF5F5EFEFEFEFEFEFEFEFECECECECECECECECECECECECECECECECECECECECECECECECECECECECECECECECECF5EFF5F5F5F5EFF5ECECECECECECECECECECECECECECECECECECECECECECECECECECECECECECECECECECECECF5ECECECECECECECECECECECECECECECECECECECECECECECECECECECECECECECECECECECECECEC
310
ECECECECECECECECECECECECECECECECECECECECECECECECECECECECECECECECECECECECECECECECECECECECECECECECECECECECECECECECECECECECECECECECECECECECECECECECECECECECECECECECECECECECECECECECF5ECECECECECECECECECECECECECECECECECECECECECECECECECECECECECECECECECECEFECECEC
310
ECECEFECECECECECECECECECECECECECECECECECECECECECECECECECECECECECECECECECECECECECECECECECECECECEFECF5ECECEFECECECECECECECECECECECECECECECECECECECECECECECECECECECECECECECECECECECECECF5ECECECECECECECECECECECECECECECECECECECECECECECECECECECECECECECECECECECEC
310
ECECECECECECECECECECECECECECECECECECECECECECECECECECECECECECECECECECECECECECECECECECECECECECECECECECECECECECECECECECECECECECECECECECECECECECECECECECECECECECECECECECECECECECECECECECF5ECECECECECECECECECECECECECECECECECECECECECECECECECECECECECECECECECECEFEF
310
EFEFEFEFEFECECECECECECECECECECECECECECECECECECECECECECECECECECECECECECECECECECECECECECECECECECECECEFECF5ECECEFECECECECECECECECECECECECECECECECECECECECECECECECECECECECECECECECECECECECECF5ECECECECECECECECECECECECECECECECECECECECECECECECECECECECECECECECECEC
310
ECECECECECECECECECECECECECECECECECECECECECECECECECECECECECECECECECECECECECECECECECECECECECECECECECECECECECECECECECECECECECECECECECECECECECECECECECECECECECECECECECECECECECECECECECECECECF5ECECECECECECECECECECECECECECECECECECECECECECECECECECECECECECECECECEC
310
EFEFEFEFECECEFECECECECECECECECECECECECECECECECECECECECECECECECECECECECECECECECECECECECECECECECECECECECEFECF5ECECEFECECECECECECECECECECECECECECECECECECECECECECECECECECECECECECECECECECECECECF5ECECECECECECECECECECECECECECECECECECECECECECECECECECECECECECECEC
310
ECECECECECECECECECECECECECECECECECECECECECECECECECECECECECECECECECECECECECECECECECECECECECECECECECECECECECECECECECECECECECECECECECECECECECECECECECECECECECECECECECECECECECECECECECECECECECECF5ECECECECECECECECECECECECECECECECECECECECECECECECECECECECECECECEC
310
ECECECECECECECECECECECECECECECECECECECECECECECECECECECECECECECECECECECECECECECECECECECECECECECECECECECECECEFECF5ECECEFECECECECECECECECECECECECECECECECECECECECECECECECECECECECECECECECECECECECECF5ECECECECECECECECECECECECECECECECECECECECECECECECECECECECECEC
310
ECECECECECECECECECECECECECECECECECECECECECECECECECECECECECECECECECECECECECECECECECECECECECECECECECECECECECECECECECECECECECECECECECECECECECECECECECECECECECECECECECECECECECECECECECECECECECECECECF5ECECECECECECECECECECECECECECECECECECECECECECECECECECECECECEC
310
ECECECECECECECECECECECECECECECECECECECECECECECECECECECECECECECECECECECECECECECECECECECECECECECECECECECECECECECEFECECECECEFECECECECECECECECECECECECECECECECECECECECECECECECECECECECECECECECECECECECECF5ECECECECECECECECECECECECECECECECECECECECECECECECECECECEC
310
ECECECECECECECECECECECECECECECECECECECECECECECECECECECECECECECECECECECECECECECECECECECECECECECECECECECECECECECECECECECECECECECECECECECECECECECECECECECECECECECECECECECECECECECECECECECECECECECECECECF5ECECECECECECECECECECECECECECECECECECECECECECECECECECECEC
310
ECECECECECECECECECECECECECECECECECECECECECECECECECECECECECECECECECECECECECECECECECECECECECECECECECECECECECECECECECEFEFEFEFEFEFECECECECECECECECECECECECECECECECECECECECECECECECECECECECECECECECECECECECECF5ECECECECECECECECECECECECECECECECECECECECECECECECECEC
310
ECECECECECECECECECECECECECECECECECECECECECECECECECECECECECECECECECECECECECECECECECECECECECECECECECECECECECECECECECECECECECECECECECECECECECECECECECECECECECECECECECECECECECECECECECECECECECECECECECECECECF5ECECECECECECECECECECECECECECECECECECECECECECECECECEC
310
ECECECECECECECECECECECECECECECECECECECECECECECECECECECECECECECECECECECECECECECECECECECECECECECECECECECECECECECECECECECECEFEFEFECECECECECECECECECECECECECECECECECECECECECECECECECECECECECECECECECECECECECECECF5ECECECECECECECECECECECECECECECECECECECECECECECEC
310
ECECECECECECECECECECECECECECECECECECECECECECECECECECECECECECECECECECECECECECECECECECECECECECECECECECECECECECECECECECECECECECECECECECECECECECECECECECECECECECECECECECECECECECECECECECECECECECECECECECECECECECF5ECECECECECECECECECECECECECECECECECECECECECECECEC
310
ECECECECECECECECECECECECECECECECECECECECECECECECECECECECECECECECECECECECECECECECECECECECECECECECECECECECECECECECECECECECECECECECECECECECECECECECECECECECECECECECECECECECECECECECECECECECECECECECECECECECECECECECF5ECECECECECECECECECECECECECECECECECECECECECEC
310
ECECECECECECECECECECECECECECECECECECECECECECECECECECECECECECECECECECECECECECECECECECECECECECECECECECECECECECECECECECECECECECECECECECECECECECECECECECECECECECECECECECECECECECECECECECECECECECECECECECECECECECECECF5ECECECECECECECECECECECECECECECECECECECECECEC
310
ECECECECECECECECECECECECECF5F5F5F5ECECECECECECECECECECECECECECECECECECECECECECECECECECECECECECECECECECECECECECECECECECECECECECECECECECECECECECECECECECECECECECECECECECECECECECECECECECECECECECECECECECECECECECECECECF5ECECECECECECECECECECECECECECECECECECECEC
310
ECECECECECECECECECECECECECECECECECECECECECECECECECECECECECECECECECECECECECECECECECECECECECECECECECECECECECECECECECECECECECECECECECECECECECECECECECECECECECECECECECECECECECECECECECECECECECECECECECECECECECECECECECECF5ECECECECECECECECECECECECECECECECECECECEC
310
ECECECECECECECECECECECECECECECF5F5F5F5ECECECECECECECECECECECECECECECECECECECECECECECECECECECECECECECECECECECECECECECECECECECECECECECECECECECECECECECECECECECECECECECECECECECECECECECECECECECECECECECECECECECECECECECECECF5ECECECECECECECECECECECECECECECECECEC
310
ECECECECECECECECECECECECECECECECECECECECECECECECECECECECECECECECECECECECECECECECECECECECECECECECECECECECECECECECECECECECECECECECECECECECECECECECECECECECECECECECECECECECECECECECECECECECECECECECECECECECECECECECECECECECF5ECECECECECECECECECECECECECECECECECEC
310
ECECECECECECECECECECECECECECECECECECECECECECECECECECECECECECECECECECECECECECECECECECECECECECECECECECECECECECECECECECECECECECECECECECECECECECECECECECECECECECECECECECECECECECECECECECECECECECECECECECECECECECECECECECECECECECF5ECECECECECECECECECECECECECECECEC
310
ECECECECECECECECECECECECECECECECECECECECECECECECECECECECECECECECECECECECECECECECECECECECECECECECECECECECECECECECECECECECECECECECECECECECECECECECECECECECECECECECECECECECECECECECECECECECECECECECECECECECECECECECECECECECECECF5ECECECECECECECECECECECECECECECEC
310
ECECECECECECECECECECECECECECECECECECECECECECECECECECECECECECECECECECECECECECECECECECECECECECECECECECECECECECECECECECECECECECECECECECECECECECECECECECECECECECECECECECECECECECECECECECECECECECECECECECECECECECECECECECECECECECECECF5ECECECECECECECECECECECECECEC
310
ECECECECECECECECECECECECECECECECECECECECECECECECECECECECECECECECECECECECECECECECECECECECECECECECECECECECECECECECECECECECECECECECECECECECECECECECECECECECECECECECECECECECECECECECECECECECECECECECECECECECECECECECECECECECECECECECF5ECECECECECECECECECECECECECEC
310
ECECECECECECECECECECECECECECECECECECECECECECECECECECECECECECECECECECECECECECECECECECECECECECECECECECECECECECECECECECECECECECECECECECECECECECECECECECECECECECECECECECECECECECECECECECECECECECECECECECECECECECECECECECECECECECECECECECF5ECECECECECECECECECECECEC
310
ECECECECECECECECECECECECECECECECECECECECECECECECECECECECECECECECECECECECECECECECECECECECECECECECECECECECECECECECECECECECECECECECECECECECECECECECECECECECECECECECECECECECECECECECECECECECECECECECECECECECECECECECECECECECECECECECECECF5ECECECECECECECECECECECEC
310
ECECECECECECECECECECECECECECECECECECEFEFECECECECECECECECECECEFEFECECECECECECECECECECECECECECECECECECECECECECECECECECECECECECECECECECECECECECECF5F5F5ECECECECECECECECECECECECECECECECECECECECECECECECECECECECECECECECECECECECECECECECECECF5ECECECECECECECECECEC
310
ECECECECECECECECECECECECECECECECECECECECECECECECECECECECECECECECECECECECECECECECECECECECECECECECECECECECECECECECECECECECECECECECECECECECECECECECECECECECECECECECECECECECECECECECECECECECECECECECECECECECECECECECECECECECECECECECECECECECF5ECECECECECECECECECEC
310
ECECECECECECECECECECECECECECECECECECECECEFEFEFEFEFEFEFEFEFEFEFEFEFEFECECECECECECECECECECECECECECECECECECECECECECECECECECECECECECECECECECECECECF5F5F5F5F5F5F5ECECECECECECECECECECECECECECECECECECECECECECECECECECECECECECECECECECECECECECECECF5ECECECECECECECEC
310
ECECECECECECECECECECECECECECECECECECECECECECECECECECECECECECECECECECECECECECECECECECECECECECECECECECECECECECECECECECECECECECECECECECECECECECECECECECECECECECECECECECECECECECECECECECECECECECECECECECECECECECECECECECECECECECECECECECECECECECF5ECECECECECECECEC
310
ECECECECECECECECECECECECECECECECECECECECECECEFECECECECECECECECECECECECEFECECECECECECECECECECECECECECECECECECECECECECECECECECECECECECECECECECECECF5F5F5ECECECECECF5F5ECECECECECECECECECECECECECECECECECECECECECECECECECECECECECECECECECECECECECECF5ECECECECECEC
310
ECECECECECECECECECECECECECECECECECECECECECECECECECECECECECECECECECECECECECECECECECECECECECECECECECECECECECECECECECECECECECECECECECECECECECECECECECECECECECECECECECECECECECECECECECECECECECECECECECECECECECECECECECECECECECECECECECECECECECECECECF5ECECECECECEC
310
ECECECECECECECECECECECECECECECECECECECECECECECECEFECECECECECECECECECECECECEFECECECECECECECECECECECECECECECECECECECECECECECECECECECECECECECECECECF5F5F5F5ECECECECECECECF5F5ECECECECECECECECECECECECECECECECECECECECECECECECECECECECECECECECECECECECECF5ECECECEC
310
ECECECECECECECECECECECECECECECECECECECECECECECECECECECECECECECECECECECECECECECECECECECECECECECECECECECECECECECECECECECECECECECECECECECECECECECECECECECECECECECECECECECECECECECECECECECECECECECECECECECECECECECECECECECECECECECECECECECECECECECECECECF5ECECECEC
310
ECECECECECECECECECECECECECECECECECECECECECECECECECECEFECECECECECECECECECECECECEFECECECECECECECECECECECECECECECECECECECECECECECECECECECECECECECECECF5ECECF5F5ECECECF5F5F5ECECF5F5ECECECECECECECECECECECECECECECECECECECECECECECECECECECECECECECECECECECECF5ECEC
310
ECECECECECECECECECECECECECECECECECECECECECECECECECECECECECECECECECECECECECECECECECECECECECECECECECECECECECECECECECECECECECECECECECECECECECECECECECECECECECECECECECECECECECECECECECECECECECECECECECECECECECECECECECECECECECECECECECECECECECECECECECECECECF5ECEC
310
ECECECECECECECECECECECECECECECECECECECECECECECECECECECECEFF5F5F5F5F5F5F5F5F5F5F5F5EFEFEFEFEFECECECECECECECECECECECECECECECECECECECECECECECECECECECF5F5ECECECF5F5ECECF5F5F5F5F5ECECF5F5ECECECECECECECECECECECECECECECECECECECECECECECECECECECECECECECECECECECF5
310
ECECECECECECECECECECECECECECECECECECECECECECECECECECECECECECECECECECECECECECECECECECECECECECECECECECECECECECECECECECECECECECECECECECECECECECECECECECECECECECECECECECECECECECECECECECECECECECECECECECECECECECECECECECECECECECECECECECECECECECECECECECECECECECF5
310
ECECECECECECECECECECECECECECECECECECECECECECECECECECECECECECF5F5ECECECECECECECECECECECF5ECECECEFECECECECECECECECECECECECECECECECECECECECECECECECECF5F5ECECECECECF5F5ECECF5ECECF5F5F5ECECF5ECECECECECECECECECECECECECECECECECECECECECECECECECECECECECECECECECEC
310
ECF5ECECECECECECECECECECECECECECECECECECECECECECECECECECECECECECECECECECECECECECECECECECECECECECECECECECECECECECECECECECECECECECECECECECECECECECECECECECECECECECECECECECECECECECECECECECECECECECECECECECECECECECECECECECECECECECECECECECECECECECECECECECECECEC
310
ECF5ECECECECECECECECECECECECECECECECECECECECECECECECECECECECECECF5F5ECECECECECECECECECECECF5ECECECEFECECECECECECECECECECECECECECECECECECECECECECECECF5F5ECECECECECECF5F5ECECF5ECECECECF5F5ECECF5ECECECECECECECECECECECECECECECECECECECECECECECECECECECECECECEC
310
ECECECF5ECECECECECECECECECECECECECECECECECECECECECECECECECECECECECECECECECECECECECECECECECECECECECECECECECECECECECECECECECECECECECECECECECECECECECECECECECECECECECECECECECECECECECECECECECECECECECECECECECECECECECECECECECECECECECECECECECECECECECECECECECECEC
310
ECECECF5ECECECECECECECECECECECECECECECECECECECECECECECECECECECECECECF5F5ECECECECECF5ECECECECECF5ECEFEFEFECECECECECECECECECECECECECECECECECECECECECECECECF5ECECECECECECECF5F5ECECF5ECECECECF5F5F5ECF5ECECECECECECECECECECECECECECECECECECECECECECECECECECECECEC
310
ECECECECECF5ECECECECECECECECECECECECECECECECECECECECECECECECECECECECECECECECECECECECECECECECECECECECECECECECECECECECECECECECECECECECECECECECECECECECECECECECECECECECECECECECECECECECECECECECECECECECECECECECECECECECECECECECECECECECECECECECECECECECECECECECEC
310
ECECECECECF5ECECECECECECECECECECECECECECECECECECECECECECECECECECECECECECF5F5ECECECECECF5ECECECECECF5ECEFEFEFECECECECECECECECECECECECECECECECECECECECECECECECF5ECECECECECECECF5F5ECECF5ECECECECECF5F5ECECF5ECECECECECECECECECECECECECECECECECECECECECECECECECEC
310
ECECECECECECECF5ECECECECECECECECECECECECECECECECECECECECECECECECECECECECECECECECECECECECECECECECECECECECECECECECECECECECECECECECECECECECECECECECECECECECECECECECECECECECECECECECECECECECECECECECECECECECECECECECECECECECECECECECECECECECECECECECECECECECECECEC
310
ECECECECECECECF5ECECECECECECECECECECECECECECECECECECECECECECECECECECECECECECF5F5F5F5F5F5F5F5F5F5F5F5F5F5ECEFEFEFECECECECECECECECECECECECECECECECECECECECECECECECF5ECECECECECECECECF5F5ECF5ECECECECECF5F5ECECF5ECECECECECECECECECECECECECECECECECECECECECECECEC
310
ECECECECECECECECECF5ECECECECECECECECECECECECECECECECECECECECECECECECECECECECECECECECECECECECECECECECECECECECECECECECECECECECECECECECECECECECECECECECECECECECECECECECECECECECECECECECECECECECECECECECECECECECECECECECECECECECECECECECECECECECECECECECECECECECEC
310
ECECECECECECECECECF5ECECECECECECECECECECECECECECECECECECECECECECECECECECECECECECF5F5ECECECF5F5F5F5ECECECECF5ECECECEFECECECECECECECECECECECECECECECECECECECECECECECECF5ECECECECECECECECF5F5ECF5F5ECECECECECF5F5ECF5ECECECECECECECECECECECECECECECECECECECECECEC
310
ECECECECECECECECECECECF5ECECECECECECECECECECECECECECECECECECECECECECECECECECECECECECECECECECECECECECECECECECECECECECECECECECECECECECECECECECECECECECECECECECECECECECECECECECECECECECECECECECECECECECECECECECECECECECECECECECECECECECECECECECECECECECECECECECEC
310
ECECECECECECECECECECECF5ECECECECECECECECECECECECECECECECECECECECECECECECECECECECECECF5F5EFEFF5F5F5F5F5F5ECECECF5ECECECEFECECECECECECECECECECECECECECECECECECECECECECECECF5ECECECECECECECECECF5F5ECF5F5ECECECECF5F5ECF5ECECECECECECECECECECECECECECECECECECECEC
310
ECECECECECECECECECECECECECF5ECECECECECECECECECECECECECECECECECECECECECECECECECECECECECECECECECECECECECECECECECECECECECECECECECECECECECECECECECECECECECECECECECECECECECECECECECECECECECECECECECECECECECECECECECECECECECECECECECECECECECECECECECECECECECECECECEC
310
ECECECECECECECECECECECECECF5ECECECECECECECECECECECECECECECECECECECECECECECECECECECECECECF5F5ECEFEFF5ECF5F5F5EFEFECF5ECECECEFECECECECECECECECECECECECECECECECECECECECECECECECF5ECECECECECECECECECF5F5ECECF5F5ECECF5F5F5ECF5ECECECECECECECECECECECECECECECECECEC
310
ECECECECECECECECECECECECECECECF5ECECECECECECECECECECECECECECECECECECECECECECECECECECECECECECECECECECECECECECECECECECECECECECECECECECECECECECECECECECECECECECECECECECECECECECECECECECECECECECECECECECECECECECECECECECECECECECECECECECECECECECECECECECECECECECEC
310
ECECECECECECECECECECECECECECECF5ECECECECECECECECECECECECECECECECECECECECECECECECECECECECECECF5F5ECF5F5EFEFF5EFEFF5F5ECF5ECECECEFECECECECECECECECECECECECECECECECECECECECECECECECF5ECECECECECECECECECECF5F5ECECF5F5F5F5F5ECECF5ECECECECECECECECECECECECECECECEC
310
ECECECECECECECECECECECECECECECECECF5ECECECECECECECECECECECECECECECECECECECECECECECECECECECECECECECECECECECECECECECECECECECECECECECECECECECECECECECECECECECECECECECECECECECECECECECECECECECECECECECECECECECECECECECECECECECECECECECECECECECECECECECECECECECECEC
310
ECECECECECECECECECECECECECECECECECF5ECECECECECECECECECECECECECECECECECECECECECECECECECECECECECECF5F5F5F5F5F5EFEFF5F5F5F5F5EFEFEFEFEFECECECECECECECECECECECECECECECECECECECECECECECECF5F5ECECECECECECECECECF5F5F5ECECECF5F5ECECECF5ECECECECECECECECECECECECECEC
310
ECECECECECECECECECECECECECECECECECECECF5ECECECECECECECECECECECECECECECECECECECECECECECECECECECECECECECECECECECECECECECECECECECECECECECECECECECECECECECECECECECECECECECECECECECECECECECECECECECECECECECECECECECECECECECECECECECECECECECECECECECECECECECECECECEC
310
ECECECECECECECECECECECECECECECECECECECF5ECECECECECECECECECECECECECECECECECECECECECECECECECECECECECECF5F5ECF5EFEFECF5EFEFEFF5ECF5ECECECECECECECECECECECECECECECECECECECECECECECECECECECECECF5ECECECECECECECECECECF5F5F5ECECECECECECECF5ECECECECECECECECECECECEC
310
ECECECECECECECECECECECECECECECECECECECECECF5ECECECECECECECECECECECECECECECECECECECECECECECECECECECECECECECECECECECECECECECECECECECECECECECECECECECECECECECECECECECECECECECECECECECECECECECECECECECECECECECECECECECECECECECECECECECECECECECECECECECECECECECECEC
310
ECECECECECECECECECECECECECECECECECECECECECF5ECECECECECECECECECECECECECECECECECECECECECECECECECECECECECECF5F5EFEFEFF5F5F5F5EFEFEFECF5ECECECECECECECECECECECECECECECECECECECECECECECECECECECECECF5F5ECECECECECECECECECECF5F5F5F5ECECECECF5F5ECECECECECECECECECEC
310
ECECECECECECECECECECECECECECECECECECECECECECECF5ECECECECECECECECECECECECECECECECECECECECECECECECECECECECECECECECECECECECECECECECECECECECECECECECECECECECECECECECECECECECECECECECECECECECECECECECECECECECECECECECECECECECECECECECECECECECECECECECECECECECECECEC
310
ECECECECECECECECECECECECECECECECECECECECECECECF5ECECECECECECECECECECECECECECECECECECECECECECECECECECECECECECEFEFECECF5EFEFEFEFEFECECEFEFECECECECECECECECECECECECECECECECECECECECECECECECECECECECECECF5ECECECECECF5F5F5F5F5F5ECF5F5F5F5F5F5F5ECECECECECECECECEC
310
ECECECECECECECECECECECECECECECECECECECECECECECECECF5ECECECECECECECECECECECECECECECECECECECECECECECECECECECECECECECECECECECECECECECECECECECECECECECECECECECECECECECECECECECECECECECECECECECECECECECECECECECECECECECECECECECECECECECECECECECECECECECECECECECECEC
310
ECECECECECECECECECECECECECECECECECECECECECECECECECF5ECECECECECECECECECECECECECECECECECECECECECECECEFEFEFEFEFEFEFF5F5ECECECECF5F5F5ECECECECF5EFEFEFEFEFECECECECECECECECECECECECECECECECECECECECECECECECECECF5ECECECF5F5F5F5F5F5F5F5F5F5F5F5F5F5ECECECECECECECEC
310
ECECECECECECECECECECECECECECECECECECECECECECECECECECECF5ECECECECECECECECECECECECECECECECECECECECECECECECECECECECECECECECECECECECECECECECECECECECECECECECECECECECECECECECECECECECECECECECECECECECECECECECECECECECECECECECECECECECECECECECECECECECECECECECECECEC
310
ECECECECECECECECECECECECECECECECECECECECECECECECECECECF5ECECECECECECECECECECECECECECECECECECECECECECECEFEFEFEFECECECF5F5F5F5F5F5F5F5F5F5F5F5F5F5EFEFEFEFECECECECECECECECECECECECECECECECECECECECECECECECECECECF5F5ECECF5F5F5ECECECF5F5F5ECECF5F5ECECECECECECEC
310
ECECECECECECECECECECECECECECECECECECECECECECECECECECECECECF5ECECECECECECECECECECECECECECECECECECECECECECECECECECECECECECECECECECECECECECECECECECECECECECECECECECECECECECECECECECECECECECECECECECECECECECECECECECECECECECECECECECECECECECECECECECECECECECECECEC
310
ECECECECECECECECECECECECECECECECECECECECECECECECECECECECECF5ECECECECECECECECECECECECECECECECECECECECECECECECECECECECECECF5F5ECECECECECF5ECECECECECF5ECECECECECECECECECECECECECECECECECECECECECECECECECECECECECECECECF5F5ECF5F5F5F5F5F5F5F5F5F5F5ECECECECECECEC
310
ECECECECECECECECECECECECECECECECECECECECECECECECECECECECECECECF5ECECECECECECECECECECECECECECECECECECECECECECECECECECECECECECECECECECECECECECECECECECECECECECECECECECECECECECECECECECECECECECECECECECECECECECECECECECECECECECECECECECECECECECECECECECECECECECEC
310
ECECECECECECECECECECECECECECECECECECECECECECECECECECECECECECECF5ECECECECECECECECECECECECECECECECECECECECECECECECECECECECECECF5F5ECECECECECF5ECECECECECF5ECECECECECECECECECECECECECECECECECECECECECECECECECECECECECECECECECF5F5F5F5F5F5F5F5F5F5F5ECECECECECECEC
310
ECECECECECECECECECECECECECECECECECECECECECECECECECECECECECECECECECF5ECECECECECECECECECECECECECECECECECECECECECECECECECECECECECECECECECECECECECECECECECECECECECECECECECECECECECECECECECECECECECECECECECECECECECECECECECECECECECECECECECECECECECECECECECECECECEC
310
ECECECECECECECECECECECECECECECECECECECECECECECECECECECECECECECECECF5ECECECECECECECECECECECECECECECECECECECECECECECECECECECECECECF5F5ECECECECECECECECECECECF5ECECECECECECECECECECECECECECECECECECECECECECECECECECECECECECECECECECECF5F5F5ECECF5F5ECECECECECECEC
310
ECECECECECECECECECECECECECECECECECECECECECECECECECECECECECECECECECECECF5ECECECECECECECECECECECECECECECECECECECECECECECECECECECECECECECECECECECECECECECECECECECECECECECECECECECECECECECECECECECECECECECECECECECECECECECECECECECECECECECECECECECECECECECECECECEC
310
ECECECECECECECECECECECECECECECECECECECECECECECECECECECECECECECECECECECF5ECECECECECECECECECECECECECECECECECECECECECECECECECECECECECECF5F5ECECECECECECECECECECECF5ECECECECECECECECECECECECECECECECECECECECECECECECECECECECECECECECECECECECECF5F5F5ECECECECECECEC
310
ECECECECECECECECECECECECECECECECECECECECECECECECECECECECECECECECECECECECECF5ECECECECECECECECECECECECECECECECECECECECECECECECECECECECECECECECECECECECECECECECECECECECECECECECECECECECECECECECECECECECECECECECECECECECECECECECECECECECECECECECECECECECECECECECEC
310
ECECECECECECECECECECECECECECECECECECECECECECECECECECECECECECECECECECECECECF5ECECECECECECECECECECECECECECECECECECECECECECECECECECECECECECF5F5F5F5F5F5F5F5F5F5F5F5F5F5ECECECECECECECECECECECECECECECECECECECECECECECECECECECECECECECECECECECECECECECECECECECECEC
310
ECECECECECECECECECECECECECECECECECECECECECECECECECECECECECECECECECECECECECECECF5ECECECECECECECECECECECECECECECECECECECECECECECECECECECECECECECECECECECECECECECECECECECECECECECECECECECECECECECECECECECECECECECECECECECECECECECECECECECECECECECECECECECECECECEC
310
ECECECECECECECECECECECECECECECECECECECECECECECECECECECECECECECECECECECECECECECF5ECECECECECECECECECECECECECECECECECECECECECECECECECECECECECECECECECECECECECECECECECECECECECECECECECECECECECECECECECECECECECECECECECECECECECECECECECECECECECECECECECECECECECECEC
310
ECECECECECECECECECECECECECECECECECECECECECECECECECECECECECECECECECECECECECECECECECF5ECECECECECECECECECECECECECECECECECECECECECECECECECECECECECECECECECECECECECECECECECECECECECECECECECECECECECECECECECECECECECECECECECECECECECECECECECECECECECECECECECECECECEC
310
ECECECECECECECECECECECECECECECECECECECECECECECECECECECECECECECECECECECECECECECECECF5ECECECECECECECECECECECECECECECECECECECECECECECECECECECECECECECECECECECECECECECECECECECECECECECECECECECECECECECECECECECECECECECECECECECECECECECECECECECECECECECECECECECECEC
310
ECECECECECECECECECECECECECECECECECECECECECECECECECECECECECECECECECECECECECECECECECECECF5ECECECECECECECECECECECECECECECECECECECECECECECECECECECECECECECECECECECECECECECECECECECECECECECECECECECECECECECECECECECECECECECECECECECECECECECECECECECECECECECECECECEC
310
ECECECECECECECECECECECECECECECECECECECECECECECECECECECECECECECECECECECECECECECECECECECF5ECECECECECECECECECECECECECECECECECECECECECECECECECECECECECECECECECECECECECECECECECECECECECECECECECECECECECECECECECECECECECECECECECECECECECECECECECECECECECECECECECECEC
310
ECECECECECECECECECECECECECECECECECECECECECECECECECECECECECECECECECECECECECECECECECECECECECF5ECECECECECECECECECECECECECECECECECECECECECECECECECECECECECECECECECECECECECECECECECECECECECECECECECECECECECECECECECECECECECECECECECECECECECECECECECECECECECECECECEC
310
ECECECECECECECECECECECECECECECECECECECECECECECECECECECECECECECECECECECECECECECECECECECECECF5ECECECECECECECECECECECECECECECECECECECECECECECECECECECECECECECECECECECECECECECECECECECECECECECECECECECECECECECECECECECECECECECECECECECECECECECECECECECECECECECECEC
310
ECECECECECECECECECECECECECECECECECECECECECECECECECECECECF5F5F5F5F5F5F5F5F5F5F5F5F5F5F5F5F5F5F5F5ECECECECECECECECECECECECECECECECECECECECECECECECECECECECECECECECECECECECECECECECECECECECECECECECECECECECECECECECECECECECECECECECECECECECECECECECECECECECECECEC
310
ECECECECECECECECECECECECECECECECECECECECECECECECECECECECECECECECECECECECECECECECECECECECECECECF5ECECECECECECECECECECECECECECECECECECECECECECECECECECECECECECECECECECECECECECECECECECECECECECECECECECECECECECECECECECECECECECECECECECECECECECECECECECECECECECEC
310
ECECECECECECECECECECECECECECECECECECECECECECECECECECECECECECF5ECF5F5F5F5F5F5F5F5F5F5F5F5F5F5ECECECF5ECECECECECECECECECECECECECECECECECECECECECECECECECECECECECECECECECECECECECECECECECECECECECECECECECECECECECECECECECECECECECECECECECECECECECECECECECECECECEC
310
ECECECECECECECECECECECECECECECECECECECECECECECECECECECECECECECECECECECECECECECECECECECECECECECECECF5ECECECECECECECECECECECECECECECECECECECECECECECECECECECECECECECECECECECECECECECECECECECECECECECECECECECECECECECECECECECECECECECECECECECECECECECECECECECECEC
310
ECECECECECECECECECECECECECECECECECECECECECECECECECECECECECECECECF5ECF5F5F5F5F5F5F5F5F5F5F5F5F5F5ECECECF5ECECECECECECECECECECECECECECECECECECECECECECECECECECECECECECECECECECECECECECECECECECECECECECECECECECECECECECECECECECECECECECECECECECECECECECECECECECEC
310
ECECECECECECECECECECECECECECECECECECECECECECECECECECECECECECECECECECECECECECECECECECECECECECECECECECECF5F5F5F5F5F5F5F5F5F5F5F5F5F5F5F5F5F5F5F5F5F5F5F5F5F5F5F5F5F5F5F5F5F5F5F5F5F5F5F5F5F5F5F5F5F5F5F5F5F5F5F5F5F5F5F5F5F5F5F5F5F5F5F5F5F5F5F5F5F5F5F5F5F5F5F5
310
F5F5F5F5F5F5F5F5F5F5F5F5F5F5F5F5F5F5F5F5F5F5F5F5F5F5F5F5F5F5F5F5F5F5F5F5F5F5F5F5F5F5F5F5F5F5F5F5F5F5F5F5F5F5ECECECECECECECECECECECECECECECECECECECECECECECECECECECECECECECECECECECECECECECECECECECECECECECECECECECECECECECECECECECECECECECECECECECECECECECECEC
310
ECECECECECECECECECECECECECECECECECECECECECECECECECECECECECECECECECECECECECECECECECECECECECECECECECECECECECECECECECECECECECECECECECECECECECECECECECECECECECECECECECECECECECECECECECECECECECECECECECECECECECECECECECECECECECECECECECECECECECECECECECECECECECECEC
310
ECECECECECECECECECECECECECECECECECECECECECECECECECECECECECECECECECECECECECECECECECECECECECECECECECECECECECECECECECECECECECECECECECECECECECECECECECECECECECECECECECECECECECECECECECECECECECECECECECECECECECECECECECECECECECECECECECECECECECECEC
  0
XRECORD
  5
1046
102
{ACAD_REACTORS
330
1045
102
}
330
1045
100
AcDbXrecord
280
     1
102
MATERIAL
148
0.0
149
0.0
149
0.0
 93
        0
 94
       63
282
     0
 72
     1
 77
     1
171
     1
175
     1
179
     1
273
     0
  0
XRECORD
  5
1044
102
{ACAD_REACTORS
330
1043
102
}
330
1043
100
AcDbXrecord
280
     1
102
MATERIAL
148
0.0
149
0.0
149
0.0
 93
        0
 94
       63
282
     0
 72
     1
 77
     1
171
     1
175
     1
179
     1
273
     0
  0
XRECORD
  5
1048
102
{ACAD_REACTORS
330
1047
102
}
330
1047
100
AcDbXrecord
280
     1
102
MATERIAL
148
0.0
149
0.0
149
0.0
 93
        0
 94
       63
282
     0
 72
     1
 77
     1
171
     1
175
     1
179
     1
273
     0
  0
CELLSTYLEMAP
  5
1041
102
{ACAD_REACTORS
330
1040
102
}
330
1040
100
AcDbCellStyleMap
 90
        3
300
CELLSTYLE
  1
TABLEFORMAT_BEGIN
 90
        5
170
     1
 91
        0
 92
    32768
 62
   257
 93
        1
300
CONTENTFORMAT
  1
CONTENTFORMAT_BEGIN
 90
        0
 91
        0
 92
      512
 93
        0
300

 40
0.0
140
1.0
 94
        5
 62
     0
340
11
144
0.25
309
CONTENTFORMAT_END
171
     0
 94
        6
 95
        1
302
GRIDFORMAT
  1
GRIDFORMAT_BEGIN
 90
        0
 91
        1
 62
     0
 92
       -2
340
0
 93
        0
 40
0.045
309
GRIDFORMAT_END
 95
        2
302
GRIDFORMAT
  1
GRIDFORMAT_BEGIN
 90
        0
 91
        1
 62
     0
 92
       -2
340
0
 93
        0
 40
0.045
309
GRIDFORMAT_END
 95
        4
302
GRIDFORMAT
  1
GRIDFORMAT_BEGIN
 90
        0
 91
        1
 62
     0
 92
       -2
340
0
 93
        0
 40
0.045
309
GRIDFORMAT_END
 95
        8
302
GRIDFORMAT
  1
GRIDFORMAT_BEGIN
 90
        0
 91
        1
 62
     0
 92
       -2
340
0
 93
        0
 40
0.045
309
GRIDFORMAT_END
 95
       16
302
GRIDFORMAT
  1
GRIDFORMAT_BEGIN
 90
        0
 91
        1
 62
     0
 92
       -2
340
0
 93
        0
 40
0.045
309
GRIDFORMAT_END
 95
       32
302
GRIDFORMAT
  1
GRIDFORMAT_BEGIN
 90
        0
 91
        1
 62
     0
 92
       -2
340
0
 93
        0
 40
0.045
309
GRIDFORMAT_END
309
TABLEFORMAT_END
  1
CELLSTYLE_BEGIN
 90
        1
 91
        1
300
_TITLE
309
CELLSTYLE_END
300
CELLSTYLE
  1
TABLEFORMAT_BEGIN
 90
        5
170
     1
 91
        0
 92
        0
 62
   257
 93
        1
300
CONTENTFORMAT
  1
CONTENTFORMAT_BEGIN
 90
        0
 91
        0
 92
      512
 93
        0
300

 40
0.0
140
1.0
 94
        5
 62
     0
340
11
144
0.18
309
CONTENTFORMAT_END
171
     0
 94
        6
 95
        1
302
GRIDFORMAT
  1
GRIDFORMAT_BEGIN
 90
        0
 91
        1
 62
     0
 92
       -2
340
0
 93
        0
 40
0.045
309
GRIDFORMAT_END
 95
        2
302
GRIDFORMAT
  1
GRIDFORMAT_BEGIN
 90
        0
 91
        1
 62
     0
 92
       -2
340
0
 93
        0
 40
0.045
309
GRIDFORMAT_END
 95
        4
302
GRIDFORMAT
  1
GRIDFORMAT_BEGIN
 90
        0
 91
        1
 62
     0
 92
       -2
340
0
 93
        0
 40
0.045
309
GRIDFORMAT_END
 95
        8
302
GRIDFORMAT
  1
GRIDFORMAT_BEGIN
 90
        0
 91
        1
 62
     0
 92
       -2
340
0
 93
        0
 40
0.045
309
GRIDFORMAT_END
 95
       16
302
GRIDFORMAT
  1
GRIDFORMAT_BEGIN
 90
        0
 91
        1
 62
     0
 92
       -2
340
0
 93
        0
 40
0.045
309
GRIDFORMAT_END
 95
       32
302
GRIDFORMAT
  1
GRIDFORMAT_BEGIN
 90
        0
 91
        1
 62
     0
 92
       -2
340
0
 93
        0
 40
0.045
309
GRIDFORMAT_END
309
TABLEFORMAT_END
  1
CELLSTYLE_BEGIN
 90
        2
 91
        1
300
_HEADER
309
CELLSTYLE_END
300
CELLSTYLE
  1
TABLEFORMAT_BEGIN
 90
        5
170
     1
 91
        0
 92
        0
 62
   257
 93
        1
300
CONTENTFORMAT
  1
CONTENTFORMAT_BEGIN
 90
        0
 91
        0
 92
      512
 93
        0
300

 40
0.0
140
1.0
 94
        2
 62
     0
340
11
144
0.18
309
CONTENTFORMAT_END
171
     0
 94
        6
 95
        1
302
GRIDFORMAT
  1
GRIDFORMAT_BEGIN
 90
        0
 91
        1
 62
     0
 92
       -2
340
0
 93
        0
 40
0.045
309
GRIDFORMAT_END
 95
        2
302
GRIDFORMAT
  1
GRIDFORMAT_BEGIN
 90
        0
 91
        1
 62
     0
 92
       -2
340
0
 93
        0
 40
0.045
309
GRIDFORMAT_END
 95
        4
302
GRIDFORMAT
  1
GRIDFORMAT_BEGIN
 90
        0
 91
        1
 62
     0
 92
       -2
340
0
 93
        0
 40
0.045
309
GRIDFORMAT_END
 95
        8
302
GRIDFORMAT
  1
GRIDFORMAT_BEGIN
 90
        0
 91
        1
 62
     0
 92
       -2
340
0
 93
        0
 40
0.045
309
GRIDFORMAT_END
 95
       16
302
GRIDFORMAT
  1
GRIDFORMAT_BEGIN
 90
        0
 91
        1
 62
     0
 92
       -2
340
0
 93
        0
 40
0.045
309
GRIDFORMAT_END
 95
       32
302
GRIDFORMAT
  1
GRIDFORMAT_BEGIN
 90
        0
 91
        1
 62
     0
 92
       -2
340
0
 93
        0
 40
0.045
309
GRIDFORMAT_END
309
TABLEFORMAT_END
  1
CELLSTYLE_BEGIN
 90
        3
 91
        2
300
_DATA
309
CELLSTYLE_END
  0
XRECORD
  5
1069
102
{ACAD_REACTORS
330
1040
102
}
330
1040
100
AcDbXrecord
280
     1
102
ACAD_ROUNDTRIP_PRE2007_TABLESTYLE
 90
      512
 91
        0
  1

 92
      512
 93
        0
  2

 94
      512
 95
        0
  3

  0
XRECORD
  5
1054
102
{ACAD_REACTORS
330
1053
102
}
330
1053
100
AcDbXrecord
280
     1
102
RTVSPropertyOp0
 70
     1
102
RTVSPropertyOp1
 70
     1
102
RTVSPropertyOp2
 70
     1
102
RTVSPropertyOp3
 70
     1
102
RTVSPropertyOp4
 70
     1
102
RTVSPropertyOp5
 70
     1
102
RTVSPropertyOp6
 70
     1
102
RTVSPropertyOp7
 70
     1
102
RTVSPropertyOp8
 70
     1
102
RTVSPropertyOp9
 70
     1
102
RTVSPropertyOp10
 70
     1
102
RTVSPropertyOp11
 70
     1
102
RTVSPropertyOp12
 70
     1
102
RTVSPropertyOp13
 70
     1
102
RTVSPropertyOp14
 70
     1
102
RTVSPropertyOp15
 70
     1
102
RTVSPropertyOp16
 70
     1
102
RTVSPropertyOp17
 70
     1
102
RTVSPropertyOp18
 70
     1
102
RTVSPropertyOp19
 70
     1
102
RTVSPropertyOp20
 70
     1
102
RTVSPropertyOp21
 70
     1
102
RTVSPropertyOp22
 70
     1
102
RTVSPropertyOp23
 70
     1
102
RTVSPropertyOp24
 70
     1
102
RTVSPropertyOp25
 70
     1
102
RTVSPropertyOp26
 70
     1
102
RTVSPropertyOp27
 70
     1
  0
XRECORD
  5
1058
102
{ACAD_REACTORS
330
1057
102
}
330
1057
100
AcDbXrecord
280
     1
102
RTVSPropertyOp0
 70
     1
102
RTVSPropertyOp1
 70
     1
102
RTVSPropertyOp2
 70
     1
102
RTVSPropertyOp3
 70
     1
102
RTVSPropertyOp4
 70
     1
102
RTVSPropertyOp5
 70
     1
102
RTVSPropertyOp6
 70
     1
102
RTVSPropertyOp7
 70
     1
102
RTVSPropertyOp8
 70
     1
102
RTVSPropertyOp9
 70
     1
102
RTVSPropertyOp10
 70
     1
102
RTVSPropertyOp11
 70
     1
102
RTVSPropertyOp12
 70
     1
102
RTVSPropertyOp13
 70
     1
102
RTVSPropertyOp14
 70
     1
102
RTVSPropertyOp15
 70
     1
102
RTVSPropertyOp16
 70
     1
102
RTVSPropertyOp17
 70
     1
102
RTVSPropertyOp18
 70
     1
102
RTVSPropertyOp19
 70
     1
102
RTVSPropertyOp20
 70
     1
102
RTVSPropertyOp21
 70
     1
102
RTVSPropertyOp22
 70
     1
102
RTVSPropertyOp23
 70
     1
102
RTVSPropertyOp24
 70
     1
102
RTVSPropertyOp25
 70
     1
102
RTVSPropertyOp26
 70
     1
102
RTVSPropertyOp27
 70
     1
  0
XRECORD
  5
1056
102
{ACAD_REACTORS
330
1055
102
}
330
1055
100
AcDbXrecord
280
     1
102
RTVSPropertyOp0
 70
     1
102
RTVSPropertyOp1
 70
     1
102
RTVSPropertyOp2
 70
     1
102
RTVSPropertyOp3
 70
     1
102
RTVSPropertyOp4
 70
     1
102
RTVSPropertyOp5
 70
     1
102
RTVSPropertyOp6
 70
     1
102
RTVSPropertyOp7
 70
     1
102
RTVSPropertyOp8
 70
     1
102
RTVSPropertyOp9
 70
     1
102
RTVSPropertyOp10
 70
     1
102
RTVSPropertyOp11
 70
     1
102
RTVSPropertyOp12
 70
     1
102
RTVSPropertyOp13
 70
     1
102
RTVSPropertyOp14
 70
     1
102
RTVSPropertyOp15
 70
     1
102
RTVSPropertyOp16
 70
     1
102
RTVSPropertyOp17
 70
     1
102
RTVSPropertyOp18
 70
     1
102
RTVSPropertyOp19
 70
     1
102
RTVSPropertyOp20
 70
     1
102
RTVSPropertyOp21
 70
     1
102
RTVSPropertyOp22
 70
     1
102
RTVSPropertyOp23
 70
     1
102
RTVSPropertyOp24
 70
     1
102
RTVSPropertyOp25
 70
     1
102
RTVSPropertyOp26
 70
     1
102
RTVSPropertyOp27
 70
     1
  0
XRECORD
  5
1052
102
{ACAD_REACTORS
330
1051
102
}
330
1051
100
AcDbXrecord
280
     1
102
RTVSPropertyOp0
 70
     1
102
RTVSPropertyOp1
 70
     1
102
RTVSPropertyOp2
 70
     1
102
RTVSPropertyOp3
 70
     1
102
RTVSPropertyOp4
 70
     1
102
RTVSPropertyOp5
 70
     1
102
RTVSPropertyOp6
 70
     1
102
RTVSPropertyOp7
 70
     1
102
RTVSPropertyOp8
 70
     1
102
RTVSPropertyOp9
 70
     1
102
RTVSPropertyOp10
 70
     1
102
RTVSPropertyOp11
 70
     1
102
RTVSPropertyOp12
 70
     1
102
RTVSPropertyOp13
 70
     1
102
RTVSPropertyOp14
 70
     1
102
RTVSPropertyOp15
 70
     1
102
RTVSPropertyOp16
 70
     1
102
RTVSPropertyOp17
 70
     1
102
RTVSPropertyOp18
 70
     1
102
RTVSPropertyOp19
 70
     1
102
RTVSPropertyOp20
 70
     1
102
RTVSPropertyOp21
 70
     1
102
RTVSPropertyOp22
 70
     1
102
RTVSPropertyOp23
 70
     1
102
RTVSPropertyOp24
 70
     1
102
RTVSPropertyOp25
 70
     1
102
RTVSPropertyOp26
 70
     1
102
RTVSPropertyOp27
 70
     1
  0
XRECORD
  5
1060
102
{ACAD_REACTORS
330
105F
102
}
330
105F
100
AcDbXrecord
280
     1
102
RTVSPropertyOp0
 70
     1
102
RTVSPropertyOp1
 70
     1
102
RTVSPropertyOp2
 70
     1
102
RTVSPropertyOp3
 70
     1
102
RTVSPropertyOp4
 70
     1
102
RTVSPropertyOp5
 70
     1
102
RTVSPropertyOp6
 70
     1
102
RTVSPropertyOp7
 70
     1
102
RTVSPropertyOp8
 70
     1
102
RTVSPropertyOp9
 70
     1
102
RTVSPropertyOp10
 70
     1
102
RTVSPropertyOp11
 70
     1
102
RTVSPropertyOp12
 70
     1
102
RTVSPropertyOp13
 70
     1
102
RTVSPropertyOp14
 70
     1
102
RTVSPropertyOp15
 70
     1
102
RTVSPropertyOp16
 70
     1
102
RTVSPropertyOp17
 70
     1
102
RTVSPropertyOp18
 70
     1
102
RTVSPropertyOp19
 70
     1
102
RTVSPropertyOp20
 70
     1
102
RTVSPropertyOp21
 70
     1
102
RTVSPropertyOp22
 70
     1
102
RTVSPropertyOp23
 70
     1
102
RTVSPropertyOp24
 70
     1
102
RTVSPropertyOp25
 70
     1
102
RTVSPropertyOp26
 70
     1
102
RTVSPropertyOp27
 70
     1
  0
XRECORD
  5
1068
102
{ACAD_REACTORS
330
1067
102
}
330
1067
100
AcDbXrecord
280
     1
102
RTVSPropertyOp0
 70
     1
102
RTVSPropertyOp1
 70
     1
102
RTVSPropertyOp2
 70
     1
102
RTVSPropertyOp3
 70
     1
102
RTVSPropertyOp4
 70
     1
102
RTVSPropertyOp5
 70
     1
102
RTVSPropertyOp6
 70
     1
102
RTVSPropertyOp7
 70
     1
102
RTVSPropertyOp8
 70
     1
102
RTVSPropertyOp9
 70
     1
102
RTVSPropertyOp10
 70
     1
102
RTVSPropertyOp11
 70
     1
102
RTVSPropertyOp12
 70
     1
102
RTVSPropertyOp13
 70
     1
102
RTVSPropertyOp14
 70
     1
102
RTVSPropertyOp15
 70
     1
102
RTVSPropertyOp16
 70
     1
102
RTVSPropertyOp17
 70
     1
102
RTVSPropertyOp18
 70
     1
102
RTVSPropertyOp19
 70
     1
102
RTVSPropertyOp20
 70
     1
102
RTVSPropertyOp21
 70
     1
102
RTVSPropertyOp22
 70
     1
102
RTVSPropertyOp23
 70
     1
102
RTVSPropertyOp24
 70
     1
102
RTVSPropertyOp25
 70
     1
102
RTVSPropertyOp26
 70
     1
102
RTVSPropertyOp27
 70
     1
  0
XRECORD
  5
105A
102
{ACAD_REACTORS
330
1059
102
}
330
1059
100
AcDbXrecord
280
     1
102
RTVSPropertyOp0
 70
     1
102
RTVSPropertyOp1
 70
     1
102
RTVSPropertyOp2
 70
     1
102
RTVSPropertyOp3
 70
     1
102
RTVSPropertyOp4
 70
     1
102
RTVSPropertyOp5
 70
     1
102
RTVSPropertyOp6
 70
     1
102
RTVSPropertyOp7
 70
     1
102
RTVSPropertyOp8
 70
     1
102
RTVSPropertyOp9
 70
     1
102
RTVSPropertyOp10
 70
     1
102
RTVSPropertyOp11
 70
     1
102
RTVSPropertyOp12
 70
     1
102
RTVSPropertyOp13
 70
     1
102
RTVSPropertyOp14
 70
     1
102
RTVSPropertyOp15
 70
     1
102
RTVSPropertyOp16
 70
     1
102
RTVSPropertyOp17
 70
     1
102
RTVSPropertyOp18
 70
     1
102
RTVSPropertyOp19
 70
     1
102
RTVSPropertyOp20
 70
     1
102
RTVSPropertyOp21
 70
     1
102
RTVSPropertyOp22
 70
     1
102
RTVSPropertyOp23
 70
     1
102
RTVSPropertyOp24
 70
     1
102
RTVSPropertyOp25
 70
     1
102
RTVSPropertyOp26
 70
     1
102
RTVSPropertyOp27
 70
     1
  0
XRECORD
  5
105E
102
{ACAD_REACTORS
330
105D
102
}
330
105D
100
AcDbXrecord
280
     1
102
RTVSPropertyOp0
 70
     1
102
RTVSPropertyOp1
 70
     1
102
RTVSPropertyOp2
 70
     1
102
RTVSPropertyOp3
 70
     1
102
RTVSPropertyOp4
 70
     1
102
RTVSPropertyOp5
 70
     1
102
RTVSPropertyOp6
 70
     1
102
RTVSPropertyOp7
 70
     1
102
RTVSPropertyOp8
 70
     1
102
RTVSPropertyOp9
 70
     1
102
RTVSPropertyOp10
 70
     1
102
RTVSPropertyOp11
 70
     1
102
RTVSPropertyOp12
 70
     1
102
RTVSPropertyOp13
 70
     1
102
RTVSPropertyOp14
 70
     1
102
RTVSPropertyOp15
 70
     1
102
RTVSPropertyOp16
 70
     1
102
RTVSPropertyOp17
 70
     1
102
RTVSPropertyOp18
 70
     1
102
RTVSPropertyOp19
 70
     1
102
RTVSPropertyOp20
 70
     1
102
RTVSPropertyOp21
 70
     1
102
RTVSPropertyOp22
 70
     1
102
RTVSPropertyOp23
 70
     1
102
RTVSPropertyOp24
 70
     1
102
RTVSPropertyOp25
 70
     1
102
RTVSPropertyOp26
 70
     1
102
RTVSPropertyOp27
 70
     1
  0
XRECORD
  5
106F
102
{ACAD_REACTORS
330
106E
102
}
330
106E
100
AcDbXrecord
280
     1
102
RTVSPropertyOp0
 70
     0
102
RTVSPropertyOp1
 70
     0
102
RTVSPropertyOp2
 70
     0
102
RTVSPropertyOp3
 70
     0
102
RTVSPropertyOp4
 70
     0
102
RTVSPropertyOp5
 70
     0
102
RTVSPropertyOp6
 70
     0
102
RTVSPropertyOp7
 70
     0
102
RTVSPropertyOp8
 70
     0
102
RTVSPropertyOp9
 70
     0
102
RTVSPropertyOp10
 70
     0
102
RTVSPropertyOp11
 70
     0
102
RTVSPropertyOp12
 70
     0
102
RTVSPropertyOp13
 70
     0
102
RTVSPropertyOp14
 70
     2
102
RTVSPropertyOp15
 70
     0
102
RTVSPropertyOp16
 70
     0
102
RTVSPropertyOp17
 70
     0
102
RTVSPropertyOp18
 70
     0
102
RTVSPropertyOp19
 70
     0
102
RTVSPropertyOp20
 70
     0
102
RTVSPropertyOp21
 70
     0
102
RTVSPropertyOp22
 70
     0
102
RTVSPropertyOp23
 70
     0
102
RTVSPropertyOp24
 70
     0
102
RTVSPropertyOp25
 70
     0
102
RTVSPropertyOp26
 70
     0
102
RTVSPropertyOp27
 70
     0
  0
XRECORD
  5
1066
102
{ACAD_REACTORS
330
1065
102
}
330
1065
100
AcDbXrecord
280
     1
102
RTVSPropertyOp0
 70
     1
102
RTVSPropertyOp1
 70
     1
102
RTVSPropertyOp2
 70
     1
102
RTVSPropertyOp3
 70
     1
102
RTVSPropertyOp4
 70
     1
102
RTVSPropertyOp5
 70
     1
102
RTVSPropertyOp6
 70
     1
102
RTVSPropertyOp7
 70
     1
102
RTVSPropertyOp8
 70
     1
102
RTVSPropertyOp9
 70
     1
102
RTVSPropertyOp10
 70
     1
102
RTVSPropertyOp11
 70
     1
102
RTVSPropertyOp12
 70
     1
102
RTVSPropertyOp13
 70
     1
102
RTVSPropertyOp14
 70
     1
102
RTVSPropertyOp15
 70
     1
102
RTVSPropertyOp16
 70
     1
102
RTVSPropertyOp17
 70
     1
102
RTVSPropertyOp18
 70
     1
102
RTVSPropertyOp19
 70
     1
102
RTVSPropertyOp20
 70
     1
102
RTVSPropertyOp21
 70
     1
102
RTVSPropertyOp22
 70
     1
102
RTVSPropertyOp23
 70
     1
102
RTVSPropertyOp24
 70
     1
102
RTVSPropertyOp25
 70
     1
102
RTVSPropertyOp26
 70
     1
102
RTVSPropertyOp27
 70
     1
  0
XRECORD
  5
104A
102
{ACAD_REACTORS
330
1049
102
}
330
1049
100
AcDbXrecord
280
     1
102
RTVSPropertyOp0
 70
     1
102
RTVSPropertyOp1
 70
     1
102
RTVSPropertyOp2
 70
     1
102
RTVSPropertyOp3
 70
     1
102
RTVSPropertyOp4
 70
     1
102
RTVSPropertyOp5
 70
     1
102
RTVSPropertyOp6
 70
     1
102
RTVSPropertyOp7
 70
     1
102
RTVSPropertyOp8
 70
     1
102
RTVSPropertyOp9
 70
     1
102
RTVSPropertyOp10
 70
     1
102
RTVSPropertyOp11
 70
     1
102
RTVSPropertyOp12
 70
     1
102
RTVSPropertyOp13
 70
     1
102
RTVSPropertyOp14
 70
     1
102
RTVSPropertyOp15
 70
     1
102
RTVSPropertyOp16
 70
     1
102
RTVSPropertyOp17
 70
     1
102
RTVSPropertyOp18
 70
     1
102
RTVSPropertyOp19
 70
     1
102
RTVSPropertyOp20
 70
     1
102
RTVSPropertyOp21
 70
     1
102
RTVSPropertyOp22
 70
     1
102
RTVSPropertyOp23
 70
     1
102
RTVSPropertyOp24
 70
     1
102
RTVSPropertyOp25
 70
     1
102
RTVSPropertyOp26
 70
     1
102
RTVSPropertyOp27
 70
     1
  0
XRECORD
  5
104C
102
{ACAD_REACTORS
330
104B
102
}
330
104B
100
AcDbXrecord
280
     1
102
RTVSPropertyOp0
 70
     1
102
RTVSPropertyOp1
 70
     1
102
RTVSPropertyOp2
 70
     1
102
RTVSPropertyOp3
 70
     1
102
RTVSPropertyOp4
 70
     1
102
RTVSPropertyOp5
 70
     1
102
RTVSPropertyOp6
 70
     1
102
RTVSPropertyOp7
 70
     1
102
RTVSPropertyOp8
 70
     1
102
RTVSPropertyOp9
 70
     1
102
RTVSPropertyOp10
 70
     1
102
RTVSPropertyOp11
 70
     1
102
RTVSPropertyOp12
 70
     1
102
RTVSPropertyOp13
 70
     1
102
RTVSPropertyOp14
 70
     1
102
RTVSPropertyOp15
 70
     1
102
RTVSPropertyOp16
 70
     1
102
RTVSPropertyOp17
 70
     1
102
RTVSPropertyOp18
 70
     1
102
RTVSPropertyOp19
 70
     1
102
RTVSPropertyOp20
 70
     1
102
RTVSPropertyOp21
 70
     1
102
RTVSPropertyOp22
 70
     1
102
RTVSPropertyOp23
 70
     1
102
RTVSPropertyOp24
 70
     1
102
RTVSPropertyOp25
 70
     1
102
RTVSPropertyOp26
 70
     1
102
RTVSPropertyOp27
 70
     1
  0
XRECORD
  5
104E
102
{ACAD_REACTORS
330
104D
102
}
330
104D
100
AcDbXrecord
280
     1
102
RTVSPropertyOp0
 70
     1
102
RTVSPropertyOp1
 70
     1
102
RTVSPropertyOp2
 70
     1
102
RTVSPropertyOp3
 70
     1
102
RTVSPropertyOp4
 70
     1
102
RTVSPropertyOp5
 70
     1
102
RTVSPropertyOp6
 70
     1
102
RTVSPropertyOp7
 70
     1
102
RTVSPropertyOp8
 70
     1
102
RTVSPropertyOp9
 70
     1
102
RTVSPropertyOp10
 70
     1
102
RTVSPropertyOp11
 70
     1
102
RTVSPropertyOp12
 70
     1
102
RTVSPropertyOp13
 70
     1
102
RTVSPropertyOp14
 70
     1
102
RTVSPropertyOp15
 70
     1
102
RTVSPropertyOp16
 70
     1
102
RTVSPropertyOp17
 70
     1
102
RTVSPropertyOp18
 70
     1
102
RTVSPropertyOp19
 70
     1
102
RTVSPropertyOp20
 70
     1
102
RTVSPropertyOp21
 70
     1
102
RTVSPropertyOp22
 70
     1
102
RTVSPropertyOp23
 70
     1
102
RTVSPropertyOp24
 70
     1
102
RTVSPropertyOp25
 70
     1
102
RTVSPropertyOp26
 70
     1
102
RTVSPropertyOp27
 70
     1
  0
XRECORD
  5
1050
102
{ACAD_REACTORS
330
104F
102
}
330
104F
100
AcDbXrecord
280
     1
102
RTVSPropertyOp0
 70
     1
102
RTVSPropertyOp1
 70
     1
102
RTVSPropertyOp2
 70
     1
102
RTVSPropertyOp3
 70
     1
102
RTVSPropertyOp4
 70
     1
102
RTVSPropertyOp5
 70
     1
102
RTVSPropertyOp6
 70
     1
102
RTVSPropertyOp7
 70
     1
102
RTVSPropertyOp8
 70
     1
102
RTVSPropertyOp9
 70
     1
102
RTVSPropertyOp10
 70
     1
102
RTVSPropertyOp11
 70
     1
102
RTVSPropertyOp12
 70
     1
102
RTVSPropertyOp13
 70
     1
102
RTVSPropertyOp14
 70
     1
102
RTVSPropertyOp15
 70
     1
102
RTVSPropertyOp16
 70
     1
102
RTVSPropertyOp17
 70
     1
102
RTVSPropertyOp18
 70
     1
102
RTVSPropertyOp19
 70
     1
102
RTVSPropertyOp20
 70
     1
102
RTVSPropertyOp21
 70
     1
102
RTVSPropertyOp22
 70
     1
102
RTVSPropertyOp23
 70
     1
102
RTVSPropertyOp24
 70
     1
102
RTVSPropertyOp25
 70
     1
102
RTVSPropertyOp26
 70
     1
102
RTVSPropertyOp27
 70
     1
  0
XRECORD
  5
106B
102
{ACAD_REACTORS
330
106A
102
}
330
106A
100
AcDbXrecord
280
     1
102
RTVSPropertyOp0
 70
     0
102
RTVSPropertyOp1
 70
     0
102
RTVSPropertyOp2
 70
     0
102
RTVSPropertyOp3
 70
     0
102
RTVSPropertyOp4
 70
     0
102
RTVSPropertyOp5
 70
     0
102
RTVSPropertyOp6
 70
     0
102
RTVSPropertyOp7
 70
     0
102
RTVSPropertyOp8
 70
     0
102
RTVSPropertyOp9
 70
     0
102
RTVSPropertyOp10
 70
     0
102
RTVSPropertyOp11
 70
     0
102
RTVSPropertyOp12
 70
     0
102
RTVSPropertyOp13
 70
     0
102
RTVSPropertyOp14
 70
     2
102
RTVSPropertyOp15
 70
     0
102
RTVSPropertyOp16
 70
     0
102
RTVSPropertyOp17
 70
     0
102
RTVSPropertyOp18
 70
     0
102
RTVSPropertyOp19
 70
     0
102
RTVSPropertyOp20
 70
     0
102
RTVSPropertyOp21
 70
     0
102
RTVSPropertyOp22
 70
     0
102
RTVSPropertyOp23
 70
     0
102
RTVSPropertyOp24
 70
     0
102
RTVSPropertyOp25
 70
     0
102
RTVSPropertyOp26
 70
     0
102
RTVSPropertyOp27
 70
     0
  0
XRECORD
  5
1064
102
{ACAD_REACTORS
330
1063
102
}
330
1063
100
AcDbXrecord
280
     1
102
RTVSPropertyOp0
 70
     1
102
RTVSPropertyOp1
 70
     1
102
RTVSPropertyOp2
 70
     1
102
RTVSPropertyOp3
 70
     1
102
RTVSPropertyOp4
 70
     1
102
RTVSPropertyOp5
 70
     1
102
RTVSPropertyOp6
 70
     1
102
RTVSPropertyOp7
 70
     1
102
RTVSPropertyOp8
 70
     1
102
RTVSPropertyOp9
 70
     1
102
RTVSPropertyOp10
 70
     1
102
RTVSPropertyOp11
 70
     1
102
RTVSPropertyOp12
 70
     1
102
RTVSPropertyOp13
 70
     1
102
RTVSPropertyOp14
 70
     1
102
RTVSPropertyOp15
 70
     1
102
RTVSPropertyOp16
 70
     1
102
RTVSPropertyOp17
 70
     1
102
RTVSPropertyOp18
 70
     1
102
RTVSPropertyOp19
 70
     1
102
RTVSPropertyOp20
 70
     1
102
RTVSPropertyOp21
 70
     1
102
RTVSPropertyOp22
 70
     1
102
RTVSPropertyOp23
 70
     1
102
RTVSPropertyOp24
 70
     1
102
RTVSPropertyOp25
 70
     1
102
RTVSPropertyOp26
 70
     1
102
RTVSPropertyOp27
 70
     1
  0
XRECORD
  5
106D
102
{ACAD_REACTORS
330
106C
102
}
330
106C
100
AcDbXrecord
280
     1
102
RTVSPropertyOp0
 70
     0
102
RTVSPropertyOp1
 70
     0
102
RTVSPropertyOp2
 70
     0
102
RTVSPropertyOp3
 70
     0
102
RTVSPropertyOp4
 70
     0
102
RTVSPropertyOp5
 70
     0
102
RTVSPropertyOp6
 70
     0
102
RTVSPropertyOp7
 70
     0
102
RTVSPropertyOp8
 70
     0
102
RTVSPropertyOp9
 70
     0
102
RTVSPropertyOp10
 70
     0
102
RTVSPropertyOp11
 70
     0
102
RTVSPropertyOp12
 70
     0
102
RTVSPropertyOp13
 70
     0
102
RTVSPropertyOp14
 70
     2
102
RTVSPropertyOp15
 70
     0
102
RTVSPropertyOp16
 70
     0
102
RTVSPropertyOp17
 70
     0
102
RTVSPropertyOp18
 70
     0
102
RTVSPropertyOp19
 70
     0
102
RTVSPropertyOp20
 70
     0
102
RTVSPropertyOp21
 70
     0
102
RTVSPropertyOp22
 70
     0
102
RTVSPropertyOp23
 70
     0
102
RTVSPropertyOp24
 70
     0
102
RTVSPropertyOp25
 70
     0
102
RTVSPropertyOp26
 70
     0
102
RTVSPropertyOp27
 70
     0
  0
XRECORD
  5
105C
102
{ACAD_REACTORS
330
105B
102
}
330
105B
100
AcDbXrecord
280
     1
102
RTVSPropertyOp0
 70
     1
102
RTVSPropertyOp1
 70
     1
102
RTVSPropertyOp2
 70
     1
102
RTVSPropertyOp3
 70
     1
102
RTVSPropertyOp4
 70
     1
102
RTVSPropertyOp5
 70
     1
102
RTVSPropertyOp6
 70
     1
102
RTVSPropertyOp7
 70
     1
102
RTVSPropertyOp8
 70
     1
102
RTVSPropertyOp9
 70
     1
102
RTVSPropertyOp10
 70
     1
102
RTVSPropertyOp11
 70
     1
102
RTVSPropertyOp12
 70
     1
102
RTVSPropertyOp13
 70
     1
102
RTVSPropertyOp14
 70
     1
102
RTVSPropertyOp15
 70
     1
102
RTVSPropertyOp16
 70
     1
102
RTVSPropertyOp17
 70
     1
102
RTVSPropertyOp18
 70
     1
102
RTVSPropertyOp19
 70
     1
102
RTVSPropertyOp20
 70
     1
102
RTVSPropertyOp21
 70
     1
102
RTVSPropertyOp22
 70
     1
102
RTVSPropertyOp23
 70
     1
102
RTVSPropertyOp24
 70
     1
102
RTVSPropertyOp25
 70
     1
102
RTVSPropertyOp26
 70
     1
102
RTVSPropertyOp27
 70
     1
  0
XRECORD
  5
1062
102
{ACAD_REACTORS
330
1061
102
}
330
1061
100
AcDbXrecord
280
     1
102
RTVSPropertyOp0
 70
     1
102
RTVSPropertyOp1
 70
     1
102
RTVSPropertyOp2
 70
     1
102
RTVSPropertyOp3
 70
     1
102
RTVSPropertyOp4
 70
     1
102
RTVSPropertyOp5
 70
     1
102
RTVSPropertyOp6
 70
     1
102
RTVSPropertyOp7
 70
     1
102
RTVSPropertyOp8
 70
     1
102
RTVSPropertyOp9
 70
     1
102
RTVSPropertyOp10
 70
     1
102
RTVSPropertyOp11
 70
     1
102
RTVSPropertyOp12
 70
     1
102
RTVSPropertyOp13
 70
     1
102
RTVSPropertyOp14
 70
     1
102
RTVSPropertyOp15
 70
     1
102
RTVSPropertyOp16
 70
     1
102
RTVSPropertyOp17
 70
     1
102
RTVSPropertyOp18
 70
     1
102
RTVSPropertyOp19
 70
     1
102
RTVSPropertyOp20
 70
     1
102
RTVSPropertyOp21
 70
     1
102
RTVSPropertyOp22
 70
     1
102
RTVSPropertyOp23
 70
     1
102
RTVSPropertyOp24
 70
     1
102
RTVSPropertyOp25
 70
     1
102
RTVSPropertyOp26
 70
     1
102
RTVSPropertyOp27
 70
     1
  0
ENDSEC
  0
EOF
