  0
SECTION
  2
HEADER
  9
$ACADVER
  1
AC1018
  9
$ACADMAINTVER
 70
   104
  9
$DWGCODEPAGE
  3
ANSI_1252
  9
$AUTHOR
  1
‘Created by Cad / Cam Services, Inc. for Amazon Services LLC on January, 2013’
  9
$LASTSAVEDBY
  1
jsr
  9
$INSBASE
 10
0.0
 20
0.0
 30
0.0
  9
$EXTMIN
 10
-0.0003647897708868
 20
-0.00035663520722
 30
-0.0000000000000053
  9
$EXTMAX
 10
4.691670689009054
 20
3.552250540410992
 30
0.0000000000000099
  9
$LIMMIN
 10
0.0
 20
0.0
  9
$LIMMAX
 10
16.53543307086614
 20
11.69291338582677
  9
$ORTHOMODE
 70
     1
  9
$REGENMODE
 70
     1
  9
$FILLMODE
 70
     1
  9
$QTEXTMODE
 70
     0
  9
$MIRRTEXT
 70
     1
  9
$LTSCALE
 40
1.0
  9
$ATTMODE
 70
     1
  9
$TEXTSIZE
 40
0.2
  9
$TRACEWID
 40
0.05
  9
$TEXTSTYLE
  7
SLDTEXTSTYLE0
  9
$CLAYER
  8
0
  9
$CELTYPE
  6
ByLayer
  9
$CECOLOR
 62
   256
  9
$CELTSCALE
 40
1.0
  9
$DISPSILH
 70
     0
  9
$DIMSCALE
 40
1.0
  9
$DIMASZ
 40
0.04
  9
$DIMEXO
 40
0.05
  9
$DIMDLI
 40
0.38
  9
$DIMRND
 40
0.0
  9
$DIMDLE
 40
0.0
  9
$DIMEXE
 40
0.04
  9
$DIMTP
 40
0.0
  9
$DIMTM
 40
0.0
  9
$DIMTXT
 40
0.04
  9
$DIMCEN
 40
0.09
  9
$DIMTSZ
 40
0.0
  9
$DIMTOL
 70
     0
  9
$DIMLIM
 70
     0
  9
$DIMTIH
 70
     1
  9
$DIMTOH
 70
     1
  9
$DIMSE1
 70
     0
  9
$DIMSE2
 70
     0
  9
$DIMTAD
 70
     1
  9
$DIMZIN
 70
     0
  9
$DIMBLK
  1

  9
$DIMASO
 70
     1
  9
$DIMSHO
 70
     1
  9
$DIMPOST
  1

  9
$DIMAPOST
  1

  9
$DIMALT
 70
     0
  9
$DIMALTD
 70
     2
  9
$DIMALTF
 40
25.4
  9
$DIMLFAC
 40
1.0
  9
$DIMTOFL
 70
     1
  9
$DIMTVP
 40
0.0
  9
$DIMTIX
 70
     0
  9
$DIMSOXD
 70
     0
  9
$DIMSAH
 70
     0
  9
$DIMBLK1
  1

  9
$DIMBLK2
  1

  9
$DIMSTYLE
  2
Standard
  9
$DIMCLRD
 70
     0
  9
$DIMCLRE
 70
     0
  9
$DIMCLRT
 70
     0
  9
$DIMTFAC
 40
1.0
  9
$DIMGAP
 40
0.015
  9
$DIMJUST
 70
     0
  9
$DIMSD1
 70
     0
  9
$DIMSD2
 70
     0
  9
$DIMTOLJ
 70
     1
  9
$DIMTZIN
 70
     0
  9
$DIMALTZ
 70
     0
  9
$DIMALTTZ
 70
     0
  9
$DIMUPT
 70
     0
  9
$DIMDEC
 70
     3
  9
$DIMTDEC
 70
     3
  9
$DIMALTU
 70
     2
  9
$DIMALTTD
 70
     2
  9
$DIMTXSTY
  7
Standard
  9
$DIMAUNIT
 70
     0
  9
$DIMADEC
 70
     0
  9
$DIMALTRND
 40
0.0
  9
$DIMAZIN
 70
     0
  9
$DIMDSEP
 70
    46
  9
$DIMATFIT
 70
     3
  9
$DIMFRAC
 70
     0
  9
$DIMLDRBLK
  1

  9
$DIMLUNIT
 70
     2
  9
$DIMLWD
 70
    -2
  9
$DIMLWE
 70
    -2
  9
$DIMTMOVE
 70
     0
  9
$LUNITS
 70
     2
  9
$LUPREC
 70
     2
  9
$SKETCHINC
 40
0.1
  9
$FILLETRAD
 40
0.0
  9
$AUNITS
 70
     0
  9
$AUPREC
 70
     2
  9
$MENU
  1
.
  9
$ELEVATION
 40
0.0
  9
$PELEVATION
 40
0.0
  9
$THICKNESS
 40
0.0
  9
$LIMCHECK
 70
     0
  9
$CHAMFERA
 40
0.5
  9
$CHAMFERB
 40
0.5
  9
$CHAMFERC
 40
1.0
  9
$CHAMFERD
 40
0.0
  9
$SKPOLY
 70
     0
  9
$TDCREATE
 40
2456295.394230139
  9
$TDUCREATE
 40
2456295.206730139
  9
$TDUPDATE
 40
2456365.696537361
  9
$TDUUPDATE
 40
2456365.509037361
  9
$TDINDWG
 40
0.0259763773
  9
$TDUSRTIMER
 40
0.0259763773
  9
$USRTIMER
 70
     1
  9
$ANGBASE
 50
0.0
  9
$ANGDIR
 70
     0
  9
$PDMODE
 70
     0
  9
$PDSIZE
 40
-1.0
  9
$PLINEWID
 40
0.0
  9
$SPLFRAME
 70
     0
  9
$SPLINETYPE
 70
     6
  9
$SPLINESEGS
 70
     8
  9
$HANDSEED
  5
280C
  9
$SURFTAB1
 70
     6
  9
$SURFTAB2
 70
     6
  9
$SURFTYPE
 70
     6
  9
$SURFU
 70
     6
  9
$SURFV
 70
     6
  9
$UCSBASE
  2

  9
$UCSNAME
  2

  9
$UCSORG
 10
0.0
 20
0.0
 30
0.0
  9
$UCSXDIR
 10
1.0
 20
0.0
 30
0.0
  9
$UCSYDIR
 10
0.0
 20
1.0
 30
0.0
  9
$UCSORTHOREF
  2

  9
$UCSORTHOVIEW
 70
     0
  9
$UCSORGTOP
 10
0.0
 20
0.0
 30
0.0
  9
$UCSORGBOTTOM
 10
0.0
 20
0.0
 30
0.0
  9
$UCSORGLEFT
 10
0.0
 20
0.0
 30
0.0
  9
$UCSORGRIGHT
 10
0.0
 20
0.0
 30
0.0
  9
$UCSORGFRONT
 10
0.0
 20
0.0
 30
0.0
  9
$UCSORGBACK
 10
0.0
 20
0.0
 30
0.0
  9
$PUCSBASE
  2

  9
$PUCSNAME
  2

  9
$PUCSORG
 10
0.0
 20
0.0
 30
0.0
  9
$PUCSXDIR
 10
1.0
 20
0.0
 30
0.0
  9
$PUCSYDIR
 10
0.0
 20
1.0
 30
0.0
  9
$PUCSORTHOREF
  2

  9
$PUCSORTHOVIEW
 70
     0
  9
$PUCSORGTOP
 10
0.0
 20
0.0
 30
0.0
  9
$PUCSORGBOTTOM
 10
0.0
 20
0.0
 30
0.0
  9
$PUCSORGLEFT
 10
0.0
 20
0.0
 30
0.0
  9
$PUCSORGRIGHT
 10
0.0
 20
0.0
 30
0.0
  9
$PUCSORGFRONT
 10
0.0
 20
0.0
 30
0.0
  9
$PUCSORGBACK
 10
0.0
 20
0.0
 30
0.0
  9
$USERI1
 70
     0
  9
$USERI2
 70
     0
  9
$USERI3
 70
     0
  9
$USERI4
 70
     0
  9
$USERI5
 70
     0
  9
$USERR1
 40
0.0
  9
$USERR2
 40
0.0
  9
$USERR3
 40
0.0
  9
$USERR4
 40
0.0
  9
$USERR5
 40
0.0
  9
$WORLDVIEW
 70
     1
  9
$SHADEDGE
 70
     3
  9
$SHADEDIF
 70
    70
  9
$TILEMODE
 70
     1
  9
$MAXACTVP
 70
    64
  9
$PINSBASE
 10
0.0
 20
0.0
 30
0.0
  9
$PLIMCHECK
 70
     0
  9
$PEXTMIN
 10
1.000000000000000E+20
 20
1.000000000000000E+20
 30
1.000000000000000E+20
  9
$PEXTMAX
 10
-1.000000000000000E+20
 20
-1.000000000000000E+20
 30
-1.000000000000000E+20
  9
$PLIMMIN
 10
0.0
 20
0.0
  9
$PLIMMAX
 10
12.0
 20
9.0
  9
$UNITMODE
 70
     0
  9
$VISRETAIN
 70
     1
  9
$PLINEGEN
 70
     0
  9
$PSLTSCALE
 70
     1
  9
$TREEDEPTH
 70
  3020
  9
$CMLSTYLE
  2
Standard
  9
$CMLJUST
 70
     0
  9
$CMLSCALE
 40
1.0
  9
$PROXYGRAPHICS
 70
     1
  9
$MEASUREMENT
 70
     0
  9
$CELWEIGHT
370
    -1
  9
$ENDCAPS
280
     0
  9
$JOINSTYLE
280
     0
  9
$LWDISPLAY
290
     1
  9
$INSUNITS
 70
     1
  9
$HYPERLINKBASE
  1

  9
$STYLESHEET
  1

  9
$XEDIT
290
     1
  9
$CEPSNTYPE
380
     0
  9
$PSTYLEMODE
290
     1
  9
$FINGERPRINTGUID
  2
{FCFE52F1-8FF5-462F-9C36-546E60198F30}
  9
$VERSIONGUID
  2
{B47CD330-8406-4C77-ACE0-ED081579DBBB}
  9
$EXTNAMES
290
     1
  9
$PSVPSCALE
 40
0.0
  9
$OLESTARTUP
290
     0
  9
$SORTENTS
280
   127
  9
$INDEXCTL
280
     0
  9
$HIDETEXT
280
     0
  9
$XCLIPFRAME
290
     0
  9
$HALOGAP
280
     0
  9
$OBSCOLOR
 70
   257
  9
$OBSLTYPE
280
     0
  9
$INTERSECTIONDISPLAY
280
     0
  9
$INTERSECTIONCOLOR
 70
   257
  9
$DIMASSOC
280
     1
  9
$PROJECTNAME
  1

  0
ENDSEC
  0
SECTION
  2
CLASSES
  0
CLASS
  1
ACDBDICTIONARYWDFLT
  2
AcDbDictionaryWithDefault
  3
ObjectDBX Classes
 90
        0
 91
        1
280
     0
281
     0
  0
CLASS
  1
VISUALSTYLE
  2
AcDbVisualStyle
  3
ObjectDBX Classes
 90
     4095
 91
       19
280
     0
281
     0
  0
CLASS
  1
MATERIAL
  2
AcDbMaterial
  3
ObjectDBX Classes
 90
     1153
 91
        3
280
     0
281
     0
  0
CLASS
  1
TABLESTYLE
  2
AcDbTableStyle
  3
ObjectDBX Classes
 90
     4095
 91
        1
280
     0
281
     0
  0
CLASS
  1
DICTIONARYVAR
  2
AcDbDictionaryVar
  3
ObjectDBX Classes
 90
        0
 91
       14
280
     0
281
     0
  0
CLASS
  1
SORTENTSTABLE
  2
AcDbSortentsTable
  3
ObjectDBX Classes
 90
        0
 91
        1
280
     0
281
     0
  0
CLASS
  1
PLOTSETTINGS
  2
AcDbPlotSettings
  3
ObjectDBX Classes
 90
        0
 91
        2
280
     0
281
     0
  0
CLASS
  1
SCALE
  2
AcDbScale
  3
ObjectDBX Classes
 90
     1153
 91
       33
280
     0
281
     0
  0
CLASS
  1
MLEADERSTYLE
  2
AcDbMLeaderStyle
  3
ACDB_MLEADERSTYLE_CLASS
 90
     4095
 91
        1
280
     0
281
     0
  0
CLASS
  1
CELLSTYLEMAP
  2
AcDbCellStyleMap
  3
ObjectDBX Classes
 90
     1152
 91
        4
280
     0
281
     0
  0
CLASS
  1
EXACXREFPANELOBJECT
  2
ExAcXREFPanelObject
  3
EXAC_ESW
 90
     1025
 91
        0
280
     0
281
     0
  0
CLASS
  1
NPOCOLLECTION
  2
AcDbImpNonPersistentObjectsCollection
  3
ObjectDBX Classes
 90
     1153
 91
        0
280
     0
281
     0
  0
ENDSEC
  0
SECTION
  2
TABLES
  0
TABLE
  2
VPORT
  5
8
102
{ACAD_XDICTIONARY
360
4DC
102
}
330
0
100
AcDbSymbolTable
 70
     1
  0
VPORT
  5
29
330
8
100
AcDbSymbolTableRecord
100
AcDbViewportTableRecord
  2
*Active
 70
     0
 10
0.0
 20
0.0
 11
1.0
 21
1.0
 12
2.345652949619084
 22
1.775946952601886
 13
0.0
 23
0.0
 14
0.5
 24
0.5
 15
0.5
 25
0.5
 16
0.0
 26
0.0
 36
1.0
 17
0.0
 27
0.0
 37
0.0
 40
3.59215382321322
 41
2.338289962825278
 42
50.0
 43
0.0
 44
0.0
 50
0.0
 51
0.0
 71
     0
 72
  2000
 73
     1
 74
     3
 75
     0
 76
     0
 77
     0
 78
     0
281
     0
 65
     1
110
0.0
120
0.0
130
0.0
111
1.0
121
0.0
131
0.0
112
0.0
122
1.0
132
0.0
 79
     0
146
0.0
  0
ENDTAB
  0
TABLE
  2
LTYPE
  5
5
330
0
100
AcDbSymbolTable
 70
     2
  0
LTYPE
  5
14
330
5
100
AcDbSymbolTableRecord
100
AcDbLinetypeTableRecord
  2
ByBlock
 70
     0
  3

 72
    65
 73
     0
 40
0.0
  0
LTYPE
  5
15
330
5
100
AcDbSymbolTableRecord
100
AcDbLinetypeTableRecord
  2
ByLayer
 70
     0
  3

 72
    65
 73
     0
 40
0.0
  0
LTYPE
  5
16
330
5
100
AcDbSymbolTableRecord
100
AcDbLinetypeTableRecord
  2
Continuous
 70
     0
  3
Solid line
 72
    65
 73
     0
 40
0.0
  0
LTYPE
  5
C6E
330
5
100
AcDbSymbolTableRecord
100
AcDbLinetypeTableRecord
  2
HIDDEN
 70
     0
  3
Hidden __ __ __ __ __ __ __ __ __ __ __ __ __ __
 72
    65
 73
     2
 40
0.075
 49
0.05
 74
     0
 49
-0.025
 74
     0
  0
ENDTAB
  0
TABLE
  2
LAYER
  5
2
102
{ACAD_XDICTIONARY
360
61E
102
}
330
0
100
AcDbSymbolTable
 70
     4
  0
LAYER
  5
10
102
{ACAD_XDICTIONARY
360
C0E
102
}
330
2
100
AcDbSymbolTableRecord
100
AcDbLayerTableRecord
  2
0
 70
     0
 62
     7
  6
Continuous
370
    -3
390
F
  0
LAYER
  5
44
102
{ACAD_XDICTIONARY
360
C10
102
}
330
2
100
AcDbSymbolTableRecord
100
AcDbLayerTableRecord
  2
FORMAT
 70
     0
 62
     7
  6
Continuous
370
    -3
390
F
  0
LAYER
  5
125
330
2
100
AcDbSymbolTableRecord
100
AcDbLayerTableRecord
  2
Defpoints
 70
     0
 62
     7
  6
Continuous
290
     0
370
    -3
390
F
  0
LAYER
  5
61C
102
{ACAD_XDICTIONARY
360
C12
102
}
330
2
100
AcDbSymbolTableRecord
100
AcDbLayerTableRecord
  2
DIM
 70
     0
 62
     8
  6
Continuous
370
    -3
390
F
1001
AcAecLayerStandard
1000

1000

  0
ENDTAB
  0
TABLE
  2
STYLE
  5
3
330
0
100
AcDbSymbolTable
 70
     5
  0
STYLE
  5
11
330
3
100
AcDbSymbolTableRecord
100
AcDbTextStyleTableRecord
  2
Standard
 70
     0
 40
0.0
 41
1.0
 50
0.0
 71
     0
 42
0.2
  3
GOTHIC.TTF
  4

1001
ACAD
1000
Century Gothic
1071
       34
  0
STYLE
  5
66
330
3
100
AcDbSymbolTableRecord
100
AcDbTextStyleTableRecord
  2
SLDTEXTSTYLE0
 70
     0
 40
0.0
 41
0.75
 50
0.0
 71
     0
 42
0.2
  3
GOTHIC.TTF
  4

1001
ACAD
1000
Century Gothic
1071
       34
  0
STYLE
  5
6A
330
3
100
AcDbSymbolTableRecord
100
AcDbTextStyleTableRecord
  2
SLDTEXTSTYLE1
 70
     0
 40
0.0
 41
0.6875
 50
0.0
 71
     0
 42
0.2
  3
GOTHIC.TTF
  4

1001
ACAD
1000
Century Gothic
1071
       34
  0
STYLE
  5
412
330
3
100
AcDbSymbolTableRecord
100
AcDbTextStyleTableRecord
  2
style2
 70
     0
 40
0.0
 41
1.0
 50
0.0
 71
     0
 42
0.2
  3

  4

1001
ACAD
1000
Euphemia
1071
       34
  0
STYLE
  5
B37
330
3
100
AcDbSymbolTableRecord
100
AcDbTextStyleTableRecord
  2
style1
 70
     0
 40
0.0
 41
1.0
 50
0.0
 71
     0
 42
0.2
  3

  4

1001
ACAD
1000
@MS PGothic
1071
    32802
  0
ENDTAB
  0
TABLE
  2
VIEW
  5
6
330
0
100
AcDbSymbolTable
 70
     0
  0
ENDTAB
  0
TABLE
  2
UCS
  5
7
330
0
100
AcDbSymbolTable
 70
     0
  0
ENDTAB
  0
TABLE
  2
APPID
  5
9
330
0
100
AcDbSymbolTable
 70
     7
  0
APPID
  5
12
330
9
100
AcDbSymbolTableRecord
100
AcDbRegAppTableRecord
  2
ACAD
 70
     0
  0
APPID
  5
3B8
330
9
100
AcDbSymbolTableRecord
100
AcDbRegAppTableRecord
  2
ACAD_EXEMPT_FROM_CAD_STANDARDS
 70
     0
  0
APPID
  5
413
330
9
100
AcDbSymbolTableRecord
100
AcDbRegAppTableRecord
  2
ACAD_PSEXT
 70
     0
  0
APPID
  5
61D
330
9
100
AcDbSymbolTableRecord
100
AcDbRegAppTableRecord
  2
AcAecLayerStandard
 70
     0
  0
APPID
  5
B19
330
9
100
AcDbSymbolTableRecord
100
AcDbRegAppTableRecord
  2
PE_URL
 70
     0
  0
APPID
  5
C50
330
9
100
AcDbSymbolTableRecord
100
AcDbRegAppTableRecord
  2
ACAD_MLEADERVER
 70
     0
  0
APPID
  5
1087
330
9
100
AcDbSymbolTableRecord
100
AcDbRegAppTableRecord
  2
ACAD_DSTYLE_DIMRADIAL_EXTENSION
 70
     0
  0
ENDTAB
  0
TABLE
  2
DIMSTYLE
  5
A
330
0
100
AcDbSymbolTable
 70
     2
100
AcDbDimStyleTable
 71
     1
340
27
  0
DIMSTYLE
105
27
102
{ACAD_REACTORS
330
1088
330
1151
330
2049
330
2063
330
2079
330
2087
330
2131
330
213F
330
214D
330
21B9
330
211A
330
21AC
330
21E2
330
21EF
330
230F
102
}
330
A
100
AcDbSymbolTableRecord
100
AcDbDimStyleTableRecord
  2
Standard
 70
     0
 41
0.04
 42
0.05
 44
0.04
 73
     0
 74
     0
 77
     1
140
0.04
147
0.015
172
     1
271
     3
272
     3
340
11
  0
DIMSTYLE
105
C6F
330
A
100
AcDbSymbolTableRecord
100
AcDbDimStyleTableRecord
  2
SLDDIMSTYLE0
 70
     0
 41
0.13
 44
0.0
 78
    12
140
0.125
147
0.03125
173
     1
271
     2
272
     2
284
    12
340
11
  0
ENDTAB
  0
TABLE
  2
BLOCK_RECORD
  5
1
330
0
100
AcDbSymbolTable
 70
    21
  0
BLOCK_RECORD
  5
1F
330
1
100
AcDbSymbolTableRecord
100
AcDbBlockTableRecord
  2
*Model_Space
340
22
  0
BLOCK_RECORD
  5
1B
330
1
100
AcDbSymbolTableRecord
100
AcDbBlockTableRecord
  2
*Paper_Space
340
1E
  0
BLOCK_RECORD
  5
23
330
1
100
AcDbSymbolTableRecord
100
AcDbBlockTableRecord
  2
*Paper_Space0
340
26
  0
BLOCK_RECORD
  5
3F9
330
1
100
AcDbSymbolTableRecord
100
AcDbBlockTableRecord
  2
Block3
340
0
102
{BLKREFS
331
407
102
}
  0
BLOCK_RECORD
  5
405
330
1
100
AcDbSymbolTableRecord
100
AcDbBlockTableRecord
  2
Block2
340
0
102
{BLKREFS
331
44A
102
}
  0
BLOCK_RECORD
  5
409
102
{ACAD_XDICTIONARY
360
40A
102
}
330
1
100
AcDbSymbolTableRecord
100
AcDbBlockTableRecord
  2
amazon
340
0
310
2800000020000000200000000100080000000000000400000000000000000000000000000000000000000000000080000080000000808000800000008000800080800000C0C0C000C0DCC000F0CAA6000020400000206000002080000020A0000020C0000020E00000400000004020000040400000406000004080000040A0
310
000040C0000040E00000600000006020000060400000606000006080000060A0000060C0000060E00000800000008020000080400000806000008080000080A0000080C0000080E00000A0000000A0200000A0400000A0600000A0800000A0A00000A0C00000A0E00000C0000000C0200000C0400000C0600000C0800000C0
310
A00000C0C00000C0E00000E0000000E0200000E0400000E0600000E0800000E0A00000E0C00000E0E00040000000400020004000400040006000400080004000A0004000C0004000E00040200000402020004020400040206000402080004020A0004020C0004020E000404000004040200040404000404060004040800040
310
40A0004040C0004040E00040600000406020004060400040606000406080004060A0004060C0004060E00040800000408020004080400040806000408080004080A0004080C0004080E00040A0000040A0200040A0400040A0600040A0800040A0A00040A0C00040A0E00040C0000040C0200040C0400040C0600040C08000
310
40C0A00040C0C00040C0E00040E0000040E0200040E0400040E0600040E0800040E0A00040E0C00040E0E00080000000800020008000400080006000800080008000A0008000C0008000E00080200000802020008020400080206000802080008020A0008020C0008020E00080400000804020008040400080406000804080
310
008040A0008040C0008040E00080600000806020008060400080606000806080008060A0008060C0008060E00080800000808020008080400080806000808080008080A0008080C0008080E00080A0000080A0200080A0400080A0600080A0800080A0A00080A0C00080A0E00080C0000080C0200080C0400080C0600080C0
310
800080C0A00080C0C00080C0E00080E0000080E0200080E0400080E0600080E0800080E0A00080E0C00080E0E000C0000000C0002000C0004000C0006000C0008000C000A000C000C000C000E000C0200000C0202000C0204000C0206000C0208000C020A000C020C000C020E000C0400000C0402000C0404000C0406000C0
310
408000C040A000C040C000C040E000C0600000C0602000C0604000C0606000C0608000C060A000C060C000C060E000C0800000C0802000C0804000C0806000C0808000C080A000C080C000C080E000C0A00000C0A02000C0A04000C0A06000C0A08000C0A0A000C0A0C000C0A0E000C0C00000C0C02000C0C04000C0C06000
310
C0C08000C0C0A000F0FBFF00A4A0A000808080000000FF0000FF000000FFFF00FF000000FF00FF00FFFF0000FFFFFF0000000000000000000000000000000000000000000000000000000000000000000000000000000000000000000000000000000000000000000000000000000000000000000000000000000000000000
310
00000000000000000000000000000000000000000000000000000000000000000000000000000000000000000000000000000000000000000000000000000000000000000000000000000000000000000000000000000000000000000000000000000000000000000000000000000000000000000000000000000000000000
310
00000000000000000000000000000000000000000000000000000000000000000000000000000000000000000000000000000000000000000000000000000000000000000000000000000000000000000000000000000000000000000000000000000000000000000000000000000000000000000000000000000000000000
310
0000000000000000000000000000000000000000000000000000000000000000000000000000000000000000000000000000000000000000000000000000000000000000000000000000000000000000000000000000000000FFFFFFFFFF00000000000000000000000000000000000000000000000000FFFFFFFFFFFFFFFF
310
00000000000000000000FC00FC0000FCFC00000000FFFFFFFFFFFFFFFFFFFFFFFFFFFFFFFFFCFCFCFCFCFCFCFCFCFCFCFCFC00000000FFFFFFFFFFFFFFFFFFFFFFFFFFFFFFFCFCFC00FCFCFCFC00FCFCFCFC00000000FFFFFFFFFFFFFFFFFFFFFFFFFFFFFFFCFCFC00FCFCFCFCFCFCFCFCFC00000000000000000000000000
310
00000000000000000000000000000000FC0000000000000000000000000000000000000000000000000000000000000000000000000000000000000000000000000000000000000000000000000000000000000000000000000000000000000000000000000000000000000000000000000000000000000000000000000000
310
00000000000000000000000000000000000000000000000000000000000000000000000000000000000000000000000000000000000000000000000000000000000000000000000000000000000000000000000000000000000000000000000000000000000000000000000000000000000000000000000000000000000000
310
00000000000000000000000000000000000000000000000000000000000000000000000000000000000000000000000000000000000000000000000000000000000000000000000000000000000000000000000000000000000000000000000000000000000000000000000000000000000000000000000000000000000000
310
0000000000000000000000000000000000000000000000000000000000000000000000000000000000000000000000000000000000000000
1001
ACAD
1000
DesignCenter Data
1002
{
1070
     1
1070
     1
1002
}
  0
BLOCK_RECORD
  5
B30
330
1
100
AcDbSymbolTableRecord
100
AcDbBlockTableRecord
  2
amazon block
340
0
310
2800000020000000200000000100080000000000000400000000000000000000000000000000000000000000000080000080000000808000800000008000800080800000C0C0C000C0DCC000F0CAA6000020400000206000002080000020A0000020C0000020E00000400000004020000040400000406000004080000040A0
310
000040C0000040E00000600000006020000060400000606000006080000060A0000060C0000060E00000800000008020000080400000806000008080000080A0000080C0000080E00000A0000000A0200000A0400000A0600000A0800000A0A00000A0C00000A0E00000C0000000C0200000C0400000C0600000C0800000C0
310
A00000C0C00000C0E00000E0000000E0200000E0400000E0600000E0800000E0A00000E0C00000E0E00040000000400020004000400040006000400080004000A0004000C0004000E00040200000402020004020400040206000402080004020A0004020C0004020E000404000004040200040404000404060004040800040
310
40A0004040C0004040E00040600000406020004060400040606000406080004060A0004060C0004060E00040800000408020004080400040806000408080004080A0004080C0004080E00040A0000040A0200040A0400040A0600040A0800040A0A00040A0C00040A0E00040C0000040C0200040C0400040C0600040C08000
310
40C0A00040C0C00040C0E00040E0000040E0200040E0400040E0600040E0800040E0A00040E0C00040E0E00080000000800020008000400080006000800080008000A0008000C0008000E00080200000802020008020400080206000802080008020A0008020C0008020E00080400000804020008040400080406000804080
310
008040A0008040C0008040E00080600000806020008060400080606000806080008060A0008060C0008060E00080800000808020008080400080806000808080008080A0008080C0008080E00080A0000080A0200080A0400080A0600080A0800080A0A00080A0C00080A0E00080C0000080C0200080C0400080C0600080C0
310
800080C0A00080C0C00080C0E00080E0000080E0200080E0400080E0600080E0800080E0A00080E0C00080E0E000C0000000C0002000C0004000C0006000C0008000C000A000C000C000C000E000C0200000C0202000C0204000C0206000C0208000C020A000C020C000C020E000C0400000C0402000C0404000C0406000C0
310
408000C040A000C040C000C040E000C0600000C0602000C0604000C0606000C0608000C060A000C060C000C060E000C0800000C0802000C0804000C0806000C0808000C080A000C080C000C080E000C0A00000C0A02000C0A04000C0A06000C0A08000C0A0A000C0A0C000C0A0E000C0C00000C0C02000C0C04000C0C06000
310
C0C08000C0C0A000F0FBFF00A4A0A000808080000000FF0000FF000000FFFF00FF000000FF00FF00FFFF0000FFFFFF0000000000000000000000000000000000000000000000000000000000000000000000000000000000000000000000000000000000000000000000000000000000000000000000000000000000000000
310
00000000000000000000000000000000000000000000000000000000000000000000000000000000000000000000000000000000000000000000000000000000000000000000000000000000000000000000000000000000000000000000000000000000000000000000000000000000000000000000000000000000000000
310
00000000000000000000000000000000000000000000000000000000000000000000000000000000000000000000000000000000000000000000000000000000000000000000000000000000000000000000000000000000000000000000000000000000000000000000000000000000000000000000000000000000000000
310
0000000000000000000000000000000000000000000000000000000000000000000000000000000000000000000000000000000000000000000000000000000000000000000000000000000000000000000000000000000000FFFFFFFFFF00000000000000000000000000000000000000000000000000FFFFFFFFFFFFFFFF
310
00000000000000000000E000E0E000E0E0E0000000FFFFFFFFFFFFFFFFFFFFFFFFFFFFFFFFE0E0E0E0E0E0E0E0E0E0E0E0E000000000FFFFFFFFFFFFFFFFFFFFFFFFFFFFFFE0E0E0E0E0E0E0E0E0E0E0E0E000000000FFFFFFFFFFFFFFFFFFFFFFFFFFFFFFE0E0E0E0E0E0E0E0E0E0E0E0E0E0000000000000000000000000
310
00000000000000000000000000000000E00000000000000000000000000000000000000000000000000000000000000000000000000000000000000000000000000000000000000000000000000000000000000000000000000000000000000000000000000000000000000000000000000000000000000000000000000000
310
00000000000000000000000000000000000000000000000000000000000000000000000000000000000000000000000000000000000000000000000000000000000000000000000000000000000000000000000000000000000000000000000000000000000000000000000000000000000000000000000000000000000000
310
00000000000000000000000000000000000000000000000000000000000000000000000000000000000000000000000000000000000000000000000000000000000000000000000000000000000000000000000000000000000000000000000000000000000000000000000000000000000000000000000000000000000000
310
0000000000000000000000000000000000000000000000000000000000000000000000000000000000000000000000000000000000000000
102
{BLKREFS
331
B40
102
}
1001
ACAD
1000
DesignCenter Data
1002
{
1070
     1
1070
     1
1002
}
  0
BLOCK_RECORD
  5
C5B
330
1
100
AcDbSymbolTableRecord
100
AcDbBlockTableRecord
  2
SW_CENTERMARKSYMBOL_0
340
0
102
{BLKREFS
331
DD9
102
}
  0
BLOCK_RECORD
  5
1089
330
1
100
AcDbSymbolTableRecord
100
AcDbBlockTableRecord
  2
*D6
340
0
  0
BLOCK_RECORD
  5
1152
330
1
100
AcDbSymbolTableRecord
100
AcDbBlockTableRecord
  2
*D7
340
0
  0
BLOCK_RECORD
  5
204A
330
1
100
AcDbSymbolTableRecord
100
AcDbBlockTableRecord
  2
*D8
340
0
  0
BLOCK_RECORD
  5
2064
330
1
100
AcDbSymbolTableRecord
100
AcDbBlockTableRecord
  2
*D9
340
0
  0
BLOCK_RECORD
  5
207A
330
1
100
AcDbSymbolTableRecord
100
AcDbBlockTableRecord
  2
*D10
340
0
  0
BLOCK_RECORD
  5
2088
330
1
100
AcDbSymbolTableRecord
100
AcDbBlockTableRecord
  2
*D11
340
0
  0
BLOCK_RECORD
  5
211B
330
1
100
AcDbSymbolTableRecord
100
AcDbBlockTableRecord
  2
*D12
340
0
  0
BLOCK_RECORD
  5
2132
330
1
100
AcDbSymbolTableRecord
100
AcDbBlockTableRecord
  2
*D13
340
0
  0
BLOCK_RECORD
  5
2140
330
1
100
AcDbSymbolTableRecord
100
AcDbBlockTableRecord
  2
*D14
340
0
  0
BLOCK_RECORD
  5
214E
330
1
100
AcDbSymbolTableRecord
100
AcDbBlockTableRecord
  2
*D15
340
0
  0
BLOCK_RECORD
  5
21AD
330
1
100
AcDbSymbolTableRecord
100
AcDbBlockTableRecord
  2
*D16
340
0
  0
BLOCK_RECORD
  5
21BA
330
1
100
AcDbSymbolTableRecord
100
AcDbBlockTableRecord
  2
*D17
340
0
  0
BLOCK_RECORD
  5
21E3
330
1
100
AcDbSymbolTableRecord
100
AcDbBlockTableRecord
  2
*D18
340
0
  0
BLOCK_RECORD
  5
21F0
330
1
100
AcDbSymbolTableRecord
100
AcDbBlockTableRecord
  2
*D19
340
0
  0
BLOCK_RECORD
  5
2310
330
1
100
AcDbSymbolTableRecord
100
AcDbBlockTableRecord
  2
*D20
340
0
  0
ENDTAB
  0
ENDSEC
  0
SECTION
  2
BLOCKS
  0
BLOCK
  5
20
330
1F
100
AcDbEntity
  8
0
100
AcDbBlockBegin
  2
*Model_Space
 70
     0
 10
0.0
 20
0.0
 30
0.0
  3
*Model_Space
  1

  0
ENDBLK
  5
21
330
1F
100
AcDbEntity
  8
0
100
AcDbBlockEnd
  0
BLOCK
  5
1C
330
1B
100
AcDbEntity
 67
     1
  8
0
100
AcDbBlockBegin
  2
*Paper_Space
 70
     0
 10
0.0
 20
0.0
 30
0.0
  3
*Paper_Space
  1

  0
ENDBLK
  5
1D
330
1B
100
AcDbEntity
 67
     1
  8
0
100
AcDbBlockEnd
  0
BLOCK
  5
24
330
23
100
AcDbEntity
 67
     1
  8
0
100
AcDbBlockBegin
  2
*Paper_Space0
 70
     0
 10
0.0
 20
0.0
 30
0.0
  3
*Paper_Space0
  1

  0
ENDBLK
  5
25
330
23
100
AcDbEntity
 67
     1
  8
0
100
AcDbBlockEnd
  0
BLOCK
  5
3FA
330
3F9
100
AcDbEntity
  8
0
100
AcDbBlockBegin
  2
Block3
 70
     0
 10
0.0
 20
0.0
 30
0.0
  3
Block3
  1

  0
CIRCLE
  5
3FB
330
3F9
100
AcDbEntity
  8
FORMAT
 62
     7
370
    15
100
AcDbCircle
 10
9.623096090023436
 20
2.115622186524885
 30
0.0
 40
0.0998031496062924
  0
CIRCLE
  5
3FC
330
3F9
100
AcDbEntity
  8
FORMAT
 62
     7
370
    15
100
AcDbCircle
 10
9.623096090023436
 20
2.115622186524885
 30
0.0
 40
0.1996062992125948
  0
LINE
  5
3FD
330
3F9
100
AcDbEntity
  8
FORMAT
 62
     7
370
    15
100
AcDbLine
 10
10.05890680910872
 20
2.020396293772344
 30
0.0
 11
10.05890680910872
 21
2.210848079277426
 31
0.0
  0
LINE
  5
3FE
330
3F9
100
AcDbEntity
  8
FORMAT
 62
     7
370
    15
100
AcDbLine
 10
10.05890680910872
 20
2.210848079277426
 30
0.0
 11
10.55986477488565
 21
2.315228485737483
 31
0.0
  0
LINE
  5
3FF
330
3F9
100
AcDbEntity
  8
FORMAT
 62
     7
370
    15
100
AcDbLine
 10
10.55986477488565
 20
2.315228485737483
 30
0.0
 11
10.55986477488565
 21
1.916015887312285
 31
0.0
  0
LINE
  5
400
330
3F9
100
AcDbEntity
  8
FORMAT
 62
     7
370
    15
100
AcDbLine
 10
10.55986477488565
 20
1.916015887312285
 30
0.0
 11
10.05890680910872
 21
2.020396293772344
 31
0.0
  0
LINE
  5
401
330
3F9
100
AcDbEntity
  8
FORMAT
 62
     7
370
    15
100
AcDbLine
 10
9.987169396213419
 20
2.115622186524885
 30
0.0
 11
10.59626953693931
 21
2.115622186524885
 31
0.0
  0
LINE
  5
402
330
3F9
100
AcDbEntity
  8
FORMAT
 62
     7
370
    15
100
AcDbLine
 10
9.368122674365656
 20
2.115622186524885
 30
0.0
 11
9.87806950568121
 21
2.115622186524885
 31
0.0
  0
LINE
  5
403
330
3F9
100
AcDbEntity
  8
FORMAT
 62
     7
370
    15
100
AcDbLine
 10
9.623096090023436
 20
1.872691387914879
 30
0.0
 11
9.623096090023436
 21
2.382638219230431
 31
0.0
  0
ENDBLK
  5
404
330
3F9
100
AcDbEntity
  8
0
100
AcDbBlockEnd
  0
BLOCK
  5
406
330
405
100
AcDbEntity
  8
0
100
AcDbBlockBegin
  2
Block2
 70
     0
 10
0.0
 20
0.0
 30
0.0
  3
Block2
  1

  0
INSERT
  5
407
330
405
100
AcDbEntity
  8
0
  6
Continuous
 62
     7
100
AcDbBlockReference
  2
Block3
 10
-0.0282699124868556
 20
0.0201145539810274
 30
0.0
  0
ENDBLK
  5
408
330
405
100
AcDbEntity
  8
0
100
AcDbBlockEnd
  0
BLOCK
  5
40C
330
409
100
AcDbEntity
  8
0
100
AcDbBlockBegin
  2
amazon
 70
     0
 10
0.0
 20
0.0
 30
0.0
  3
amazon
  1

  0
HATCH
  5
40D
330
409
100
AcDbEntity
  8
0
100
AcDbHatch
 10
0.0
 20
0.0
 30
0.0
210
0.0
220
0.0
230
0.9999999999999998
  2
SOLID
 70
     1
 71
     0
 91
        1
 92
        5
 93
        1
 72
     4
 94
        3
 73
     0
 74
     0
 95
       18
 96
       14
 40
0.0
 40
0.0
 40
0.0
 40
0.0
 40
0.0596755466403443
 40
0.1035834707990989
 40
0.1695571134872838
 40
0.2000964637947284
 40
0.2237461165360023
 40
0.2565225897680324
 40
0.2756876256135649
 40
0.3018435697278741
 40
0.3302551352352805
 40
0.3457181605243852
 40
0.3618589112597388
 40
0.3618589112597388
 40
0.3618589112597388
 40
0.3618589112597388
 10
0.9280407135556529
 20
0.3678371450737368
 10
1.014164084729102
 20
0.3851494268204694
 10
1.144945011486449
 20
0.4024842103214663
 10
1.481904894757406
 20
0.3990648758382389
 10
1.309526957346704
 20
0.1657833910269666
 10
1.071996456892463
 20
0.0025828528301117
 10
1.213429780952147
 20
0.147260900816045
 10
1.269689397936616
 20
0.2055836989094448
 10
1.328770741103362
 20
0.3426132943554165
 10
1.182110533057802
 20
0.3629915346337151
 10
1.077363991359149
 20
0.3586993230536737
 10
1.01802908590988
 20
0.3618658313307459
 10
0.904746484263093
 20
0.3631546035627498
 10
0.9280407135556529
 20
0.3678371450737368
 97
        0
 75
     0
 76
     1
 47
0.0083360314226261
 98
        1
 10
1.350036184717041
 20
0.3275823953230534
450
        0
451
        0
460
0.0
461
0.0
452
        0
462
0.0
453
        0
470

1001
ACAD
1010
0.0
1020
0.0
1030
0.0
  0
HATCH
  5
40E
330
409
100
AcDbEntity
  8
0
100
AcDbHatch
 10
0.0
 20
0.0
 30
0.0
210
0.0
220
0.0
230
0.9999999999999998
  2
SOLID
 70
     1
 71
     0
 91
        9
 92
        7
 72
     1
 73
     1
 93
       20
 10
-1.397399278738596
 20
0.888299103756417
 42
0.0
 10
-1.517557092146972
 20
0.8521069912840207
 42
0.0
 10
-1.634457615432786
 20
0.8260486703038981
 42
0.113500075695427
 10
-1.796297882939342
 20
0.77249506361993
 42
0.335029435887297
 10
-1.882119182302076
 20
0.5660893728218724
 42
0.2523749963765925
 10
-1.737967057103837
 20
0.4398788302234422
 42
0.1008759599722844
 10
-1.585598263595066
 20
0.4319165654795154
 42
0.1558313267708922
 10
-1.397230403062579
 20
0.516966153393244
 42
0.0
 10
-1.397399278738596
 20
0.5017673425512395
 42
0.1600174655974661
 10
-1.372064800007926
 20
0.4395169090987201
 42
0.0
 10
-1.217886400875514
 20
0.4395169090987201
 42
-0.1096578030042886
 10
-1.250459302100694
 20
0.4735374948229208
 42
-0.1371553684281488
 10
-1.269279200586318
 20
0.540854824021424
 42
0.0
 10
-1.269279200586318
 20
0.9244912162288137
 42
0.267077244638994
 10
-1.391608540743007
 20
1.084460353356798
 42
0.1085027846705916
 10
-1.618171164820246
 20
1.110518674336923
 42
0.3343505200399534
 10
-1.854867580389672
 20
0.9063951599926172
 42
0.0
 10
-1.71371834174733
 20
0.9063951599926172
 42
-0.2815324590939715
 10
-1.623703637535193
 20
0.9970774848409384
 42
-0.1775171235246243
 10
-1.454582816445004
 20
0.984570122933
 42
-0.2483479329952881
 97
        0
 92
       22
 72
     1
 73
     1
 93
        8
 10
-1.397399278738596
 20
0.7768273973414295
 42
0.0
 10
-1.397399278738596
 20
0.658841110681435
 42
-0.2004737922071577
 10
-1.563882996111615
 20
0.5415786662708722
 42
-0.1115040980661369
 10
-1.686936178517754
 20
0.5404929028967014
 42
-0.2738586692622027
 10
-1.742672031725241
 20
0.6002098884761536
 42
-0.289643054085014
 10
-1.707203761502306
 20
0.6928616964054842
 42
-0.1190249358109779
 10
-1.625409587314685
 20
0.7261584398800891
 42
-0.0006545690929014
 10
-1.500908720409647
 20
0.7514929186107651
 42
0.031014715336947
 97
        0
 92
        7
 72
     1
 73
     1
 93
       27
 10
-1.062984159493659
 20
0.4395169090987201
 42
0.0
 10
-0.9348640813413879
 20
0.4395169090987201
 42
0.0
 10
-0.9348640813413879
 20
0.8535546757829193
 42
-0.1716644096531924
 10
-0.8769567013855592
 20
0.9534449062067299
 42
-0.1448545784781812
 10
-0.7799618399595332
 20
0.9997708101713946
 42
-0.1340090766267909
 10
-0.6862242686560336
 20
0.9885512553049524
 42
-0.2563461470910333
 10
-0.6192688605821033
 20
0.8998805797475881
 42
0.0
 10
-0.6192688605821033
 20
0.4395169090987201
 42
0.0
 10
-0.4904249401803611
 20
0.4395169090987201
 42
0.0
 10
-0.4904249401803753
 20
0.8641979875178154
 42
-0.1830801363087423
 10
-0.4212980053581035
 20
0.9621310132001053
 42
-0.1206854715101709
 10
-0.3311796453018374
 20
0.9975992834230517
 42
-0.2157527517618656
 10
-0.216674861049178
 20
0.9774303127070119
 42
-0.2679983488848178
 10
-0.1748297194210906
 20
0.9063951599927708
 42
0.0
 10
-0.1748297194210977
 20
0.4395169090987201
 42
0.0
 10
-0.0467096412688122
 20
0.4395169090987201
 42
0.0
 10
-0.0467096412688122
 20
0.9063951599926172
 42
0.0
 10
-0.0467096412688122
 20
0.9360726922199805
 42
0.2784603970195297
 10
-0.1675912969266093
 20
1.094594144849069
 42
0.1495326253440701
 10
-0.3521710705358245
 20
1.102556409592997
 42
0.1796241607690637
 10
-0.5034541006704388
 20
0.9896370186791244
 42
0.1190036376854939
 10
-0.5809052213613626
 20
1.073602719615081
 42
0.1510696384071214
 10
-0.753179676729971
 20
1.112690201085266
 42
0.122416550902687
 10
-0.8494506959065404
 20
1.081564984359008
 42
0.0903817772246913
 10
-0.9348640813413879
 20
1.001218494670287
 42
0.0
 10
-0.9348640813413879
 20
1.101108725094101
 42
0.0
 10
-1.062984159493659
 20
1.101108725094101
 42
0.0
 97
        0
 92
        7
 72
     1
 73
     1
 93
       20
 10
0.1120662149268909
 20
0.5660893728218764
 42
0.2523749963765703
 10
0.256218340125109
 20
0.4398788302234467
 42
0.100875959972303
 10
0.4085871336339224
 20
0.4319165654795159
 42
0.1558313267708855
 10
0.5969549941663886
 20
0.516966153393244
 42
0.0
 10
0.5967861184903711
 20
0.5017673425512395
 42
0.1600174655974661
 10
0.6221205972210555
 20
0.4395169090987201
 42
0.0
 10
0.7762989963534466
 20
0.4395169090987201
 42
-0.1096578030036369
 10
0.7437260951284089
 20
0.4735374948226645
 42
-0.1371553684287215
 10
0.7249061966426496
 20
0.540854824021424
 42
0.0
 10
0.7249061966426496
 20
0.9244912162288137
 42
0.2670772446390557
 10
0.6025768564859249
 20
1.084460353356814
 42
0.1085027846705556
 10
0.3760142324087567
 20
1.110518674336923
 42
0.3343505200399825
 10
0.1393178168393021
 20
0.9063951599926172
 42
0.0
 10
0.2804670554816368
 20
0.9063951599926172
 42
-0.2815324590939487
 10
0.370481759693746
 20
0.9970774848409313
 42
-0.1775171235246857
 10
0.539602580783992
 20
0.9845701229329858
 42
-0.2483479329952225
 10
0.5967861184903711
 20
0.888299103756417
 42
0.0
 10
0.4766283050820306
 20
0.8521069912840264
 42
0.0
 10
0.359727781796181
 20
0.8260486703038981
 42
0.113500075695427
 10
0.1978875142896257
 20
0.77249506361993
 42
0.335029435887291
 97
        0
 92
       22
 72
     1
 73
     1
 93
        8
 10
0.2869816357266757
 20
0.6928616964054842
 42
-0.1190249358109779
 10
0.3687758099142826
 20
0.7261584398800891
 42
-0.0006545690929014
 10
0.4932766768193205
 20
0.7514929186107651
 42
0.0310147153369478
 10
0.5967861184903711
 20
0.7768273973414419
 42
0.0
 10
0.5967861184903711
 20
0.658841110681435
 42
-0.2004737922071577
 10
0.430302401117352
 20
0.5415786662708722
 42
-0.1115040980661369
 10
0.3072492187112061
 20
0.5404929028967014
 42
-0.2738586692622027
 10
0.251513365503726
 20
0.6002098884761536
 42
-0.289643054085014
 97
        0
 92
        7
 72
     1
 73
     1
 93
       10
 10
1.490731296558529
 20
0.9717250567569255
 42
0.0
 10
1.490731296558529
 20
1.101108725094102
 42
0.0
 10
0.9246866574902696
 20
1.101108725094102
 42
0.0
 10
0.9246866574902767
 20
0.9648744605637409
 42
0.0
 10
1.298313112053691
 20
0.9648744605637409
 42
0.0
 10
0.8993521787595994
 20
0.5408548240214275
 42
0.0
 10
0.8993521787595994
 20
0.4395169090987241
 42
-0.1473109550280885
 10
1.52402804003313
 20
0.4395169090987184
 42
0.0
 10
1.52402804003313
 20
0.581774738538516
 42
0.0747823019347494
 10
1.16328520907988
 20
0.6214717791056393
 42
0.0
 97
        0
 92
        7
 72
     1
 73
     1
 93
        2
 10
1.658662698430447
 20
0.7829800564617493
 42
1.0
 10
2.353551257900427
 20
0.7829800564617493
 42
1.0
 97
        0
 92
       22
 72
     1
 73
     1
 93
        2
 10
2.212041370259932
 20
0.7829800564617493
 42
-1.0
 10
1.800172586070949
 20
0.7829800564617493
 42
-1.0
 97
        0
 92
        7
 72
     1
 73
     1
 93
       15
 10
2.520758817522896
 20
0.4395169090987201
 42
0.0
 10
2.649602737924617
 20
0.4395169090987201
 42
0.0
 10
2.649602737924617
 20
0.7753797128425455
 42
-0.1884880930389393
 10
2.726330016366098
 20
0.9404157457166672
 42
-0.0825504763720134
 10
2.808124190553712
 20
1.002666179169187
 42
-0.1879859195515259
 10
2.9333488997082
 20
1.010628443913113
 42
-0.3400688989443128
 10
3.022381496390295
 20
0.8948632846375158
 42
0.0
 10
3.022381496390295
 20
0.4395169090987201
 42
0.0
 10
3.151225416792009
 20
0.4395169090987201
 42
0.0
 10
3.151225416792023
 20
0.9382442189683235
 42
0.3709832727766776
 10
2.952118968473769
 20
1.109868265359158
 42
0.160618198198489
 10
2.773379762580219
 20
1.083012668857902
 42
0.0920112842116662
 10
2.649602737924617
 20
0.9831224384341012
 42
0.0
 10
2.649602737924631
 20
1.101108725094101
 42
0.0
 10
2.520758817522896
 20
1.1011087250941
 42
0.0
 97
        0
 75
     0
 76
     1
 47
0.0079344138681199
 98
        9
 10
-1.376638647914745
 20
0.8943652481782571
 10
-1.376638647914745
 20
0.8943652481782571
 10
-1.008011843667617
 20
0.7810537369378041
 10
0.2295103337683244
 20
0.706616395506853
 10
0.2295103337683244
 20
0.706616395506853
 10
1.173803717490862
 20
0.7215039733471374
 10
1.736822720547962
 20
0.9152585806937842
 10
1.736822720547962
 20
0.9152585806937842
 10
2.581717008623201
 20
0.8854836988984509
450
        0
451
        0
460
0.0
461
0.0
452
        0
462
0.0
453
        0
470

1001
ACAD
1010
0.0
1020
0.0
1030
0.0
  0
TEXT
  5
40F
330
409
100
AcDbEntity
  8
0
 62
   150
100
AcDbText
 10
3.411151618523078
 20
0.4239129498757777
 30
0.0
 40
1.05
  1
supply
 41
1.08
  7
style2
100
AcDbText
  0
HATCH
  5
410
330
409
100
AcDbEntity
  8
0
100
AcDbHatch
 10
0.0
 20
0.0
 30
0.0
210
0.0
220
0.0
230
0.9999999999999998
  2
SOLID
 70
     1
 71
     0
 91
        1
 92
        7
 72
     1
 73
     1
 93
        2
 10
-1.177902949885989
 20
0.4051926481048067
 42
0.3081272588713221
 10
1.212164975232198
 20
0.2933070771634125
 42
-0.177724595219735
 97
        0
 75
     0
 76
     1
 47
0.0009928164167271
 98
        1
 10
0.1755697210077258
 20
0.0593374821502257
450
        0
451
        0
460
0.0
461
0.0
452
        0
462
0.0
453
        0
470

1001
ACAD
1010
0.0
1020
0.0
1030
0.0
  0
ENDBLK
  5
411
330
409
100
AcDbEntity
  8
0
100
AcDbBlockEnd
  0
BLOCK
  5
B31
330
B30
100
AcDbEntity
  8
0
100
AcDbBlockBegin
  2
amazon block
 70
     0
 10
0.0
 20
0.0
 30
0.0
  3
amazon block
  1

  0
HATCH
  5
B32
330
B30
100
AcDbEntity
  8
0
100
AcDbHatch
 10
0.0
 20
0.0
 30
0.0
210
0.0
220
0.0
230
1.0
  2
SOLID
 70
     1
 71
     0
 91
        1
 92
        7
 72
     1
 73
     1
 93
        2
 10
0.1428560650202613
 20
0.0268249692297831
 42
0.3005568377796329
 10
0.6100026189360293
 20
0.0009915743964171
 42
-0.1486648242730099
 97
        0
 75
     0
 76
     1
 47
0.0083360314226261
 98
        1
 10
0.3681872109149253
 20
-0.0332769951503647
450
        0
451
        0
460
0.0
461
0.0
452
        0
462
0.0
453
        0
470

1001
ACAD
1010
0.0
1020
0.0
1030
0.0
  0
HATCH
  5
B33
330
B30
100
AcDbEntity
  8
0
100
AcDbHatch
 10
0.0
 20
0.0
 30
0.0
210
0.0
220
0.0
230
1.0
  2
SOLID
 70
     1
 71
     0
 91
        1
 92
        5
 93
        1
 72
     4
 94
        3
 73
     0
 74
     0
 95
       18
 96
       14
 40
0.0
 40
0.0
 40
0.0
 40
0.0
 40
0.3060284443094571
 40
0.531197286149225
 40
0.8695236589091486
 40
1.026135711767838
 40
1.14741598223591
 40
1.315500460348882
 40
1.413679231894078
 40
1.543957423309552
 40
1.719337158993241
 40
1.76919128251474
 40
1.852441399548553
 40
1.852441399548553
 40
1.852441399548553
 40
1.852441399548553
 10
0.5476248318910955
 20
0.0189472839500944
 10
0.5671265702171127
 20
0.0228674694218305
 10
0.5967407336623403
 20
0.0267937023518194
 10
0.6730410215606746
 20
0.0260155775369224
 10
0.6340109953118472
 20
-0.0267925718215847
 10
0.5802183818763105
 20
-0.0637796196110996
 10
0.6122605658026537
 20
-0.030937261100445
 10
0.624929189918916
 20
-0.0180757154749651
 10
0.6383573330340191
 20
0.013562833138125
 10
0.6020518241954172
 20
0.0146147000415664
 10
0.5794789444548947
 20
0.0158864032827642
 10
0.5641956865595646
 20
0.0167018526831093
 10
0.5423196975867733
 20
0.017880860532975
 10
0.5476248318910955
 20
0.0189472839500944
 97
        0
 75
     0
 76
     1
 47
0.0083360314226261
 98
        1
 10
0.644363460657651
 20
0.0075847933888076
450
        0
451
        0
460
0.0
461
0.0
452
        0
462
0.0
453
        0
470

1001
ACAD
1010
0.0
1020
0.0
1030
0.0
  0
HATCH
  5
B34
330
B30
100
AcDbEntity
  8
0
100
AcDbHatch
 10
0.0
 20
0.0
 30
0.0
210
0.0
220
0.0
230
1.0
  2
SOLID
 70
     1
 71
     0
 91
        9
 92
        7
 72
     1
 73
     1
 93
       20
 10
0.1000542808940033
 20
0.1169245515333142
 42
0.0
 10
0.076623507279372
 20
0.1098670896011966
 42
0.0
 10
0.0538279052386379
 20
0.1047857170100728
 42
0.113500075695427
 10
0.0222690530748579
 20
0.0943427637066989
 42
0.335029435887297
 10
0.0055338996991239
 20
0.0540936540010777
 42
0.2523749963765925
 10
0.0336435641127828
 20
0.0294825981943836
 42
0.1008759599722844
 10
0.0633554788469937
 20
0.0279299565693179
 42
0.1558313267708922
 10
0.1000872116508269
 20
0.0445146262124951
 42
0.0
 10
0.1000542808940033
 20
0.0415508580983044
 42
0.1600174655974661
 10
0.1049945042464841
 20
0.029412023575063
 42
0.0
 10
0.1350592920773046
 20
0.029412023575063
 42
-0.1096578030042886
 10
0.128707576338396
 20
0.0360460377912819
 42
-0.1371553684281488
 10
0.125037696133699
 20
0.0491729169849902
 42
0.0
 10
0.125037696133699
 20
0.1239820134654312
 42
0.267077244638994
 10
0.1011834748031433
 20
0.1551759952053882
 42
0.1085027846705916
 10
0.0570037631080815
 20
0.1602573677965124
 42
0.3343505200399534
 10
0.0108479620720452
 20
0.1204532824993727
 42
0.0
 10
0.0383720636073015
 20
0.1204532824993727
 42
-0.2815324590939715
 10
0.0559249309286685
 20
0.1381363358447958
 42
-0.1775171235246243
 10
0.0889034910412541
 20
0.1356974002727478
 42
-0.2483479329952881
 97
        0
 92
       22
 72
     1
 73
     1
 93
        8
 10
0.1000542808940033
 20
0.0951875687823911
 42
0.0
 10
0.1000542808940033
 20
0.0721802428836922
 42
-0.2004737922071577
 10
0.0675899560062661
 20
0.0493140662236327
 42
-0.1115040980661369
 10
0.0435945854370701
 20
0.0491023423656691
 42
-0.2738586692622027
 10
0.0327260940616085
 20
0.0607471545536624
 42
-0.289643054085014
 10
0.0396424067550818
 20
0.0788142570998818
 42
-0.1190249358109779
 10
0.0555922707216681
 20
0.0853071220774298
 42
-0.0006545690929014
 10
0.0798699397681482
 20
0.090247345429912
 42
0.031014715336947
 97
        0
 92
        7
 72
     1
 73
     1
 93
       27
 10
0.1652652291467689
 20
0.029412023575063
 42
0.0
 10
0.190248644386461
 20
0.029412023575063
 42
0.0
 10
0.190248644386461
 20
0.1101493880784821
 42
-0.1716644096531924
 10
0.201540583477847
 20
0.1296279830111251
 42
-0.1448545784781812
 10
0.2204545814559218
 20
0.1386615342842345
 42
-0.1340090766267909
 10
0.2387334078601029
 20
0.1364737210852782
 42
-0.2563461470910333
 10
0.251789712434519
 20
0.1191829393515924
 42
0.0
 10
0.251789712434519
 20
0.029412023575063
 42
0.0
 10
0.2769142769128621
 20
0.029412023575063
 42
0.0
 10
0.2769142769128585
 20
0.1122248338667866
 42
-0.1830801363087423
 10
0.290394029203199
 20
0.1313217738748333
 42
-0.1206854715101709
 10
0.3079671094141716
 20
0.1382380865683075
 42
-0.2157527517618656
 10
0.3302955423434426
 20
0.1343051372786799
 42
-0.2679983488848178
 10
0.33845534496092
 20
0.1204532824994029
 42
0.0
 10
0.3384553449609164
 20
0.029412023575063
 42
0.0
 10
0.3634387602006122
 20
0.029412023575063
 42
0.0
 10
0.3634387602006122
 20
0.1204532824993727
 42
0.0
 10
0.3634387602006122
 20
0.1262404012837086
 42
0.2784603970195297
 10
0.3398668373473406
 20
0.1571520845463814
 42
0.1495326253440701
 10
0.3038737814935466
 20
0.1587047261714471
 42
0.1796241607690637
 10
0.2743735906172944
 20
0.1366854449432417
 42
0.1190036376854939
 10
0.259270622082564
 20
0.1530587566257537
 42
0.1510696384071214
 10
0.2256771032856868
 20
0.1606808155124395
 42
0.122416550902687
 10
0.2069042545462558
 20
0.154611398250819
 42
0.0903817772246913
 10
0.190248644386461
 20
0.1389438327615187
 42
0.0
 10
0.190248644386461
 20
0.1584224276941626
 42
0.0
 10
0.1652652291467689
 20
0.1584224276941626
 42
0.0
 97
        0
 92
        7
 72
     1
 73
     1
 93
       20
 10
0.394400052158776
 20
0.0540936540010786
 42
0.2523749963765703
 10
0.4225097165724279
 20
0.0294825981943845
 42
0.100875959972303
 10
0.4522216313066459
 20
0.0279299565693183
 42
0.1558313267708855
 10
0.4889533641104756
 20
0.0445146262124951
 42
0.0
 10
0.4889204333536519
 20
0.0415508580983044
 42
0.1600174655974661
 10
0.4938606567061364
 20
0.029412023575063
 42
0.0
 10
0.5239254445369533
 20
0.029412023575063
 42
-0.1096578030036369
 10
0.5175737287980695
 20
0.0360460377912322
 42
-0.1371553684287215
 10
0.5139038485933476
 20
0.0491729169849902
 42
0.0
 10
0.5139038485933476
 20
0.1239820134654312
 42
0.2670772446390557
 10
0.4900496272627848
 20
0.1551759952053913
 42
0.1085027846705556
 10
0.4458699155677373
 20
0.1602573677965129
 42
0.3343505200399825
 10
0.3997141145316938
 20
0.1204532824993727
 42
0.0
 10
0.4272382160669502
 20
0.1204532824993727
 42
-0.2815324590939487
 10
0.44479108338831
 20
0.138136335844794
 42
-0.1775171235246857
 10
0.4777696435009098
 20
0.1356974002727447
 42
-0.2483479329952225
 10
0.4889204333536519
 20
0.1169245515333142
 42
0.0
 10
0.4654896597390277
 20
0.1098670896011979
 42
0.0
 10
0.4426940576982866
 20
0.1047857170100728
 42
0.113500075695427
 10
0.4111352055345066
 20
0.0943427637066989
 42
0.335029435887291
 97
        0
 92
       22
 72
     1
 73
     1
 93
        8
 10
0.428508559214734
 20
0.0788142570998818
 42
-0.1190249358109779
 10
0.4444584231813167
 20
0.0853071220774298
 42
-0.0006545690929014
 10
0.4687360922277968
 20
0.090247345429912
 42
0.0310147153369478
 10
0.4889204333536519
 20
0.0951875687823938
 42
0.0
 10
0.4889204333536519
 20
0.0721802428836922
 42
-0.2004737922071577
 10
0.4564561084659147
 20
0.0493140662236327
 42
-0.1115040980661369
 10
0.4324607378967152
 20
0.0491023423656691
 42
-0.2738586692622027
 10
0.4215922465212572
 20
0.0607471545536624
 42
-0.289643054085014
 97
        0
 92
        7
 72
     1
 73
     1
 93
       10
 10
0.663239743076943
 20
0.1331926123684131
 42
0.0
 10
0.663239743076943
 20
0.1584224276941626
 42
0.0
 10
0.5528610384586337
 20
0.1584224276941626
 42
0.0
 10
0.5528610384586337
 20
0.131856746110742
 42
0.0
 10
0.6257181970985002
 20
0.131856746110742
 42
0.0
 10
0.5479208151061528
 20
0.0491729169849911
 42
0.0
 10
0.5479208151061528
 20
0.0294120235750635
 42
-0.1473109550280885
 10
0.6697326080544919
 20
0.0294120235750626
 42
0.0
 10
0.6697326080544919
 20
0.0571523003158232
 42
0.0747823019347494
 10
0.5993877560186079
 20
0.0648932232264121
 42
0.0
 97
        0
 92
        7
 72
     1
 73
     1
 93
        2
 10
0.6959863664419679
 20
0.0963873373108535
 42
1.0
 10
0.8314896355386132
 20
0.0963873373108535
 42
1.0
 97
        0
 92
       22
 72
     1
 73
     1
 93
        2
 10
0.8038952074487184
 20
0.0963873373108535
 42
-1.0
 10
0.7235807945318662
 20
0.0963873373108535
 42
-1.0
 97
        0
 92
        7
 72
     1
 73
     1
 93
       15
 10
0.8640951096649978
 20
0.029412023575063
 42
0.0
 10
0.8892196741433302
 20
0.029412023575063
 42
0.0
 10
0.8892196741433302
 20
0.0949052703051088
 42
-0.1884880930389393
 10
0.9041814934394203
 20
0.1270872967155627
 42
-0.0825504763720134
 10
0.9201313574060066
 20
0.1392261312388041
 42
-0.1879859195515259
 10
0.9445501756911305
 20
0.1407787728638694
 42
-0.3400688989443128
 10
0.9619115320441373
 20
0.1182045668051281
 42
0.0
 10
0.9619115320441373
 20
0.029412023575063
 42
0.0
 10
0.9870360965224733
 20
0.029412023575063
 42
0.0
 10
0.9870360965224769
 20
0.1266638489996357
 42
0.3709832727766776
 10
0.9482103391004166
 20
0.1601305380458484
 42
0.160618198198489
 10
0.9133561939511736
 20
0.1548936967281036
 42
0.0920112842116662
 10
0.8892196741433302
 20
0.1354151017954623
 42
0.0
 10
0.8892196741433338
 20
0.1584224276941626
 42
0.0
 10
0.8640951096649978
 20
0.1584224276941621
 42
0.0
 97
        0
 75
     0
 76
     1
 47
0.0079344138681199
 98
        9
 10
0.1041026039046571
 20
0.1181074496955725
 10
0.1041026039046571
 20
0.1181074496955725
 10
0.175984830732844
 20
0.0960117050036842
 10
0.4173016553328531
 20
0.0814964234246487
 10
0.4173016553328531
 20
0.0814964234246487
 10
0.6014388651587482
 20
0.0843995011035044
 10
0.7112275707548826
 20
0.1221816495361003
 10
0.7112275707548826
 20
0.1221816495361003
 10
0.8759819569295572
 20
0.1163755475860104
450
        0
451
        0
460
0.0
461
0.0
452
        0
462
0.0
453
        0
470

1001
ACAD
1010
0.0
1020
0.0
1030
0.0
  0
HATCH
  5
B35
330
B30
100
AcDbEntity
  8
0
 62
   150
100
AcDbHatch
 10
0.0
 20
0.0
 30
0.0
210
0.0
220
0.0
230
1.0
  2
SOLID
 70
     1
 71
     0
 91
        8
 92
        7
 72
     1
 73
     1
 93
       22
 10
1.131716859301388
 20
0.0982802106585603
 42
0.0484183422992068
 10
1.088571435005292
 20
0.1135920246412381
 42
-0.1024497749852004
 10
1.063583383368957
 20
0.125237861247649
 42
-0.5197370575112227
 10
1.065952625421378
 20
0.1500864950045506
 42
-0.1784163181567931
 10
1.097462280584622
 20
0.1562497626075707
 42
-0.1611556671223822
 10
1.130948711999153
 20
0.1417059730721331
 42
0.0
 10
1.143877562730139
 20
0.1560685971400009
 42
0.0879608039459819
 10
1.125754289819187
 20
0.1671964668262178
 42
0.096844267443967
 10
1.086490181797579
 20
0.1727441735534061
 42
0.1289645081611661
 10
1.053342092127955
 20
0.1633533786648891
 42
0.2520599057044872
 10
1.037629278411372
 20
0.1399706628121899
 42
0.2998873610886212
 10
1.050463850241648
 20
0.1096908005921695
 42
0.087968247036807
 10
1.088782354168369
 20
0.0932096049078468
 42
-0.0908267507933147
 10
1.119928772767817
 20
0.0811747820304691
 42
-0.4466858316882535
 10
1.125453128485816
 20
0.0540976492614389
 42
-0.2058443735084833
 10
1.094059901125532
 20
0.0433269295271455
 42
-0.2322683613354944
 10
1.04833474053288
 20
0.0635860005622337
 42
0.0
 10
1.033442870302863
 20
0.0487121861500608
 42
0.0897498636939959
 10
1.054992265021407
 20
0.0336893058402592
 42
0.1162784600455089
 10
1.100093060274716
 20
0.0271838680846326
 42
0.1305494116801128
 10
1.134902795650507
 20
0.0379471166909786
 42
0.2700443324603339
 10
1.150563716135536
 20
0.0687356163070478
 42
0.2747552069495999
 97
        0
 92
        7
 72
     1
 73
     1
 93
       17
 10
1.204964925758659
 20
0.0711619205531866
 42
0.0
 10
1.204964925758659
 20
0.1705032481376225
 42
0.0
 10
1.182530424786222
 20
0.1705032481376221
 42
0.0
 10
1.182530424786222
 20
0.068114123580882
 42
0.231056446390574
 10
1.200275679141658
 20
0.0337787716591849
 42
0.1033983125445035
 10
1.222016181175408
 20
0.0271400549874108
 42
0.1113661879093152
 10
1.256252700835137
 20
0.0321455417860066
 42
0.060456799039856
 10
1.280359576718197
 20
0.0437750658039402
 42
0.0
 10
1.282436740080608
 20
0.0292528824702614
 42
0.0
 10
1.305008011852606
 20
0.0292528824702614
 42
0.0
 10
1.303035750365566
 20
0.045573054697837
 42
0.0
 10
1.303035750365566
 20
0.1704535782767582
 42
0.0
 10
1.280726706724607
 20
0.1704535782767582
 42
0.0
 10
1.280726706724607
 20
0.0603385752977079
 42
-0.0926529444633646
 10
1.271406905425951
 20
0.0542136206901671
 42
-0.0664344377826394
 10
1.252018117536273
 20
0.0470706779667407
 42
-0.0713593701437487
 10
1.22596399727168
 20
0.0462232117768133
 42
-0.3666103947779491
 97
        0
 92
        7
 72
     1
 73
     1
 93
       12
 10
1.34888971452673
 20
-0.0300855190343001
 42
0.0
 10
1.37158389411627
 20
-0.0300855190342997
 42
0.0
 10
1.37158389411627
 20
0.0381322242109672
 42
0.2065475696655794
 10
1.43316687203049
 20
0.0295489681525751
 42
0.2194428372319613
 10
1.471434120104095
 20
0.0681246169490031
 42
0.1323036971285341
 10
1.475462458348772
 20
0.1210354643912233
 42
0.1641390880683366
 10
1.453695611337639
 20
0.1611617476764042
 42
0.205639974219759
 10
1.404711616991345
 20
0.1717914749112652
 42
0.0657328919071964
 10
1.371062306057382
 20
0.1603071107053626
 42
0.0
 10
1.369185970032088
 20
0.1704922854774775
 42
0.0
 10
1.347893491957236
 20
0.1704922854774775
 42
0.0
 10
1.348889714526734
 20
0.1571025974974671
 42
0.0
 97
        0
 92
       22
 72
     1
 73
     1
 93
        8
 10
1.37158389411627
 20
0.1447873628418232
 42
-0.1242339830404592
 10
1.408127279067805
 20
0.1549128436768488
 42
-0.229840994742505
 10
1.439329608924591
 20
0.143501077402358
 42
-0.1934262502536381
 10
1.452032531529923
 20
0.1169919663469652
 42
-0.1013985410677669
 10
1.45007247035501
 20
0.0757878280977211
 42
-0.2083357761076617
 10
1.426144858393048
 20
0.0470888301796872
 42
-0.1496858148879605
 10
1.383365488627418
 20
0.0497243925890185
 42
-0.0899155484976542
 10
1.37158389411627
 20
0.0564933659367366
 42
0.0
 97
        0
 92
        7
 72
     1
 73
     1
 93
       12
 10
1.536384209201344
 20
0.0381322242109672
 42
0.2065475696655794
 10
1.597967187115564
 20
0.0295489681525751
 42
0.2194428372319613
 10
1.63623443518917
 20
0.0681246169490031
 42
0.1323036971285341
 10
1.640262773433846
 20
0.1210354643912233
 42
0.1641390880683366
 10
1.618495926422713
 20
0.1611617476764042
 42
0.205639974219759
 10
1.569511932076419
 20
0.1717914749112652
 42
0.0657328919071964
 10
1.535862621142456
 20
0.1603071107053626
 42
0.0
 10
1.533986285117165
 20
0.1704922854774775
 42
0.0
 10
1.51269380704231
 20
0.1704922854774775
 42
0.0
 10
1.513690029611812
 20
0.1571025974974671
 42
0.0
 10
1.513690029611804
 20
-0.0300855190343001
 42
0.0
 10
1.536384209201344
 20
-0.0300855190342997
 42
0.0
 97
        0
 92
       22
 72
     1
 73
     1
 93
        8
 10
1.53638420920134
 20
0.0564933659367348
 42
0.0
 10
1.536384209201344
 20
0.1447873628418232
 42
-0.1242339830404592
 10
1.572927594152879
 20
0.1549128436768488
 42
-0.229840994742505
 10
1.604129924009665
 20
0.143501077402358
 42
-0.1934262502536381
 10
1.616832846614997
 20
0.1169919663469652
 42
-0.1013985410677669
 10
1.614872785440084
 20
0.0757878280977211
 42
-0.2083357761076617
 10
1.590945173478122
 20
0.0470888301796872
 42
-0.1496858148879605
 10
1.548165803712493
 20
0.0497243925890185
 42
-0.0899155484976689
 97
        0
 92
        7
 72
     1
 73
     1
 93
        9
 10
1.700061888317705
 20
0.2342426883985293
 42
0.0
 10
1.677630680467434
 20
0.2342426883985293
 42
0.0
 10
1.67763068046743
 20
0.0525526462764159
 42
0.3003574180393968
 10
1.689763445472692
 20
0.0294232917661481
 42
0.1772930531369512
 10
1.716213749579594
 20
0.0296692382956376
 42
0.0
 10
1.726340843842322
 20
0.0328930300171466
 42
0.0
 10
1.722947015877874
 20
0.0450847282577249
 42
0.0
 10
1.715478639728772
 20
0.0445718860057287
 42
-0.4033750267256485
 10
1.700061888317705
 20
0.0551463102997136
 42
0.0
 97
        0
 92
        7
 72
     1
 73
     1
 93
       13
 10
1.756550300014353
 20
0.1705037737446156
 42
0.0
 10
1.733158403445031
 20
0.1705037737446147
 42
0.0
 10
1.789004390745333
 20
0.0387212794769898
 42
-0.1248046720339364
 10
1.779651976914252
 20
0.0098440558334927
 42
-0.2041270254703542
 10
1.758338890268429
 20
-0.0108879300937863
 42
-0.1582846410265598
 10
1.728104948139659
 20
-0.0088290148710986
 42
0.0
 10
1.723524002749954
 20
-0.0288461752875353
 42
0.0503996825504031
 10
1.752727303871125
 20
-0.0310194851179708
 42
0.1573307408029109
 10
1.778748174224848
 20
-0.02185783610684
 42
0.1379639421479074
 10
1.7998397718477
 20
0.0061205808064937
 42
0.0
 10
1.863932002621172
 20
0.1705037737446151
 42
0.0
 10
1.84037943355916
 20
0.1705037737446147
 42
0.0
 10
1.801429340670335
 20
0.0575527643750102
 42
0.0
 97
        0
 75
     0
 76
     1
 47
0.0008892483299936
 98
        8
 10
1.136466178840407
 20
0.0806040287034282
 10
1.218376325116423
 20
0.039698608137611
 10
1.365280380260387
 20
0.0654868019383397
 10
1.365280380260387
 20
0.0654868019383397
 10
1.532067085388874
 20
0.0510462190903649
 10
1.532067085388874
 20
0.0510462190903649
 10
1.692326025665067
 20
0.0661634458554534
 10
1.78937173321124
 20
0.0643849607353548
450
        0
451
        0
460
0.0
461
0.0
452
        0
462
0.0
453
        0
470

1001
ACAD
1010
0.0
1020
0.0
1030
0.0
  0
ENDBLK
  5
B36
330
B30
100
AcDbEntity
  8
0
100
AcDbBlockEnd
  0
BLOCK
  5
C5C
330
C5B
100
AcDbEntity
  8
0
100
AcDbBlockBegin
  2
SW_CENTERMARKSYMBOL_0
 70
     0
 10
0.0
 20
0.0
 30
0.0
  3
SW_CENTERMARKSYMBOL_0
  1

  0
LINE
  5
C5D
330
C5B
100
AcDbEntity
  8
0
  6
Continuous
 62
     0
370
     0
100
AcDbLine
 10
0.0
 20
0.0
 30
0.0
 11
0.0
 21
0.1000000000000006
 31
0.0
  0
LINE
  5
C5E
330
C5B
100
AcDbEntity
  8
0
  6
Continuous
 62
     0
370
     0
100
AcDbLine
 10
0.0
 20
0.0
 30
0.0
 11
-0.1000000000000006
 21
0.0
 31
0.0
  0
LINE
  5
C5F
330
C5B
100
AcDbEntity
  8
0
  6
Continuous
 62
     0
370
     0
100
AcDbLine
 10
0.0
 20
0.0
 30
0.0
 11
0.0
 21
-0.0999999999999995
 31
0.0
  0
LINE
  5
C60
330
C5B
100
AcDbEntity
  8
0
  6
Continuous
 62
     0
370
     0
100
AcDbLine
 10
0.0
 20
0.0
 30
0.0
 11
0.0999999999999995
 21
0.0
 31
0.0
  0
LINE
  5
C61
330
C5B
100
AcDbEntity
  8
0
  6
Continuous
 62
     0
370
     0
100
AcDbLine
 10
0.0
 20
0.1000000000000006
 30
0.0
 11
0.0
 21
0.1690000000000003
 31
0.0
  0
LINE
  5
C62
330
C5B
100
AcDbEntity
  8
0
  6
Continuous
 62
     0
370
     0
100
AcDbLine
 10
-0.1000000000000006
 20
0.0
 30
0.0
 11
-0.1690000000000003
 21
0.0
 31
0.0
  0
LINE
  5
C63
330
C5B
100
AcDbEntity
  8
0
  6
Continuous
 62
     0
370
     0
100
AcDbLine
 10
0.0
 20
-0.0999999999999995
 30
0.0
 11
0.0
 21
-0.1690000000000003
 31
0.0
  0
LINE
  5
C64
330
C5B
100
AcDbEntity
  8
0
  6
Continuous
 62
     0
370
     0
100
AcDbLine
 10
0.0999999999999995
 20
0.0
 30
0.0
 11
0.1689999999999992
 21
0.0
 31
0.0
  0
ENDBLK
  5
C65
330
C5B
100
AcDbEntity
  8
0
100
AcDbBlockEnd
  0
BLOCK
  5
108A
330
1089
100
AcDbEntity
  8
0
100
AcDbBlockBegin
  2
*D6
 70
     1
 10
0.0
 20
0.0
 30
0.0
  3
*D6
  1

  0
LINE
  5
234B
330
1089
100
AcDbEntity
  8
DIM
 62
     0
370
    -2
100
AcDbLine
 10
3.70851443991033
 20
1.672328525007876
 30
0.0
 11
3.511842108163219
 21
1.672328525007876
 31
0.0
  0
LINE
  5
234C
330
1089
100
AcDbEntity
  8
DIM
 62
     0
370
    -2
100
AcDbLine
 10
3.511842108163219
 20
1.672328525007876
 30
0.0
 11
3.223749078938654
 21
1.399149315025666
 31
0.0
  0
LINE
  5
234D
330
1089
100
AcDbEntity
  8
DIM
 62
     0
370
    -2
100
AcDbLine
 10
2.893583099455374
 20
1.086075160885202
 30
0.0
 11
2.864557518841384
 21
1.058552158323331
 31
0.0
  0
MTEXT
  5
234E
102
{ACAD_XDICTIONARY
360
2808
102
}
330
1089
100
AcDbEntity
  8
DIM
 62
     0
100
AcDbMText
 10
3.617678274036775
 20
1.709585493056823
 30
0.0
 40
0.04
 41
0.0
 71
     5
 72
     1
  1
\A1;\U+22050.375
 73
     1
 44
1.0
  0
LINE
  5
234F
330
1089
100
AcDbEntity
  8
DIM
 62
     0
370
    -2
100
AcDbLine
 10
2.922608680069365
 20
1.113598163447073
 30
0.0
 11
3.194723498324663
 21
1.371626312463796
 31
0.0
  0
SOLID
  5
2350
330
1089
100
AcDbEntity
  8
DIM
 62
     0
100
AcDbTrace
 10
2.888995932361729
 20
1.0909127576542
 30
0.0
 11
2.898170266549019
 21
1.081237564116204
 31
0.0
 12
2.922608680069365
 22
1.113598163447073
 32
0.0
 13
2.922608680069365
 23
1.113598163447073
 33
0.0
  0
SOLID
  5
2351
330
1089
100
AcDbEntity
  8
DIM
 62
     0
100
AcDbTrace
 10
3.219161911845009
 20
1.403986911794665
 30
0.0
 11
3.228336246032299
 21
1.394311718256668
 31
0.0
 12
3.194723498324663
 22
1.371626312463796
 32
0.0
 13
3.194723498324663
 23
1.371626312463796
 33
0.0
  0
POINT
  5
2352
330
1089
100
AcDbEntity
  8
Defpoints
 62
     0
100
AcDbPoint
 10
3.194723498324663
 20
1.371626312463796
 30
0.0
  0
POINT
  5
2353
330
1089
100
AcDbEntity
  8
Defpoints
 62
     0
100
AcDbPoint
 10
2.922608680069365
 20
1.113598163447073
 30
0.0
  0
ENDBLK
  5
108B
330
1089
100
AcDbEntity
  8
0
100
AcDbBlockEnd
  0
BLOCK
  5
1153
330
1152
100
AcDbEntity
  8
0
100
AcDbBlockBegin
  2
*D7
 70
     1
 10
0.0
 20
0.0
 30
0.0
  3
*D7
  1

  0
LINE
  5
235E
330
1152
100
AcDbEntity
  8
DIM
 62
     0
370
    -2
100
AcDbLine
 10
2.330880986864611
 20
1.672328525007876
 30
0.0
 11
2.528205935878887
 21
1.672328525007876
 31
0.0
  0
LINE
  5
235F
330
1152
100
AcDbEntity
  8
DIM
 62
     0
370
    -2
100
AcDbLine
 10
2.528205935878887
 20
1.672328525007876
 30
0.0
 11
2.778934329085374
 21
1.469217935996865
 31
0.0
  0
LINE
  5
2360
330
1152
100
AcDbEntity
  8
DIM
 62
     0
370
    -2
100
AcDbLine
 10
3.338397849308655
 20
1.016006539914005
 30
0.0
 11
3.369479155987725
 21
0.9908281290205129
 31
0.0
  0
MTEXT
  5
2361
102
{ACAD_XDICTIONARY
360
280A
102
}
330
1152
100
AcDbEntity
  8
DIM
 62
     0
100
AcDbMText
 10
2.422043461371749
 20
1.709585493056822
 30
0.0
 40
0.04
 41
0.0
 71
     5
 72
     1
  1
\A1;\U+22050.640
 73
     1
 44
1.0
  0
LINE
  5
2362
330
1152
100
AcDbEntity
  8
DIM
 62
     0
370
    -2
100
AcDbLine
 10
3.307316542629584
 20
1.041184950807497
 30
0.0
 11
2.810015635764445
 21
1.444039525103373
 31
0.0
  0
SOLID
  5
2363
330
1152
100
AcDbEntity
  8
DIM
 62
     0
100
AcDbTrace
 10
3.342594251124237
 20
1.02118675769385
 30
0.0
 11
3.334201447493073
 21
1.010826322134159
 31
0.0
 12
3.307316542629584
 22
1.041184950807497
 32
0.0
 13
3.307316542629584
 23
1.041184950807497
 33
0.0
  0
SOLID
  5
2364
330
1152
100
AcDbEntity
  8
DIM
 62
     0
100
AcDbTrace
 10
2.783130730900956
 20
1.47439815377671
 30
0.0
 11
2.774737927269792
 21
1.46403771821702
 31
0.0
 12
2.810015635764445
 22
1.444039525103373
 32
0.0
 13
2.810015635764445
 23
1.444039525103373
 33
0.0
  0
POINT
  5
2365
330
1152
100
AcDbEntity
  8
Defpoints
 62
     0
100
AcDbPoint
 10
2.810015635764445
 20
1.444039525103373
 30
0.0
  0
POINT
  5
2366
330
1152
100
AcDbEntity
  8
Defpoints
 62
     0
100
AcDbPoint
 10
3.307316542629584
 20
1.041184950807497
 30
0.0
  0
ENDBLK
  5
1154
330
1152
100
AcDbEntity
  8
0
100
AcDbBlockEnd
  0
BLOCK
  5
204B
330
204A
100
AcDbEntity
  8
0
100
AcDbBlockBegin
  2
*D8
 70
     1
 10
0.0
 20
0.0
 30
0.0
  3
*D8
  1

  0
LINE
  5
2743
330
204A
100
AcDbEntity
  8
DIM
 62
     0
370
    -2
100
AcDbLine
 10
3.027666089197015
 20
1.729012570219286
 30
0.0
 11
3.027666089197015
 21
1.848977886570202
 31
0.0
  0
LINE
  5
2744
330
204A
100
AcDbEntity
  8
DIM
 62
     0
370
    -2
100
AcDbLine
 10
3.090666089197016
 20
1.728940382818908
 30
0.0
 11
3.090666089197016
 21
1.848977886570202
 31
0.0
  0
LINE
  5
2745
330
204A
100
AcDbEntity
  8
DIM
 62
     0
370
    -2
100
AcDbLine
 10
2.987666089197015
 20
1.808977886570202
 30
0.0
 11
2.947666089197015
 21
1.808977886570202
 31
0.0
  0
LINE
  5
2746
330
204A
100
AcDbEntity
  8
DIM
 62
     0
370
    -2
100
AcDbLine
 10
3.130666089197016
 20
1.808977886570202
 30
0.0
 11
3.170666089197016
 21
1.808977886570202
 31
0.0
  0
LINE
  5
2747
330
204A
100
AcDbEntity
  8
DIM
 62
     0
370
    -2
100
AcDbLine
 10
3.027666089197015
 20
1.808977886570202
 30
0.0
 11
3.090666089197016
 21
1.808977886570202
 31
0.0
  0
SOLID
  5
2748
330
204A
100
AcDbEntity
  8
DIM
 62
     0
100
AcDbTrace
 10
2.987666089197015
 20
1.815644553236869
 30
0.0
 11
2.987666089197015
 21
1.802311219903535
 31
0.0
 12
3.027666089197015
 22
1.808977886570202
 32
0.0
 13
3.027666089197015
 23
1.808977886570202
 33
0.0
  0
SOLID
  5
2749
330
204A
100
AcDbEntity
  8
DIM
 62
     0
100
AcDbTrace
 10
3.130666089197016
 20
1.815644553236869
 30
0.0
 11
3.130666089197016
 21
1.802311219903535
 31
0.0
 12
3.090666089197016
 22
1.808977886570202
 32
0.0
 13
3.090666089197016
 23
1.808977886570202
 33
0.0
  0
MTEXT
  5
274A
330
204A
100
AcDbEntity
  8
DIM
 62
     0
100
AcDbMText
 10
3.059166089197016
 20
1.844984004857082
 30
0.0
 40
0.04
 41
0.0
 71
     5
 72
     1
  1
\A1;0.063
 73
     1
 44
1.0
  0
POINT
  5
274B
330
204A
100
AcDbEntity
  8
Defpoints
 62
     0
100
AcDbPoint
 10
3.027666089197015
 20
1.679012570219286
 30
0.0
  0
POINT
  5
274C
330
204A
100
AcDbEntity
  8
Defpoints
 62
     0
100
AcDbPoint
 10
3.090666089197016
 20
1.678940382818908
 30
0.0
  0
POINT
  5
274D
330
204A
100
AcDbEntity
  8
Defpoints
 62
     0
100
AcDbPoint
 10
3.090666089197016
 20
1.808977886570202
 30
0.0
  0
ENDBLK
  5
204C
330
204A
100
AcDbEntity
  8
0
100
AcDbBlockEnd
  0
BLOCK
  5
2065
330
2064
100
AcDbEntity
  8
0
100
AcDbBlockBegin
  2
*D9
 70
     1
 10
0.0
 20
0.0
 30
0.0
  3
*D9
  1

  0
LINE
  5
2367
330
2064
100
AcDbEntity
  8
DIM
 62
     0
370
    -2
100
AcDbLine
 10
1.077505336406558
 20
3.152321010205597
 30
0.0
 11
1.077505336406558
 21
3.252751753482137
 31
0.0
  0
LINE
  5
2368
330
2064
100
AcDbEntity
  8
DIM
 62
     0
370
    -2
100
AcDbLine
 10
1.422505336406556
 20
3.152321010205597
 30
0.0
 11
1.422505336406556
 21
3.252751753482137
 31
0.0
  0
LINE
  5
2369
330
2064
100
AcDbEntity
  8
DIM
 62
     0
370
    -2
100
AcDbLine
 10
1.117505336406558
 20
3.212751753482137
 30
0.0
 11
1.382505336406556
 21
3.212751753482137
 31
0.0
  0
SOLID
  5
236A
330
2064
100
AcDbEntity
  8
DIM
 62
     0
100
AcDbTrace
 10
1.117505336406558
 20
3.219418420148804
 30
0.0
 11
1.117505336406558
 21
3.206085086815471
 31
0.0
 12
1.077505336406558
 22
3.212751753482137
 32
0.0
 13
1.077505336406558
 23
3.212751753482137
 33
0.0
  0
SOLID
  5
236B
330
2064
100
AcDbEntity
  8
DIM
 62
     0
100
AcDbTrace
 10
1.382505336406556
 20
3.219418420148804
 30
0.0
 11
1.382505336406556
 21
3.206085086815471
 31
0.0
 12
1.422505336406556
 22
3.212751753482137
 32
0.0
 13
1.422505336406556
 23
3.212751753482137
 33
0.0
  0
MTEXT
  5
236C
330
2064
100
AcDbEntity
  8
DIM
 62
     0
100
AcDbMText
 10
1.250005336406557
 20
3.248757871769017
 30
0.0
 40
0.04
 41
0.0
 71
     5
 72
     1
  1
\A1;0.345
 73
     1
 44
1.0
  0
POINT
  5
236D
330
2064
100
AcDbEntity
  8
Defpoints
 62
     0
100
AcDbPoint
 10
1.077505336406558
 20
3.102321010205598
 30
0.0
  0
POINT
  5
236E
330
2064
100
AcDbEntity
  8
Defpoints
 62
     0
100
AcDbPoint
 10
1.422505336406556
 20
3.102321010205598
 30
0.0
  0
POINT
  5
236F
330
2064
100
AcDbEntity
  8
Defpoints
 62
     0
100
AcDbPoint
 10
1.422505336406556
 20
3.212751753482137
 30
0.0
  0
ENDBLK
  5
2066
330
2064
100
AcDbEntity
  8
0
100
AcDbBlockEnd
  0
BLOCK
  5
207B
330
207A
100
AcDbEntity
  8
0
100
AcDbBlockBegin
  2
*D10
 70
     1
 10
0.0
 20
0.0
 30
0.0
  3
*D10
  1

  0
LINE
  5
2370
330
207A
100
AcDbEntity
  8
DIM
 62
     0
370
    -2
100
AcDbLine
 10
1.027505336406558
 20
2.227321010205598
 30
0.0
 11
0.9211048102582571
 21
2.227321010205598
 31
0.0
  0
LINE
  5
2371
330
207A
100
AcDbEntity
  8
DIM
 62
     0
370
    -2
100
AcDbLine
 10
1.027505336406558
 20
2.633821010205597
 30
0.0
 11
0.9211048102582573
 21
2.633821010205597
 31
0.0
  0
LINE
  5
2372
330
207A
100
AcDbEntity
  8
DIM
 62
     0
370
    -2
100
AcDbLine
 10
0.9611048102582573
 20
2.267321010205598
 30
0.0
 11
0.9611048102582573
 21
2.593821010205597
 31
0.0
  0
SOLID
  5
2373
330
207A
100
AcDbEntity
  8
DIM
 62
     0
100
AcDbTrace
 10
0.9544381435915905
 20
2.267321010205598
 30
0.0
 11
0.967771476924924
 21
2.267321010205598
 31
0.0
 12
0.9611048102582572
 22
2.227321010205598
 32
0.0
 13
0.9611048102582572
 23
2.227321010205598
 33
0.0
  0
SOLID
  5
2374
330
207A
100
AcDbEntity
  8
DIM
 62
     0
100
AcDbTrace
 10
0.9544381435915905
 20
2.593821010205597
 30
0.0
 11
0.967771476924924
 21
2.593821010205597
 31
0.0
 12
0.9611048102582573
 22
2.633821010205597
 32
0.0
 13
0.9611048102582573
 23
2.633821010205597
 33
0.0
  0
MTEXT
  5
2375
330
207A
100
AcDbEntity
  8
DIM
 62
     0
100
AcDbMText
 10
0.9250986919713771
 20
2.430571010205598
 30
0.0
 40
0.04
 41
0.0
 71
     5
 72
     1
  1
\A1;0.407
 11
0.0000000000000001
 21
1.0
 31
0.0
 73
     1
 44
1.0
  0
POINT
  5
2376
330
207A
100
AcDbEntity
  8
Defpoints
 62
     0
100
AcDbPoint
 10
1.077505336406558
 20
2.227321010205598
 30
0.0
  0
POINT
  5
2377
330
207A
100
AcDbEntity
  8
Defpoints
 62
     0
100
AcDbPoint
 10
1.077505336406558
 20
2.633821010205597
 30
0.0
  0
POINT
  5
2378
330
207A
100
AcDbEntity
  8
Defpoints
 62
     0
100
AcDbPoint
 10
0.9611048102582573
 20
2.633821010205597
 30
0.0
  0
ENDBLK
  5
207C
330
207A
100
AcDbEntity
  8
0
100
AcDbBlockEnd
  0
BLOCK
  5
2089
330
2088
100
AcDbEntity
  8
0
100
AcDbBlockBegin
  2
*D11
 70
     1
 10
0.0
 20
0.0
 30
0.0
  3
*D11
  1

  0
LINE
  5
2379
330
2088
100
AcDbEntity
  8
DIM
 62
     0
370
    -2
100
AcDbLine
 10
1.027505336406558
 20
2.696821010205596
 30
0.0
 11
0.9211048102582571
 21
2.696821010205596
 31
0.0
  0
LINE
  5
237A
330
2088
100
AcDbEntity
  8
DIM
 62
     0
370
    -2
100
AcDbLine
 10
1.027505336406558
 20
3.102321010205598
 30
0.0
 11
0.9211048102582573
 21
3.102321010205598
 31
0.0
  0
LINE
  5
237B
330
2088
100
AcDbEntity
  8
DIM
 62
     0
370
    -2
100
AcDbLine
 10
0.9611048102582572
 20
2.736821010205596
 30
0.0
 11
0.9611048102582573
 21
3.062321010205598
 31
0.0
  0
SOLID
  5
237C
330
2088
100
AcDbEntity
  8
DIM
 62
     0
100
AcDbTrace
 10
0.9544381435915905
 20
2.736821010205596
 30
0.0
 11
0.9677714769249238
 21
2.736821010205596
 31
0.0
 12
0.9611048102582572
 22
2.696821010205596
 32
0.0
 13
0.9611048102582572
 23
2.696821010205596
 33
0.0
  0
SOLID
  5
237D
330
2088
100
AcDbEntity
  8
DIM
 62
     0
100
AcDbTrace
 10
0.9544381435915905
 20
3.062321010205598
 30
0.0
 11
0.967771476924924
 21
3.062321010205598
 31
0.0
 12
0.9611048102582573
 22
3.102321010205598
 32
0.0
 13
0.9611048102582573
 23
3.102321010205598
 33
0.0
  0
MTEXT
  5
237E
330
2088
100
AcDbEntity
  8
DIM
 62
     0
100
AcDbMText
 10
0.9250986919713771
 20
2.899571010205597
 30
0.0
 40
0.04
 41
0.0
 71
     5
 72
     1
  1
\A1;0.406
 11
0.0000000000000001
 21
1.0
 31
0.0
 73
     1
 44
1.0
  0
POINT
  5
237F
330
2088
100
AcDbEntity
  8
Defpoints
 62
     0
100
AcDbPoint
 10
1.077505336406558
 20
2.696821010205596
 30
0.0
  0
POINT
  5
2380
330
2088
100
AcDbEntity
  8
Defpoints
 62
     0
100
AcDbPoint
 10
1.077505336406558
 20
3.102321010205598
 30
0.0
  0
POINT
  5
2381
330
2088
100
AcDbEntity
  8
Defpoints
 62
     0
100
AcDbPoint
 10
0.9611048102582573
 20
3.102321010205598
 30
0.0
  0
ENDBLK
  5
208A
330
2088
100
AcDbEntity
  8
0
100
AcDbBlockEnd
  0
BLOCK
  5
211C
330
211B
100
AcDbEntity
  8
0
100
AcDbBlockBegin
  2
*D12
 70
     1
 10
0.0
 20
0.0
 30
0.0
  3
*D12
  1

  0
LINE
  5
2270
330
211B
100
AcDbEntity
  8
DIM
 62
     0
370
    -2
100
AcDbLine
 10
1.468505336406556
 20
1.552612237955434
 30
0.0
 11
1.603394526854991
 21
1.552612237955434
 31
0.0
  0
LINE
  5
2271
330
211B
100
AcDbEntity
  8
DIM
 62
     0
370
    -2
100
AcDbLine
 10
1.472505336406556
 20
0.8051122379554351
 30
0.0
 11
1.603394526854991
 21
0.8051122379554351
 31
0.0
  0
LINE
  5
2272
330
211B
100
AcDbEntity
  8
DIM
 62
     0
370
    -2
100
AcDbLine
 10
1.563394526854991
 20
1.512612237955434
 30
0.0
 11
1.563394526854991
 21
0.8451122379554352
 31
0.0
  0
SOLID
  5
2273
330
211B
100
AcDbEntity
  8
DIM
 62
     0
100
AcDbTrace
 10
1.556727860188324
 20
1.512612237955434
 30
0.0
 11
1.570061193521658
 21
1.512612237955434
 31
0.0
 12
1.563394526854991
 22
1.552612237955434
 32
0.0
 13
1.563394526854991
 23
1.552612237955434
 33
0.0
  0
SOLID
  5
2274
330
211B
100
AcDbEntity
  8
DIM
 62
     0
100
AcDbTrace
 10
1.556727860188324
 20
0.8451122379554352
 30
0.0
 11
1.570061193521658
 21
0.8451122379554352
 31
0.0
 12
1.563394526854991
 22
0.8051122379554351
 32
0.0
 13
1.563394526854991
 23
0.8051122379554351
 33
0.0
  0
MTEXT
  5
2275
330
211B
100
AcDbEntity
  8
DIM
 62
     0
100
AcDbMText
 10
1.527388408568111
 20
1.178862237955435
 30
0.0
 40
0.04
 41
0.0
 71
     5
 72
     1
  1
\A1;0.748
 11
0.0000000000000001
 21
1.0
 31
0.0
 73
     1
 44
1.0
  0
POINT
  5
2276
330
211B
100
AcDbEntity
  8
Defpoints
 62
     0
100
AcDbPoint
 10
1.418505336406556
 20
1.552612237955434
 30
0.0
  0
POINT
  5
2277
330
211B
100
AcDbEntity
  8
Defpoints
 62
     0
100
AcDbPoint
 10
1.422505336406556
 20
0.8051122379554351
 30
0.0
  0
POINT
  5
2278
330
211B
100
AcDbEntity
  8
Defpoints
 62
     0
100
AcDbPoint
 10
1.563394526854991
 20
0.8051122379554351
 30
0.0
  0
ENDBLK
  5
211D
330
211B
100
AcDbEntity
  8
0
100
AcDbBlockEnd
  0
BLOCK
  5
2133
330
2132
100
AcDbEntity
  8
0
100
AcDbBlockBegin
  2
*D13
 70
     1
 10
0.0
 20
0.0
 30
0.0
  3
*D13
  1

  0
LINE
  5
215B
330
2132
100
AcDbEntity
  8
DIM
 62
     0
370
    -2
100
AcDbLine
 10
1.027505336406558
 20
0.8051122379554351
 30
0.0
 11
0.9211048102582569
 21
0.8051122379554351
 31
0.0
  0
LINE
  5
215C
330
2132
100
AcDbEntity
  8
DIM
 62
     0
370
    -2
100
AcDbLine
 10
1.027505336405017
 20
1.057692660843228
 30
0.0
 11
0.9211048102582569
 21
1.057692660843228
 31
0.0
  0
LINE
  5
215D
330
2132
100
AcDbEntity
  8
DIM
 62
     0
370
    -2
100
AcDbLine
 10
0.961104810258257
 20
0.8451122379554352
 30
0.0
 11
0.961104810258257
 21
1.017692660843228
 31
0.0
  0
SOLID
  5
215E
330
2132
100
AcDbEntity
  8
DIM
 62
     0
100
AcDbTrace
 10
0.9544381435915902
 20
0.8451122379554352
 30
0.0
 11
0.9677714769249236
 21
0.8451122379554352
 31
0.0
 12
0.961104810258257
 22
0.8051122379554351
 32
0.0
 13
0.961104810258257
 23
0.8051122379554351
 33
0.0
  0
SOLID
  5
215F
330
2132
100
AcDbEntity
  8
DIM
 62
     0
100
AcDbTrace
 10
0.9544381435915902
 20
1.017692660843228
 30
0.0
 11
0.9677714769249236
 21
1.017692660843228
 31
0.0
 12
0.961104810258257
 22
1.057692660843228
 32
0.0
 13
0.961104810258257
 23
1.057692660843228
 33
0.0
  0
MTEXT
  5
2160
330
2132
100
AcDbEntity
  8
DIM
 62
     0
100
AcDbMText
 10
0.9250986919713771
 20
0.9314024493993318
 30
0.0
 40
0.04
 41
0.0
 71
     5
 72
     1
  1
\A1;0.253
 11
0.0000000000000001
 21
1.0
 31
0.0
 73
     1
 44
1.0
  0
POINT
  5
2161
330
2132
100
AcDbEntity
  8
Defpoints
 62
     0
100
AcDbPoint
 10
1.077505336406558
 20
0.8051122379554351
 30
0.0
  0
POINT
  5
2162
330
2132
100
AcDbEntity
  8
Defpoints
 62
     0
100
AcDbPoint
 10
1.077505336405017
 20
1.057692660843228
 30
0.0
  0
POINT
  5
2163
330
2132
100
AcDbEntity
  8
Defpoints
 62
     0
100
AcDbPoint
 10
0.961104810258257
 20
1.057692660843228
 30
0.0
  0
ENDBLK
  5
2134
330
2132
100
AcDbEntity
  8
0
100
AcDbBlockEnd
  0
BLOCK
  5
2141
330
2140
100
AcDbEntity
  8
0
100
AcDbBlockBegin
  2
*D14
 70
     1
 10
0.0
 20
0.0
 30
0.0
  3
*D14
  1

  0
LINE
  5
2164
330
2140
100
AcDbEntity
  8
DIM
 62
     0
370
    -2
100
AcDbLine
 10
1.027505336405017
 20
1.057692660843228
 30
0.0
 11
0.9211048102582569
 21
1.057692660843228
 31
0.0
  0
LINE
  5
2165
330
2140
100
AcDbEntity
  8
DIM
 62
     0
370
    -2
100
AcDbLine
 10
1.027505336405804
 20
1.427361392213478
 30
0.0
 11
0.9211048102582569
 21
1.427361392213478
 31
0.0
  0
LINE
  5
2166
330
2140
100
AcDbEntity
  8
DIM
 62
     0
370
    -2
100
AcDbLine
 10
0.961104810258257
 20
1.097692660843228
 30
0.0
 11
0.9611048102582572
 21
1.387361392213478
 31
0.0
  0
SOLID
  5
2167
330
2140
100
AcDbEntity
  8
DIM
 62
     0
100
AcDbTrace
 10
0.9544381435915902
 20
1.097692660843228
 30
0.0
 11
0.9677714769249236
 21
1.097692660843228
 31
0.0
 12
0.961104810258257
 22
1.057692660843228
 32
0.0
 13
0.961104810258257
 23
1.057692660843228
 33
0.0
  0
SOLID
  5
2168
330
2140
100
AcDbEntity
  8
DIM
 62
     0
100
AcDbTrace
 10
0.9544381435915903
 20
1.387361392213478
 30
0.0
 11
0.9677714769249238
 21
1.387361392213478
 31
0.0
 12
0.9611048102582572
 22
1.427361392213478
 32
0.0
 13
0.9611048102582572
 23
1.427361392213478
 33
0.0
  0
MTEXT
  5
2169
330
2140
100
AcDbEntity
  8
DIM
 62
     0
100
AcDbMText
 10
0.9250986919713771
 20
1.242527026528353
 30
0.0
 40
0.04
 41
0.0
 71
     5
 72
     1
  1
\A1;0.370
 11
0.0000000000000001
 21
1.0
 31
0.0
 73
     1
 44
1.0
  0
POINT
  5
216A
330
2140
100
AcDbEntity
  8
Defpoints
 62
     0
100
AcDbPoint
 10
1.077505336405017
 20
1.057692660843228
 30
0.0
  0
POINT
  5
216B
330
2140
100
AcDbEntity
  8
Defpoints
 62
     0
100
AcDbPoint
 10
1.077505336405804
 20
1.427361392213478
 30
0.0
  0
POINT
  5
216C
330
2140
100
AcDbEntity
  8
Defpoints
 62
     0
100
AcDbPoint
 10
0.9611048102582572
 20
1.427361392213478
 30
0.0
  0
ENDBLK
  5
2142
330
2140
100
AcDbEntity
  8
0
100
AcDbBlockEnd
  0
BLOCK
  5
214F
330
214E
100
AcDbEntity
  8
0
100
AcDbBlockBegin
  2
*D15
 70
     1
 10
0.0
 20
0.0
 30
0.0
  3
*D15
  1

  0
LINE
  5
216D
330
214E
100
AcDbEntity
  8
DIM
 62
     0
370
    -2
100
AcDbLine
 10
1.027505336405804
 20
1.427361392213478
 30
0.0
 11
0.9211048102582569
 21
1.427361392213478
 31
0.0
  0
LINE
  5
216E
330
214E
100
AcDbEntity
  8
DIM
 62
     0
370
    -2
100
AcDbLine
 10
1.027505336406558
 20
1.679012570219286
 30
0.0
 11
0.9211048102582569
 21
1.679012570219286
 31
0.0
  0
LINE
  5
216F
330
214E
100
AcDbEntity
  8
DIM
 62
     0
370
    -2
100
AcDbLine
 10
0.9611048102582572
 20
1.467361392213478
 30
0.0
 11
0.9611048102582572
 21
1.639012570219286
 31
0.0
  0
SOLID
  5
2170
330
214E
100
AcDbEntity
  8
DIM
 62
     0
100
AcDbTrace
 10
0.9544381435915903
 20
1.467361392213478
 30
0.0
 11
0.9677714769249238
 21
1.467361392213478
 31
0.0
 12
0.9611048102582572
 22
1.427361392213478
 32
0.0
 13
0.9611048102582572
 23
1.427361392213478
 33
0.0
  0
SOLID
  5
2171
330
214E
100
AcDbEntity
  8
DIM
 62
     0
100
AcDbTrace
 10
0.9544381435915903
 20
1.639012570219286
 30
0.0
 11
0.9677714769249238
 21
1.639012570219286
 31
0.0
 12
0.9611048102582572
 22
1.679012570219286
 32
0.0
 13
0.9611048102582572
 23
1.679012570219286
 33
0.0
  0
MTEXT
  5
2172
330
214E
100
AcDbEntity
  8
DIM
 62
     0
100
AcDbMText
 10
0.9250986919713771
 20
1.553186981216382
 30
0.0
 40
0.04
 41
0.0
 71
     5
 72
     1
  1
\A1;0.252
 11
0.0000000000000001
 21
1.0
 31
0.0
 73
     1
 44
1.0
  0
POINT
  5
2173
330
214E
100
AcDbEntity
  8
Defpoints
 62
     0
100
AcDbPoint
 10
1.077505336405804
 20
1.427361392213478
 30
0.0
  0
POINT
  5
2174
330
214E
100
AcDbEntity
  8
Defpoints
 62
     0
100
AcDbPoint
 10
1.077505336406558
 20
1.679012570219286
 30
0.0
  0
POINT
  5
2175
330
214E
100
AcDbEntity
  8
Defpoints
 62
     0
100
AcDbPoint
 10
0.9611048102582572
 20
1.679012570219286
 30
0.0
  0
ENDBLK
  5
2150
330
214E
100
AcDbEntity
  8
0
100
AcDbBlockEnd
  0
BLOCK
  5
21AE
330
21AD
100
AcDbEntity
  8
0
100
AcDbBlockBegin
  2
*D16
 70
     1
 10
0.0
 20
0.0
 30
0.0
  3
*D16
  1

  0
LINE
  5
2382
330
21AD
100
AcDbEntity
  8
DIM
 62
     0
370
    -2
100
AcDbLine
 10
1.062505336406557
 20
3.137321010205597
 30
0.0
 11
1.062505336406557
 21
3.334716462913928
 31
0.0
  0
LINE
  5
2383
330
21AD
100
AcDbEntity
  8
DIM
 62
     0
370
    -2
100
AcDbLine
 10
1.437505336406557
 20
3.137321010205597
 30
0.0
 11
1.437505336406557
 21
3.334716462913928
 31
0.0
  0
LINE
  5
2384
330
21AD
100
AcDbEntity
  8
DIM
 62
     0
370
    -2
100
AcDbLine
 10
1.102505336406557
 20
3.294716462913928
 30
0.0
 11
1.397505336406557
 21
3.294716462913928
 31
0.0
  0
SOLID
  5
2385
330
21AD
100
AcDbEntity
  8
DIM
 62
     0
100
AcDbTrace
 10
1.102505336406557
 20
3.301383129580595
 30
0.0
 11
1.102505336406557
 21
3.288049796247261
 31
0.0
 12
1.062505336406557
 22
3.294716462913928
 32
0.0
 13
1.062505336406557
 23
3.294716462913928
 33
0.0
  0
SOLID
  5
2386
330
21AD
100
AcDbEntity
  8
DIM
 62
     0
100
AcDbTrace
 10
1.397505336406557
 20
3.301383129580595
 30
0.0
 11
1.397505336406557
 21
3.288049796247261
 31
0.0
 12
1.437505336406557
 22
3.294716462913928
 32
0.0
 13
1.437505336406557
 23
3.294716462913928
 33
0.0
  0
MTEXT
  5
2387
330
21AD
100
AcDbEntity
  8
DIM
 62
     0
100
AcDbMText
 10
1.250005336406557
 20
3.330722581200808
 30
0.0
 40
0.04
 41
0.0
 71
     5
 72
     1
  1
\A1;0.375
 73
     1
 44
1.0
  0
POINT
  5
2388
330
21AD
100
AcDbEntity
  8
Defpoints
 62
     0
100
AcDbPoint
 10
1.062505336406557
 20
3.087321010205597
 30
0.0
  0
POINT
  5
2389
330
21AD
100
AcDbEntity
  8
Defpoints
 62
     0
100
AcDbPoint
 10
1.437505336406557
 20
3.087321010205597
 30
0.0
  0
POINT
  5
238A
330
21AD
100
AcDbEntity
  8
Defpoints
 62
     0
100
AcDbPoint
 10
1.437505336406557
 20
3.294716462913928
 30
0.0
  0
ENDBLK
  5
21AF
330
21AD
100
AcDbEntity
  8
0
100
AcDbBlockEnd
  0
BLOCK
  5
21BB
330
21BA
100
AcDbEntity
  8
0
100
AcDbBlockBegin
  2
*D17
 70
     1
 10
0.0
 20
0.0
 30
0.0
  3
*D17
  1

  0
LINE
  5
238B
330
21BA
100
AcDbEntity
  8
DIM
 62
     0
370
    -2
100
AcDbLine
 10
1.027505336406558
 20
2.227321010205598
 30
0.0
 11
0.8057269555096883
 21
2.227321010205598
 31
0.0
  0
LINE
  5
238C
330
21BA
100
AcDbEntity
  8
DIM
 62
     0
370
    -2
100
AcDbLine
 10
1.027505336406558
 20
3.102321010205598
 30
0.0
 11
0.8057269555096887
 21
3.102321010205598
 31
0.0
  0
LINE
  5
238D
330
21BA
100
AcDbEntity
  8
DIM
 62
     0
370
    -2
100
AcDbLine
 10
0.8457269555096885
 20
2.267321010205598
 30
0.0
 11
0.8457269555096885
 21
3.062321010205598
 31
0.0
  0
SOLID
  5
238E
330
21BA
100
AcDbEntity
  8
DIM
 62
     0
100
AcDbTrace
 10
0.8390602888430219
 20
2.267321010205598
 30
0.0
 11
0.8523936221763552
 21
2.267321010205598
 31
0.0
 12
0.8457269555096884
 22
2.227321010205598
 32
0.0
 13
0.8457269555096884
 23
2.227321010205598
 33
0.0
  0
SOLID
  5
238F
330
21BA
100
AcDbEntity
  8
DIM
 62
     0
100
AcDbTrace
 10
0.8390602888430219
 20
3.062321010205598
 30
0.0
 11
0.8523936221763554
 21
3.062321010205598
 31
0.0
 12
0.8457269555096885
 22
3.102321010205598
 32
0.0
 13
0.8457269555096885
 23
3.102321010205598
 33
0.0
  0
MTEXT
  5
2390
330
21BA
100
AcDbEntity
  8
DIM
 62
     0
100
AcDbMText
 10
0.8097208372228084
 20
2.664821010205598
 30
0.0
 40
0.04
 41
0.0
 71
     5
 72
     1
  1
\A1;0.875
 11
0.0000000000000001
 21
1.0
 31
0.0
 73
     1
 44
1.0
  0
POINT
  5
2391
330
21BA
100
AcDbEntity
  8
Defpoints
 62
     0
100
AcDbPoint
 10
1.077505336406558
 20
2.227321010205598
 30
0.0
  0
POINT
  5
2392
330
21BA
100
AcDbEntity
  8
Defpoints
 62
     0
100
AcDbPoint
 10
1.077505336406558
 20
3.102321010205598
 30
0.0
  0
POINT
  5
2393
330
21BA
100
AcDbEntity
  8
Defpoints
 62
     0
100
AcDbPoint
 10
0.8457269555096885
 20
3.102321010205598
 30
0.0
  0
ENDBLK
  5
21BC
330
21BA
100
AcDbEntity
  8
0
100
AcDbBlockEnd
  0
BLOCK
  5
21E4
330
21E3
100
AcDbEntity
  8
0
100
AcDbBlockBegin
  2
*D18
 70
     1
 10
0.0
 20
0.0
 30
0.0
  3
*D18
  1

  0
LINE
  5
2342
330
21E3
100
AcDbEntity
  8
DIM
 62
     0
370
    -2
100
AcDbLine
 10
1.713247918763994
 20
1.766001187056822
 30
0.0
 11
1.516031739294245
 21
1.766001187056822
 31
0.0
  0
LINE
  5
2343
330
21E3
100
AcDbEntity
  8
DIM
 62
     0
370
    -2
100
AcDbLine
 10
1.516031739294245
 20
1.766001187056822
 30
0.0
 11
1.334593894411998
 21
1.620736663065335
 31
0.0
  0
LINE
  5
2344
330
21E3
100
AcDbEntity
  8
DIM
 62
     0
370
    -2
100
AcDbLine
 10
1.164416778401115
 20
1.484487812845534
 30
0.0
 11
1.133191619500035
 21
1.459488023814377
 31
0.0
  0
MTEXT
  5
2345
102
{ACAD_XDICTIONARY
360
2806
102
}
330
21E3
100
AcDbEntity
  8
DIM
 62
     0
100
AcDbMText
 10
1.62213982902912
 20
1.803258155105768
 30
0.0
 40
0.04
 41
0.0
 71
     5
 72
     1
  1
\A1;\U+22050.138
 73
     1
 44
1.0
  0
LINE
  5
2346
330
21E3
100
AcDbEntity
  8
DIM
 62
     0
370
    -2
100
AcDbLine
 10
1.195641937302195
 20
1.50948760187669
 30
0.0
 11
1.303368735510918
 21
1.595736874034179
 31
0.0
  0
SOLID
  5
2347
330
21E3
100
AcDbEntity
  8
DIM
 62
     0
100
AcDbTrace
 10
1.160250146895922
 20
1.489692005995714
 30
0.0
 11
1.168583409906308
 21
1.479283619695354
 31
0.0
 12
1.195641937302195
 22
1.50948760187669
 32
0.0
 13
1.195641937302195
 23
1.50948760187669
 33
0.0
  0
SOLID
  5
2348
330
21E3
100
AcDbEntity
  8
DIM
 62
     0
100
AcDbTrace
 10
1.330427262906805
 20
1.625940856215515
 30
0.0
 11
1.33876052591719
 21
1.615532469915155
 31
0.0
 12
1.303368735510918
 22
1.595736874034179
 32
0.0
 13
1.303368735510918
 23
1.595736874034179
 33
0.0
  0
POINT
  5
2349
330
21E3
100
AcDbEntity
  8
Defpoints
 62
     0
100
AcDbPoint
 10
1.303368735510918
 20
1.595736874034179
 30
0.0
  0
POINT
  5
234A
330
21E3
100
AcDbEntity
  8
Defpoints
 62
     0
100
AcDbPoint
 10
1.195641937302195
 20
1.50948760187669
 30
0.0
  0
ENDBLK
  5
21E5
330
21E3
100
AcDbEntity
  8
0
100
AcDbBlockEnd
  0
BLOCK
  5
21F1
330
21F0
100
AcDbEntity
  8
0
100
AcDbBlockBegin
  2
*D19
 70
     1
 10
0.0
 20
0.0
 30
0.0
  3
*D19
  1

  0
LINE
  5
2326
330
21F0
100
AcDbEntity
  8
DIM
 62
     0
370
    -2
100
AcDbLine
 10
0.8298284889390988
 20
1.766001187056822
 30
0.0
 11
1.026500820686209
 21
1.766001187056822
 31
0.0
  0
LINE
  5
2327
330
21F0
100
AcDbEntity
  8
DIM
 62
     0
370
    -2
100
AcDbLine
 10
1.026500820686209
 20
1.766001187056822
 30
0.0
 11
1.138961012617342
 21
1.658390082885198
 31
0.0
  0
LINE
  5
2328
330
21F0
100
AcDbEntity
  8
DIM
 62
     0
370
    -2
100
AcDbLine
 10
1.360049660195771
 20
1.446834393025671
 30
0.0
 11
1.388950137003409
 21
1.419180054481942
 31
0.0
  0
MTEXT
  5
2329
102
{ACAD_XDICTIONARY
360
2804
102
}
330
21F0
100
AcDbEntity
  8
DIM
 62
     0
100
AcDbMText
 10
0.9206646548126542
 20
1.803258155105768
 30
0.0
 40
0.04
 41
0.0
 71
     5
 72
     1
  1
\A1;\U+22050.226
 73
     1
 44
1.0
  0
LINE
  5
232A
330
21F0
100
AcDbEntity
  8
DIM
 62
     0
370
    -2
100
AcDbLine
 10
1.331149183388133
 20
1.4744887315694
 30
0.0
 11
1.16786148942498
 21
1.630735744341469
 31
0.0
  0
SOLID
  5
232B
330
21F0
100
AcDbEntity
  8
DIM
 62
     0
100
AcDbTrace
 10
1.364658716619726
 20
1.451651139160277
 30
0.0
 11
1.355440603771817
 21
1.442017646891065
 31
0.0
 12
1.331149183388133
 22
1.4744887315694
 32
0.0
 13
1.331149183388133
 23
1.4744887315694
 33
0.0
  0
SOLID
  5
232C
330
21F0
100
AcDbEntity
  8
DIM
 62
     0
100
AcDbTrace
 10
1.143570069041297
 20
1.663206829019805
 30
0.0
 11
1.134351956193387
 21
1.653573336750592
 31
0.0
 12
1.16786148942498
 22
1.630735744341469
 32
0.0
 13
1.16786148942498
 23
1.630735744341469
 33
0.0
  0
POINT
  5
232D
330
21F0
100
AcDbEntity
  8
Defpoints
 62
     0
100
AcDbPoint
 10
1.16786148942498
 20
1.630735744341469
 30
0.0
  0
POINT
  5
232E
330
21F0
100
AcDbEntity
  8
Defpoints
 62
     0
100
AcDbPoint
 10
1.331149183388133
 20
1.4744887315694
 30
0.0
  0
ENDBLK
  5
21F2
330
21F0
100
AcDbEntity
  8
0
100
AcDbBlockEnd
  0
BLOCK
  5
2311
330
2310
100
AcDbEntity
  8
0
100
AcDbBlockBegin
  2
*D20
 70
     1
 10
0.0
 20
0.0
 30
0.0
  3
*D20
  1

  0
LINE
  5
231D
330
2310
100
AcDbEntity
  8
DIM
 62
     0
370
    -2
100
AcDbLine
 10
1.027505336406558
 20
0.8051122379554351
 30
0.0
 11
0.8037322891428919
 21
0.8051122379554351
 31
0.0
  0
LINE
  5
231E
330
2310
100
AcDbEntity
  8
DIM
 62
     0
370
    -2
100
AcDbLine
 10
1.027505336406558
 20
1.678940382818908
 30
0.0
 11
0.8037322891428921
 21
1.678940382818908
 31
0.0
  0
LINE
  5
231F
330
2310
100
AcDbEntity
  8
DIM
 62
     0
370
    -2
100
AcDbLine
 10
0.8437322891428918
 20
0.8451122379554352
 30
0.0
 11
0.843732289142892
 21
1.638940382818907
 31
0.0
  0
SOLID
  5
2320
330
2310
100
AcDbEntity
  8
DIM
 62
     0
100
AcDbTrace
 10
0.8370656224762251
 20
0.8451122379554352
 30
0.0
 11
0.8503989558095586
 21
0.8451122379554352
 31
0.0
 12
0.8437322891428918
 22
0.8051122379554351
 32
0.0
 13
0.8437322891428918
 23
0.8051122379554351
 33
0.0
  0
SOLID
  5
2321
330
2310
100
AcDbEntity
  8
DIM
 62
     0
100
AcDbTrace
 10
0.8370656224762253
 20
1.638940382818907
 30
0.0
 11
0.8503989558095586
 21
1.638940382818907
 31
0.0
 12
0.843732289142892
 22
1.678940382818908
 32
0.0
 13
0.843732289142892
 23
1.678940382818908
 33
0.0
  0
MTEXT
  5
2322
330
2310
100
AcDbEntity
  8
DIM
 62
     0
100
AcDbMText
 10
0.807726170856012
 20
1.242026310387171
 30
0.0
 40
0.04
 41
0.0
 71
     5
 72
     1
  1
\A1;0.874
 11
0.0000000000000001
 21
1.0
 31
0.0
 73
     1
 44
1.0
  0
POINT
  5
2323
330
2310
100
AcDbEntity
  8
Defpoints
 62
     0
100
AcDbPoint
 10
1.077505336406558
 20
0.8051122379554351
 30
0.0
  0
POINT
  5
2324
330
2310
100
AcDbEntity
  8
Defpoints
 62
     0
100
AcDbPoint
 10
1.077505336406558
 20
1.678940382818908
 30
0.0
  0
POINT
  5
2325
330
2310
100
AcDbEntity
  8
Defpoints
 62
     0
100
AcDbPoint
 10
0.843732289142892
 20
1.678940382818908
 30
0.0
  0
ENDBLK
  5
2312
330
2310
100
AcDbEntity
  8
0
100
AcDbBlockEnd
  0
ENDSEC
  0
SECTION
  2
ENTITIES
  0
LWPOLYLINE
  5
43D
330
1F
100
AcDbEntity
  8
FORMAT
370
    15
100
AcDbPolyline
 90
        4
 70
     1
 43
0.0
 10
0.0
 20
0.0
 10
4.690519308767699
 20
0.0
 10
4.690519308767699
 20
3.552043748387205
 10
0.0
 20
3.552043748387205
  0
LINE
  5
43E
330
1F
100
AcDbEntity
  8
FORMAT
370
    15
100
AcDbLine
 10
1.849284581010896
 20
0.5520437483872059
 30
0.0
 11
4.690519308767699
 21
0.5520437483872059
 31
0.0
  0
LINE
  5
43F
330
1F
100
AcDbEntity
  8
FORMAT
370
    15
100
AcDbLine
 10
0.0
 20
0.5520437483872059
 30
0.0
 11
1.849284581010896
 21
0.5520437483872059
 31
0.0
  0
LINE
  5
440
330
1F
100
AcDbEntity
  8
FORMAT
370
    15
100
AcDbLine
 10
2.720823530503843
 20
0.2894894150334335
 30
0.0
 11
1.849284581010896
 21
0.2894894150334335
 31
0.0
  0
LINE
  5
441
330
1F
100
AcDbEntity
  8
FORMAT
370
    15
100
AcDbLine
 10
2.720823530503843
 20
0.5520437483872059
 30
0.0
 11
2.720823530503843
 21
0.0
 31
0.0
  0
LINE
  5
442
330
1F
100
AcDbEntity
  8
FORMAT
370
    15
100
AcDbLine
 10
3.997267950165734
 20
0.5520437483872059
 30
0.0
 11
3.997267950165734
 21
0.2894894150334335
 31
0.0
  0
LINE
  5
443
330
1F
100
AcDbEntity
  8
FORMAT
370
    15
100
AcDbLine
 10
4.690519308767699
 20
0.1725884895555025
 30
0.0
 11
3.722005246872675
 21
0.1725884895555025
 31
0.0
  0
LINE
  5
444
330
1F
100
AcDbEntity
  8
FORMAT
370
    15
100
AcDbLine
 10
3.722005246872675
 20
0.0
 30
0.0
 11
3.722005246872675
 21
0.2894894150334335
 31
0.0
  0
LINE
  5
445
330
1F
100
AcDbEntity
  8
FORMAT
370
    15
100
AcDbLine
 10
3.988890362708322
 20
3.552043748387205
 30
0.0
 11
3.988890362708322
 21
3.428107779348779
 31
0.0
  0
LINE
  5
446
330
1F
100
AcDbEntity
  8
FORMAT
370
    15
100
AcDbLine
 10
4.690519308767699
 20
0.2894894150334335
 30
0.0
 11
2.720823530503843
 21
0.2894894150334335
 31
0.0
  0
LINE
  5
447
330
1F
100
AcDbEntity
  8
FORMAT
370
    15
100
AcDbLine
 10
3.988890362708322
 20
3.428107779348779
 30
0.0
 11
4.690519308767699
 21
3.428107779348779
 31
0.0
  0
LINE
  5
448
330
1F
100
AcDbEntity
  8
FORMAT
370
    15
100
AcDbLine
 10
1.849284581010896
 20
0.5520437483872059
 30
0.0
 11
1.849284581010896
 21
0.0
 31
0.0
  0
MTEXT
  5
449
330
1F
100
AcDbEntity
  8
0
  6
Continuous
 62
   160
370
     0
100
AcDbMText
 10
3.773500215355928
 20
0.2704894489232834
 30
0.0
 40
0.0379491853460176
 41
0.0
 71
     1
 72
     1
  1
http://www.amazonsupply.com
  7
SLDTEXTSTYLE0
 73
     1
 44
1.0
1001
PE_URL
1000
http://www.amazonsupply.com/
1002
{
1000
http://www.amazonsupply.com/
1002
{
1071
        1
1002
}
1002
}
  0
INSERT
  5
44A
330
1F
100
AcDbEntity
  8
0
  6
Continuous
 62
     7
100
AcDbBlockReference
  2
Block2
 10
-0.2080876787358685
 20
-0.5509676803626081
 30
0.0
 41
0.4553902241522233
 42
0.4553902241522039
 43
0.455390224152206
  0
TEXT
  5
44B
330
1F
100
AcDbEntity
  8
FORMAT
 62
     7
100
AcDbText
 10
2.738630555219836
 20
0.4855099113528901
 30
0.0
 40
0.0455390224152206
  1
MATERIAL :
 41
0.9
  7
SLDTEXTSTYLE1
100
AcDbText
  0
TEXT
  5
44C
330
1F
100
AcDbEntity
  8
FORMAT
 62
     7
100
AcDbText
 10
2.004750454406621
 20
0.3599139513816398
 30
0.0
 40
0.0569237780190258
  1
B003E48FUG
 41
0.9
  7
SLDTEXTSTYLE1
100
AcDbText
  0
TEXT
  5
44D
330
1F
100
AcDbEntity
  8
FORMAT
 62
     7
100
AcDbText
 10
4.093161041667658
 20
3.456600878580311
 30
0.0
 40
0.0569237780190258
  1
B003E48FUG
  7
SLDTEXTSTYLE1
100
AcDbText
  0
TEXT
  5
44E
330
1F
100
AcDbEntity
  8
FORMAT
 62
     7
100
AcDbText
 10
2.005315906487564
 20
0.0843817858093541
 30
0.0
 40
0.0569237780190258
  1
Climax Metal 
 41
0.9
  7
SLDTEXTSTYLE1
100
AcDbText
  0
TEXT
  5
44F
330
1F
100
AcDbEntity
  8
FORMAT
 62
     0
100
AcDbText
 10
2.959709952030331
 20
0.373427641942675
 30
0.0
 40
0.0569237780190263
  1
Steel 
 41
0.9
  7
SLDTEXTSTYLE1
100
AcDbText
  0
TEXT
  5
450
330
1F
100
AcDbEntity
  8
FORMAT
 62
     7
100
AcDbText
 10
0.0469059661183482
 20
0.4276998938190207
 30
0.0
 40
0.0455390224152206
  1
ITEM NAME:
 41
0.9
  7
SLDTEXTSTYLE1
100
AcDbText
  0
TEXT
  5
451
330
1F
100
AcDbEntity
  8
FORMAT
 62
     7
100
AcDbText
 10
1.884927936386553
 20
0.4637346098741078
 30
0.0
 40
0.0455390224152206
  1
ASIN :
 41
0.9
  7
SLDTEXTSTYLE1
100
AcDbText
  0
TEXT
  5
453
330
1F
100
AcDbEntity
  8
FORMAT
 62
     0
100
AcDbText
 10
2.756021323700816
 20
0.2129954205776046
 30
0.0
 40
0.0284618890095132
  1
# UNLESS OTHERWISE SPECIFIED
 41
0.95
  7
SLDTEXTSTYLE1
100
AcDbText
  0
TEXT
  5
454
330
1F
100
AcDbEntity
  8
FORMAT
 62
     0
100
AcDbText
 10
2.798786714715954
 20
0.1699942297480854
 30
0.0
 40
0.0284618890095132
  1
DIMENSIONS ARE IN INCHES
 41
0.95
  7
SLDTEXTSTYLE1
100
AcDbText
  0
TEXT
  5
455
330
1F
100
AcDbEntity
  8
FORMAT
 62
     0
100
AcDbText
 10
2.756021323700816
 20
0.0862759795473478
 30
0.0
 40
0.0284618890095132
  1
# INFORMATION IN THIS DRAWING IS PROVIDED FOR
 41
0.95
  7
SLDTEXTSTYLE1
100
AcDbText
  0
TEXT
  5
456
330
1F
100
AcDbEntity
  8
FORMAT
 62
     0
100
AcDbText
 10
2.798670622714555
 20
0.0432747887178291
 30
0.0
 40
0.0284618890095132
  1
REFERENCE ONLY
 41
0.95
  7
SLDTEXTSTYLE1
100
AcDbText
  0
TEXT
  5
457
330
1F
100
AcDbEntity
  8
FORMAT
 62
     7
100
AcDbText
 10
1.874505043509346
 20
0.1964545943113141
 30
0.0
 40
0.0455390224152206
  1
BRAND :
 41
0.9
  7
SLDTEXTSTYLE1
100
AcDbText
  0
MTEXT
  5
50B
330
1F
100
AcDbEntity
  8
FORMAT
 62
     7
100
AcDbMText
 10
0.1734699448773147
 20
0.3796322953243387
 30
0.0
 40
0.0569237780190258
 41
1.657315067138436
 71
     1
 72
     1
  1
{\fCalibri|b0|i0|c0|p34;\H0.91667x;\C256;Climax Metal 1C-037-Z One-Piece Clamping Collar, Zinc Plating, Steel, 3/8" Bore, 7/8" OD, 3/8" Width}
  7
SLDTEXTSTYLE1
 73
     1
 44
1.0
  0
TEXT
  5
A8A
330
1F
100
AcDbEntity
  8
FORMAT
 62
     7
100
AcDbText
 10
1.135053808854705
 20
2.051473639538119
 30
0.0
 40
0.06
  1
TOP
 41
0.9
  7
SLDTEXTSTYLE1
100
AcDbText
  0
TEXT
  5
A8B
330
1F
100
AcDbEntity
  8
FORMAT
 62
     7
100
AcDbText
 10
1.135053808854705
 20
0.6575519286364569
 30
0.0
 40
0.06
  1
FRONT
 41
0.9
  7
SLDTEXTSTYLE1
100
AcDbText
  0
INSERT
  5
B40
330
1F
100
AcDbEntity
  8
0
100
AcDbBlockReference
  2
amazon block
 10
3.772185729767847
 20
0.0471818969883087
 30
0.0
 41
0.4630382233523434
 42
0.4630382233523434
 43
0.4630382233523435
  0
SPLINE
  5
DAD
330
1F
100
AcDbEntity
  8
0
  6
Continuous
 62
     7
370
    15
100
AcDbSpline
210
0.0
220
0.0
230
1.0
 70
    24
 71
     1
 72
     4
 73
     2
 74
     0
 42
0.0000000001
 43
0.0000000001
 40
0.0
 40
0.0
 40
1.0
 40
1.0
 10
1.077505336406558
 20
0.8051122379554351
 30
0.0
 10
1.422505336406556
 20
0.8051122379554351
 30
0.0
  0
SPLINE
  5
DAE
330
1F
100
AcDbEntity
  8
0
  6
Continuous
 62
     7
370
    15
100
AcDbSpline
210
0.0
220
0.0
230
1.0
 70
    24
 71
     1
 72
     4
 73
     2
 74
     0
 42
0.0000000001
 43
0.0000000001
 40
0.0
 40
0.0
 40
1.0
 40
1.0
 10
1.422505336406556
 20
0.8051122379554351
 30
0.0
 10
1.437505336406557
 20
0.8201122379554348
 30
0.0
  0
SPLINE
  5
DAF
330
1F
100
AcDbEntity
  8
0
  6
Continuous
 62
     7
370
    15
100
AcDbSpline
210
0.0
220
0.0
230
1.0
 70
    24
 71
     1
 72
     4
 73
     2
 74
     0
 42
0.0000000001
 43
0.0000000001
 40
0.0
 40
0.0
 40
1.0
 40
1.0
 10
1.062505336406557
 20
0.8201122379554348
 30
0.0
 10
1.077505336406558
 20
0.8051122379554351
 30
0.0
  0
LINE
  5
DB0
330
1F
100
AcDbEntity
  8
0
  6
Continuous
 62
     7
370
    15
100
AcDbLine
 10
1.196294761568717
 20
1.652299923882167
 30
0.0
 11
1.174090713987737
 21
1.652299923882166
 31
0.0
  0
SPLINE
  5
DB1
330
1F
100
AcDbEntity
  8
0
  6
Continuous
 62
     7
370
    15
100
AcDbSpline
210
0.0
220
0.0
230
1.0
 70
     8
 71
     3
 72
    54
 73
    50
 74
     0
 42
0.0000000001
 43
0.0000000001
 40
0.0
 40
0.0
 40
0.0
 40
0.0
 40
0.1250000000000001
 40
0.1250000000000001
 40
0.1875000000000002
 40
0.1875000000000002
 40
0.2187500000000002
 40
0.2187500000000002
 40
0.2500000000000002
 40
0.2500000000000002
 40
0.3125000000000003
 40
0.3125000000000003
 40
0.3437500000000003
 40
0.3437500000000003
 40
0.3750000000000003
 40
0.3750000000000003
 40
0.4062500000000004
 40
0.4062500000000004
 40
0.4375000000000004
 40
0.4375000000000004
 40
0.4687500000000004
 40
0.4687500000000004
 40
0.5000000000000005
 40
0.5000000000000005
 40
0.5312500000000005
 40
0.5312500000000005
 40
0.5625000000000005
 40
0.5625000000000005
 40
0.5937500000000006
 40
0.5937500000000006
 40
0.6250000000000006
 40
0.6250000000000006
 40
0.6562500000000006
 40
0.6562500000000006
 40
0.6875000000000006
 40
0.6875000000000006
 40
0.7187500000000006
 40
0.7187500000000006
 40
0.7500000000000007
 40
0.7500000000000007
 40
0.7812500000000007
 40
0.7812500000000007
 40
0.8125000000000007
 40
0.8125000000000007
 40
0.8750000000000003
 40
0.8750000000000003
 40
0.9375000000000003
 40
0.9375000000000003
 40
1.0
 40
1.0
 40
1.0
 40
1.0
 10
1.324919958825377
 20
1.652299923882166
 30
0.0
 10
1.339487350821274
 20
1.641279562071331
 30
0.0
 10
1.351948878313036
 20
1.627057741621393
 30
0.0
 10
1.365666158046463
 20
1.599883969355366
 30
0.0
 10
1.369384183928882
 20
1.589749801199528
 30
0.0
 10
1.372901148628439
 20
1.573342836061836
 30
0.0
 10
1.373737802496759
 20
1.567659118516029
 30
0.0
 10
1.374604096915335
 20
1.555839367426797
 30
0.0
 10
1.374628325684025
 20
1.549670593122731
 30
0.0
 10
1.373241678399805
 20
1.53088712459937
 30
0.0
 10
1.370435721278402
 20
1.517868859292732
 30
0.0
 10
1.362162673619165
 20
1.497978096077825
 30
0.0
 10
1.358788150927926
 20
1.491465740843019
 30
0.0
 10
1.350663307249243
 20
1.478796978057356
 30
0.0
 10
1.345849942223731
 20
1.472574127396953
 30
0.0
 10
1.334917341868614
 20
1.460997983961922
 30
0.0
 10
1.328856297546872
 20
1.455679273325064
 30
0.0
 10
1.315478587885953
 20
1.446122310003722
 30
0.0
 10
1.308054148317847
 20
1.44184737624168
 30
0.0
 10
1.292568191048962
 20
1.434958472538693
 30
0.0
 10
1.284468855751857
 20
1.432289030437686
 30
0.0
 10
1.267528085928182
 20
1.428615050680685
 30
0.0
 10
1.258834220480819
 20
1.427661963198533
 30
0.0
 10
1.24156031483263
 20
1.427566342892516
 30
0.0
 10
1.232783936488011
 20
1.428435150270284
 30
0.0
 10
1.215868935490872
 20
1.431913659444166
 30
0.0
 10
1.20771275655418
 20
1.434495191446487
 30
0.0
 10
1.192002879783313
 20
1.441294117736819
 30
0.0
 10
1.184621976068324
 20
1.445451409452316
 30
0.0
 10
1.17107912738105
 20
1.454925886031825
 30
0.0
 10
1.164807147784207
 20
1.460336780042276
 30
0.0
 10
1.153771881925619
 20
1.471843128871972
 30
0.0
 10
1.148964029997031
 20
1.47794954603044
 30
0.0
 10
1.140638854639819
 20
1.490715864816507
 30
0.0
 10
1.137187692172609
 20
1.497288657779755
 30
0.0
 10
1.131619925815474
 20
1.510434261480853
 30
0.0
 10
1.129472116603768
 20
1.517078789389127
 30
0.0
 10
1.126342672775074
 20
1.530216744872286
 30
0.0
 10
1.125366259291645
 20
1.536660020133903
 30
0.0
 10
1.124390168043518
 20
1.549268831630088
 30
0.0
 10
1.124396783571807
 20
1.555458189194171
 30
0.0
 10
1.125229733349719
 20
1.567303184681852
 30
0.0
 10
1.126050878468864
 20
1.572987731665614
 30
0.0
 10
1.129512552872371
 20
1.589373462285027
 30
0.0
 10
1.133156762512003
 20
1.599444155458326
 30
0.0
 10
1.142348014811839
 20
1.617785296598865
 30
0.0
 10
1.147818128583285
 20
1.625923709381647
 30
0.0
 10
1.160036719683315
 20
1.640420134520604
 30
0.0
 10
1.166787840897979
 20
1.646775235335965
 30
0.0
 10
1.174090713987736
 20
1.652299923882166
 30
0.0
  0
LINE
  5
DB2
330
1F
100
AcDbEntity
  8
0
  6
Continuous
 62
     7
370
    15
100
AcDbLine
 10
1.324919958825377
 20
1.652299923882166
 30
0.0
 11
1.302715911244396
 21
1.652299923882167
 31
0.0
  0
LINE
  5
DB3
330
1F
100
AcDbEntity
  8
0
  6
Continuous
 62
     7
370
    15
100
AcDbLine
 10
1.422505336406556
 20
1.679012570219286
 30
0.0
 11
1.077505336406558
 21
1.679012570219286
 31
0.0
  0
LINE
  5
DB4
330
1F
100
AcDbEntity
  8
0
  6
Continuous
 62
     7
370
    15
100
AcDbLine
 10
1.422505336406556
 20
0.8051122379554351
 30
0.0
 11
1.422505336406556
 21
1.679012570219286
 31
0.0
  0
LINE
  5
DB5
330
1F
100
AcDbEntity
  8
0
  6
Continuous
 62
     7
370
    15
100
AcDbLine
 10
1.077505336406558
 20
1.679012570219286
 30
0.0
 11
1.077505336406558
 21
0.8051122379554351
 31
0.0
  0
SPLINE
  5
DB6
330
1F
100
AcDbEntity
  8
0
  6
Continuous
 62
     7
370
    15
100
AcDbSpline
210
0.0
220
0.0
230
1.0
 70
     8
 71
     3
 72
     8
 73
     4
 74
     0
 42
0.0000000001
 43
0.0000000001
 40
0.0
 40
0.0
 40
0.0
 40
0.0
 40
0.0005395188924343
 40
0.0005395188924343
 40
0.0005395188924343
 40
0.0005395188924343
 10
1.437505336406557
 20
1.663973425062173
 30
0.0
 10
1.432505568957553
 20
1.668986705382813
 30
0.0
 10
1.427505560953743
 20
1.67399974580633
 30
0.0
 10
1.422505336406558
 20
1.679012570219286
 30
0.0
  0
LINE
  5
DB7
330
1F
100
AcDbEntity
  8
0
  6
Continuous
 62
     7
370
    15
100
AcDbLine
 10
1.437505336406557
 20
0.8201122379554348
 30
0.0
 11
1.437505336406557
 21
1.663973425062173
 31
0.0
  0
SPLINE
  5
DB8
330
1F
100
AcDbEntity
  8
0
  6
Continuous
 62
     7
370
    15
100
AcDbSpline
210
0.0
220
0.0
230
1.0
 70
     8
 71
     3
 72
     8
 73
     4
 74
     0
 42
0.0000000001
 43
0.0000000001
 40
0.0
 40
0.0
 40
0.0
 40
0.0
 40
0.0005395188924342
 40
0.0005395188924342
 40
0.0005395188924342
 40
0.0005395188924342
 10
1.077505336406558
 20
1.679012570219286
 30
0.0
 10
1.072505111859369
 20
1.67399974580633
 30
0.0
 10
1.067505103855559
 20
1.668986705382813
 30
0.0
 10
1.062505336406557
 20
1.663973425062175
 30
0.0
  0
LINE
  5
DB9
330
1F
100
AcDbEntity
  8
0
  6
Continuous
 62
     7
370
    15
100
AcDbLine
 10
1.062505336406557
 20
1.663973425062175
 30
0.0
 11
1.062505336406557
 21
0.8201122379554348
 31
0.0
  0
LINE
  5
DBA
330
1F
100
AcDbEntity
  8
0
  6
Continuous
 62
     7
370
    15
100
AcDbLine
 10
1.213623017176422
 20
1.490462237955434
 30
0.0
 11
1.177740697946285
 21
1.552612237955434
 31
0.0
  0
LINE
  5
DBB
330
1F
100
AcDbEntity
  8
0
  6
Continuous
 62
     7
370
    15
100
AcDbLine
 10
1.285387655636693
 20
1.490462237955434
 30
0.0
 11
1.213623017176422
 21
1.490462237955434
 31
0.0
  0
LINE
  5
DBC
330
1F
100
AcDbEntity
  8
0
  6
Continuous
 62
     7
370
    15
100
AcDbLine
 10
1.285387655636693
 20
1.614762237955434
 30
0.0
 11
1.321269974866828
 21
1.552612237955434
 31
0.0
  0
CIRCLE
  5
DBD
330
1F
100
AcDbEntity
  8
0
  6
Continuous
 62
     7
370
    15
100
AcDbCircle
 10
1.249505336406556
 20
1.552612237955434
 30
0.0
 40
0.1129999999999995
  0
LINE
  5
DBE
330
1F
100
AcDbEntity
  8
0
  6
Continuous
 62
     7
370
    15
100
AcDbLine
 10
1.177740697946285
 20
1.552612237955434
 30
0.0
 11
1.213623017176422
 21
1.614762237955434
 31
0.0
  0
LINE
  5
DBF
330
1F
100
AcDbEntity
  8
0
  6
Continuous
 62
     7
370
    15
100
AcDbLine
 10
1.213623017176422
 20
1.614762237955434
 30
0.0
 11
1.285387655636693
 21
1.614762237955434
 31
0.0
  0
LINE
  5
DC0
330
1F
100
AcDbEntity
  8
0
  6
Continuous
 62
     7
370
    15
100
AcDbLine
 10
1.321269974866828
 20
1.552612237955434
 30
0.0
 11
1.285387655636693
 21
1.490462237955434
 31
0.0
  0
LINE
  5
DC1
330
1F
100
AcDbEntity
  8
0
  6
HIDDEN
 62
     7
370
     0
100
AcDbLine
 10
1.196294761568717
 20
1.652299923882167
 30
0.0
 11
1.302715911244396
 21
1.652299923882167
 31
0.0
  0
LINE
  5
DC2
330
1F
100
AcDbEntity
  8
0
  6
HIDDEN
 62
     7
370
     0
100
AcDbLine
 10
1.077505336406558
 20
1.678940382818908
 30
0.0
 11
1.422505336406556
 21
1.678940382818908
 31
0.0
  0
SPLINE
  5
DC3
330
1F
100
AcDbEntity
  8
0
  6
HIDDEN
 62
     7
370
     0
100
AcDbSpline
210
0.0
220
0.0
230
1.0
 70
     8
 71
     3
 72
     8
 73
     4
 74
     0
 42
0.0000000001
 43
0.0000000001
 40
0.0
 40
0.0
 40
0.0
 40
0.0
 40
0.0005395652380059
 40
0.0005395652380059
 40
0.0005395652380059
 40
0.0005395652380059
 10
1.422505336406556
 20
1.678940382818908
 30
0.0
 10
1.427505575796194
 20
1.673926714187352
 30
0.0
 10
1.432505584331277
 20
1.668912815306554
 30
0.0
 10
1.437505336406557
 20
1.663898660713159
 30
0.0
  0
SPLINE
  5
DC4
330
1F
100
AcDbEntity
  8
0
  6
HIDDEN
 62
     7
370
     0
100
AcDbSpline
210
0.0
220
0.0
230
1.0
 70
     8
 71
     3
 72
     8
 73
     4
 74
     0
 42
0.0000000001
 43
0.0000000001
 40
0.0
 40
0.0
 40
0.0
 40
0.0
 40
0.0005395652380059
 40
0.0005395652380059
 40
0.0005395652380059
 40
0.0005395652380059
 10
1.077505336406558
 20
1.678940382818908
 30
0.0
 10
1.072505097016918
 20
1.673926714187352
 30
0.0
 10
1.067505088481837
 20
1.668912815306554
 30
0.0
 10
1.062505336406557
 20
1.663898660713159
 30
0.0
  0
SPLINE
  5
DC5
330
1F
100
AcDbEntity
  8
0
  6
HIDDEN
 62
     7
370
     0
100
AcDbSpline
210
0.0
220
0.0
230
1.0
 70
     8
 71
     3
 72
    12
 73
     8
 74
     0
 42
0.0000000001
 43
0.0000000001
 40
0.0
 40
0.0
 40
0.0
 40
0.0
 40
0.2143625672243395
 40
0.428706380027001
 40
0.6435898244788589
 40
0.8595952833299607
 40
0.9999999999999998
 40
0.9999999999999998
 40
0.9999999999999998
 40
0.9999999999999998
 10
1.437505336406557
 20
1.545928904164201
 30
0.0
 10
1.436665880300692
 20
1.546011656243164
 30
0.0
 10
1.43498704153235
 20
1.546177153161172
 30
0.0
 10
1.432743077800147
 20
1.547466054928188
 30
0.0
 10
1.431063067510276
 20
1.549366973819022
 30
0.0
 10
1.430104497387784
 20
1.55146492318581
 30
0.0
 10
1.430103646184356
 20
1.55286457313341
 30
0.0
 10
1.430103310860102
 20
1.553415953166381
 30
0.0
  0
SPLINE
  5
DC6
330
1F
100
AcDbEntity
  8
0
  6
HIDDEN
 62
     7
370
     0
100
AcDbSpline
210
0.0
220
0.0
230
1.0
 70
     8
 71
     3
 72
    14
 73
    10
 74
     0
 42
0.0000000001
 43
0.0000000001
 40
0.0
 40
0.0
 40
0.0
 40
0.0
 40
0.25
 40
0.25
 40
0.5
 40
0.5
 40
0.75
 40
0.75
 40
1.0
 40
1.0
 40
1.0
 40
1.0
 10
1.437505336406557
 20
1.54603273825164
 30
0.0
 10
1.43551850339517
 20
1.54603273825164
 30
0.0
 10
1.433577004761222
 20
1.546855256393755
 30
0.0
 10
1.430813655108446
 20
1.549639821160578
 30
0.0
 10
1.430006669368212
 20
1.551604139520211
 30
0.0
 10
1.430004006933511
 20
1.555527252476112
 30
0.0
 10
1.43079454479513
 20
1.557480157573213
 30
0.0
 10
1.433588546088595
 20
1.560298687074234
 30
0.0
 10
1.43551851124068
 20
1.561107135873752
 30
0.0
 10
1.437505336406557
 20
1.561107135873752
 30
0.0
  0
LINE
  5
DC7
330
1F
100
AcDbEntity
  8
0
  6
HIDDEN
 62
     7
370
     0
100
AcDbLine
 10
1.07750533640673
 20
1.427531815067641
 30
0.0
 11
1.422505336407438
 21
1.427531815068692
 31
0.0
  0
SPLINE
  5
DC8
330
1F
100
AcDbEntity
  8
0
  6
HIDDEN
 62
     7
370
     0
100
AcDbSpline
210
0.0
220
0.0
230
1.0
 70
     8
 71
     3
 72
     8
 73
     4
 74
     0
 42
0.0000000001
 43
0.0000000001
 40
0.0000000000000128
 40
0.0000000000000128
 40
0.0000000000000128
 40
0.0000000000000128
 40
0.0005423021500252
 40
0.0005423021500252
 40
0.0005423021500252
 40
0.0005423021500252
 10
1.437505336406905
 20
1.442725330977998
 30
0.0
 10
1.432502902824026
 20
1.437663229417219
 30
0.0
 10
1.427502704242137
 20
1.432598917661822
 30
0.0
 10
1.422505336408315
 20
1.427531815068006
 30
0.0
  0
SPLINE
  5
DC9
330
1F
100
AcDbEntity
  8
0
  6
HIDDEN
 62
     7
370
     0
100
AcDbSpline
210
0.0
220
0.0
230
1.0
 70
     8
 71
     3
 72
     8
 73
     4
 74
     0
 42
0.0000000001
 43
0.0000000001
 40
0.0000000000000085
 40
0.0000000000000085
 40
0.0000000000000085
 40
0.0000000000000085
 40
0.0005423021500889
 40
0.0005423021500889
 40
0.0005423021500889
 40
0.0005423021500889
 10
1.06250533640479
 20
1.442725330978849
 30
0.0
 10
1.067507769988258
 20
1.437663229417478
 30
0.0
 10
1.072507968570954
 20
1.432598917661703
 30
0.0
 10
1.077505336405362
 20
1.427531815067291
 30
0.0
  0
LINE
  5
DCA
330
1F
100
AcDbEntity
  8
0
  6
HIDDEN
 62
     7
370
     0
100
AcDbLine
 10
1.422505336408413
 20
1.057692660842163
 30
0.0
 11
1.077505336405017
 21
1.057692660843228
 31
0.0
  0
SPLINE
  5
DCB
330
1F
100
AcDbEntity
  8
0
  6
HIDDEN
 62
     7
370
     0
100
AcDbSpline
210
0.0
220
0.0
230
1.0
 70
     8
 71
     3
 72
     8
 73
     4
 74
     0
 42
0.0000000001
 43
0.0000000001
 40
0.0000000000000249
 40
0.0000000000000249
 40
0.0000000000000249
 40
0.0000000000000249
 40
0.000542302150035
 40
0.000542302150035
 40
0.000542302150035
 40
0.000542302150035
 10
1.437505336407797
 20
1.042499144932411
 30
0.0
 10
1.432502902824703
 20
1.047561246493406
 30
0.0
 10
1.427502704242378
 20
1.052625558248801
 30
0.0
 10
1.422505336408343
 20
1.057692660842834
 30
0.0
  0
SPLINE
  5
DCC
330
1F
100
AcDbEntity
  8
0
  6
HIDDEN
 62
     7
370
     0
100
AcDbSpline
210
0.0
220
0.0
230
1.0
 70
     8
 71
     3
 72
     8
 73
     4
 74
     0
 42
0.0000000001
 43
0.0000000001
 40
0.0000000000000121
 40
0.0000000000000121
 40
0.0000000000000121
 40
0.0000000000000121
 40
0.0005423021500885
 40
0.0005423021500885
 40
0.0005423021500885
 40
0.0005423021500885
 10
1.077505336405351
 20
1.057692660843566
 30
0.0
 10
1.072507968570949
 20
1.052625558249159
 30
0.0
 10
1.067507769988255
 20
1.047561246493389
 30
0.0
 10
1.06250533640479
 20
1.04249914493202
 30
0.0
  0
CIRCLE
  5
DCD
330
1F
100
AcDbEntity
  8
0
  6
HIDDEN
 62
     7
370
     0
100
AcDbCircle
 10
1.249505336406556
 20
1.552612237955434
 30
0.0
 40
0.0689999999999991
  0
LINE
  5
DCE
330
1F
100
AcDbEntity
  8
0
  6
HIDDEN
 62
     7
370
     0
100
AcDbLine
 10
1.062505336406557
 20
0.9646122379554347
 30
0.0
 11
1.437505336406557
 21
0.9646122379554347
 31
0.0
  0
LINE
  5
DCF
330
1F
100
AcDbEntity
  8
0
  6
HIDDEN
 62
     7
370
     0
100
AcDbLine
 10
1.077505336406179
 20
1.427361392214747
 30
0.0
 11
1.422505336407496
 21
1.427361392215389
 31
0.0
  0
SPLINE
  5
DD0
330
1F
100
AcDbEntity
  8
0
  6
HIDDEN
 62
     7
370
     0
100
AcDbSpline
210
0.0
220
0.0
230
1.0
 70
     8
 71
     3
 72
     8
 73
     4
 74
     0
 42
0.0000000001
 43
0.0000000001
 40
0.0000000000000041
 40
0.0000000000000041
 40
0.0000000000000041
 40
0.0000000000000041
 40
0.0005425362721177
 40
0.0005425362721177
 40
0.0005425362721177
 40
0.0005425362721177
 10
1.062505336404822
 20
1.442567858030501
 30
0.0
 10
1.067507936016889
 20
1.437501601722932
 30
0.0
 10
1.072508148424384
 20
1.432432986453064
 30
0.0
 10
1.077505336405804
 20
1.427361392213478
 30
0.0
  0
SPLINE
  5
DD1
330
1F
100
AcDbEntity
  8
0
  6
HIDDEN
 62
     7
370
     0
100
AcDbSpline
210
0.0
220
0.0
230
1.0
 70
     8
 71
     3
 72
     8
 73
     4
 74
     0
 42
0.0000000001
 43
0.0000000001
 40
0.0000000000000054
 40
0.0000000000000054
 40
0.0000000000000054
 40
0.0000000000000054
 40
0.0005425362720283
 40
0.0005425362720283
 40
0.0005425362720283
 40
0.0005425362720283
 10
1.422505336408157
 20
1.427361392215038
 30
0.0
 10
1.427502524388721
 20
1.432432986453758
 30
0.0
 10
1.432502736795916
 20
1.437501601722214
 30
0.0
 10
1.437505336407129
 20
1.442567858028916
 30
0.0
  0
SPLINE
  5
DD2
330
1F
100
AcDbEntity
  8
0
  6
HIDDEN
 62
     7
370
     0
100
AcDbSpline
210
0.0
220
0.0
230
1.0
 70
     8
 71
     3
 72
     8
 73
     4
 74
     0
 42
0.0000000001
 43
0.0000000001
 40
0.0000000000000445
 40
0.0000000000000445
 40
0.0000000000000445
 40
0.0000000000000445
 40
0.00054253627215
 40
0.00054253627215
 40
0.00054253627215
 40
0.00054253627215
 10
1.077505336406346
 20
1.057863083697742
 30
0.0
 10
1.07250814842478
 20
1.052791489458005
 30
0.0
 10
1.067507936016763
 20
1.047722874188356
 30
0.0
 10
1.062505336404548
 20
1.042656617880639
 30
0.0
  0
SPLINE
  5
DD3
330
1F
100
AcDbEntity
  8
0
  6
HIDDEN
 62
     7
370
     0
100
AcDbSpline
210
0.0
220
0.0
230
1.0
 70
     8
 71
     3
 72
     8
 73
     4
 74
     0
 42
0.0000000001
 43
0.0000000001
 40
0.000000000000025
 40
0.000000000000025
 40
0.000000000000025
 40
0.000000000000025
 40
0.0005425362720423
 40
0.0005425362720423
 40
0.0005425362720423
 40
0.0005425362720423
 10
1.437505336407427
 20
1.042656617880908
 30
0.0
 10
1.432502736795921
 20
1.047722874187908
 30
0.0
 10
1.427502524389085
 20
1.052791489457303
 30
0.0
 10
1.422505336408228
 20
1.057863083696318
 30
0.0
  0
LINE
  5
DD4
330
1F
100
AcDbEntity
  8
0
  6
HIDDEN
 62
     7
370
     0
100
AcDbLine
 10
1.422505336409077
 20
1.057863083695456
 30
0.0
 11
1.077505336405017
 21
1.057863083696592
 31
0.0
  0
CIRCLE
  5
DD5
330
1F
100
AcDbEntity
  8
0
  6
HIDDEN
 62
     7
370
     0
100
AcDbCircle
 10
1.249505336406556
 20
1.552612237955434
 30
0.0
 40
0.0521000000000012
  0
ARC
  5
DD6
330
1F
100
AcDbEntity
  8
0
  6
HIDDEN
 62
     7
370
     0
100
AcDbCircle
 10
1.437505336406557
 20
0.9301122379554342
 30
0.0
 40
0.0075000000000003
100
AcDbArc
 50
179.9999999999999
 51
270.0000000000008
  0
ARC
  5
DD7
330
1F
100
AcDbEntity
  8
0
  6
HIDDEN
 62
     7
370
     0
100
AcDbCircle
 10
1.437505336406557
 20
0.9301122379554342
 30
0.0
 40
0.0075000000000003
100
AcDbArc
 50
90.0
 51
179.9999999999999
  0
LINE
  5
DD8
330
1F
100
AcDbEntity
  8
0
  6
HIDDEN
 62
     7
370
     0
100
AcDbLine
 10
1.430005336406557
 20
1.553570137145871
 30
0.0
 11
1.430005336406557
 21
0.9301122379554342
 31
0.0
  0
INSERT
  5
DD9
330
1F
100
AcDbEntity
  8
0
  6
Continuous
 62
     7
370
     0
100
AcDbBlockReference
  2
SW_CENTERMARKSYMBOL_0
 10
1.249505336406556
 20
1.552612237955434
 30
0.0
  0
SPLINE
  5
DDA
330
1F
100
AcDbEntity
  8
0
  6
Continuous
 62
     7
370
    15
100
AcDbSpline
210
0.0
220
0.0
230
1.0
 70
    24
 71
     1
 72
     4
 73
     2
 74
     0
 42
0.0000000001
 43
0.0000000001
 40
0.0
 40
0.0
 40
1.0
 40
1.0
 10
1.422505336406556
 20
3.102321010205598
 30
0.0
 10
1.077505336406558
 20
3.102321010205598
 30
0.0
  0
SPLINE
  5
DDB
330
1F
100
AcDbEntity
  8
0
  6
Continuous
 62
     7
370
    15
100
AcDbSpline
210
0.0
220
0.0
230
1.0
 70
    24
 71
     1
 72
     4
 73
     2
 74
     0
 42
0.0000000001
 43
0.0000000001
 40
0.0
 40
0.0
 40
1.0
 40
1.0
 10
1.077505336406558
 20
2.227321010205598
 30
0.0
 10
1.422505336406556
 20
2.227321010205598
 30
0.0
  0
SPLINE
  5
DDC
330
1F
100
AcDbEntity
  8
0
  6
Continuous
 62
     7
370
    15
100
AcDbSpline
210
0.0
220
0.0
230
1.0
 70
    24
 71
     1
 72
     4
 73
     2
 74
     0
 42
0.0000000001
 43
0.0000000001
 40
0.0
 40
0.0
 40
1.0
 40
1.0
 10
1.422505336406556
 20
2.227321010205598
 30
0.0
 10
1.437505336406557
 20
2.242321010205596
 30
0.0
  0
SPLINE
  5
DDD
330
1F
100
AcDbEntity
  8
0
  6
Continuous
 62
     7
370
    15
100
AcDbSpline
210
0.0
220
0.0
230
1.0
 70
    24
 71
     1
 72
     4
 73
     2
 74
     0
 42
0.0000000001
 43
0.0000000001
 40
0.0
 40
0.0
 40
1.0
 40
1.0
 10
1.437505336406557
 20
3.087321010205597
 30
0.0
 10
1.422505336406556
 20
3.102321010205598
 30
0.0
  0
SPLINE
  5
DDE
330
1F
100
AcDbEntity
  8
0
  6
Continuous
 62
     7
370
    15
100
AcDbSpline
210
0.0
220
0.0
230
1.0
 70
    24
 71
     1
 72
     4
 73
     2
 74
     0
 42
0.0000000001
 43
0.0000000001
 40
0.0
 40
0.0
 40
1.0
 40
1.0
 10
1.077505336406558
 20
3.102321010205598
 30
0.0
 10
1.062505336406557
 20
3.087321010205597
 30
0.0
  0
SPLINE
  5
DDF
330
1F
100
AcDbEntity
  8
0
  6
Continuous
 62
     7
370
    15
100
AcDbSpline
210
0.0
220
0.0
230
1.0
 70
    24
 71
     1
 72
     4
 73
     2
 74
     0
 42
0.0000000001
 43
0.0000000001
 40
0.0
 40
0.0
 40
1.0
 40
1.0
 10
1.062505336406557
 20
2.242321010205596
 30
0.0
 10
1.077505336406558
 20
2.227321010205598
 30
0.0
  0
SPLINE
  5
DE0
330
1F
100
AcDbEntity
  8
0
  6
Continuous
 62
     7
370
    15
100
AcDbSpline
210
0.0
220
0.0
230
1.0
 70
    24
 71
     1
 72
     4
 73
     2
 74
     0
 42
0.0000000001
 43
0.0000000001
 40
0.0
 40
0.0
 40
1.0
 40
1.0
 10
1.362505336406556
 20
2.373321010205597
 30
0.0
 10
1.362505336406556
 20
2.420553582033861
 30
0.0
  0
SPLINE
  5
DE1
330
1F
100
AcDbEntity
  8
0
  6
Continuous
 62
     7
370
    15
100
AcDbSpline
210
0.0
220
0.0
230
1.0
 70
    24
 71
     1
 72
     4
 73
     2
 74
     0
 42
0.0000000001
 43
0.0000000001
 40
0.0
 40
0.0
 40
1.0
 40
1.0
 10
1.136505336406557
 20
2.421263188468188
 30
0.0
 10
1.136505336406557
 20
2.373321010205597
 30
0.0
  0
SPLINE
  5
DE2
330
1F
100
AcDbEntity
  8
0
  6
Continuous
 62
     7
370
    15
100
AcDbSpline
210
0.0
220
0.0
230
1.0
 70
    24
 71
     1
 72
     4
 73
     2
 74
     0
 42
0.0000000001
 43
0.0000000001
 40
0.0
 40
0.0
 40
1.0
 40
1.0
 10
1.180505336406557
 20
2.696821010205596
 30
0.0
 10
1.180505336406557
 20
2.633821010205597
 30
0.0
  0
SPLINE
  5
DE3
330
1F
100
AcDbEntity
  8
0
  6
Continuous
 62
     7
370
    15
100
AcDbSpline
210
0.0
220
0.0
230
1.0
 70
    24
 71
     1
 72
     4
 73
     2
 74
     0
 42
0.0000000001
 43
0.0000000001
 40
0.0
 40
0.0
 40
1.0
 40
1.0
 10
1.318505336406557
 20
2.633821010205597
 30
0.0
 10
1.318505336406557
 20
2.696821010205596
 30
0.0
  0
LINE
  5
DE4
330
1F
100
AcDbEntity
  8
0
  6
Continuous
 62
     7
370
    15
100
AcDbLine
 10
1.196294761568717
 20
2.511321010205596
 30
0.0
 11
1.174090713987737
 21
2.511321010205596
 31
0.0
  0
SPLINE
  5
DE5
330
1F
100
AcDbEntity
  8
0
  6
Continuous
 62
     7
370
    15
100
AcDbSpline
210
0.0
220
0.0
230
1.0
 70
     8
 71
     3
 72
    54
 73
    50
 74
     0
 42
0.0000000001
 43
0.0000000001
 40
0.0
 40
0.0
 40
0.0
 40
0.0
 40
0.1250000000000001
 40
0.1250000000000001
 40
0.1875000000000002
 40
0.1875000000000002
 40
0.2187500000000002
 40
0.2187500000000002
 40
0.2500000000000002
 40
0.2500000000000002
 40
0.3125000000000003
 40
0.3125000000000003
 40
0.3437500000000003
 40
0.3437500000000003
 40
0.3750000000000003
 40
0.3750000000000003
 40
0.4062500000000004
 40
0.4062500000000004
 40
0.4375000000000004
 40
0.4375000000000004
 40
0.4687500000000004
 40
0.4687500000000004
 40
0.5000000000000005
 40
0.5000000000000005
 40
0.5312500000000005
 40
0.5312500000000005
 40
0.5625000000000005
 40
0.5625000000000005
 40
0.5937500000000006
 40
0.5937500000000006
 40
0.6250000000000006
 40
0.6250000000000006
 40
0.6562500000000006
 40
0.6562500000000006
 40
0.6875000000000006
 40
0.6875000000000006
 40
0.7187500000000006
 40
0.7187500000000006
 40
0.7500000000000007
 40
0.7500000000000007
 40
0.7812500000000007
 40
0.7812500000000007
 40
0.8125000000000007
 40
0.8125000000000007
 40
0.8750000000000003
 40
0.8750000000000003
 40
0.9375000000000003
 40
0.9375000000000003
 40
1.0
 40
1.0
 40
1.0
 40
1.0
 10
1.324919958825377
 20
2.511321010205596
 30
0.0
 10
1.339487350821274
 20
2.481907938359627
 30
0.0
 10
1.351948878313036
 20
2.453383253395887
 30
0.0
 10
1.365666158046463
 20
2.411764366317477
 30
0.0
 10
1.369384183928882
 20
2.397999085468388
 30
0.0
 10
1.372901148628439
 20
2.378296027333142
 30
0.0
 10
1.373737802496759
 20
2.371861248624647
 30
0.0
 10
1.374604096915335
 20
2.359256513199039
 30
0.0
 10
1.374628325684025
 20
2.353058661065023
 30
0.0
 10
1.373241678399805
 20
2.335274013543209
 30
0.0
 10
1.370435721278402
 20
2.324359261056635
 30
0.0
 10
1.362162673619165
 20
2.309485860577371
 30
0.0
 10
1.358788150927926
 20
2.304909761221125
 30
0.0
 10
1.350663307249243
 20
2.296472070220733
 30
0.0
 10
1.345849942223731
 20
2.292572157044196
 30
0.0
 10
1.334917341868614
 20
2.285664914096512
 30
0.0
 10
1.328856297546872
 20
2.282671543689602
 30
0.0
 10
1.315478587885953
 20
2.27749759638381
 30
0.0
 10
1.308054148317847
 20
2.275300221167682
 30
0.0
 10
1.292568191048962
 20
2.271852803524316
 30
0.0
 10
1.284468855751857
 20
2.270570960653094
 30
0.0
 10
1.267528085928182
 20
2.268824367749122
 30
0.0
 10
1.258834220480819
 20
2.268383307696117
 30
0.0
 10
1.24156031483263
 20
2.268338687963529
 30
0.0
 10
1.232783936488011
 20
2.268740461017847
 30
0.0
 10
1.215868935490872
 20
2.270391133030468
 30
0.0
 10
1.20771275655418
 20
2.271626892963402
 30
0.0
 10
1.192002879783313
 20
2.275018249413866
 30
0.0
 10
1.184621976068324
 20
2.277146557352274
 30
0.0
 10
1.17107912738105
 20
2.282253204804829
 30
0.0
 10
1.164807147784207
 20
2.28528569164994
 30
0.0
 10
1.153771881925619
 20
2.292122428362738
 30
0.0
 10
1.148964029997031
 20
2.295929089828355
 30
0.0
 10
1.140638854639819
 20
2.304391422310846
 30
0.0
 10
1.137187692172609
 20
2.308993362579695
 30
0.0
 10
1.131619925815474
 20
2.318779455845044
 30
0.0
 10
1.129472116603768
 20
2.324016332469188
 30
0.0
 10
1.126342672775074
 20
2.335028099693507
 30
0.0
 10
1.125366259291645
 20
2.340757237159637
 30
0.0
 10
1.124390168043518
 20
2.352662139178814
 30
0.0
 10
1.124396783571807
 20
2.358866062252577
 30
0.0
 10
1.125229733349719
 20
2.371466602539191
 30
0.0
 10
1.126050878468864
 20
2.377887371564822
 30
0.0
 10
1.129512552872371
 20
2.397513280027508
 30
0.0
 10
1.133156762512003
 20
2.411133339452309
 30
0.0
 10
1.142348014811839
 20
2.439140643959104
 30
0.0
 10
1.147818128583285
 20
2.453309133137405
 30
0.0
 10
1.160036719683315
 20
2.482026492513643
 30
0.0
 10
1.166787840897979
 20
2.496575753749841
 30
0.0
 10
1.174090713987736
 20
2.511321010205596
 30
0.0
  0
LINE
  5
DE6
330
1F
100
AcDbEntity
  8
0
  6
Continuous
 62
     7
370
    15
100
AcDbLine
 10
1.324919958825377
 20
2.511321010205596
 30
0.0
 11
1.302715911244396
 21
2.511321010205596
 31
0.0
  0
SPLINE
  5
DE7
330
1F
100
AcDbEntity
  8
0
  6
Continuous
 62
     7
370
    15
100
AcDbSpline
210
0.0
220
0.0
230
1.0
 70
    11
 71
     3
 72
    48
 73
    44
 74
     0
 42
0.0000000001
 43
0.0000000001
 40
0.0
 40
0.0
 40
0.0
 40
0.0
 40
0.03125
 40
0.03125
 40
0.0625
 40
0.0625
 40
0.1249999999999998
 40
0.1249999999999998
 40
0.1874999999999997
 40
0.1874999999999997
 40
0.2499999999999996
 40
0.2499999999999996
 40
0.3124999999999995
 40
0.3124999999999995
 40
0.3749999999999994
 40
0.3749999999999994
 40
0.4374999999999993
 40
0.4374999999999993
 40
0.4687499999999993
 40
0.4687499999999993
 40
0.4999999999999993
 40
0.4999999999999993
 40
0.5312499999999995
 40
0.5312499999999995
 40
0.5624999999999996
 40
0.5624999999999996
 40
0.5937499999999996
 40
0.5937499999999996
 40
0.6249999999999997
 40
0.6249999999999997
 40
0.6874999999999997
 40
0.6874999999999997
 40
0.7499999999999999
 40
0.7499999999999999
 40
0.8124999999999998
 40
0.8124999999999998
 40
0.8749999999999998
 40
0.8749999999999998
 40
0.9374999999999998
 40
0.9374999999999998
 40
0.96875
 40
0.96875
 40
1.0
 40
1.0
 40
1.0
 40
1.0
 10
1.249505336406556
 20
2.910360905131044
 30
0.0
 10
1.245239450083703
 20
2.910360905131044
 30
0.0
 10
1.241075401049824
 20
2.91114884020447
 30
0.0
 10
1.233315985434565
 20
2.913895707184957
 30
0.0
 10
1.229773047211994
 20
2.915814075129159
 30
0.0
 10
1.220109951770533
 20
2.922495572799212
 30
0.0
 10
1.215045802032035
 20
2.928028364013528
 30
0.0
 10
1.206879198636006
 20
2.939547594387342
 30
0.0
 10
1.203790904408663
 20
2.945551466703985
 30
0.0
 10
1.199277759824752
 20
2.957816022962814
 30
0.0
 10
1.197931772022228
 20
2.963890627933871
 30
0.0
 10
1.197125855564706
 20
2.975901526265486
 30
0.0
 10
1.197690575523743
 20
2.981775995919516
 30
0.0
 10
1.201155961916079
 20
2.992855855786563
 30
0.0
 10
1.204069243433368
 20
2.998074502656459
 30
0.0
 10
1.212729448770097
 20
3.007225406787457
 30
0.0
 10
1.218541747427622
 20
3.011156339537263
 30
0.0
 10
1.229110123293812
 20
3.015281977716012
 30
0.0
 10
1.232868646661541
 20
3.016348439874951
 30
0.0
 10
1.240911405129422
 20
3.017826758156507
 30
0.0
 10
1.24512437445662
 20
3.018212633195567
 30
0.0
 10
1.253499604584805
 20
3.018235315175221
 30
0.0
 10
1.257758562005854
 20
3.017866690079195
 30
0.0
 10
1.265792757934889
 20
3.0164334597454
 30
0.0
 10
1.269681915761168
 20
3.015351244004202
 30
0.0
 10
1.276759277617802
 20
3.012619682305953
 30
0.0
 10
1.280020570009554
 20
3.010947628131843
 30
0.0
 10
1.285798285616595
 20
3.007161210993345
 30
0.0
 10
1.28831557887905
 20
3.005058603178929
 30
0.0
 10
1.294899954374114
 20
2.998151525579599
 30
0.0
 10
1.297786045020453
 20
2.99301643852662
 30
0.0
 10
1.301315088267667
 20
2.981849749887819
 30
0.0
 10
1.301882847312375
 20
2.975954415500716
 30
0.0
 10
1.301087691809305
 20
2.963940093684342
 30
0.0
 10
1.299747165828486
 20
2.95788265748553
 30
0.0
 10
1.295280807944429
 20
2.945689906088261
 30
0.0
 10
1.292153348883459
 20
2.939586961114006
 30
0.0
 10
1.284003288985287
 20
2.928074104892532
 30
0.0
 10
1.278914725549814
 20
2.922507381141286
 30
0.0
 10
1.269244926677615
 20
2.915818063277868
 30
0.0
 10
1.265699448239649
 20
2.913897630424802
 30
0.0
 10
1.257934633742358
 20
2.911148376594299
 30
0.0
 10
1.253771222729412
 20
2.910360905131044
 30
0.0
 10
1.249505336406556
 20
2.910360905131044
 30
0.0
  0
LINE
  5
DE8
330
1F
100
AcDbEntity
  8
0
  6
Continuous
 62
     7
370
    15
100
AcDbLine
 10
1.422505336406556
 20
2.633821010205595
 30
0.0
 11
1.077505336406558
 21
2.633821010205595
 31
0.0
  0
LINE
  5
DE9
330
1F
100
AcDbEntity
  8
0
  6
Continuous
 62
     7
370
    15
100
AcDbLine
 10
1.422505336406556
 20
2.696821010205596
 30
0.0
 11
1.422505336406556
 21
3.102321010205598
 31
0.0
  0
LINE
  5
DEA
330
1F
100
AcDbEntity
  8
0
  6
Continuous
 62
     7
370
    15
100
AcDbLine
 10
1.422505336406556
 20
2.227321010205598
 30
0.0
 11
1.422505336406556
 21
2.633821010205595
 31
0.0
  0
LINE
  5
DEB
330
1F
100
AcDbEntity
  8
0
  6
Continuous
 62
     7
370
    15
100
AcDbLine
 10
1.077505336406558
 20
2.696821010205596
 30
0.0
 11
1.422505336406556
 21
2.696821010205596
 31
0.0
  0
LINE
  5
DEC
330
1F
100
AcDbEntity
  8
0
  6
Continuous
 62
     7
370
    15
100
AcDbLine
 10
1.077505336406558
 20
2.633821010205595
 30
0.0
 11
1.077505336406558
 21
2.227321010205598
 31
0.0
  0
LINE
  5
DED
330
1F
100
AcDbEntity
  8
0
  6
Continuous
 62
     7
370
    15
100
AcDbLine
 10
1.077505336406558
 20
3.102321010205598
 30
0.0
 11
1.077505336406558
 21
2.696821010205596
 31
0.0
  0
SPLINE
  5
DEE
330
1F
100
AcDbEntity
  8
0
  6
Continuous
 62
     7
370
    15
100
AcDbSpline
210
0.0
220
0.0
230
1.0
 70
    24
 71
     3
 72
     8
 73
     4
 74
     0
 42
0.0000000001
 43
0.0000000001
 40
0.0
 40
0.0
 40
0.0
 40
0.0
 40
0.0005395188924343
 40
0.0005395188924343
 40
0.0005395188924343
 40
0.0005395188924343
 10
1.437505336406557
 20
2.633821010205595
 30
0.0
 10
1.432505568957553
 20
2.633821010205595
 30
0.0
 10
1.427505560953743
 20
2.633821010205595
 30
0.0
 10
1.422505336406558
 20
2.633821010205595
 30
0.0
  0
LINE
  5
DEF
330
1F
100
AcDbEntity
  8
0
  6
Continuous
 62
     7
370
    15
100
AcDbLine
 10
1.437505336406557
 20
2.696821010205596
 30
0.0
 11
1.437505336406557
 21
3.087321010205597
 31
0.0
  0
LINE
  5
DF0
330
1F
100
AcDbEntity
  8
0
  6
Continuous
 62
     7
370
    15
100
AcDbLine
 10
1.437505336406557
 20
2.242321010205596
 30
0.0
 11
1.437505336406557
 21
2.633821010205595
 31
0.0
  0
SPLINE
  5
DF1
330
1F
100
AcDbEntity
  8
0
  6
Continuous
 62
     7
370
    15
100
AcDbSpline
210
0.0
220
0.0
230
1.0
 70
    24
 71
     3
 72
     8
 73
     4
 74
     0
 42
0.0000000001
 43
0.0000000001
 40
0.0
 40
0.0
 40
0.0
 40
0.0
 40
0.0005395652380059
 40
0.0005395652380059
 40
0.0005395652380059
 40
0.0005395652380059
 10
1.422505336406556
 20
2.696821010205596
 30
0.0
 10
1.427505575796194
 20
2.696821010205596
 30
0.0
 10
1.432505584331277
 20
2.696821010205596
 30
0.0
 10
1.437505336406557
 20
2.696821010205596
 30
0.0
  0
SPLINE
  5
DF2
330
1F
100
AcDbEntity
  8
0
  6
Continuous
 62
     7
370
    15
100
AcDbSpline
210
0.0
220
0.0
230
1.0
 70
    24
 71
     3
 72
     8
 73
     4
 74
     0
 42
0.0000000001
 43
0.0000000001
 40
0.0
 40
0.0
 40
0.0
 40
0.0
 40
0.0005395188924342
 40
0.0005395188924342
 40
0.0005395188924342
 40
0.0005395188924342
 10
1.077505336406558
 20
2.633821010205595
 30
0.0
 10
1.072505111859369
 20
2.633821010205595
 30
0.0
 10
1.067505103855559
 20
2.633821010205595
 30
0.0
 10
1.062505336406557
 20
2.633821010205595
 30
0.0
  0
SPLINE
  5
DF3
330
1F
100
AcDbEntity
  8
0
  6
Continuous
 62
     7
370
    15
100
AcDbSpline
210
0.0
220
0.0
230
1.0
 70
    24
 71
     3
 72
     8
 73
     4
 74
     0
 42
0.0000000001
 43
0.0000000001
 40
0.0
 40
0.0
 40
0.0
 40
0.0
 40
0.0005395652380059
 40
0.0005395652380059
 40
0.0005395652380059
 40
0.0005395652380059
 10
1.077505336406558
 20
2.696821010205596
 30
0.0
 10
1.072505097016918
 20
2.696821010205596
 30
0.0
 10
1.067505088481837
 20
2.696821010205596
 30
0.0
 10
1.062505336406557
 20
2.696821010205596
 30
0.0
  0
LINE
  5
DF4
330
1F
100
AcDbEntity
  8
0
  6
Continuous
 62
     7
370
    15
100
AcDbLine
 10
1.062505336406557
 20
2.633821010205595
 30
0.0
 11
1.062505336406557
 21
2.242321010205596
 31
0.0
  0
LINE
  5
DF5
330
1F
100
AcDbEntity
  8
0
  6
Continuous
 62
     7
370
    15
100
AcDbLine
 10
1.062505336406557
 20
3.087321010205597
 30
0.0
 11
1.062505336406557
 21
2.696821010205596
 31
0.0
  0
LINE
  5
DF6
330
1F
100
AcDbEntity
  8
0
  6
Continuous
 62
     7
370
    15
100
AcDbLine
 10
1.136505336406557
 20
2.373321010205597
 30
0.0
 11
1.362505336406556
 21
2.373321010205597
 31
0.0
  0
LINE
  5
DF7
330
1F
100
AcDbEntity
  8
0
  6
Continuous
 62
     7
370
    15
100
AcDbLine
 10
1.196294761568717
 20
2.511321010205596
 30
0.0
 11
1.302715911244396
 21
2.511321010205596
 31
0.0
  0
LINE
  5
DF8
330
1F
100
AcDbEntity
  8
0
  6
Continuous
 62
     7
370
    15
100
AcDbLine
 10
1.437505336406557
 20
2.633821010205599
 30
0.0
 11
1.437505336406557
 21
2.696821010205599
 31
0.0
  0
LINE
  5
DF9
330
1F
100
AcDbEntity
  8
0
  6
Continuous
 62
     7
370
    15
100
AcDbLine
 10
1.062505336406557
 20
2.696821010205599
 30
0.0
 11
1.062505336406557
 21
2.633821010205599
 31
0.0
  0
LINE
  5
DFA
330
1F
100
AcDbEntity
  8
0
  6
HIDDEN
 62
     7
370
     0
100
AcDbLine
 10
1.422505336406556
 20
2.696821010205596
 30
0.0
 11
1.422505336406556
 21
2.633821010205595
 31
0.0
  0
LINE
  5
DFB
330
1F
100
AcDbEntity
  8
0
  6
HIDDEN
 62
     7
370
     0
100
AcDbLine
 10
1.077505336406558
 20
2.633821010205597
 30
0.0
 11
1.077505336406558
 21
2.696821010205596
 31
0.0
  0
LINE
  5
DFC
330
1F
100
AcDbEntity
  8
0
  6
HIDDEN
 62
     7
370
     0
100
AcDbLine
 10
1.174090713987737
 20
2.511321010205596
 30
0.0
 11
1.124505336406556
 21
2.511321010205596
 31
0.0
  0
LINE
  5
DFD
330
1F
100
AcDbEntity
  8
0
  6
HIDDEN
 62
     7
370
     0
100
AcDbLine
 10
1.374505336406556
 20
2.511321010205596
 30
0.0
 11
1.324919958825377
 21
2.511321010205596
 31
0.0
  0
LINE
  5
DFE
330
1F
100
AcDbEntity
  8
0
  6
HIDDEN
 62
     7
370
     0
100
AcDbLine
 10
1.197405336407111
 20
2.812971010205597
 30
0.0
 11
1.301605336406558
 21
2.812971010205597
 31
0.0
  0
LINE
  5
DFF
330
1F
100
AcDbEntity
  8
0
  6
HIDDEN
 62
     7
370
     0
100
AcDbLine
 10
1.180505336408071
 20
2.796071010204316
 30
0.0
 11
1.318505336405044
 21
2.796071010204316
 31
0.0
  0
LINE
  5
E00
330
1F
100
AcDbEntity
  8
0
  6
HIDDEN
 62
     7
370
     0
100
AcDbLine
 10
1.285387655636693
 20
2.442321010205596
 30
0.0
 11
1.285387655636693
 21
2.373321010205597
 31
0.0
  0
LINE
  5
E01
330
1F
100
AcDbEntity
  8
0
  6
HIDDEN
 62
     7
370
     0
100
AcDbLine
 10
1.213623017176422
 20
2.442321010205596
 30
0.0
 11
1.213623017176422
 21
2.373321010205597
 31
0.0
  0
LINE
  5
E02
330
1F
100
AcDbEntity
  8
0
  6
HIDDEN
 62
     7
370
     0
100
AcDbLine
 10
1.285387655636693
 20
2.442321010205596
 30
0.0
 11
1.213623017176422
 21
2.442321010205596
 31
0.0
  0
LINE
  5
E03
330
1F
100
AcDbEntity
  8
0
  6
HIDDEN
 62
     7
370
     0
100
AcDbLine
 10
1.321269974866828
 20
2.442321010205596
 30
0.0
 11
1.285387655636693
 21
2.442321010205596
 31
0.0
  0
LINE
  5
E04
330
1F
100
AcDbEntity
  8
0
  6
HIDDEN
 62
     7
370
     0
100
AcDbLine
 10
1.213623017176422
 20
2.442321010205596
 30
0.0
 11
1.177740697946285
 21
2.442321010205596
 31
0.0
  0
LINE
  5
E05
330
1F
100
AcDbEntity
  8
0
  6
HIDDEN
 62
     7
370
     0
100
AcDbLine
 10
1.321269974866828
 20
2.373321010205597
 30
0.0
 11
1.321269974866828
 21
2.442321010205596
 31
0.0
  0
LINE
  5
E06
330
1F
100
AcDbEntity
  8
0
  6
HIDDEN
 62
     7
370
     0
100
AcDbLine
 10
1.177740697946285
 20
2.442321010205596
 30
0.0
 11
1.177740697946285
 21
2.373321010205597
 31
0.0
  0
SPLINE
  5
E07
330
1F
100
AcDbEntity
  8
0
  6
HIDDEN
 62
     7
370
     0
100
AcDbSpline
210
0.0
220
0.0
230
1.0
 70
    24
 71
     1
 72
     4
 73
     2
 74
     0
 42
0.0000000001
 43
0.0000000001
 40
0.0
 40
0.0
 40
1.0
 40
1.0
 10
1.437505336407427
 20
2.696821010206182
 30
0.0
 10
1.430637646584122
 20
2.696821010205916
 30
0.0
  0
SPLINE
  5
E08
330
1F
100
AcDbEntity
  8
0
  6
HIDDEN
 62
     7
370
     0
100
AcDbSpline
210
0.0
220
0.0
230
1.0
 70
    24
 71
     1
 72
     4
 73
     2
 74
     0
 42
0.0000000001
 43
0.0000000001
 40
0.0
 40
0.0
 40
1.0
 40
1.0
 10
1.429674492965913
 20
2.696821010205876
 30
0.0
 10
1.422505336408228
 20
2.696821010205599
 30
0.0
  0
SPLINE
  5
E09
330
1F
100
AcDbEntity
  8
0
  6
HIDDEN
 62
     7
370
     0
100
AcDbSpline
210
0.0
220
0.0
230
1.0
 70
    24
 71
     1
 72
     4
 73
     2
 74
     0
 42
0.0000000001
 43
0.0000000001
 40
0.0
 40
0.0
 40
1.0
 40
1.0
 10
1.124505336406556
 20
2.511321010205596
 30
0.0
 10
1.124505336406556
 20
2.356103906694954
 30
0.0
  0
SPLINE
  5
E0A
330
1F
100
AcDbEntity
  8
0
  6
HIDDEN
 62
     7
370
     0
100
AcDbSpline
210
0.0
220
0.0
230
1.0
 70
    24
 71
     1
 72
     4
 73
     2
 74
     0
 42
0.0000000001
 43
0.0000000001
 40
0.0
 40
0.0
 40
1.0
 40
1.0
 10
1.374505336406556
 20
2.356103906694954
 30
0.0
 10
1.374505336406556
 20
2.511321010205596
 30
0.0
  0
SPLINE
  5
E0B
330
1F
100
AcDbEntity
  8
0
  6
HIDDEN
 62
     7
370
     0
100
AcDbSpline
210
0.0
220
0.0
230
1.0
 70
    24
 71
     1
 72
     4
 73
     2
 74
     0
 42
0.0000000001
 43
0.0000000001
 40
0.0
 40
0.0
 40
1.0
 40
1.0
 10
1.362505336406556
 20
2.420553582033861
 30
0.0
 10
1.362505336406556
 20
2.511321010205596
 30
0.0
  0
SPLINE
  5
E0C
330
1F
100
AcDbEntity
  8
0
  6
HIDDEN
 62
     7
370
     0
100
AcDbSpline
210
0.0
220
0.0
230
1.0
 70
    24
 71
     1
 72
     4
 73
     2
 74
     0
 42
0.0000000001
 43
0.0000000001
 40
0.0
 40
0.0
 40
1.0
 40
1.0
 10
1.136505336406557
 20
2.511321010205596
 30
0.0
 10
1.136505336406557
 20
2.421263188468188
 30
0.0
  0
SPLINE
  5
E0D
330
1F
100
AcDbEntity
  8
0
  6
HIDDEN
 62
     7
370
     0
100
AcDbSpline
210
0.0
220
0.0
230
1.0
 70
    24
 71
     1
 72
     4
 73
     2
 74
     0
 42
0.0000000001
 43
0.0000000001
 40
0.0
 40
0.0
 40
1.0
 40
1.0
 10
1.318505336405044
 20
2.796071010204316
 30
0.0
 10
1.301605336406002
 20
2.812971010205597
 30
0.0
  0
SPLINE
  5
E0E
330
1F
100
AcDbEntity
  8
0
  6
HIDDEN
 62
     7
370
     0
100
AcDbSpline
210
0.0
220
0.0
230
1.0
 70
    24
 71
     1
 72
     4
 73
     2
 74
     0
 42
0.0000000001
 43
0.0000000001
 40
0.0
 40
0.0
 40
1.0
 40
1.0
 10
1.197405336407111
 20
2.812971010205597
 30
0.0
 10
1.180505336408071
 20
2.796071010204316
 30
0.0
  0
SPLINE
  5
E0F
330
1F
100
AcDbEntity
  8
0
  6
HIDDEN
 62
     7
370
     0
100
AcDbSpline
210
0.0
220
0.0
230
1.0
 70
    24
 71
     1
 72
     4
 73
     2
 74
     0
 42
0.0000000001
 43
0.0000000001
 40
0.0
 40
0.0
 40
1.0
 40
1.0
 10
1.301605336406558
 20
2.812971010205597
 30
0.0
 10
1.301605336406558
 20
2.973538113716237
 30
0.0
  0
SPLINE
  5
E10
330
1F
100
AcDbEntity
  8
0
  6
HIDDEN
 62
     7
370
     0
100
AcDbSpline
210
0.0
220
0.0
230
1.0
 70
    24
 71
     1
 72
     4
 73
     2
 74
     0
 42
0.0000000001
 43
0.0000000001
 40
0.0
 40
0.0
 40
1.0
 40
1.0
 10
1.197405336406557
 20
2.973538113716237
 30
0.0
 10
1.197405336406557
 20
2.812971010205597
 30
0.0
  0
ARC
  5
E11
330
1F
100
AcDbEntity
  8
0
  6
HIDDEN
 62
     7
370
     0
100
AcDbCircle
 10
1.437505336406557
 20
2.977321010205598
 30
0.0
 40
0.0075000000000003
100
AcDbArc
 50
90.0
 51
179.9999999999998
  0
ARC
  5
E12
330
1F
100
AcDbEntity
  8
0
  6
HIDDEN
 62
     7
370
     0
100
AcDbCircle
 10
1.437505336406557
 20
2.352321010205598
 30
0.0
 40
0.0075000000000003
100
AcDbArc
 50
180.0
 51
270.0000000000008
  0
ARC
  5
E13
330
1F
100
AcDbEntity
  8
0
  6
HIDDEN
 62
     7
370
     0
100
AcDbCircle
 10
1.437505336406557
 20
2.977321010205598
 30
0.0
 40
0.0075000000000003
100
AcDbArc
 50
179.9999999999998
 51
270.0000000000008
  0
ARC
  5
E14
330
1F
100
AcDbEntity
  8
0
  6
HIDDEN
 62
     7
370
     0
100
AcDbCircle
 10
1.437505336406557
 20
2.352321010205598
 30
0.0
 40
0.0075000000000003
100
AcDbArc
 50
90.0
 51
180.0
  0
LINE
  5
E15
330
1F
100
AcDbEntity
  8
0
  6
HIDDEN
 62
     7
370
     0
100
AcDbLine
 10
1.430005336406557
 20
2.696853294979884
 30
0.0
 11
1.430005336406557
 21
2.633791475826376
 31
0.0
  0
LINE
  5
E16
330
1F
100
AcDbEntity
  8
0
  6
HIDDEN
 62
     7
370
     0
100
AcDbLine
 10
1.430005336406557
 20
2.633791475826376
 30
0.0
 11
1.430005336406557
 21
2.352321010205598
 31
0.0
  0
LINE
  5
E17
330
1F
100
AcDbEntity
  8
0
  6
HIDDEN
 62
     7
370
     0
100
AcDbLine
 10
1.430005336406557
 20
2.977321010205598
 30
0.0
 11
1.430005336406557
 21
2.696853294979884
 31
0.0
  0
SPLINE
  5
E18
330
1F
100
AcDbEntity
  8
0
  6
HIDDEN
 62
     7
370
     0
100
AcDbSpline
210
0.0
220
0.0
230
1.0
 70
    24
 71
     1
 72
     4
 73
     2
 74
     0
 42
0.0000000001
 43
0.0000000001
 40
0.0
 40
0.0
 40
1.0
 40
1.0
 10
1.062505336404319
 20
2.462321010206613
 30
0.0
 10
1.07750533640673
 20
2.477321010209024
 30
0.0
  0
SPLINE
  5
E19
330
1F
100
AcDbEntity
  8
0
  6
HIDDEN
 62
     7
370
     0
100
AcDbSpline
210
0.0
220
0.0
230
1.0
 70
    24
 71
     1
 72
     4
 73
     2
 74
     0
 42
0.0000000001
 43
0.0000000001
 40
0.0
 40
0.0
 40
1.0
 40
1.0
 10
1.422505336406556
 20
2.477321010208711
 30
0.0
 10
1.437505336406417
 20
2.462321010208851
 30
0.0
  0
SPLINE
  5
E1A
330
1F
100
AcDbEntity
  8
0
  6
HIDDEN
 62
     7
370
     0
100
AcDbSpline
210
0.0
220
0.0
230
1.0
 70
    24
 71
     1
 72
     4
 73
     2
 74
     0
 42
0.0000000001
 43
0.0000000001
 40
0.0
 40
0.0
 40
1.0
 40
1.0
 10
1.077505336406558
 20
2.852321010202345
 30
0.0
 10
1.062505336404319
 20
2.867321010204582
 30
0.0
  0
SPLINE
  5
E1B
330
1F
100
AcDbEntity
  8
0
  6
HIDDEN
 62
     7
370
     0
100
AcDbSpline
210
0.0
220
0.0
230
1.0
 70
    24
 71
     1
 72
     4
 73
     2
 74
     0
 42
0.0000000001
 43
0.0000000001
 40
0.0
 40
0.0
 40
1.0
 40
1.0
 10
1.437505336406417
 20
2.867321010202344
 30
0.0
 10
1.422505336406556
 20
2.852321010202484
 30
0.0
  0
SPLINE
  5
E1C
330
1F
100
AcDbEntity
  8
0
  6
HIDDEN
 62
     7
370
     0
100
AcDbSpline
210
0.0
220
0.0
230
1.0
 70
    24
 71
     1
 72
     4
 73
     2
 74
     0
 42
0.0000000001
 43
0.0000000001
 40
0.0
 40
0.0
 40
1.0
 40
1.0
 10
1.07750533640673
 20
2.477321010205598
 30
0.0
 10
1.422505336406556
 20
2.477321010205598
 30
0.0
  0
SPLINE
  5
E1D
330
1F
100
AcDbEntity
  8
0
  6
HIDDEN
 62
     7
370
     0
100
AcDbSpline
210
0.0
220
0.0
230
1.0
 70
    24
 71
     1
 72
     4
 73
     2
 74
     0
 42
0.0000000001
 43
0.0000000001
 40
0.0
 40
0.0
 40
1.0
 40
1.0
 10
1.422505336406556
 20
2.852321010205598
 30
0.0
 10
1.077505336406558
 20
2.852321010205598
 30
0.0
  0
SPLINE
  5
E78
330
1F
100
AcDbEntity
  8
0
  6
Continuous
 62
     7
370
    15
100
AcDbSpline
210
0.0
220
0.0
230
1.0
 70
    24
 71
     1
 72
     4
 73
     2
 74
     0
 42
0.0000000001
 43
0.0000000001
 40
0.0
 40
0.0
 40
1.0
 40
1.0
 10
2.905166089197015
 20
1.665612237955434
 30
0.0
 10
2.767166089197013
 20
1.665612237955434
 30
0.0
  0
SPLINE
  5
E79
330
1F
100
AcDbEntity
  8
0
  6
Continuous
 62
     7
370
    15
100
AcDbSpline
210
0.0
220
0.0
230
1.0
 70
    24
 71
     1
 72
     4
 73
     2
 74
     0
 42
0.0000000001
 43
0.0000000001
 40
0.0
 40
0.0
 40
1.0
 40
1.0
 10
3.090666089197016
 20
1.621612237955434
 30
0.0
 10
3.027666089197015
 20
1.621612237955434
 30
0.0
  0
SPLINE
  5
E7A
330
1F
100
AcDbEntity
  8
0
  6
Continuous
 62
     7
370
    15
100
AcDbSpline
210
0.0
220
0.0
230
1.0
 70
    24
 71
     1
 72
     4
 73
     2
 74
     0
 42
0.0000000001
 43
0.0000000001
 40
0.0
 40
0.0
 40
1.0
 40
1.0
 10
3.027666089197015
 20
1.483612237955434
 30
0.0
 10
3.090666089197016
 20
1.483612237955434
 30
0.0
  0
LINE
  5
E7B
330
1F
100
AcDbEntity
  8
0
  6
Continuous
 62
     7
370
    15
100
AcDbLine
 10
3.027666089197015
 20
0.9646122379554347
 30
0.0
 11
3.027666089197015
 21
1.042499144933109
 31
0.0
  0
LINE
  5
E7C
330
1F
100
AcDbEntity
  8
0
  6
Continuous
 62
     7
370
    15
100
AcDbLine
 10
3.027666089197015
 20
0.9646122379554347
 30
0.0
 11
3.090666089197016
 21
0.9646122379554347
 31
0.0
  0
LINE
  5
E7D
330
1F
100
AcDbEntity
  8
0
  6
Continuous
 62
     7
370
    15
100
AcDbLine
 10
3.090666089197016
 20
1.042656617881974
 30
0.0
 11
3.090666089197016
 21
0.9646122379554347
 31
0.0
  0
ARC
  5
E7E
330
1F
100
AcDbEntity
  8
0
  6
Continuous
 62
     7
370
    15
100
AcDbCircle
 10
3.058666089197014
 20
1.242612237955435
 30
0.0
 40
0.2024999999974381
100
AcDbArc
 50
279.0922607997334
 51
80.90773920025227
  0
ARC
  5
E7F
330
1F
100
AcDbEntity
  8
0
  6
Continuous
 62
     7
370
    15
100
AcDbCircle
 10
3.058666089197014
 20
1.242612237955435
 30
0.0
 40
0.3050000000000002
100
AcDbArc
 50
95.83357903403678
 51
83.97755589951822
  0
ARC
  5
E80
330
1F
100
AcDbEntity
  8
0
  6
Continuous
 62
     7
370
    15
100
AcDbCircle
 10
3.058666089197014
 20
1.242612237955435
 30
0.0
 40
0.2024999999974369
100
AcDbArc
 50
98.80583170237986
 51
261.1941682976357
  0
LINE
  5
E81
330
1F
100
AcDbEntity
  8
0
  6
Continuous
 62
     7
370
    15
100
AcDbLine
 10
3.027666089197015
 20
1.44272533097742
 30
0.0
 11
3.027666089197015
 21
1.54603273825164
 31
0.0
  0
LINE
  5
E82
330
1F
100
AcDbEntity
  8
0
  6
Continuous
 62
     7
370
    15
100
AcDbLine
 10
3.090666089197016
 20
1.442567858028556
 30
0.0
 11
3.090666089197016
 21
1.545928904164201
 31
0.0
  0
SPLINE
  5
E83
330
1F
100
AcDbEntity
  8
0
  6
Continuous
 62
     7
370
    15
100
AcDbSpline
210
0.0
220
0.0
230
1.0
 70
    24
 71
     3
 72
     8
 73
     4
 74
     0
 42
0.0000000001
 43
0.0000000001
 40
0.000000000000025
 40
0.000000000000025
 40
0.000000000000025
 40
0.000000000000025
 40
0.0005425362720423
 40
0.0005425362720423
 40
0.0005425362720423
 40
0.0005425362720423
 10
3.090666089197599
 20
1.042656617880908
 30
0.0
 10
3.090666089197599
 20
1.047722874187908
 30
0.0
 10
3.090666089197016
 20
1.052791489457303
 30
0.0
 10
3.090666089197016
 20
1.057863083696318
 30
0.0
  0
ARC
  5
E84
330
1F
100
AcDbEntity
  8
0
  6
Continuous
 62
     7
370
    15
100
AcDbCircle
 10
3.058666089197014
 20
1.242612237955435
 30
0.0
 40
0.1874999999994071
100
AcDbArc
 50
279.8265827166028
 51
80.17341728339671
  0
SPLINE
  5
E85
330
1F
100
AcDbEntity
  8
0
  6
Continuous
 62
     7
370
    15
100
AcDbSpline
210
0.0
220
0.0
230
1.0
 70
    24
 71
     3
 72
     8
 73
     4
 74
     0
 42
0.0000000001
 43
0.0000000001
 40
0.0000000000000054
 40
0.0000000000000054
 40
0.0000000000000054
 40
0.0000000000000054
 40
0.0005425362720283
 40
0.0005425362720283
 40
0.0005425362720283
 40
0.0005425362720283
 10
3.090666089197457
 20
1.427361392215038
 30
0.0
 10
3.090666089197457
 20
1.432432986453758
 30
0.0
 10
3.090666089197016
 20
1.437501601722214
 30
0.0
 10
3.090666089197016
 20
1.442567858028916
 30
0.0
  0
SPLINE
  5
E86
330
1F
100
AcDbEntity
  8
0
  6
Continuous
 62
     7
370
    15
100
AcDbSpline
210
0.0
220
0.0
230
1.0
 70
    24
 71
     3
 72
     8
 73
     4
 74
     0
 42
0.0000000001
 43
0.0000000001
 40
0.0000000000000249
 40
0.0000000000000249
 40
0.0000000000000249
 40
0.0000000000000249
 40
0.000542302150035
 40
0.000542302150035
 40
0.000542302150035
 40
0.000542302150035
 10
3.027666089197015
 20
1.042499144932411
 30
0.0
 10
3.027666089197015
 20
1.047561246493406
 30
0.0
 10
3.027666089197015
 20
1.052625558248801
 30
0.0
 10
3.027666089197015
 20
1.057692660842834
 30
0.0
  0
ARC
  5
E87
330
1F
100
AcDbEntity
  8
0
  6
Continuous
 62
     7
370
    15
100
AcDbCircle
 10
3.058666089197014
 20
1.242612237955435
 30
0.0
 40
0.1874999999993364
100
AcDbArc
 50
99.51659902097025
 51
260.4834009790313
  0
SPLINE
  5
E88
330
1F
100
AcDbEntity
  8
0
  6
Continuous
 62
     7
370
    15
100
AcDbSpline
210
0.0
220
0.0
230
1.0
 70
    24
 71
     3
 72
     8
 73
     4
 74
     0
 42
0.0000000001
 43
0.0000000001
 40
0.0000000000000128
 40
0.0000000000000128
 40
0.0000000000000128
 40
0.0000000000000128
 40
0.0005423021500252
 40
0.0005423021500252
 40
0.0005423021500252
 40
0.0005423021500252
 10
3.027666089196667
 20
1.442725330977998
 30
0.0
 10
3.027666089196667
 20
1.437663229417219
 30
0.0
 10
3.027666089197015
 20
1.432598917661822
 30
0.0
 10
3.027666089197015
 20
1.427531815068006
 30
0.0
  0
ARC
  5
E89
330
1F
100
AcDbEntity
  8
0
  6
Continuous
 62
     7
370
    15
100
AcDbCircle
 10
3.058666089197014
 20
1.242612237955435
 30
0.0
 40
0.3200000000000003
100
AcDbArc
 50
95.55924724574543
 51
84.26082952273288
  0
ARC
  5
E8A
330
1F
100
AcDbEntity
  8
0
  6
Continuous
 62
     7
370
    15
100
AcDbCircle
 10
3.058666089197014
 20
1.242612237955435
 30
0.0
 40
0.4225000000000001
100
AcDbArc
 50
94.20773189401549
 51
85.65627827596491
  0
LINE
  5
E8B
330
1F
100
AcDbEntity
  8
0
  6
Continuous
 62
     7
370
    15
100
AcDbLine
 10
3.027666089197015
 20
1.561107135873752
 30
0.0
 11
3.027666089197015
 21
1.663973425062173
 31
0.0
  0
LINE
  5
E8C
330
1F
100
AcDbEntity
  8
0
  6
Continuous
 62
     7
370
    15
100
AcDbLine
 10
3.090666089197016
 20
1.663898660713159
 30
0.0
 11
3.090666089197016
 21
1.561008217829553
 31
0.0
  0
ARC
  5
E8D
330
1F
100
AcDbEntity
  8
0
  6
Continuous
 62
     7
370
    15
100
AcDbCircle
 10
3.058666089197014
 20
1.242612237955435
 30
0.0
 40
0.4374999999999999
100
AcDbArc
 50
94.06322014170473
 51
85.80547726891088
  0
SPLINE
  5
E8E
330
1F
100
AcDbEntity
  8
0
  6
Continuous
 62
     7
370
    15
100
AcDbSpline
210
0.0
220
0.0
230
1.0
 70
    24
 71
     3
 72
     8
 73
     4
 74
     0
 42
0.0000000001
 43
0.0000000001
 40
0.0
 40
0.0
 40
0.0
 40
0.0
 40
0.0005395188924343
 40
0.0005395188924343
 40
0.0005395188924343
 40
0.0005395188924343
 10
3.027666089197015
 20
1.663973425062173
 30
0.0
 10
3.027666089197015
 20
1.668986705382813
 30
0.0
 10
3.027666089197015
 20
1.67399974580633
 30
0.0
 10
3.027666089197015
 20
1.679012570219286
 30
0.0
  0
SPLINE
  5
E8F
330
1F
100
AcDbEntity
  8
0
  6
Continuous
 62
     7
370
    15
100
AcDbSpline
210
0.0
220
0.0
230
1.0
 70
    24
 71
     3
 72
     8
 73
     4
 74
     0
 42
0.0000000001
 43
0.0000000001
 40
0.0
 40
0.0
 40
0.0
 40
0.0
 40
0.0005395652380059
 40
0.0005395652380059
 40
0.0005395652380059
 40
0.0005395652380059
 10
3.090666089197016
 20
1.678940382818908
 30
0.0
 10
3.090666089197016
 20
1.673926714187352
 30
0.0
 10
3.090666089197016
 20
1.668912815306554
 30
0.0
 10
3.090666089197016
 20
1.663898660713159
 30
0.0
  0
SPLINE
  5
E90
330
1F
100
AcDbEntity
  8
0
  6
Continuous
 62
     7
370
    15
100
AcDbSpline
210
0.0
220
0.0
230
1.0
 70
    24
 71
     3
 72
    14
 73
    10
 74
     0
 42
0.0000000001
 43
0.0000000001
 40
0.0
 40
0.0
 40
0.0
 40
0.0
 40
0.25
 40
0.25
 40
0.5
 40
0.5
 40
0.75
 40
0.75
 40
1.0
 40
1.0
 40
1.0
 40
1.0
 10
3.027666089197015
 20
1.54603273825164
 30
0.0
 10
3.027666089197015
 20
1.54603273825164
 30
0.0
 10
3.027666089197015
 20
1.546855256393755
 30
0.0
 10
3.027666089197015
 20
1.549639821160578
 30
0.0
 10
3.027666089197015
 20
1.551604139520211
 30
0.0
 10
3.027666089197015
 20
1.555527252476112
 30
0.0
 10
3.027666089197015
 20
1.557480157573213
 30
0.0
 10
3.027666089197015
 20
1.560298687074234
 30
0.0
 10
3.027666089197015
 20
1.561107135873752
 30
0.0
 10
3.027666089197015
 20
1.561107135873752
 30
0.0
  0
SPLINE
  5
E91
330
1F
100
AcDbEntity
  8
0
  6
Continuous
 62
     7
370
    15
100
AcDbSpline
210
0.0
220
0.0
230
1.0
 70
    24
 71
     3
 72
    14
 73
    10
 74
     0
 42
0.0000000001
 43
0.0000000001
 40
0.0
 40
0.0
 40
0.0
 40
0.0
 40
0.25
 40
0.25
 40
0.5
 40
0.5
 40
0.75
 40
0.75
 40
1.0
 40
1.0
 40
1.0
 40
1.0
 10
3.090666089197016
 20
1.545928904164201
 30
0.0
 10
3.090666089197016
 20
1.545928904164201
 30
0.0
 10
3.090666089197016
 20
1.546752051240855
 30
0.0
 10
3.090666089197016
 20
1.549537740818954
 30
0.0
 10
3.090666089197016
 20
1.551502467633266
 30
0.0
 10
3.090666089197016
 20
1.555426281511619
 30
0.0
 10
3.090666089197016
 20
1.557379555036269
 30
0.0
 10
3.090666089197016
 20
1.56019918743374
 30
0.0
 10
3.090666089197016
 20
1.561008217829553
 30
0.0
 10
3.090666089197016
 20
1.561008217829553
 30
0.0
  0
LINE
  5
E92
330
1F
100
AcDbEntity
  8
0
  6
Continuous
 62
     7
370
    15
100
AcDbLine
 10
2.767166089197013
 20
1.665612237955434
 30
0.0
 11
2.767166089197013
 21
1.568854479242488
 31
0.0
  0
LINE
  5
E93
330
1F
100
AcDbEntity
  8
0
  6
Continuous
 62
     7
370
    15
100
AcDbLine
 10
2.905166089197015
 20
1.665612237955434
 30
0.0
 11
2.905166089197015
 21
1.652299923882167
 31
0.0
  0
LINE
  5
E94
330
1F
100
AcDbEntity
  8
0
  6
HIDDEN
 62
     7
370
     0
100
AcDbLine
 10
2.905166089197015
 20
1.427612237955434
 30
0.0
 11
2.905166089197015
 21
1.652299923882166
 31
0.0
  0
LINE
  5
E95
330
1F
100
AcDbEntity
  8
0
  6
HIDDEN
 62
     7
370
     0
100
AcDbLine
 10
2.767166089197013
 20
1.552612237955434
 30
0.0
 11
2.767166089197013
 21
1.439612237955435
 31
0.0
  0
LINE
  5
E96
330
1F
100
AcDbEntity
  8
0
  6
HIDDEN
 62
     7
370
     0
100
AcDbLine
 10
2.767166089197013
 20
1.568854479242488
 30
0.0
 11
2.767166089197013
 21
1.552612237955434
 31
0.0
  0
LINE
  5
E97
330
1F
100
AcDbEntity
  8
0
  6
HIDDEN
 62
     7
370
     0
100
AcDbLine
 10
2.767166089197013
 20
1.552612237955434
 30
0.0
 11
2.836166089197014
 21
1.552612237955434
 31
0.0
  0
LINE
  5
E98
330
1F
100
AcDbEntity
  8
0
  6
HIDDEN
 62
     7
370
     0
100
AcDbLine
 10
2.836166089197014
 20
1.552612237955434
 30
0.0
 11
2.836166089197016
 21
1.614762237955434
 31
0.0
  0
LINE
  5
E99
330
1F
100
AcDbEntity
  8
0
  6
HIDDEN
 62
     7
370
     0
100
AcDbLine
 10
2.836166089197016
 20
1.490462237955434
 30
0.0
 11
2.836166089197014
 21
1.552612237955434
 31
0.0
  0
LINE
  5
E9A
330
1F
100
AcDbEntity
  8
0
  6
HIDDEN
 62
     7
370
     0
100
AcDbLine
 10
3.206816089197015
 20
1.552612237955434
 30
0.0
 11
3.206816089197015
 21
1.500512237955434
 31
0.0
  0
LINE
  5
E9B
330
1F
100
AcDbEntity
  8
0
  6
HIDDEN
 62
     7
370
     0
100
AcDbLine
 10
3.206816089197015
 20
1.604712237954879
 30
0.0
 11
3.206816089197015
 21
1.552612237955434
 31
0.0
  0
LINE
  5
E9C
330
1F
100
AcDbEntity
  8
0
  6
HIDDEN
 62
     7
370
     0
100
AcDbLine
 10
3.189916089195735
 20
1.621612237953921
 30
0.0
 11
3.189916089195735
 21
1.483612237956948
 31
0.0
  0
LINE
  5
E9D
330
1F
100
AcDbEntity
  8
0
  6
HIDDEN
 62
     7
370
     0
100
AcDbLine
 10
2.836166089197016
 20
1.490462237955434
 30
0.0
 11
2.767166089197013
 21
1.490462237955434
 31
0.0
  0
LINE
  5
E9E
330
1F
100
AcDbEntity
  8
0
  6
HIDDEN
 62
     7
370
     0
100
AcDbLine
 10
2.836166089197016
 20
1.614762237955434
 30
0.0
 11
2.767166089197013
 21
1.614762237955434
 31
0.0
  0
SPLINE
  5
E9F
330
1F
100
AcDbEntity
  8
0
  6
HIDDEN
 62
     7
370
     0
100
AcDbSpline
210
0.0
220
0.0
230
1.0
 70
    24
 71
     1
 72
     4
 73
     2
 74
     0
 42
0.0000000001
 43
0.0000000001
 40
0.0
 40
0.0
 40
1.0
 40
1.0
 10
2.662303618709531
 20
1.427612237955434
 30
0.0
 10
2.905166089197015
 20
1.427612237955434
 30
0.0
  0
SPLINE
  5
EA0
330
1F
100
AcDbEntity
  8
0
  6
HIDDEN
 62
     7
370
     0
100
AcDbSpline
210
0.0
220
0.0
230
1.0
 70
    24
 71
     1
 72
     4
 73
     2
 74
     0
 42
0.0000000001
 43
0.0000000001
 40
0.0
 40
0.0
 40
1.0
 40
1.0
 10
2.767166089197013
 20
1.439612237955435
 30
0.0
 10
2.905166089197015
 20
1.439612237955435
 30
0.0
  0
SPLINE
  5
EA1
330
1F
100
AcDbEntity
  8
0
  6
HIDDEN
 62
     7
370
     0
100
AcDbSpline
210
0.0
220
0.0
230
1.0
 70
    24
 71
     1
 72
     4
 73
     2
 74
     0
 42
0.0000000001
 43
0.0000000001
 40
0.0
 40
0.0
 40
1.0
 40
1.0
 10
3.189916089195735
 20
1.483612237956948
 30
0.0
 10
3.206816089197015
 20
1.50051223795599
 30
0.0
  0
SPLINE
  5
EA2
330
1F
100
AcDbEntity
  8
0
  6
HIDDEN
 62
     7
370
     0
100
AcDbSpline
210
0.0
220
0.0
230
1.0
 70
    24
 71
     1
 72
     4
 73
     2
 74
     0
 42
0.0000000001
 43
0.0000000001
 40
0.0
 40
0.0
 40
1.0
 40
1.0
 10
3.206816089197015
 20
1.604712237954879
 30
0.0
 10
3.189916089195735
 20
1.621612237953921
 30
0.0
  0
SPLINE
  5
EA3
330
1F
100
AcDbEntity
  8
0
  6
HIDDEN
 62
     7
370
     0
100
AcDbSpline
210
0.0
220
0.0
230
1.0
 70
    24
 71
     1
 72
     4
 73
     2
 74
     0
 42
0.0000000001
 43
0.0000000001
 40
0.0
 40
0.0
 40
1.0
 40
1.0
 10
3.206816089197015
 20
1.500512237955434
 30
0.0
 10
3.411970149296418
 20
1.500512237955434
 30
0.0
  0
SPLINE
  5
EA4
330
1F
100
AcDbEntity
  8
0
  6
HIDDEN
 62
     7
370
     0
100
AcDbSpline
210
0.0
220
0.0
230
1.0
 70
    24
 71
     1
 72
     4
 73
     2
 74
     0
 42
0.0000000001
 43
0.0000000001
 40
0.0
 40
0.0
 40
1.0
 40
1.0
 10
3.304205984122463
 20
1.604712237955435
 30
0.0
 10
3.206816089197015
 20
1.604712237955435
 30
0.0
  0
SPLINE
  5
EA5
330
1F
100
AcDbEntity
  8
0
  6
Continuous
 62
     7
370
    15
100
AcDbSpline
210
0.0
220
0.0
230
1.0
 70
    24
 71
     1
 72
     4
 73
     2
 74
     0
 42
0.0000000001
 43
0.0000000001
 40
0.0
 40
0.0
 40
1.0
 40
1.0
 10
3.309235032591292
 20
2.485581585495369
 30
0.0
 10
3.319839910438016
 20
2.491705641503626
 30
0.0
  0
SPLINE
  5
EA6
330
1F
100
AcDbEntity
  8
0
  6
Continuous
 62
     7
370
    15
100
AcDbSpline
210
0.0
220
0.0
230
1.0
 70
    24
 71
     1
 72
     4
 73
     2
 74
     0
 42
0.0000000001
 43
0.0000000001
 40
0.0
 40
0.0
 40
1.0
 40
1.0
 10
3.618543969787419
 20
3.00913231298133
 30
0.0
 10
3.618543969787419
 20
3.021378434658672
 30
0.0
  0
SPLINE
  5
EA7
330
1F
100
AcDbEntity
  8
0
  6
Continuous
 62
     7
370
    15
100
AcDbSpline
210
0.0
220
0.0
230
1.0
 70
    24
 71
     1
 72
     4
 73
     2
 74
     0
 42
0.0000000001
 43
0.0000000001
 40
0.0
 40
0.0
 40
1.0
 40
1.0
 10
3.368787068110064
 20
3.313549277813574
 30
0.0
 10
3.283965136273083
 20
3.362515936778422
 30
0.0
  0
SPLINE
  5
EA8
330
1F
100
AcDbEntity
  8
0
  6
Continuous
 62
     7
370
    15
100
AcDbSpline
210
0.0
220
0.0
230
1.0
 70
    24
 71
     1
 72
     4
 73
     2
 74
     0
 42
0.0000000001
 43
0.0000000001
 40
0.0
 40
0.0
 40
1.0
 40
1.0
 10
3.527916975782444
 20
3.221685537489005
 30
0.0
 10
3.442396214488207
 20
3.271055622112367
 30
0.0
  0
SPLINE
  5
EA9
330
1F
100
AcDbEntity
  8
0
  6
Continuous
 62
     7
370
    15
100
AcDbSpline
210
0.0
220
0.0
230
1.0
 70
    24
 71
     1
 72
     4
 73
     2
 74
     0
 42
0.0000000001
 43
0.0000000001
 40
0.0
 40
0.0
 40
1.0
 40
1.0
 10
2.846500690744806
 20
2.604723182195325
 30
0.0
 10
3.090452530254164
 20
2.463892782905908
 30
0.0
  0
SPLINE
  5
EAA
330
1F
100
AcDbEntity
  8
0
  6
Continuous
 62
     7
370
    15
100
AcDbSpline
210
0.0
220
0.0
230
1.0
 70
    24
 71
     1
 72
     4
 73
     2
 74
     0
 42
0.0000000001
 43
0.0000000001
 40
0.0
 40
0.0
 40
1.0
 40
1.0
 10
3.021818980566958
 20
3.201740312421328
 30
0.0
 10
2.924238244763214
 20
3.145408152705559
 30
0.0
  0
SPLINE
  5
EAB
330
1F
100
AcDbEntity
  8
0
  6
Continuous
 62
     7
370
    15
100
AcDbSpline
210
0.0
220
0.0
230
1.0
 70
    24
 71
     1
 72
     4
 73
     2
 74
     0
 42
0.0000000001
 43
0.0000000001
 40
0.0
 40
0.0
 40
1.0
 40
1.0
 10
2.755873696739831
 20
2.817276406702999
 30
0.0
 10
2.755873696739831
 20
2.805030285025658
 30
0.0
  0
SPLINE
  5
EAC
330
1F
100
AcDbEntity
  8
0
  6
Continuous
 62
     7
370
    15
100
AcDbSpline
210
0.0
220
0.0
230
1.0
 70
     8
 71
     3
 72
     8
 73
     4
 74
     0
 42
0.0000000001
 43
0.0000000001
 40
0.0
 40
0.0
 40
0.0
 40
0.0
 40
0.0005395188924343
 40
0.0005395188924343
 40
0.0005395188924343
 40
0.0005395188924343
 10
3.29787104451932
 20
3.168070379442815
 30
0.0
 10
3.294335675051774
 20
3.174204852777336
 30
0.0
 10
3.290800135486293
 20
3.180339228421516
 30
0.0
 10
3.28726444280152
 20
3.186473516078139
 30
0.0
  0
LWPOLYLINE
  5
EAD
330
1F
100
AcDbEntity
  8
0
  6
Continuous
 62
     7
370
    15
100
AcDbPolyline
 90
      135
 70
   128
 43
0.0
 10
3.34241877173407
 20
3.193726186822985
 10
3.356026614750712
 20
3.200025814914447
 10
3.369558543363385
 20
3.205564189016779
 10
3.382986207608686
 20
3.210329706001738
 10
3.396281475961481
 20
3.21431238190946
 10
3.409416494271637
 20
3.21750387286529
 10
3.422363744119639
 20
3.219897492560543
 10
3.435096100468857
 20
3.221488226260607
 10
3.44758688849364
 20
3.22227274131103
 10
3.459809939464198
 20
3.222249394119565
 10
3.471739645571215
 20
3.221418233599564
 10
3.48335101357528
 20
3.219781001067511
 10
3.494619717168783
 20
3.217341126594881
 10
3.505522147940569
 20
3.214103721822
 10
3.516035464836551
 20
3.210075569248948
 10
3.526137642012685
 20
3.205265108025914
 10
3.535807514980053
 20
3.199682416272846
 10
3.545024824945352
 20
3.193339189965342
 10
3.553770261253935
 20
3.186248718431095
 10
3.562025501846445
 20
3.178425856508187
 10
3.569773251644306
 20
3.169886993423576
 10
3.576997278783643
 20
3.160650018456969
 10
3.583682448621722
 20
3.150734283462025
 10
3.589814755444679
 20
3.140160562323398
 10
3.595381351810072
 20
3.128951007434579
 10
3.600370575462818
 20
3.117129103287684
 10
3.604771973768116
 20
3.104719617272454
 10
3.608576325610156
 20
3.091748547787521
 10
3.611775660710748
 20
3.078243069772664
 10
3.614363276327395
 20
3.064231477776161
 10
3.616333751295815
 20
3.049743126676512
 10
3.617682957387518
 20
3.034808370182721
 10
3.618408067958618
 20
3.019458497241998
 10
3.618507563871764
 20
3.003725666488083
 10
3.617981236678804
 20
2.98764283886755
 10
3.616830189057495
 20
2.97124370858523
 10
3.615056832501341
 20
2.954562632513418
 10
3.612664882267409
 20
2.937634558212781
 10
3.609659349592718
 20
2.920494950715735
 10
3.606046531195483
 20
2.90317971822569
 10
3.601833996083211
 20
2.885725136887861
 10
3.597030569695331
 20
2.868167774789197
 10
3.591646315413504
 20
2.850544415346691
 10
3.585692513478424
 20
2.832891980244568
 10
3.57918163735724
 20
2.815247452081788
 10
3.572127327611102
 20
2.797647796891943
 10
3.564544363317613
 20
2.780129886697844
 10
3.556448631108043
 20
2.762730422263073
 10
3.547857091884148
 20
2.745485856202332
 10
3.538787745284382
 20
2.728432316611675
 10
3.529259591973872
 20
2.711605531378607
 10
3.51929259383724
 20
2.695040753330657
 10
3.508907632157596
 20
2.678772686379204
 10
3.498126463869365
 20
2.66283541281332
 10
3.486971675976599
 20
2.647262321895928
 10
3.475466638232241
 20
2.632086039911881
 10
3.4636354541775
 20
2.617338361814512
 10
3.451502910643915
 20
2.603050184613872
 10
3.439094425823896
 20
2.589251442646173
 10
3.426435996018525
 20
2.575971044860088
 10
3.413554141174222
 20
2.563236814251286
 10
3.40047584932231
 20
2.551075429572074
 10
3.387228520037973
 20
2.539512369438281
 10
3.37383990703697
 20
2.528571858950479
 10
3.360338060030418
 20
2.518276818941377
 10
3.346751265959486
 20
2.508648817955691
 10
3.333107989733028
 20
2.499708027063148
 10
3.319436814592412
 20
2.491473177599234
 10
3.305766382228409
 20
2.483961521922243
 10
3.292125332775642
 20
2.477188797268873
 10
3.278542244810289
 20
2.471169192784037
 10
3.265045575476765
 20
2.465915319794007
 10
3.251663600868782
 20
2.461438185385151
 10
3.238424356789755
 20
2.457747169343624
 10
3.225355580016591
 20
2.454850004504313
 10
3.212484650189978
 20
2.452752760550225
 10
3.199838532452869
 20
2.451459831296245
 10
3.187443720957373
 20
2.450973925483904
 10
3.175326183358388
 20
2.451296061106452
 10
3.163511306410248
 20
2.452425563276118
 10
3.152023842780417
 20
2.454360065638036
 10
3.140887859191588
 20
2.45709551532785
 10
3.130126686000894
 20
2.460626181462632
 10
3.119762868321803
 20
2.46494466714734
 10
3.109818118791171
 20
2.470041924971617
 10
3.10031327208034
 20
2.475907275964498
 10
3.091268241245606
 20
2.482528431967304
 10
3.082701976009552
 20
2.489891521377867
 10
3.074632423060547
 20
2.497981118212106
 10
3.067076488453697
 20
2.506780274422135
 10
3.060050002191927
 20
2.516270555403126
 10
3.053567685061464
 20
2.526432078614595
 10
3.047643117791166
 20
2.537243555235166
 10
3.042288712600317
 20
2.548682334763549
 10
3.037515687194503
 20
2.5607244524723
 10
3.033334041264042
 20
2.573344679614944
 10
3.029752535534218
 20
2.586516576281262
 10
3.026778673411175
 20
2.600212546790029
 10
3.024418685261981
 20
2.614403897503123
 10
3.022677515361731
 20
2.629060896939927
 10
3.021558811535088
 20
2.644152838066027
 10
3.021064917513941
 20
2.659648102625752
 10
3.021196868027168
 20
2.675514227383764
 10
3.021954386632865
 20
2.69171797213691
 10
3.023335886297477
 20
2.708225389353842
 10
3.025338472720706
 20
2.725001895296554
 10
3.027957950399214
 20
2.742012342474758
 10
3.031188831416343
 20
2.759221093281375
 10
3.035024346939572
 20
2.77659209465483
 10
3.039456461401476
 20
2.794088953611739
 10
3.044475889334593
 20
2.811675013491749
 10
3.050072114824882
 20
2.829313430754799
 10
3.056233413542985
 20
2.846967252169896
 10
3.062946877307217
 20
2.864599492233692
 10
3.070198441126731
 20
2.882173210656683
 10
3.077972912668288
 20
2.899651589754686
 10
3.086254004084832
 20
2.916998011583435
 10
3.095024366139215
 20
2.934176134654736
 10
3.10426562455158
 20
2.95114997007341
 10
3.113958418494275
 20
2.967883956935569
 10
3.124082441153582
 20
2.9843430368302
 10
3.134616482273372
 20
3.000492727288026
 10
3.145538472591475
 20
3.016299194023746
 10
3.156825530075725
 20
3.031729321820284
 10
3.168454007862784
 20
3.046750783906579
 10
3.180399543799333
 20
3.061332109683535
 10
3.19263711148179
 20
3.075442750656261
 10
3.205141072687714
 20
3.089053144434458
 10
3.217885231088944
 20
3.102134776666883
 10
3.230842887134032
 20
3.114660240780118
 10
3.243986893984919
 20
3.126603295396504
 10
3.25728971439072
 20
3.13793891931094
 10
3.270723478379434
 20
3.148643363911361
 10
3.2842600416467
 20
3.158694202933093
 10
3.29787104451932
 20
3.168070379442815
  0
SPLINE
  5
EAE
330
1F
100
AcDbEntity
  8
0
  6
Continuous
 62
     7
370
    15
100
AcDbSpline
210
0.0
220
0.0
230
1.0
 70
     8
 71
     3
 72
     8
 73
     4
 74
     0
 42
0.0000000001
 43
0.0000000001
 40
0.0
 40
0.0
 40
0.0
 40
0.0
 40
0.0005395652380059
 40
0.0005395652380059
 40
0.0005395652380059
 40
0.0005395652380059
 10
3.331812170016274
 20
3.212131427642043
 30
0.0
 10
3.335347873196242
 20
3.205996444587729
 30
0.0
 10
3.33888341313739
 20
3.199861367761277
 30
0.0
 10
3.34241877173407
 20
3.193726186822985
 30
0.0
  0
LWPOLYLINE
  5
EAF
330
1F
100
AcDbEntity
  8
0
  6
Continuous
 62
     7
370
    15
100
AcDbPolyline
 90
       35
 70
   128
 43
0.0
 10
3.331812170016274
 20
3.212131427642043
 10
3.345711508851524
 20
3.218613342781942
 10
3.359536432193205
 20
3.224329596110315
 10
3.373258774701413
 20
3.229268541977193
 10
3.386850580022853
 20
3.233420118331189
 10
3.400284157745979
 20
3.236775867218769
 10
3.413532139814314
 20
3.239328952015545
 10
3.426567536283041
 20
3.241074171354441
 10
3.439363790305268
 20
3.242007969722367
 10
3.451894832235961
 20
3.242128444703823
 10
3.464135132743297
 20
3.241435350856665
 10
3.476059754819241
 20
3.239930100212145
 10
3.487644404583402
 20
3.237615759398195
 10
3.498865480776636
 20
3.234497043391822
 10
3.509700122843605
 20
3.230580305913351
 10
3.520126257506275
 20
3.225873526482066
 10
3.530122643733541
 20
3.220386294159643
 10
3.539668916015299
 20
3.214129788014474
 10
3.548745625852845
 20
3.207116754346692
 10
3.557334281381047
 20
3.1993614807203
 10
3.565417385041593
 20
3.190879766855299
 10
3.572978469230537
 20
3.181688892439114
 10
3.580002129847546
 20
3.171807581922916
 10
3.586474057678465
 20
3.161255966374529
 10
3.592381067547314
 20
3.150055542465668
 10
3.597711125178259
 20
3.138229128677041
 10
3.602453371712899
 20
3.125800818810551
 10
3.606598145832888
 20
3.112795932903297
 10
3.610137003442797
 20
3.099240965643394
 10
3.613062734873174
 20
3.085163532392675
 10
3.615369379568711
 20
3.070592312926264
 10
3.617052238231602
 20
3.055556993003648
 10
3.618107882395367
 20
3.040088203890251
 10
3.618534161409623
 20
3.024217459952744
 10
3.618543969787419
 20
3.021378434658672
  0
LWPOLYLINE
  5
EB0
330
1F
100
AcDbEntity
  8
0
  6
Continuous
 62
     7
370
    15
100
AcDbPolyline
 90
       70
 70
   128
 43
0.0
 10
3.309235032591292
 20
2.485581585495369
 10
3.308830279637641
 20
2.485348156383693
 10
3.29487087014122
 20
2.477671928432087
 10
3.280940622135734
 20
2.470739549157729
 10
3.267067915537689
 20
2.464565141808456
 10
3.25328101303522
 20
2.459161285425576
 10
3.239608002508864
 20
2.454538989216738
 10
3.226076739808499
 20
2.450707670127025
 10
3.212714792002957
 20
2.447675133653936
 10
3.199549381218
 20
2.445447557945325
 10
3.186607329177025
 20
2.444029481212762
 10
3.173915002557512
 20
2.443423792485877
 10
3.161498259274519
 20
2.443631725726588
 10
3.149382395800699
 20
2.444652857315151
 10
3.137592095630104
 20
2.446485106913216
 10
3.126151378990821
 20
2.449124741702057
 10
3.115083553908874
 20
2.452566383987397
 10
3.104411168723071
 20
2.45680302215533
 10
3.094155966147569
 20
2.461826024956973
 10
3.084338838975712
 20
2.467625159092815
 10
3.074979787515422
 20
2.474188610060883
 10
3.066097878842812
 20
2.481503006226265
 10
3.057711207957083
 20
2.489553446062995
 10
3.049836860915817
 20
2.498323528512715
 10
3.042490880025757
 20
2.507795386398363
 10
3.035688231160033
 20
2.517949722824731
 10
3.029442773268382
 20
2.52876585049179
 10
3.023767230142464
 20
2.540221733840661
 10
3.018673164493874
 20
2.552294033946383
 10
3.014170954397551
 20
2.564958156065992
 10
3.010269772148676
 20
2.578188299745097
 10
3.006977565576065
 20
2.591957511380797
 10
3.00430104185016
 20
2.606237739133932
 10
3.00224565381859
 20
2.620999890078719
 10
3.000815588897166
 20
2.636213889473406
 10
3.000013760538907
 20
2.651848742031166
 10
2.999841802298494
 20
2.667872595066388
 10
3.000300064504253
 20
2.684252803387753
 10
3.001387613544444
 20
2.700955995805866
 10
3.003102233769284
 20
2.717948143119953
 10
3.005440432004865
 20
2.735194627445114
 10
3.008397444669762
 20
2.752660312738907
 10
3.011967247479804
 20
2.770309616383553
 10
3.016142567721276
 20
2.788106581677944
 10
3.020914899067532
 20
2.806014951091784
 10
3.026274518908815
 20
2.823998240132583
 10
3.032210508160014
 20
2.842019811675051
 10
3.038710773505972
 20
2.860042950601448
 10
3.045762072039044
 20
2.878030938600817
 10
3.053350038238709
 20
2.895947128974743
 10
3.061459213238249
 20
2.913755021297195
 10
3.070073076318918
 20
2.931418335776378
 10
3.079174078567376
 20
2.948901087167094
 10
3.088743678627874
 20
2.966167658083021
 10
3.098762380476323
 20
2.983182871559559
 10
3.109209773139285
 20
2.999912062719413
 10
3.120064572277001
 20
3.016321149394904
 10
3.1313046635457
 20
3.032376701563133
 10
3.14290714765087
 20
3.048046009452544
 10
3.154848386999692
 20
3.063297150182119
 10
3.167104053857617
 20
3.078099052797458
 10
3.17964917991094
 20
3.09242156157124
 10
3.192458207134434
 20
3.106235497439104
 10
3.205505039860387
 20
3.119512717445775
 10
3.218763097942964
 20
3.132226172080356
 10
3.232205370909616
 20
3.144349960383948
 10
3.245804472989149
 20
3.155859382717343
 10
3.259532698904434
 20
3.166730991081287
 10
3.273362080315987
 20
3.176942636886785
 10
3.28726444280152
 20
3.186473516078139
  0
LINE
  5
EB1
330
1F
100
AcDbEntity
  8
0
  6
Continuous
 62
     7
370
    15
100
AcDbLine
 10
3.040688830662224
 20
3.206996627440117
 30
0.0
 11
3.024988198047925
 21
3.216060409720322
 31
0.0
  0
SPLINE
  5
EB2
330
1F
100
AcDbEntity
  8
0
  6
Continuous
 62
     7
370
    15
100
AcDbSpline
210
0.0
220
0.0
230
1.0
 70
     8
 71
     3
 72
    41
 73
    37
 74
     0
 42
0.0000000001
 43
0.0000000001
 40
0.0
 40
0.0
 40
0.0
 40
0.0
 40
0.0460061904313314
 40
0.0921715429535471
 40
0.1382767354585872
 40
0.1842005856440635
 40
0.2163503667841405
 40
0.2485467119641119
 40
0.2806664653557112
 40
0.3113762807634127
 40
0.3421647759374286
 40
0.3728231009491387
 40
0.3952666718788156
 40
0.4177683482797863
 40
0.4401924914034105
 40
0.4627702659902655
 40
0.4854334183349786
 40
0.5079967006733332
 40
0.5280188562381725
 40
0.548112420116742
 40
0.5681310526416113
 40
0.5962500769082835
 40
0.6243688630225022
 40
0.6520295386467078
 40
0.6796930395228613
 40
0.7075908324067134
 40
0.7354963811575304
 40
0.7645307059447225
 40
0.7935796520788588
 40
0.8254828814544488
 40
0.8574079472902768
 40
0.8891562948999142
 40
0.9209200737310267
 40
0.9518331889212097
 40
0.9828545667909141
 40
1.0
 40
1.0
 40
1.0
 40
1.0
 10
3.131640579873867
 20
3.154491300227549
 30
0.0
 10
3.128373845069047
 20
3.146141786693744
 30
0.0
 10
3.121829073929392
 20
3.129413873817085
 30
0.0
 10
3.111138200887907
 20
3.10303733648872
 30
0.0
 10
3.099648522842979
 20
3.075914839459237
 30
0.0
 10
3.088452590141507
 20
3.050930129599592
 30
0.0
 10
3.077784997536349
 20
3.028496970936247
 30
0.0
 10
3.067800676992655
 20
3.008857511052788
 30
0.0
 10
3.057240693921151
 20
2.989698395702038
 30
0.0
 10
3.046059830814964
 20
2.97126161563624
 30
0.0
 10
3.034212663409141
 20
2.953862361152154
 30
0.0
 10
3.022597939148099
 20
2.93905844005795
 30
0.0
 10
3.011464942299674
 20
2.926915446692662
 30
0.0
 10
3.0010463774874
 20
2.91718450347613
 30
0.0
 10
2.990135325459075
 20
2.908737511654925
 30
0.0
 10
2.978757977466431
 20
2.901878766380622
 30
0.0
 10
2.967013133018502
 20
2.89674739385553
 30
0.0
 10
2.955475762562743
 20
2.893636411875979
 30
0.0
 10
2.944292523478376
 20
2.892501214694981
 30
0.0
 10
2.933587237074998
 20
2.893043826780679
 30
0.0
 10
2.921602475965798
 20
2.895528255779099
 30
0.0
 10
2.908616266010701
 20
2.900887944453781
 30
0.0
 10
2.895246343005917
 20
2.909784801585949
 30
0.0
 10
2.883283366723278
 20
2.921463132657324
 30
0.0
 10
2.873007005360197
 20
2.935447894208511
 30
0.0
 10
2.864789246904683
 20
2.951503280742574
 30
0.0
 10
2.85875963896645
 20
2.969314731941024
 30
0.0
 10
2.855337701429762
 20
2.988436548306193
 30
0.0
 10
2.854550974589686
 20
3.008970816118287
 30
0.0
 10
2.856786371621694
 20
3.030211986484252
 30
0.0
 10
2.86198802283229
 20
3.051618156242428
 30
0.0
 10
2.869823677160285
 20
3.072183609727261
 30
0.0
 10
2.87975243658289
 20
3.09156273411355
 30
0.0
 10
2.891520296224459
 20
3.109656047275326
 30
0.0
 10
2.902572792206804
 20
3.124160669379323
 30
0.0
 10
2.910143407722792
 20
3.132261971618248
 30
0.0
 10
2.912838240114099
 20
3.135145706981523
 30
0.0
  0
SPLINE
  5
EB3
330
1F
100
AcDbEntity
  8
0
  6
Continuous
 62
     7
370
    15
100
AcDbSpline
210
0.0
220
0.0
230
1.0
 70
     8
 71
     3
 72
    13
 73
     9
 74
     0
 42
0.0000000001
 43
0.0000000001
 40
0.0
 40
0.0
 40
0.0
 40
0.0
 40
0.0432835287868186
 40
0.2011072653272991
 40
0.4004858372588466
 40
0.6003862261755332
 40
0.800428063880614
 40
1.0
 40
1.0
 40
1.0
 40
1.0
 10
2.915360566257314
 20
3.13791016954299
 30
0.0
 10
2.916667901507677
 20
3.139363071667114
 30
0.0
 10
2.922742143244324
 20
3.146113657424795
 30
0.0
 10
2.936100102738627
 20
3.158351651316516
 30
0.0
 10
2.955512626243399
 20
3.174359654059564
 30
0.0
 10
2.977735760441484
 20
3.189827103062262
 30
0.0
 10
3.000873968194687
 20
3.203883295243207
 30
0.0
 10
3.0169564251602
 20
3.212004554795523
 30
0.0
 10
3.024988198047925
 20
3.216060409720322
 30
0.0
  0
LINE
  5
EB4
330
1F
100
AcDbEntity
  8
0
  6
Continuous
 62
     7
370
    15
100
AcDbLine
 10
3.131640579873867
 20
3.154491300227549
 30
0.0
 11
3.115939947259565
 21
3.163555082507755
 31
0.0
  0
SPLINE
  5
EB5
330
1F
100
AcDbEntity
  8
0
  6
Continuous
 62
     7
370
    15
100
AcDbSpline
210
0.0
220
0.0
230
1.0
 70
     8
 71
     3
 72
    22
 73
    18
 74
     0
 42
0.0000000001
 43
0.0000000001
 40
0.0
 40
0.0
 40
0.0
 40
0.0
 40
0.0317949273820779
 40
0.0645759231746757
 40
0.1039727982665601
 40
0.1444987244607567
 40
0.2046873962046988
 40
0.2664834604558991
 40
0.3626486533907081
 40
0.4614579454332791
 40
0.5542159193302899
 40
0.6488075657216811
 40
0.7289229681336395
 40
0.8106647388037833
 40
0.8788653339462959
 40
0.9487483563512755
 40
1.0
 40
1.0
 40
1.0
 40
1.0
 10
3.360478204626648
 20
3.309308270850566
 30
0.0
 10
3.359308092549124
 20
3.310003304623112
 30
0.0
 10
3.356931579254535
 20
3.311414927520075
 30
0.0
 10
3.353956903651239
 20
3.313463615530485
 30
0.0
 10
3.351534298745672
 20
3.315409389329252
 30
0.0
 10
3.349593718755436
 20
3.317404023594516
 30
0.0
 10
3.348622191185992
 20
3.319128215109946
 30
0.0
 10
3.348893394801065
 20
3.320569782527291
 30
0.0
 10
3.351044266962896
 20
3.321070158179031
 30
0.0
 10
3.355313311845488
 20
3.320122942298729
 30
0.0
 10
3.361071533568782
 20
3.317758414640175
 30
0.0
 10
3.367728883985456
 20
3.314246484943852
 30
0.0
 10
3.37522250065521
 20
3.309711059230782
 30
0.0
 10
3.382876341358471
 20
3.304680198989784
 30
0.0
 10
3.391014111408502
 20
3.29907256279869
 30
0.0
 10
3.398619171665281
 20
3.293704016609732
 30
0.0
 10
3.40384129534067
 20
3.290019785359335
 30
0.0
 10
3.406050757176988
 20
3.288461000303692
 30
0.0
  0
SPLINE
  5
EB6
330
1F
100
AcDbEntity
  8
0
  6
Continuous
 62
     7
370
    15
100
AcDbSpline
210
0.0
220
0.0
230
1.0
 70
     8
 71
     3
 72
    18
 73
    14
 74
     0
 42
0.0000000001
 43
0.0000000001
 40
0.0
 40
0.0
 40
0.0
 40
0.0
 40
0.0081880017692916
 40
0.1762816570303672
 40
0.3492125809171806
 40
0.4863977591380289
 40
0.6267976383990771
 40
0.7031504434639544
 40
0.7807912017454822
 40
0.8399528942049093
 40
0.9005449934384818
 40
0.949539341956968
 40
1.0
 40
1.0
 40
1.0
 40
1.0
 10
3.442391417188444
 20
3.271047420739268
 30
0.0
 10
3.442258762358386
 20
3.271127536541143
 30
0.0
 10
3.439402801415234
 20
3.272852370842182
 30
0.0
 10
3.431952671533705
 20
3.27671722862814
 30
0.0
 10
3.420378456196443
 20
3.282216353522812
 30
0.0
 10
3.407900138181291
 20
3.287700362758007
 30
0.0
 10
3.397226740190447
 20
3.292232198833
 30
0.0
 10
3.387902352399059
 20
3.296205098884346
 30
0.0
 10
3.38098646777405
 20
3.299213032508029
 30
0.0
 10
3.374574300349241
 20
3.302110537917162
 30
0.0
 10
3.369229251782765
 20
3.304657412098395
 30
0.0
 10
3.364416996165742
 20
3.307096863672974
 30
0.0
 10
3.361803976776483
 20
3.308563925276828
 30
0.0
 10
3.360478204626648
 20
3.309308270850566
 30
0.0
  0
LINE
  5
EB7
330
1F
100
AcDbEntity
  8
0
  6
Continuous
 62
     7
370
    15
100
AcDbLine
 10
3.28726444280152
 20
3.186473516078139
 30
0.0
 11
3.043312603292163
 21
3.327303915367558
 31
0.0
  0
LINE
  5
EB8
330
1F
100
AcDbEntity
  8
0
  6
Continuous
 62
     7
370
    15
100
AcDbLine
 10
3.087860330506915
 20
3.35296182693146
 30
0.0
 11
3.331812170016274
 21
3.212131427642043
 31
0.0
  0
LWPOLYLINE
  5
EB9
330
1F
100
AcDbEntity
  8
0
  6
Continuous
 62
     7
370
    15
100
AcDbPolyline
 90
       52
 70
   128
 43
0.0
 10
3.043312603292163
 20
3.327303915367558
 10
3.029410240806623
 20
3.317773036176202
 10
3.01558085939507
 20
3.307561390370702
 10
3.001852633479787
 20
3.296689782006758
 10
2.988253531400252
 20
3.285180359673361
 10
2.9748112584336
 20
3.273056571369771
 10
2.961553200351023
 20
3.260343116735189
 10
2.94850636762507
 20
3.247065896728519
 10
2.935697340401576
 20
3.233251960860656
 10
2.923152214348252
 20
3.218929452086872
 10
2.910896547490327
 20
3.204127549471532
 10
2.898955308141506
 20
3.188876408741958
 10
2.887352824036337
 20
3.173207100852547
 10
2.876112732767637
 20
3.157151548684318
 10
2.865257933629921
 20
3.140742462008827
 10
2.854810540966958
 20
3.124013270848971
 10
2.844791839118514
 20
3.106998057372432
 10
2.835222239058014
 20
3.089731486456507
 10
2.826121236809557
 20
3.072248735065789
 10
2.817507373728886
 20
3.054585420586608
 10
2.809398198729347
 20
3.036777528264156
 10
2.801810232529682
 20
3.018861337890228
 10
2.794758933996609
 20
3.000873349890857
 10
2.788258668650652
 20
2.982850210964462
 10
2.782322679399454
 20
2.964828639421995
 10
2.776963059558173
 20
2.946845350381195
 10
2.772190728211917
 20
2.928936980967355
 10
2.768015407970443
 20
2.911140015672962
 10
2.764445605160402
 20
2.89349071202832
 10
2.761488592495506
 20
2.876025026734527
 10
2.759150394259926
 20
2.858778542409364
 10
2.757435774035085
 20
2.841786395095278
 10
2.756348224994896
 20
2.825083202677166
 10
2.755889962789135
 20
2.808702994355801
 10
2.756061921029548
 20
2.792679141320579
 10
2.756863749387807
 20
2.777044288762819
 10
2.758293814309233
 20
2.761830289368131
 10
2.760349202340799
 20
2.747068138423344
 10
2.763025726066707
 20
2.732787910670211
 10
2.766317932639319
 20
2.71901869903451
 10
2.770219114888194
 20
2.705788555355406
 10
2.774721324984517
 20
2.693124433235796
 10
2.779815390633109
 20
2.681052133130075
 10
2.785490933759025
 20
2.669596249781204
 10
2.79173639165068
 20
2.658780122114144
 10
2.798539040516399
 20
2.648625785687777
 10
2.805885021406458
 20
2.63915392780213
 10
2.813759368447728
 20
2.63038384535241
 10
2.822146039333457
 20
2.62233340551568
 10
2.831027948006067
 20
2.615019009350296
 10
2.840386999466357
 20
2.60845555838223
 10
2.846500690744806
 20
2.604723182195325
  0
ARC
  5
EBA
330
1F
100
AcDbEntity
  8
0
  6
Continuous
 62
     7
370
    15
100
AcDbCircle
 10
3.194794545487328
 20
3.175433458942894
 30
0.0
 40
0.2072468281401707
100
AcDbArc
 50
64.51576375117896
 51
121.0626582306041
  0
LINE
  5
EBB
330
1F
100
AcDbEntity
  8
0
  6
Continuous
 62
     7
370
    15
100
AcDbLine
 10
3.29787104451932
 20
3.084075856153226
 30
0.0
 11
3.29787104451932
 21
3.168070379442815
 31
0.0
  0
LWPOLYLINE
  5
EBC
330
1F
100
AcDbEntity
  8
0
  6
Continuous
 62
     7
370
    15
100
AcDbPolyline
 90
      116
 70
   128
 43
0.0
 10
3.34241877173407
 20
3.109711941055522
 10
3.354296311829566
 20
3.114822555258621
 10
3.366077236377595
 20
3.119154317942067
 10
3.377728558220061
 20
3.122695099960992
 10
3.389217653092698
 20
3.125434986954621
 10
3.400512350974608
 20
3.127366307106953
 10
3.411581026165851
 20
3.128483652628224
 10
3.422392685840952
 20
3.128783894896974
 10
3.432917056830298
 20
3.128266193220337
 10
3.443124670386481
 20
3.12693199718803
 10
3.452986944698221
 20
3.124785042613424
 10
3.462476264920802
 20
3.12183134107309
 10
3.471566060498989
 20
3.118079163074089
 10
3.480230879565858
 20
3.113539014896161
 10
3.488446460209262
 20
3.108223609173625
 10
3.496189798406335
 20
3.102147829299397
 10
3.503439212435907
 20
3.095328687750761
 10
3.510174403588322
 20
3.087785278453621
 10
3.516376513002855
 20
3.079538723318574
 10
3.522028174473399
 20
3.070612113098551
 10
3.527113563074692
 20
3.061030442733587
 10
3.531618439472879
 20
3.050820541363778
 10
3.535530189796329
 20
3.040010997206399
 10
3.538837860955078
 20
3.028632077507511
 10
3.541532191310029
 20
3.016715643792203
 10
3.54360563660597
 20
3.004295062650797
 10
3.545052391095866
 20
2.991405112310765
 10
3.545868403797225
 20
2.978081885256024
 10
3.546051389835044
 20
2.964362687166229
 10
3.545600836839572
 20
2.950285932459076
 10
3.544518006380974
 20
2.935891036728062
 10
3.542805930436866
 20
2.921218306376932
 10
3.540469402902633
 20
2.906308825759793
 10
3.537514966168297
 20
2.891204342142941
 10
3.533950892799499
 20
2.875947148810492
 10
3.529787162373922
 20
2.86057996664115
 10
3.525035433537986
 20
2.845145824487673
 10
3.519709011362081
 20
2.829687938694016
 10
3.513822810085724
 20
2.81424959208747
 10
3.507393311356963
 20
2.798874012784661
 10
3.500438518082974
 20
2.783604253150727
 10
3.492977904021044
 20
2.768483069250624
 10
3.485032359251114
 20
2.753552801130069
 10
3.476624131682545
 20
2.73885525426137
 10
3.467776764758887
 20
2.724431582486083
 10
3.458515031535123
 20
2.710322172782268
 10
3.448864865311888
 20
2.696566532178993
 10
3.438853287020995
 20
2.683203177134748
 10
3.428508329565513
 20
2.670269525689503
 10
3.417858959326283
 20
2.65780179269238
 10
3.406934995054651
 20
2.645834888398326
 10
3.395767024378525
 20
2.63440232071772
 10
3.384386318155545
 20
2.623536101392597
 10
3.372824742913152
 20
2.613266656362222
 10
3.361114671620793
 20
2.603622740569003
 10
3.349288893044024
 20
2.594631357443239
 10
3.337380519934395
 20
2.586317683292234
 10
3.325422896312138
 20
2.578704996805402
 10
3.313449504101297
 20
2.571814613872827
 10
3.301493869378735
 20
2.565665827899726
 10
3.289589468499478
 20
2.560275855783991
 10
3.277769634361323
 20
2.555659789708043
 10
3.266067463071101
 20
2.551830554879982
 10
3.254515721273985
 20
2.548798873342393
 10
3.243146754405296
 20
2.5465732339501
 10
3.23199239612172
 20
2.545159868600967
 10
3.221083879165535
 20
2.544562734786278
 10
3.210451747911422
 20
2.544783504509572
 10
3.200125772840735
 20
2.545821559604956
 10
3.190134867182722
 20
2.547673993467993
 10
3.180507005956078
 20
2.550335619194338
 10
3.171269147637548
 20
2.553798984103327
 10
3.162447158676881
 20
2.558054390605828
 10
3.154065741069533
 20
2.563089923357974
 10
3.146148363189871
 20
2.568891482624698
 10
3.138717194078601
 20
2.575442823759662
 10
3.131793041368377
 20
2.582725602691068
 10
3.125395293021428
 20
2.590719427285936
 10
3.119541863042325
 20
2.599401914449064
 10
3.114249141317905
 20
2.608748752796774
 10
3.109531947724788
 20
2.618733770729969
 10
3.105403490633012
 20
2.629329009715863
 10
3.101875329921963
 20
2.640504802573234
 10
3.098957344612145
 20
2.652229856541962
 10
3.096657705203448
 20
2.664471340904272
 10
3.094982850797359
 20
2.677194978912323
 10
3.093937471067158
 20
2.690365143764768
 10
3.093524493126617
 20
2.703944958363514
 10
3.09374507333392
 20
2.717896398571381
 10
3.094598594053833
 20
2.732180399681521
 10
3.096082665387086
 20
2.746756965800489
 10
3.098193131862226
 20
2.761585281838675
 10
3.10092408407112
 20
2.776623827794526
 10
3.104267875215603
 20
2.791830495012566
 10
3.108215142518861
 20
2.807162704089652
 10
3.112754833441682
 20
2.822577524099376
 10
3.117874236630076
 20
2.838031792800716
 10
3.123559017507702
 20
2.853482237494416
 10
3.129793258413359
 20
2.868885596188622
 10
3.136559503171213
 20
2.884198738734557
 10
3.143838805968934
 20
2.899378787593015
 10
3.151610784406885
 20
2.914383237893549
 10
3.159853676569824
 20
2.929170076450166
 10
3.168544401961321
 20
2.943697899400262
 10
3.177658626130265
 20
2.95792602813746
 10
3.187170828808492
 20
2.971814623213658
 10
3.197054375368786
 20
2.985324795891417
 10
3.207281591403114
 20
2.998418717034295
 10
3.217823840212306
 20
3.011059723030276
 10
3.228651602990192
 20
3.023212418451638
 10
3.239734561477696
 20
3.034842775163868
 10
3.251041682855422
 20
3.045918227606085
 10
3.262541306637041
 20
3.056407763976176
 10
3.274201233320201
 20
3.066282013065359
 10
3.285988814546668
 20
3.075513326498962
 10
3.29787104451932
 20
3.084075856153226
  0
LINE
  5
EBD
330
1F
100
AcDbEntity
  8
0
  6
Continuous
 62
     7
370
    15
100
AcDbLine
 10
3.34241877173407
 20
3.193726186822985
 30
0.0
 11
3.34241877173407
 21
3.109711941055522
 31
0.0
  0
ARC
  5
EBE
330
1F
100
AcDbEntity
  8
0
  6
Continuous
 62
     7
370
    15
100
AcDbCircle
 10
3.042807747532915
 20
3.169534748060865
 30
0.0
 40
0.0505760202438084
100
AcDbArc
 50
127.7113206894847
 51
160.6248051213382
  0
LINE
  5
EBF
330
1F
100
AcDbEntity
  8
0
  6
Continuous
 62
     7
370
    15
100
AcDbLine
 10
3.060636719431231
 20
3.00141757293856
 30
0.0
 11
3.060440408416146
 21
2.995066994841291
 31
0.0
  0
LWPOLYLINE
  5
EC0
330
1F
100
AcDbEntity
  8
0
  6
Continuous
 62
     7
370
    15
100
AcDbPolyline
 90
       63
 70
   128
 43
0.0
 10
3.028021240680283
 20
2.945870164271116
 10
3.025675075863324
 20
2.945309465905168
 10
3.019660257195084
 20
2.944493651768047
 10
3.013340785071607
 20
2.944484351267103
 10
3.006766117930517
 20
2.945281637191371
 10
2.999987711456457
 20
2.94687926969749
 10
2.993058615870586
 20
2.949264745144949
 10
2.986033060740679
 20
2.952419393954025
 10
2.978966030561229
 20
2.95631852672056
 10
2.971912834425225
 20
2.960931627444011
 10
2.964928673155505
 20
2.966222592356546
 10
2.958068207283485
 20
2.97215001248397
 10
2.951385129256371
 20
2.978667497727089
 10
2.944931743220978
 20
2.985724039927148
 10
2.93875855567286
 20
2.993264412073813
 10
2.932913880174501
 20
3.001229600531425
 10
2.927443459236171
 20
3.009557266900699
 10
2.92239010631879
 20
3.018182235901232
 10
2.917793370760525
 20
3.027037005456426
 10
2.913689228249602
 20
3.036052274988772
 10
2.910109799265768
 20
3.045157487790827
 10
2.907083097693998
 20
3.05428138322711
 10
2.904632811577839
 20
3.063352554445199
 10
2.902778117728374
 20
3.072300007231159
 10
2.901533531639662
 20
3.081053715635539
 10
2.900908793885314
 20
3.089545170021359
 10
2.900908793885314
 20
3.097707913244908
 10
2.901533531639662
 20
3.105478060773007
 10
2.902778117728376
 20
3.112794800666094
 10
2.904632811577842
 20
3.119600869514101
 10
2.907083097693998
 20
3.125843000600283
 10
2.910109799265772
 20
3.131472340785499
 10
2.913689228249602
 20
3.136444832850257
 10
2.917793370760525
 20
3.140721560302194
 10
2.922390106318793
 20
3.1442690519504
 10
2.927443459236174
 20
3.147059543862862
 10
2.932913880174501
 20
3.149071196656873
 10
2.938758555672864
 20
3.150288266421821
 10
2.94493174322098
 20
3.150701227936632
 10
2.951385129256371
 20
3.150306849217539
 10
2.958068207283485
 20
3.149108216812736
 10
2.964928673155508
 20
3.147114711645956
 10
2.971912834425227
 20
3.144341935598026
 10
2.978966030561231
 20
3.140811589400987
 10
2.98603306074068
 20
3.136551302800453
 10
2.993058615870586
 20
3.131594418315382
 10
2.999987711456457
 20
3.125979730287664
 10
3.006766117930517
 20
3.119751181263788
 10
3.013340785071608
 20
3.112957518084847
 10
3.019660257195084
 20
3.105651910376405
 10
3.025675075863324
 20
3.097891534424089
 10
3.031338166965053
 20
3.089737125691632
 10
3.036605209134101
 20
3.081252503483524
 10
3.041434980624172
 20
3.072504071472417
 10
3.045789681924915
 20
3.063560298000361
 10
3.049635231594326
 20
3.054491180221189
 10
3.05294153299225
 20
3.045367696277892
 10
3.055682709827406
 20
3.0362612498024
 10
3.057837308674431
 20
3.027243111085359
 10
3.059388466876031
 20
3.018383859289478
 10
3.060324044516143
 20
3.009752830071874
 10
3.060636719431231
 20
3.00141757293856
 10
3.060636719431231
 20
3.00141757293856
  0
ARC
  5
EC1
330
1F
100
AcDbEntity
  8
0
  6
Continuous
 62
     7
370
    15
100
AcDbCircle
 10
3.030173353606821
 20
3.101884100141401
 30
0.0
 40
0.1056372029771056
100
AcDbArc
 50
35.71824950001949
 51
84.28712703267942
  0
ARC
  5
EC2
330
1F
100
AcDbEntity
  8
0
  6
Continuous
 62
     7
370
    15
100
AcDbCircle
 10
3.041735449886495
 20
3.166740365741619
 30
0.0
 40
0.0402698648835408
100
AcDbArc
 50
91.48929274222991
 51
119.6417307267558
  0
ARC
  5
EC3
330
1F
100
AcDbEntity
  8
0
  6
Continuous
 62
     7
370
    15
100
AcDbCircle
 10
2.971214978790428
 20
3.042574935043434
 30
0.0
 40
0.1886306247110522
100
AcDbArc
 50
33.46594534929623
 51
39.89331014612299
  0
LINE
  5
EC4
330
1F
100
AcDbEntity
  8
0
  6
Continuous
 62
     7
370
    15
100
AcDbLine
 10
2.929988390652495
 20
3.076839247747038
 30
0.0
 11
2.955361021904824
 21
3.112939950960491
 31
0.0
  0
LINE
  5
EC5
330
1F
100
AcDbEntity
  8
0
  6
Continuous
 62
     7
370
    15
100
AcDbLine
 10
2.955361021904824
 20
3.011443928043092
 30
0.0
 11
2.929988390652495
 21
3.076839247747038
 31
0.0
  0
LINE
  5
EC6
330
1F
100
AcDbEntity
  8
0
  6
Continuous
 62
     7
370
    15
100
AcDbLine
 10
3.006106284409481
 20
2.982149311552596
 30
0.0
 11
2.955361021904824
 21
3.011443928043092
 31
0.0
  0
LINE
  5
EC7
330
1F
100
AcDbEntity
  8
0
  6
Continuous
 62
     7
370
    15
100
AcDbLine
 10
3.031478915661811
 20
3.018250014766049
 30
0.0
 11
3.006106284409481
 21
2.982149311552596
 31
0.0
  0
LINE
  5
EC8
330
1F
100
AcDbEntity
  8
0
  6
Continuous
 62
     7
370
    15
100
AcDbLine
 10
3.006106284409481
 20
3.083645334469997
 30
0.0
 11
3.031478915661811
 21
3.018250014766049
 31
0.0
  0
LINE
  5
EC9
330
1F
100
AcDbEntity
  8
0
  6
Continuous
 62
     7
370
    15
100
AcDbLine
 10
2.955361021904824
 20
3.112939950960491
 30
0.0
 11
3.006106284409481
 21
3.083645334469997
 31
0.0
  0
SPLINE
  5
ECA
330
1F
100
AcDbEntity
  8
0
  6
Continuous
 62
     7
370
    15
100
AcDbSpline
210
0.0
220
0.0
230
1.0
 70
     8
 71
     3
 72
    14
 73
    10
 74
     0
 42
0.0000000001
 43
0.0000000001
 40
0.0
 40
0.0
 40
0.0
 40
0.0
 40
0.25
 40
0.25
 40
0.5
 40
0.5
 40
0.75
 40
0.75
 40
1.0
 40
1.0
 40
1.0
 40
1.0
 10
3.34241877173407
 20
3.097399066032535
 30
0.0
 10
3.341013631621853
 20
3.098210236153077
 30
0.0
 10
3.339640618607623
 20
3.099674992876998
 30
0.0
 10
3.337686826336097
 20
3.103077522377081
 30
0.0
 10
3.337116413940865
 20
3.105011094071759
 30
0.0
 10
3.337114530279741
 20
3.1082161356561
 30
0.0
 10
3.337673304906893
 20
3.109488489479673
 30
0.0
 10
3.339648787810117
 20
3.110650412401255
 30
0.0
 10
3.341013637336351
 20
3.110523107877154
 30
0.0
 10
3.34241877173407
 20
3.109711941055522
 30
0.0
  0
SPLINE
  5
ECB
330
1F
100
AcDbEntity
  8
0
  6
Continuous
 62
     7
370
    15
100
AcDbSpline
210
0.0
220
0.0
230
1.0
 70
     8
 71
     3
 72
    12
 73
     8
 74
     0
 42
0.0000000001
 43
0.0000000001
 40
0.0
 40
0.0
 40
0.0
 40
0.0
 40
0.2313264277053278
 40
0.4626338625932262
 40
0.6944878864049138
 40
0.9274778366173437
 40
1.0
 40
1.0
 40
1.0
 40
1.0
 10
3.29787104451932
 20
3.071766995280178
 30
0.0
 10
3.297277572631195
 20
3.07217722492051
 30
0.0
 10
3.296090677581345
 20
3.072997650519695
 30
0.0
 10
3.294499662881348
 20
3.074968064509917
 30
0.0
 10
3.293326783367579
 20
3.077200149379628
 30
0.0
 10
3.292692532184442
 20
3.079052354146593
 30
0.0
 10
3.292675386069058
 20
3.079967342394537
 30
0.0
 10
3.292671315941143
 20
3.080184541399937
 30
0.0
  0
LWPOLYLINE
  5
ECC
330
1F
100
AcDbEntity
  8
0
  6
Continuous
 62
     7
370
    15
100
AcDbPolyline
 90
      113
 70
   128
 43
0.0
 10
3.29787104451932
 20
3.071766995280178
 10
3.286269134276139
 20
3.06333223148157
 10
3.274765866225088
 20
3.054230481909131
 10
3.263395089781914
 20
3.044488529291385
 10
3.252190264493725
 20
3.034135040212722
 10
3.241184361581211
 20
3.023200480759369
 10
3.230409766917826
 20
3.011717026870135
 10
3.219898185731393
 20
2.999718469655793
 10
3.209680549308588
 20
2.987240115965645
 10
3.199786923976795
 20
2.974318684493896
 10
3.190246422631208
 20
2.960992197731547
 10
3.181087119067472
 20
2.947299870081749
 10
3.172335965371976
 20
2.933281992467843
 10
3.164018712612891
 20
2.918979813773638
 10
3.15615983506529
 20
2.904435419464812
 10
3.148782458193368
 20
2.889691607748588
 10
3.14190829060165
 20
2.874791763636103
 10
3.135557560155445
 20
2.859779731278059
 10
3.129748954458507
 20
2.844699684949304
 10
3.124499565863048
 20
2.829595999061996
 10
3.119824841173945
 20
2.814513117589859
 10
3.115738536195097
 20
2.799495423287721
 10
3.112252675251721
 20
2.784587107091217
 10
3.109377515807677
 20
2.769832038080929
 10
3.107121518281951
 20
2.755273634393605
 10
3.105491321153083
 20
2.740954735460347
 10
3.104491721424865
 20
2.726917475947658
 10
3.104125660510691
 20
2.713203161772359
 10
3.104394215578199
 20
2.699852148555141
 10
3.105296596379604
 20
2.686903722870489
 10
3.106830147577065
 20
2.674395986642339
 10
3.108990356556272
 20
2.662365745025697
 10
3.111770866705212
 20
2.650848398104104
 10
3.115163496119095
 20
2.639877836721675
 10
3.119158261676336
 20
2.629486342756184
 10
3.123743408414821
 20
2.6197044941267
 10
3.128905444121937
 20
2.610561074815269
 10
3.134629179036661
 20
2.602082990167424
 10
3.140897770546793
 20
2.594295187720742
 10
3.147692772749895
 20
2.587220583794453
 10
3.154994190732038
 20
2.580879996056065
 10
3.162780539404659
 20
2.575292082263485
 10
3.171028906726395
 20
2.570473285362869
 10
3.179715021123854
 20
2.56643778510374
 10
3.18881332291294
 20
2.563197456313794
 10
3.198297039510546
 20
2.56076183395613
 10
3.20813826421533
 20
2.559138085071749
 10
3.21830803832573
 20
2.558330987689892
 10
3.228776436353573
 20
2.558342916768236
 10
3.239512654082574
 20
2.559173837204381
 10
3.250485099212534
 20
2.560821303939135
 10
3.261661484322583
 20
2.563280469151324
 10
3.273008921879847
 20
2.566544096522944
 10
3.284494021014022
 20
2.570602582532698
 10
3.296082985773054
 20
2.575443984715223
 10
3.307741714570809
 20
2.581054056802885
 10
3.319435900534109
 20
2.587416290646729
 10
3.331131132453831
 20
2.594511964793206
 10
3.342792996043025
 20
2.602320199573759
 10
3.354387175204099
 20
2.610818018545158
 10
3.365879553007069
 20
2.619980416099775
 10
3.377236312081738
 20
2.629780431046864
 10
3.38842403412838
 20
2.640189225948335
 10
3.399409798254154
 20
2.651176171975533
 10
3.410161277845828
 20
2.662708939037374
 10
3.420646835693784
 20
2.674753590914574
 10
3.430835617087392
 20
2.687274685120085
 10
3.440697640607826
 20
2.700235377191832
 10
3.450203886351102
 20
2.713597529110916
 10
3.459326381321815
 20
2.727321821526212
 10
3.468038281746213
 20
2.741367869455137
 10
3.476313952062463
 20
2.755694341120163
 10
3.48412904035562
 20
2.770259079571326
 10
3.491460550015368
 20
2.785019226736908
 10
3.498286907405635
 20
2.799931349537223
 10
3.504588025346995
 20
2.81495156769041
 10
3.510345362225013
 20
2.830035682834173
 10
3.515541976550659
 20
2.845139308583492
 10
3.520162576812154
 20
2.860218001141607
 10
3.524193566471668
 20
2.875227390079951
 10
3.527623083974358
 20
2.890123308902177
 10
3.530441037652076
 20
2.904861925008114
 10
3.532639135419032
 20
2.91939986867518
 10
3.534210909171996
 20
2.933694360677751
 10
3.535151733823298
 20
2.947703338168944
 10
3.535458840910569
 20
2.961385578454372
 10
3.535131326743183
 20
2.974700820293682
 10
3.53417015506146
 20
2.987609882372938
 10
3.532578154200761
 20
3.000074778599204
 10
3.530360008768873
 20
3.012058829878089
 10
3.527522245861103
 20
3.023526772045329
 10
3.524073215853707
 20
3.034444859634813
 10
3.520023067832161
 20
3.044780965177688
 10
3.515383719726537
 20
3.054504673740371
 10
3.510168823241908
 20
3.063587372423267
 10
3.504393723686968
 20
3.072002334556836
 10
3.49807541481905
 20
3.07972479834725
 10
3.491232488838456
 20
3.086732039740246
 10
3.483885081679201
 20
3.093003439288711
 10
3.476054813757199
 20
3.098520542827298
 10
3.467764726350212
 20
3.103267115775487
 10
3.459039213796787
 20
3.107229190909324
 10
3.44990395171369
 20
3.11039510946124
 10
3.440385821443063
 20
3.112755555427055
 10
3.430512830951624
 20
3.114303582979156
 10
3.42031403241466
 20
3.115034636905235
 10
3.409819436727365
 20
3.114946566012415
 10
3.399059925195027
 20
3.114039629457337
 10
3.388067158661987
 20
3.112316495983556
 10
3.376873484346701
 20
3.109782236068532
 10
3.365511840657102
 20
3.106444307003279
 10
3.354015660266336
 20
3.10231253094861
 10
3.34241877173407
 20
3.097399066032535
  0
LINE
  5
ECD
330
1F
100
AcDbEntity
  8
0
  6
Continuous
 62
     7
370
    15
100
AcDbLine
 10
3.29787104451932
 20
2.597013427921295
 30
0.0
 11
3.297871044519709
 21
2.660611266179891
 31
0.0
  0
LINE
  5
ECE
330
1F
100
AcDbEntity
  8
0
  6
Continuous
 62
     7
370
    15
100
AcDbLine
 10
3.29787104451932
 20
2.597013427921295
 30
0.0
 11
3.34241877173407
 21
2.622730283443711
 31
0.0
  0
LINE
  5
ECF
330
1F
100
AcDbEntity
  8
0
  6
Continuous
 62
     7
370
    15
100
AcDbLine
 10
3.342418771734461
 20
2.686456704791822
 30
0.0
 11
3.34241877173407
 21
2.622730283443711
 31
0.0
  0
LWPOLYLINE
  5
ED0
330
1F
100
AcDbEntity
  8
0
  6
Continuous
 62
     7
370
    15
100
AcDbPolyline
 90
       43
 70
   128
 43
0.0
 10
3.342418771734223
 20
3.013000553503486
 10
3.351867980386517
 20
3.016330782532318
 10
3.361172204629561
 20
3.018848938052025
 10
3.370289389932118
 20
3.020543638151853
 10
3.379178327167656
 20
3.021407222889777
 10
3.387798838877115
 20
3.021435788914978
 10
3.396111960868587
 20
3.020629207110749
 10
3.404080118333105
 20
3.018991123178093
 10
3.411667295680526
 20
3.016528941157382
 10
3.4188391993278
 20
3.013253789962538
 10
3.425563412703908
 20
3.009180473079013
 10
3.431809542770798
 20
3.004327401652931
 10
3.437549357398077
 20
2.998716511273823
 10
3.442756912970542
 20
2.992373162827082
 10
3.447408671651748
 20
2.985326027864301
 10
3.451483607773605
 20
2.977606959009586
 10
3.454963302871128
 20
2.969250845987625
 10
3.457832028932784
 20
2.960295457924241
 10
3.460076819490163
 20
2.950781272632221
 10
3.461687528225617
 20
2.940751293654054
 10
3.462656874833012
 20
2.930250855888514
 10
3.46298047792427
 20
2.919327420679664
 10
3.462656874832976
 20
2.908030361294443
 10
3.461687528225546
 20
2.896410739758481
 10
3.460076819490055
 20
2.884521076058842
 10
3.457832028932642
 20
2.872415110756842
 10
3.45496330287095
 20
2.860147562083973
 10
3.451483607773395
 20
2.847773878618788
 10
3.447408671651507
 20
2.835349988662697
 10
3.442756912970269
 20
2.822932047447407
 10
3.437549357397772
 20
2.810576183316682
 10
3.431809542770464
 20
2.798338244029606
 10
3.425563412703548
 20
2.786273544332109
 10
3.418839199327413
 20
2.774436615937638
 10
3.411667295680116
 20
2.76288096104712
 10
3.404080118332675
 20
2.751658810522245
 10
3.396111960868134
 20
2.740820887805126
 10
3.387798838876644
 20
2.730416179651404
 10
3.379178327167171
 20
2.720491714713086
 10
3.370289389931617
 20
2.711092350971856
 10
3.361172204629049
 20
2.702260572983741
 10
3.351867980385996
 20
2.694036299851456
 10
3.342418771734461
 20
2.686456704791822
  0
LINE
  5
ED1
330
1F
100
AcDbEntity
  8
0
  6
Continuous
 62
     7
370
    15
100
AcDbLine
 10
3.342418771734223
 20
3.013000553503486
 30
0.0
 11
3.34241877173407
 21
3.097399066032535
 31
0.0
  0
LINE
  5
ED2
330
1F
100
AcDbEntity
  8
0
  6
Continuous
 62
     7
370
    15
100
AcDbLine
 10
3.297871044519469
 20
2.987412281070586
 30
0.0
 11
3.29787104451932
 21
3.071766995280178
 31
0.0
  0
LWPOLYLINE
  5
ED3
330
1F
100
AcDbEntity
  8
0
  6
Continuous
 62
     7
370
    15
100
AcDbPolyline
 90
       43
 70
   128
 43
0.0
 10
3.297871044519709
 20
2.660611266179891
 10
3.288379498635949
 20
2.657210651978864
 10
3.279030939111818
 20
2.654626916635736
 10
3.269867920468437
 20
2.652871821280122
 10
3.260932152647262
 20
2.651953355083206
 10
3.252264311146975
 20
2.651875698891148
 10
3.243903851869124
 20
2.652639206193923
 10
3.235888831515396
 20
2.654240401516238
 10
3.228255734353991
 20
2.656671996237852
 10
3.221039306143721
 20
2.659922921771279
 10
3.214272395971754
 20
2.663978379945856
 10
3.207985806725011
 20
2.668819910368821
 10
3.202208154875821
 20
2.67442547445678
 10
3.196965740220111
 20
2.680769555755057
 10
3.192282426161073
 20
2.68782327608825
 10
3.188179531083275
 20
2.695554527013326
 10
3.184675731311646
 20
2.703928115976824
 10
3.181786976097084
 20
2.712905926510901
 10
3.179526415015683
 20
2.722447091739002
 10
3.177904338112025
 20
2.732508180401342
 10
3.176928129059039
 20
2.743043394553444
 10
3.176602231547613
 20
2.754004778037776
 10
3.176928129058973
 20
2.76534243477956
 10
3.17790433811189
 20
2.777004755913054
 10
3.179526415015482
 20
2.788938654704438
 10
3.181786976096818
 20
2.801089808201925
 10
3.184675731311314
 20
2.81340290451315
 10
3.18817953108288
 20
2.825821894584155
 10
3.192282426160616
 20
2.838290247333979
 10
3.196965740219594
 20
2.850751206983387
 10
3.202208154875251
 20
2.863148051406437
 10
3.207985806724385
 20
2.875424350328867
 10
3.214272395971077
 20
2.887524222197958
 10
3.221039306142994
 20
2.899392588554643
 10
3.228255734353222
 20
2.910975424749929
 10
3.235888831514584
 20
2.922220005864398
 10
3.243903851868275
 20
2.933075146711349
 10
3.252264311146092
 20
2.943491434831106
 10
3.260932152646349
 20
2.953421455415888
 10
3.269867920467497
 20
2.962820007141393
 10
3.279030939110858
 20
2.97164430792265
 10
3.288379498634975
 20
2.979854189657492
 10
3.297871044519469
 20
2.987412281070586
  0
SPLINE
  5
ED4
330
1F
100
AcDbEntity
  8
0
  6
Continuous
 62
     7
370
    15
100
AcDbSpline
210
0.0
220
0.0
230
1.0
 70
     8
 71
     3
 72
     8
 73
     4
 74
     0
 42
0.0000000001
 43
0.0000000001
 40
0.0
 40
0.0
 40
0.0
 40
0.0
 40
0.0005395188924342
 40
0.0005395188924342
 40
0.0005395188924342
 40
0.0005395188924342
 10
3.043312603292163
 20
3.327303915367558
 30
0.0
 10
3.03977691060739
 20
3.325251851592192
 30
0.0
 10
3.036241371041908
 20
3.323199523041502
 30
0.0
 10
3.032706001574364
 20
3.321146900409573
 30
0.0
  0
SPLINE
  5
ED5
330
1F
100
AcDbEntity
  8
0
  6
Continuous
 62
     7
370
    15
100
AcDbSpline
210
0.0
220
0.0
230
1.0
 70
     8
 71
     3
 72
     8
 73
     4
 74
     0
 42
0.0000000001
 43
0.0000000001
 40
0.0
 40
0.0
 40
0.0
 40
0.0
 40
0.0005395652380059
 40
0.0005395652380059
 40
0.0005395652380059
 40
0.0005395652380059
 10
3.087860330506915
 20
3.35296182693146
 30
0.0
 10
3.084324627326946
 20
3.350909079875902
 30
0.0
 10
3.080789087385799
 20
3.348856050576674
 30
0.0
 10
3.077253728789118
 20
3.346802707789743
 30
0.0
  0
ARC
  5
ED6
330
1F
100
AcDbEntity
  8
0
  6
Continuous
 62
     7
370
    15
100
AcDbCircle
 10
3.409606308235066
 20
2.786090802330573
 30
0.0
 40
0.6544760264917694
100
AcDbArc
 50
125.1613523262536
 51
177.2688375330364
  0
LINE
  5
ED7
330
1F
100
AcDbEntity
  8
0
  6
Continuous
 62
     7
370
    15
100
AcDbLine
 10
3.004151389806695
 20
3.039610007900975
 30
0.0
 11
3.028686992776314
 21
3.025445905798004
 31
0.0
  0
LINE
  5
ED8
330
1F
100
AcDbEntity
  8
0
  6
Continuous
 62
     7
370
    15
100
AcDbLine
 10
2.98157068143986
 20
3.097809436572967
 30
0.0
 11
3.004151389806695
 21
3.039610007900975
 31
0.0
  0
LINE
  5
ED9
330
1F
100
AcDbEntity
  8
0
  6
Continuous
 62
     7
370
    15
100
AcDbLine
 10
2.973942220256247
 20
3.102213253476387
 30
0.0
 11
2.929988390652495
 21
3.076839247747038
 31
0.0
  0
LINE
  5
EDA
330
1F
100
AcDbEntity
  8
0
  6
Continuous
 62
     7
370
    15
100
AcDbLine
 10
3.2978710445194
 20
3.026300709084875
 30
0.0
 11
3.331812170016938
 21
3.006706914400865
 31
0.0
  0
SPLINE
  5
EDB
330
1F
100
AcDbEntity
  8
0
  6
Continuous
 62
     7
370
    15
100
AcDbSpline
210
0.0
220
0.0
230
1.0
 70
     8
 71
     3
 72
     8
 73
     4
 74
     0
 42
0.0000000001
 43
0.0000000001
 40
0.0000000000000054
 40
0.0000000000000054
 40
0.0000000000000054
 40
0.0000000000000054
 40
0.0005425362720283
 40
0.0005425362720283
 40
0.0005425362720283
 40
0.0005425362720283
 10
3.331812170017718
 20
3.00670691440049
 30
0.0
 10
3.335345715525638
 20
3.008808205675912
 30
0.0
 10
3.338881399625826
 20
3.010905829917136
 30
0.0
 10
3.342418771734475
 20
3.013000553503635
 30
0.0
  0
ARC
  5
EDC
330
1F
100
AcDbEntity
  8
0
  6
Continuous
 62
     7
370
    15
100
AcDbCircle
 10
3.17914103646347
 20
3.178816969940269
 30
0.0
 40
0.0646253586423899
100
AcDbArc
 50
39.8999794877732
 51
80.10539704492535
  0
LINE
  5
EDD
330
1F
100
AcDbEntity
  8
0
  6
Continuous
 62
     7
370
    15
100
AcDbLine
 10
3.077253728789118
 20
3.346802707789743
 30
0.0
 11
3.077253728788791
 21
3.307710120684001
 31
0.0
  0
SPLINE
  5
EDE
330
1F
100
AcDbEntity
  8
0
  6
Continuous
 62
     7
370
    15
100
AcDbSpline
210
0.0
220
0.0
230
1.0
 70
     8
 71
     3
 72
     8
 73
     4
 74
     0
 42
0.0000000001
 43
0.0000000001
 40
0.0000000000000249
 40
0.0000000000000249
 40
0.0000000000000249
 40
0.0000000000000249
 40
0.000542302150035
 40
0.000542302150035
 40
0.000542302150035
 40
0.000542302150035
 10
3.297871044520196
 20
2.660611266179039
 30
0.0
 10
3.294333789811153
 20
2.666786692375548
 30
0.0
 10
3.290798115486314
 20
2.672963010949608
 30
0.0
 10
3.287264442802786
 20
2.679140452834383
 30
0.0
  0
ARC
  5
EDF
330
1F
100
AcDbEntity
  8
0
  6
Continuous
 62
     7
370
    15
100
AcDbCircle
 10
3.254368293002897
 20
2.750213482044109
 30
0.0
 40
0.0783168701672167
100
AcDbArc
 50
172.5968814389292
 51
294.8370577855289
  0
LINE
  5
EE0
330
1F
100
AcDbEntity
  8
0
  6
Continuous
 62
     7
370
    15
100
AcDbLine
 10
3.004151389806695
 20
3.039610007900975
 30
0.0
 11
2.955361021904824
 21
3.011443928043092
 31
0.0
  0
LINE
  5
EE1
330
1F
100
AcDbEntity
  8
0
  6
Continuous
 62
     7
370
    15
100
AcDbLine
 10
3.287264442802834
 20
2.679140452833806
 30
0.0
 11
3.17843043046078
 21
2.741968990815291
 31
0.0
  0
SPLINE
  5
EE2
330
1F
100
AcDbEntity
  8
0
  6
Continuous
 62
     7
370
    15
100
AcDbSpline
210
0.0
220
0.0
230
1.0
 70
     8
 71
     3
 72
     8
 73
     4
 74
     0
 42
0.0000000001
 43
0.0000000001
 40
0.000000000000025
 40
0.000000000000025
 40
0.000000000000025
 40
0.000000000000025
 40
0.0005425362720423
 40
0.0005425362720423
 40
0.0005425362720423
 40
0.0005425362720423
 10
3.342418771735101
 20
2.68645670479106
 30
0.0
 10
3.338881399626243
 20
2.692635591280716
 30
0.0
 10
3.335345715525582
 20
2.698815429492574
 30
0.0
 10
3.331812170017453
 20
2.704996465571994
 30
0.0
  0
LWPOLYLINE
  5
EE3
330
1F
100
AcDbEntity
  8
0
  6
Continuous
 62
     7
370
    15
100
AcDbPolyline
 90
       41
 70
   128
 43
0.0
 10
3.331812170016938
 20
3.006706914400865
 10
3.340889336354397
 20
3.009751348125925
 10
3.349811371038917
 20
3.011978829932171
 10
3.358534618237726
 20
3.013378460671965
 10
3.367016394792289
 20
3.013943391902364
 10
3.375215199068504
 20
3.013670859394776
 10
3.383090914025697
 20
3.012562196660448
 10
3.3906050035107
 20
3.010622828425539
 10
3.397720700816636
 20
3.007862244087739
 10
3.404403188583724
 20
3.004293951284315
 10
3.410619769161844
 20
2.999935409798759
 10
3.416340024601312
 20
2.99480794612945
 10
3.421535965488979
 20
2.988936649138333
 10
3.426182167901441
 20
2.982350247290233
 10
3.43025589780518
 20
2.975080968083451
 10
3.433737222295009
 20
2.967164380359472
 10
3.436609107126489
 20
2.958639220263357
 10
3.438857500065081
 20
2.949547201706415
 10
3.440471399644231
 20
2.939932812258543
 10
3.441442908995952
 20
2.929843095468974
 10
3.441767274490459
 20
2.919327420680517
 10
3.441442908995862
 20
2.908437241463598
 10
3.440471399644048
 20
2.89722584385213
 10
3.438857500064806
 20
2.885748085613041
 10
3.436609107126127
 20
2.874060127825275
 10
3.43373722229456
 20
2.862219160081641
 10
3.430255897804643
 20
2.850283120658096
 10
3.426182167900824
 20
2.838310413019707
 10
3.421535965488283
 20
2.826359620050418
 10
3.416340024600538
 20
2.81448921740492
 10
3.410619769161
 20
2.802757287385192
 10
3.404403188582811
 20
2.791221234741733
 10
3.397720700815659
 20
2.779937505790082
 10
3.390605003509664
 20
2.768961312216985
 10
3.383090914024606
 20
2.758346360927655
 10
3.375215199067369
 20
2.748144591255964
 10
3.367016394791107
 20
2.73840592082346
 10
3.358534618236509
 20
2.729178001290646
 10
3.349811371037667
 20
2.720505985195725
 10
3.340889336353123
 20
2.712432305021625
 10
3.331812170018055
 20
2.704996465570943
  0
LINE
  5
EE4
330
1F
100
AcDbEntity
  8
0
  6
Continuous
 62
     7
370
    15
100
AcDbLine
 10
3.331812170018055
 20
2.704996465570943
 30
0.0
 11
3.180136745736147
 21
2.792556824233757
 31
0.0
  0
LINE
  5
EE5
330
1F
100
AcDbEntity
  8
0
  6
Continuous
 62
     7
370
    15
100
AcDbLine
 10
3.297871044519634
 20
2.648447138965945
 30
0.0
 11
3.34241877173407
 21
2.622730283443711
 31
0.0
  0
TEXT
  5
1053
330
1F
100
AcDbEntity
  8
FORMAT
 62
     7
100
AcDbText
 10
2.993795355901968
 20
0.6575519286364569
 30
0.0
 40
0.06
  1
SIDE
 41
0.9
  7
SLDTEXTSTYLE1
100
AcDbText
  0
DIMENSION
  5
1088
330
1F
100
AcDbEntity
  8
DIM
100
AcDbDimension
  2
*D6
 10
2.922608680069365
 20
1.113598163447073
 30
0.0
 11
3.617678274036775
 21
1.672328525007876
 31
0.0
 70
   163
 71
     5
 42
0.3749999999988143
  3
Standard
100
AcDbDiametricDimension
 15
3.194723498324663
 25
1.371626312463796
 35
0.0
 40
0.0
1001
ACAD_DSTYLE_DIMRADIAL_EXTENSION
1070
   387
1070
     1
1070
   388
1040
4.883895203008977
1070
   390
1040
1.3992901041706
1001
ACAD
1000
DSTYLE
1002
{
1070
    73
1070
     1
1070
    74
1070
     1
1002
}
  0
DIMENSION
  5
1151
330
1F
100
AcDbEntity
  8
DIM
100
AcDbDimension
  2
*D7
 10
3.307316542629584
 20
1.041184950807497
 30
0.0
 11
2.422043461371749
 21
1.672328525007876
 31
0.0
 70
   163
 71
     5
 42
0.6399999999999999
  3
Standard
100
AcDbDiametricDimension
 15
2.810015635764445
 25
1.444039525103373
 35
0.0
 40
0.0
1001
ACAD_DSTYLE_DIMRADIAL_EXTENSION
1070
   387
1070
     1
1070
   388
1040
1.66782349516558
1070
   390
1040
1.470628905633331
1001
ACAD
1000
DSTYLE
1002
{
1070
    73
1070
     1
1070
    74
1070
     1
1002
}
  0
DIMENSION
  5
2049
330
1F
100
AcDbEntity
  8
DIM
100
AcDbDimension
  2
*D8
 10
3.090666089197016
 20
1.808977886570202
 30
0.0
 11
3.059166089197016
 21
1.808977886570202
 31
0.0
 70
   160
 71
     5
 42
0.0630000000000006
  3
Standard
100
AcDbAlignedDimension
 13
3.027666089197015
 23
1.679012570219286
 33
0.0
 14
3.090666089197016
 24
1.678940382818908
 34
0.0
100
AcDbRotatedDimension
  0
DIMENSION
  5
2063
330
1F
100
AcDbEntity
  8
DIM
100
AcDbDimension
  2
*D9
 10
1.422505336406556
 20
3.212751753482137
 30
0.0
 11
1.250005336406557
 21
3.248757871769017
 31
0.0
 70
    32
 71
     5
 42
0.3449999999999989
  3
Standard
100
AcDbAlignedDimension
 13
1.077505336406558
 23
3.102321010205598
 33
0.0
 14
1.422505336406556
 24
3.102321010205598
 34
0.0
100
AcDbRotatedDimension
  0
DIMENSION
  5
2079
330
1F
100
AcDbEntity
  8
DIM
100
AcDbDimension
  2
*D10
 10
0.9611048102582573
 20
2.633821010205597
 30
0.0
 11
0.9611048102582568
 21
2.430571010205598
 31
0.0
 70
   160
 71
     5
 42
0.4064999999999995
  3
Standard
100
AcDbAlignedDimension
 13
1.077505336406558
 23
2.227321010205598
 33
0.0
 14
1.077505336406558
 24
2.633821010205597
 34
0.0
 50
90.0
100
AcDbRotatedDimension
  0
DIMENSION
  5
2087
330
1F
100
AcDbEntity
  8
DIM
100
AcDbDimension
  2
*D11
 10
0.9611048102582573
 20
3.102321010205598
 30
0.0
 11
0.9611048102582568
 21
2.899571010205597
 31
0.0
 70
   160
 71
     5
 42
0.4055000000000018
  3
Standard
100
AcDbAlignedDimension
 13
1.077505336406558
 23
2.696821010205596
 33
0.0
 14
1.077505336406558
 24
3.102321010205598
 34
0.0
 50
90.0
100
AcDbRotatedDimension
  0
DIMENSION
  5
211A
330
1F
100
AcDbEntity
  8
DIM
100
AcDbDimension
  2
*D12
 10
1.563394526854991
 20
0.8051122379554351
 30
0.0
 11
1.527388408568111
 21
1.178862237955435
 31
0.0
 70
    32
 71
     5
 42
0.7474999999999996
  3
Standard
100
AcDbAlignedDimension
 13
1.418505336406556
 23
1.552612237955434
 33
0.0
 14
1.422505336406556
 24
0.8051122379554351
 34
0.0
 50
90.0
100
AcDbRotatedDimension
  0
DIMENSION
  5
2131
330
1F
100
AcDbEntity
  8
DIM
100
AcDbDimension
  2
*D13
 10
0.961104810258257
 20
1.057692660843228
 30
0.0
 11
0.9250986919713771
 21
0.9314024493993318
 31
0.0
 70
    32
 71
     5
 42
0.2525804228877932
  3
Standard
100
AcDbAlignedDimension
 13
1.077505336406558
 23
0.8051122379554351
 33
0.0
 14
1.077505336405017
 24
1.057692660843228
 34
0.0
 50
90.0
100
AcDbRotatedDimension
  0
DIMENSION
  5
213F
330
1F
100
AcDbEntity
  8
DIM
100
AcDbDimension
  2
*D14
 10
0.9611048102582572
 20
1.427361392213478
 30
0.0
 11
0.9250986919713771
 21
1.242527026528353
 31
0.0
 70
    32
 71
     5
 42
0.3696687313702505
  3
Standard
100
AcDbAlignedDimension
 13
1.077505336405017
 23
1.057692660843228
 33
0.0
 14
1.077505336405804
 24
1.427361392213478
 34
0.0
 50
90.0
100
AcDbRotatedDimension
  0
DIMENSION
  5
214D
330
1F
100
AcDbEntity
  8
DIM
100
AcDbDimension
  2
*D15
 10
0.9611048102582572
 20
1.679012570219286
 30
0.0
 11
0.9250986919713771
 21
1.553186981216382
 31
0.0
 70
    32
 71
     5
 42
0.2516511780058073
  3
Standard
100
AcDbAlignedDimension
 13
1.077505336405804
 23
1.427361392213478
 33
0.0
 14
1.077505336406558
 24
1.679012570219286
 34
0.0
 50
90.0
100
AcDbRotatedDimension
  0
DIMENSION
  5
21AC
330
1F
100
AcDbEntity
  8
DIM
100
AcDbDimension
  2
*D16
 10
1.437505336406557
 20
3.294716462913928
 30
0.0
 11
1.250005336406557
 21
3.330722581200808
 31
0.0
 70
    32
 71
     5
 42
0.375
  3
Standard
100
AcDbAlignedDimension
 13
1.062505336406557
 23
3.087321010205597
 33
0.0
 14
1.437505336406557
 24
3.087321010205597
 34
0.0
100
AcDbRotatedDimension
  0
DIMENSION
  5
21B9
330
1F
100
AcDbEntity
  8
DIM
100
AcDbDimension
  2
*D17
 10
0.8457269555096885
 20
3.102321010205598
 30
0.0
 11
0.8097208372228084
 21
2.664821010205598
 31
0.0
 70
    32
 71
     5
 42
0.875
  3
Standard
100
AcDbAlignedDimension
 13
1.077505336406558
 23
2.227321010205598
 33
0.0
 14
1.077505336406558
 24
3.102321010205598
 34
0.0
 50
90.0
100
AcDbRotatedDimension
  0
DIMENSION
  5
21E2
330
1F
100
AcDbEntity
  8
DIM
100
AcDbDimension
  2
*D18
 10
1.195641937302195
 20
1.50948760187669
 30
0.0
 11
1.62213982902912
 21
1.766001187056822
 31
0.0
 70
   163
 71
     5
 42
0.1379999999999981
  3
Standard
100
AcDbDiametricDimension
 15
1.303368735510918
 25
1.595736874034179
 35
0.0
 40
0.0
1001
ACAD_DSTYLE_DIMRADIAL_EXTENSION
1070
   387
1070
     1
1070
   388
1040
0.0
1070
   390
1040
0.0
1001
ACAD
1000
DSTYLE
1002
{
1070
    73
1070
     1
1070
    74
1070
     1
1002
}
  0
DIMENSION
  5
21EF
330
1F
100
AcDbEntity
  8
DIM
100
AcDbDimension
  2
*D19
 10
1.331149183388133
 20
1.4744887315694
 30
0.0
 11
0.9206646548126542
 21
1.766001187056822
 31
0.0
 70
   163
 71
     5
 42
0.2259999999999992
  3
Standard
100
AcDbDiametricDimension
 15
1.16786148942498
 25
1.630735744341469
 35
0.0
 40
0.0
1001
ACAD_DSTYLE_DIMRADIAL_EXTENSION
1070
   387
1070
     1
1070
   388
1040
0.0
1070
   390
1040
0.0
1001
ACAD
1000
DSTYLE
1002
{
1070
    73
1070
     1
1070
    74
1070
     1
1002
}
  0
DIMENSION
  5
230F
330
1F
100
AcDbEntity
  8
DIM
100
AcDbDimension
  2
*D20
 10
0.843732289142892
 20
1.678940382818908
 30
0.0
 11
0.807726170856012
 21
1.242026310387171
 31
0.0
 70
    32
 71
     5
 42
0.8738281448634728
  3
Standard
100
AcDbAlignedDimension
 13
1.077505336406558
 23
0.8051122379554351
 33
0.0
 14
1.077505336406558
 24
1.678940382818908
 34
0.0
 50
90.0
100
AcDbRotatedDimension
  0
ENDSEC
  0
SECTION
  2
OBJECTS
  0
DICTIONARY
  5
C
330
0
100
AcDbDictionary
281
     1
  3
ACAD_COLOR
350
FC
  3
ACAD_GROUP
350
D
  3
ACAD_LAYOUT
350
1A
  3
ACAD_MATERIAL
350
E7
  3
ACAD_MLEADERSTYLE
350
C08
  3
ACAD_MLINESTYLE
350
17
  3
ACAD_PLOTSETTINGS
350
19
  3
ACAD_PLOTSTYLENAME
350
E
  3
ACAD_SCALELIST
350
BE6
  3
ACAD_TABLESTYLE
350
FD
  3
ACAD_VISUALSTYLE
350
EB
  3
ACDB_RECOMPOSE_DATA
350
27D6
  3
AcDbVariableDictionary
350
3CB
  0
DICTIONARY
  5
4DC
330
8
100
AcDbDictionary
280
     1
281
     1
  0
DICTIONARY
  5
61E
330
2
100
AcDbDictionary
280
     1
281
     1
  3
ACAD_LAYERFILTERS
360
622
  3
ACAD_LAYERSTATES
360
2109
  3
ACLYDICTIONARY
360
621
  0
DICTIONARY
  5
C0E
330
10
100
AcDbDictionary
280
     1
281
     1
  3
ADSK_XREC_LAYER_RECONCILED
360
C0F
  0
DICTIONARY
  5
C10
330
44
100
AcDbDictionary
280
     1
281
     1
  3
ADSK_XREC_LAYER_RECONCILED
360
C11
  0
DICTIONARY
  5
C12
330
61C
100
AcDbDictionary
280
     1
281
     1
  3
ADSK_XREC_LAYER_RECONCILED
360
C13
  0
DICTIONARY
  5
40A
330
409
100
AcDbDictionary
280
     1
281
     1
  3
ACAD_SORTENTS
360
40B
  0
DICTIONARY
  5
2808
330
234E
100
AcDbDictionary
280
     1
281
     1
  3
ACAD_MTEXT_2008_RT
360
2809
  0
DICTIONARY
  5
280A
330
2361
100
AcDbDictionary
280
     1
281
     1
  3
ACAD_MTEXT_2008_RT
360
280B
  0
DICTIONARY
  5
2806
330
2345
100
AcDbDictionary
280
     1
281
     1
  3
ACAD_MTEXT_2008_RT
360
2807
  0
DICTIONARY
  5
2804
330
2329
100
AcDbDictionary
280
     1
281
     1
  3
ACAD_MTEXT_2008_RT
360
2805
  0
DICTIONARY
  5
FC
102
{ACAD_REACTORS
330
C
102
}
330
C
100
AcDbDictionary
281
     1
  0
DICTIONARY
  5
D
102
{ACAD_REACTORS
330
C
102
}
330
C
100
AcDbDictionary
281
     1
  0
DICTIONARY
  5
1A
102
{ACAD_REACTORS
330
C
102
}
330
C
100
AcDbDictionary
281
     1
  3
Layout1
350
1E
  3
Layout2
350
26
  3
Model
350
22
  0
DICTIONARY
  5
E7
102
{ACAD_REACTORS
330
C
102
}
330
C
100
AcDbDictionary
281
     1
  3
ByBlock
350
E9
  3
ByLayer
350
E8
  3
Global
350
EA
  0
DICTIONARY
  5
C08
102
{ACAD_REACTORS
330
C
102
}
330
C
100
AcDbDictionary
281
     1
  3
Standard
350
C09
  0
DICTIONARY
  5
17
102
{ACAD_REACTORS
330
C
102
}
330
C
100
AcDbDictionary
281
     1
  3
Standard
350
18
  0
DICTIONARY
  5
19
102
{ACAD_REACTORS
330
C
102
}
330
C
100
AcDbDictionary
281
     1
  3
JPG
350
BCA
  3
PDF
350
BD3
  0
ACDBDICTIONARYWDFLT
  5
E
102
{ACAD_REACTORS
330
C
102
}
330
C
100
AcDbDictionary
281
     1
  3
Normal
350
F
100
AcDbDictionaryWithDefault
340
F
  0
DICTIONARY
  5
BE6
102
{ACAD_REACTORS
330
C
102
}
330
C
100
AcDbDictionary
281
     1
  3
A0
350
BE7
  3
A1
350
BE8
  3
A2
350
BE9
  3
A3
350
BEA
  3
A4
350
BEB
  3
A5
350
BEC
  3
A6
350
BED
  3
A7
350
BEE
  3
A8
350
BEF
  3
A9
350
BF0
  3
B0
350
BF1
  3
B1
350
BF2
  3
B2
350
BF3
  3
B3
350
BF4
  3
B4
350
BF5
  3
B5
350
BF6
  3
B6
350
BF7
  3
B7
350
BF8
  3
B8
350
BF9
  3
B9
350
BFA
  3
C0
350
BFB
  3
C1
350
BFC
  3
C2
350
BFD
  3
C3
350
BFE
  3
C4
350
BFF
  3
C5
350
C00
  3
C6
350
C01
  3
C7
350
C02
  3
C8
350
C03
  3
C9
350
C04
  3
D0
350
C05
  3
D1
350
C06
  3
D2
350
C07
  0
DICTIONARY
  5
FD
102
{ACAD_REACTORS
330
C
102
}
330
C
100
AcDbDictionary
281
     1
  3
Standard
350
FE
  0
DICTIONARY
  5
EB
102
{ACAD_REACTORS
330
C
102
}
330
C
100
AcDbDictionary
281
     1
  3
2dWireframe
350
F1
  3
3D Hidden
350
F3
  3
3dWireframe
350
F2
  3
Basic
350
F0
  3
Brighten
350
F7
  3
ColorChange
350
FB
  3
Conceptual
350
F4
  3
Dim
350
F6
  3
EdgeColorOff
350
BE5
  3
Facepattern
350
FA
  3
Flat
350
EC
  3
FlatWithEdges
350
ED
  3
Gouraud
350
EE
  3
GouraudWithEdges
350
EF
  3
JitterOff
350
BE3
  3
Linepattern
350
F9
  3
OverhangOff
350
BE4
  3
Realistic
350
F5
  3
Thicken
350
F8
  0
XRECORD
  5
27D6
102
{ACAD_REACTORS
330
C
102
}
330
C
100
AcDbXrecord
280
     1
 90
        1
330
FE
  0
DICTIONARY
  5
3CB
102
{ACAD_REACTORS
330
C
102
}
330
C
100
AcDbDictionary
281
     1
  3
CANNOSCALE
350
C52
  3
CMLEADERSTYLE
350
C51
  3
CTABLESTYLE
350
3CC
  3
DIMASSOC
350
C56
  3
INDEXCTL
350
C54
  3
LAYEREVAL
350
2112
  3
LAYERNOTIFY
350
2113
  3
LIGHTINGUNITS
350
2111
  3
MSLTSCALE
350
2110
  3
SORTENTS
350
C53
  3
XCLIPFRAME
350
27D4
  0
DICTIONARY
  5
622
102
{ACAD_REACTORS
330
61E
102
}
330
61E
100
AcDbDictionary
281
     1
  0
DICTIONARY
  5
2109
102
{ACAD_REACTORS
330
61E
102
}
330
61E
100
AcDbDictionary
281
     1
  0
DICTIONARY
  5
621
102
{ACAD_REACTORS
330
61E
102
}
330
61E
100
AcDbDictionary
281
     1
1001
ACAD
1000
<All
  0
XRECORD
  5
C0F
102
{ACAD_REACTORS
330
C0E
102
}
330
C0E
100
AcDbXrecord
280
     1
290
     1
  0
XRECORD
  5
C11
102
{ACAD_REACTORS
330
C10
102
}
330
C10
100
AcDbXrecord
280
     1
290
     1
  0
XRECORD
  5
C13
102
{ACAD_REACTORS
330
C12
102
}
330
C12
100
AcDbXrecord
280
     1
290
     1
  0
SORTENTSTABLE
  5
40B
102
{ACAD_REACTORS
330
40A
102
}
330
40A
100
AcDbSortentsTable
330
409
331
40F
  5
6D
331
40D
  5
6A
331
410
  5
69
331
40E
  5
6B
  0
XRECORD
  5
2809
102
{ACAD_REACTORS
330
2808
102
}
330
2808
100
AcDbXrecord
280
     1
 40
7350.0
  1
\A1;\U+22050.375
  0
XRECORD
  5
280B
102
{ACAD_REACTORS
330
280A
102
}
330
280A
100
AcDbXrecord
280
     1
 40
7267.0
  1
\A1;\U+22050.640
  0
XRECORD
  5
2807
102
{ACAD_REACTORS
330
2806
102
}
330
2806
100
AcDbXrecord
280
     1
 40
7310.0
  1
\A1;\U+22050.138
  0
XRECORD
  5
2805
102
{ACAD_REACTORS
330
2804
102
}
330
2804
100
AcDbXrecord
280
     1
 40
7277.0
  1
\A1;\U+22050.226
  0
LAYOUT
  5
1E
102
{ACAD_REACTORS
330
1A
102
}
330
1A
100
AcDbPlotSettings
  1

  2
none_device
  4

  6

 40
0.0
 41
0.0
 42
0.0
 43
0.0
 44
0.0
 45
0.0
 46
0.0
 47
0.0
 48
0.0
 49
0.0
140
0.0
141
0.0
142
1.0
143
1.0
 70
   688
 72
     0
 73
     0
 74
     5
  7

 75
    16
147
1.0
 76
     0
 77
     2
 78
   300
148
0.0
149
0.0
100
AcDbLayout
  1
Layout1
 70
     1
 71
     1
 10
0.0
 20
0.0
 11
12.0
 21
9.0
 12
0.0
 22
0.0
 32
0.0
 14
1.000000000000000E+20
 24
1.000000000000000E+20
 34
1.000000000000000E+20
 15
-1.000000000000000E+20
 25
-1.000000000000000E+20
 35
-1.000000000000000E+20
146
0.0
 13
0.0
 23
0.0
 33
0.0
 16
1.0
 26
0.0
 36
0.0
 17
0.0
 27
1.0
 37
0.0
 76
     0
330
1B
  0
LAYOUT
  5
26
102
{ACAD_REACTORS
330
1A
102
}
330
1A
100
AcDbPlotSettings
  1

  2
none_device
  4

  6

 40
0.0
 41
0.0
 42
0.0
 43
0.0
 44
0.0
 45
0.0
 46
0.0
 47
0.0
 48
0.0
 49
0.0
140
0.0
141
0.0
142
1.0
143
1.0
 70
   688
 72
     0
 73
     0
 74
     5
  7

 75
    16
147
1.0
 76
     0
 77
     2
 78
   300
148
0.0
149
0.0
100
AcDbLayout
  1
Layout2
 70
     1
 71
     2
 10
0.0
 20
0.0
 11
0.0
 21
0.0
 12
0.0
 22
0.0
 32
0.0
 14
0.0
 24
0.0
 34
0.0
 15
0.0
 25
0.0
 35
0.0
146
0.0
 13
0.0
 23
0.0
 33
0.0
 16
1.0
 26
0.0
 36
0.0
 17
0.0
 27
1.0
 37
0.0
 76
     0
330
23
  0
LAYOUT
  5
22
102
{ACAD_XDICTIONARY
360
210E
102
}
102
{ACAD_REACTORS
330
1A
102
}
330
1A
100
AcDbPlotSettings
  1

  2
none_device
  4
Letter_(8.50_x_11.00_Inches)
  6

 40
6.349999904632568
 41
6.349999904632568
 42
6.350006103515625
 43
6.350006103515625
 44
215.8999938964844
 45
279.3999938964844
 46
0.0
 47
0.0
 48
0.0
 49
0.0
140
0.0
141
0.0
142
1.0
143
2.383658744906425
 70
 11952
 72
     0
 73
     1
 74
     0
  7

 75
     0
147
0.4195231394329716
 76
     0
 77
     2
 78
   300
148
135.2900774710282
149
-27.52084133435472
100
AcDbLayout
  1
Model
 70
     1
 71
     0
 10
0.0
 20
0.0
 11
16.53543307086614
 21
11.69291338582677
 12
0.0
 22
0.0
 32
0.0
 14
0.0
 24
0.0
 34
0.0
 15
16.53543307086614
 25
11.69291338582677
 35
0.0
146
0.0
 13
0.0
 23
0.0
 33
0.0
 16
1.0
 26
0.0
 36
0.0
 17
0.0
 27
1.0
 37
0.0
 76
     0
330
1F
331
29
1001
ACAD_PSEXT
1000
None
1000
None
1000
Not applicable
1000
The layout will not be plotted unless a new plotter configuration name is selected.
1070
     0
  0
MATERIAL
  5
E9
102
{ACAD_XDICTIONARY
360
27D9
102
}
102
{ACAD_REACTORS
330
E7
102
}
330
E7
100
AcDbMaterial
  1
ByBlock
 73
     1
 78
     1
172
     1
176
     1
270
     1
274
     1
  0
MATERIAL
  5
E8
102
{ACAD_XDICTIONARY
360
27D7
102
}
102
{ACAD_REACTORS
330
E7
102
}
330
E7
100
AcDbMaterial
  1
ByLayer
 73
     1
 78
     1
172
     1
176
     1
270
     1
274
     1
  0
MATERIAL
  5
EA
102
{ACAD_XDICTIONARY
360
27DB
102
}
102
{ACAD_REACTORS
330
E7
102
}
330
E7
100
AcDbMaterial
  1
Global
 73
     1
 78
     1
172
     1
176
     1
270
     1
274
     1
  0
MLEADERSTYLE
  5
C09
102
{ACAD_REACTORS
330
C08
102
}
330
C08
100
AcDbMLeaderStyle
170
     2
171
     1
172
     0
 90
        2
 40
0.0
 41
0.0
173
     1
 91
-1056964608
340
14
 92
       -2
290
     1
 42
0.09
291
     1
 43
0.36
  3
Standard
 44
0.18
300

342
11
174
     1
178
     6
175
     1
176
     0
 93
-1056964608
 45
0.18
292
     0
297
     0
 46
0.18
 94
-1056964608
 47
1.0
 49
1.0
140
1.0
293
     1
141
0.0
294
     1
177
     0
142
1.0
295
     0
296
     0
143
0.125
1001
ACAD_MLEADERVER
1070
     2
  0
MLINESTYLE
  5
18
102
{ACAD_REACTORS
330
17
102
}
330
17
100
AcDbMlineStyle
  2
STANDARD
 70
     0
  3

 62
   256
 51
90.0
 52
90.0
 71
     2
 49
0.5
 62
   256
  6
BYLAYER
 49
-0.5
 62
   256
  6
BYLAYER
  0
PLOTSETTINGS
  5
BCA
102
{ACAD_REACTORS
330
19
102
}
330
19
100
AcDbPlotSettings
  1
JPG
  2
PublishToWeb JPG.pc3
  4
User-1
  6

 40
75.0
 41
75.0
 42
75.000244140625
 43
75.000244140625
 44
2550.0
 45
3300.0
 46
7.281523769336445
 47
0.0000000000002274
 48
0.0
 49
0.0
140
4.690519308767699
141
3.552043748387205
142
1.0
143
0.0014890538642242
 70
 11956
 72
     2
 73
     1
 74
     4
  7

 75
     0
147
671.5673784715636
 76
     0
 77
     2
 78
   300
148
0.0
149
0.0
1001
ACAD_PSEXT
1000
PublishToWeb JPG.pc3
1000
Independent JPEG Group JFIF (JPEG Compression)
1000
File
1000

1070
     0
  0
PLOTSETTINGS
  5
BD3
102
{ACAD_REACTORS
330
19
102
}
330
19
100
AcDbPlotSettings
  1
PDF
  2
DWG To PDF.pc3
  4
ISO_expand_A1_(841.00_x_594.00_MM)
  6

 40
5.793749809265136
 41
10.79374980926513
 42
5.79376220703125
 43
10.79376220703125
 44
841.0
 45
594.0
 46
36.76722948979278
 47
0.0
 48
0.0
 49
0.0
140
4.690519308767699
141
3.552043748387205
142
1.0
143
0.0062053917811946
 70
 11956
 72
     1
 73
     0
 74
     4
  7

 75
     0
147
161.1501795955091
 76
     0
 77
     2
 78
   300
148
0.0
149
0.0
1001
ACAD_PSEXT
1000
DWG To PDF.pc3
1000
PDF
1000
File
1000

1070
     0
  0
ACDBPLACEHOLDER
  5
F
102
{ACAD_REACTORS
330
E
102
}
330
E
  0
SCALE
  5
BE7
102
{ACAD_REACTORS
330
BE6
102
}
330
BE6
100
AcDbScale
 70
     0
300
1:1
140
1.0
141
1.0
290
     1
  0
SCALE
  5
BE8
102
{ACAD_REACTORS
330
BE6
102
}
330
BE6
100
AcDbScale
 70
     0
300
1:2
140
1.0
141
2.0
290
     0
  0
SCALE
  5
BE9
102
{ACAD_REACTORS
330
BE6
102
}
330
BE6
100
AcDbScale
 70
     0
300
1:4
140
1.0
141
4.0
290
     0
  0
SCALE
  5
BEA
102
{ACAD_REACTORS
330
BE6
102
}
330
BE6
100
AcDbScale
 70
     0
300
1:5
140
1.0
141
5.0
290
     0
  0
SCALE
  5
BEB
102
{ACAD_REACTORS
330
BE6
102
}
330
BE6
100
AcDbScale
 70
     0
300
1:8
140
1.0
141
8.0
290
     0
  0
SCALE
  5
BEC
102
{ACAD_REACTORS
330
BE6
102
}
330
BE6
100
AcDbScale
 70
     0
300
1:10
140
1.0
141
10.0
290
     0
  0
SCALE
  5
BED
102
{ACAD_REACTORS
330
BE6
102
}
330
BE6
100
AcDbScale
 70
     0
300
1:16
140
1.0
141
16.0
290
     0
  0
SCALE
  5
BEE
102
{ACAD_REACTORS
330
BE6
102
}
330
BE6
100
AcDbScale
 70
     0
300
1:20
140
1.0
141
20.0
290
     0
  0
SCALE
  5
BEF
102
{ACAD_REACTORS
330
BE6
102
}
330
BE6
100
AcDbScale
 70
     0
300
1:30
140
1.0
141
30.0
290
     0
  0
SCALE
  5
BF0
102
{ACAD_REACTORS
330
BE6
102
}
330
BE6
100
AcDbScale
 70
     0
300
1:40
140
1.0
141
40.0
290
     0
  0
SCALE
  5
BF1
102
{ACAD_REACTORS
330
BE6
102
}
330
BE6
100
AcDbScale
 70
     0
300
1:50
140
1.0
141
50.0
290
     0
  0
SCALE
  5
BF2
102
{ACAD_REACTORS
330
BE6
102
}
330
BE6
100
AcDbScale
 70
     0
300
1:100
140
1.0
141
100.0
290
     0
  0
SCALE
  5
BF3
102
{ACAD_REACTORS
330
BE6
102
}
330
BE6
100
AcDbScale
 70
     0
300
2:1
140
2.0
141
1.0
290
     0
  0
SCALE
  5
BF4
102
{ACAD_REACTORS
330
BE6
102
}
330
BE6
100
AcDbScale
 70
     0
300
4:1
140
4.0
141
1.0
290
     0
  0
SCALE
  5
BF5
102
{ACAD_REACTORS
330
BE6
102
}
330
BE6
100
AcDbScale
 70
     0
300
8:1
140
8.0
141
1.0
290
     0
  0
SCALE
  5
BF6
102
{ACAD_REACTORS
330
BE6
102
}
330
BE6
100
AcDbScale
 70
     0
300
10:1
140
10.0
141
1.0
290
     0
  0
SCALE
  5
BF7
102
{ACAD_REACTORS
330
BE6
102
}
330
BE6
100
AcDbScale
 70
     0
300
100:1
140
100.0
141
1.0
290
     0
  0
SCALE
  5
BF8
102
{ACAD_REACTORS
330
BE6
102
}
330
BE6
100
AcDbScale
 70
     0
300
1/128" = 1'-0"
140
0.0078125
141
12.0
290
     0
  0
SCALE
  5
BF9
102
{ACAD_REACTORS
330
BE6
102
}
330
BE6
100
AcDbScale
 70
     0
300
1/64" = 1'-0"
140
0.015625
141
12.0
290
     0
  0
SCALE
  5
BFA
102
{ACAD_REACTORS
330
BE6
102
}
330
BE6
100
AcDbScale
 70
     0
300
1/32" = 1'-0"
140
0.03125
141
12.0
290
     0
  0
SCALE
  5
BFB
102
{ACAD_REACTORS
330
BE6
102
}
330
BE6
100
AcDbScale
 70
     0
300
1/16" = 1'-0"
140
0.0625
141
12.0
290
     0
  0
SCALE
  5
BFC
102
{ACAD_REACTORS
330
BE6
102
}
330
BE6
100
AcDbScale
 70
     0
300
3/32" = 1'-0"
140
0.09375
141
12.0
290
     0
  0
SCALE
  5
BFD
102
{ACAD_REACTORS
330
BE6
102
}
330
BE6
100
AcDbScale
 70
     0
300
1/8" = 1'-0"
140
0.125
141
12.0
290
     0
  0
SCALE
  5
BFE
102
{ACAD_REACTORS
330
BE6
102
}
330
BE6
100
AcDbScale
 70
     0
300
3/16" = 1'-0"
140
0.1875
141
12.0
290
     0
  0
SCALE
  5
BFF
102
{ACAD_REACTORS
330
BE6
102
}
330
BE6
100
AcDbScale
 70
     0
300
1/4" = 1'-0"
140
0.25
141
12.0
290
     0
  0
SCALE
  5
C00
102
{ACAD_REACTORS
330
BE6
102
}
330
BE6
100
AcDbScale
 70
     0
300
3/8" = 1'-0"
140
0.375
141
12.0
290
     0
  0
SCALE
  5
C01
102
{ACAD_REACTORS
330
BE6
102
}
330
BE6
100
AcDbScale
 70
     0
300
1/2" = 1'-0"
140
0.5
141
12.0
290
     0
  0
SCALE
  5
C02
102
{ACAD_REACTORS
330
BE6
102
}
330
BE6
100
AcDbScale
 70
     0
300
3/4" = 1'-0"
140
0.75
141
12.0
290
     0
  0
SCALE
  5
C03
102
{ACAD_REACTORS
330
BE6
102
}
330
BE6
100
AcDbScale
 70
     0
300
1" = 1'-0"
140
1.0
141
12.0
290
     0
  0
SCALE
  5
C04
102
{ACAD_REACTORS
330
BE6
102
}
330
BE6
100
AcDbScale
 70
     0
300
1-1/2" = 1'-0"
140
1.5
141
12.0
290
     0
  0
SCALE
  5
C05
102
{ACAD_REACTORS
330
BE6
102
}
330
BE6
100
AcDbScale
 70
     0
300
3" = 1'-0"
140
3.0
141
12.0
290
     0
  0
SCALE
  5
C06
102
{ACAD_REACTORS
330
BE6
102
}
330
BE6
100
AcDbScale
 70
     0
300
6" = 1'-0"
140
6.0
141
12.0
290
     0
  0
SCALE
  5
C07
102
{ACAD_REACTORS
330
BE6
102
}
330
BE6
100
AcDbScale
 70
     0
300
1'-0" = 1'-0"
140
12.0
141
12.0
290
     0
  0
TABLESTYLE
  5
FE
102
{ACAD_XDICTIONARY
360
C14
102
}
102
{ACAD_REACTORS
330
FD
102
}
330
FD
100
AcDbTableStyle
  3
Standard
 70
     0
 71
     0
 40
0.06
 41
0.06
280
     0
281
     0
  7
Standard
140
0.18
170
     2
 62
     0
 63
     7
283
     0
274
    -2
284
     1
 64
     0
275
    -2
285
     1
 65
     0
276
    -2
286
     1
 66
     0
277
    -2
287
     1
 67
     0
278
    -2
288
     1
 68
     0
279
    -2
289
     1
 69
     0
  7
Standard
140
0.25
170
     5
 62
     0
 63
     7
283
     0
274
    -2
284
     1
 64
     0
275
    -2
285
     1
 65
     0
276
    -2
286
     1
 66
     0
277
    -2
287
     1
 67
     0
278
    -2
288
     1
 68
     0
279
    -2
289
     1
 69
     0
  7
Standard
140
0.18
170
     5
 62
     0
 63
     7
283
     0
274
    -2
284
     1
 64
     0
275
    -2
285
     1
 65
     0
276
    -2
286
     1
 66
     0
277
    -2
287
     1
 67
     0
278
    -2
288
     1
 68
     0
279
    -2
289
     1
 69
     0
  0
VISUALSTYLE
  5
F1
102
{ACAD_XDICTIONARY
360
27E7
102
}
102
{ACAD_REACTORS
330
EB
102
}
330
EB
100
AcDbVisualStyle
  2
2dWireframe
 70
     4
 71
     0
 72
     2
 73
     0
 90
        0
 40
-0.6
 41
-30.0
 62
     5
 63
     7
 74
     1
 91
        4
 64
     7
 65
   257
 75
     1
175
     1
 42
1.0
 92
        0
 66
   257
 43
1.0
 76
     1
 77
     6
 78
     2
 67
     7
 79
     5
170
     0
171
     0
290
     0
174
     0
 93
        1
 44
0.0
173
     0
291
     0
 45
0.0
1001
ACAD
1000
AcDbSavedByObjectVersion
1070
     0
  0
VISUALSTYLE
  5
F3
102
{ACAD_XDICTIONARY
360
27EB
102
}
102
{ACAD_REACTORS
330
EB
102
}
330
EB
100
AcDbVisualStyle
  2
3D Hidden
 70
     6
 71
     1
 72
     2
 73
     2
 90
        0
 40
-0.6
 41
-30.0
 62
     5
 63
     7
 74
     2
 91
        2
 64
     7
 65
   257
 75
     2
175
     1
 42
40.0
 92
        0
 66
   257
 43
1.0
 76
     1
 77
     6
 78
     2
 67
     7
 79
     3
170
     0
171
     0
290
     0
174
     0
 93
        1
 44
0.0
173
     0
291
     0
 45
0.0
1001
ACAD
1000
AcDbSavedByObjectVersion
1070
     0
  0
VISUALSTYLE
  5
F2
102
{ACAD_XDICTIONARY
360
27E9
102
}
102
{ACAD_REACTORS
330
EB
102
}
330
EB
100
AcDbVisualStyle
  2
3dWireframe
 70
     5
 71
     0
 72
     2
 73
     0
 90
        0
 40
-0.6
 41
-30.0
 62
     5
 63
     7
 74
     1
 91
        4
 64
     7
 65
   257
 75
     1
175
     1
 42
1.0
 92
        0
 66
   257
 43
1.0
 76
     1
 77
     6
 78
     2
 67
     7
 79
     5
170
     0
171
     0
290
     0
174
     0
 93
        1
 44
0.0
173
     0
291
     0
 45
0.0
1001
ACAD
1000
AcDbSavedByObjectVersion
1070
     0
  0
VISUALSTYLE
  5
F0
102
{ACAD_XDICTIONARY
360
27E5
102
}
102
{ACAD_REACTORS
330
EB
102
}
330
EB
100
AcDbVisualStyle
  2
Basic
 70
     7
 71
     1
 72
     0
 73
     1
 90
        0
 40
-0.6
 41
-30.0
 62
     5
 63
     7
 74
     0
 91
        4
 64
     7
 65
   257
 75
     1
175
     1
 42
1.0
 92
        8
 66
     7
 43
1.0
 76
     1
 77
     6
 78
     2
 67
     7
 79
     5
170
     0
171
     0
290
     0
174
     0
 93
        1
 44
0.0
173
     0
291
     1
 45
0.0
1001
ACAD
1000
AcDbSavedByObjectVersion
1070
     0
  0
VISUALSTYLE
  5
F7
102
{ACAD_XDICTIONARY
360
27F3
102
}
102
{ACAD_REACTORS
330
EB
102
}
330
EB
100
AcDbVisualStyle
  2
Brighten
 70
    12
 71
     2
 72
     2
 73
     0
 90
        0
 40
-0.6
 41
-30.0
 62
     5
 63
     7
 74
     1
 91
        4
 64
     7
 65
   257
 75
     1
175
     1
 42
1.0
 92
        8
 66
     7
 43
1.0
 76
     1
 77
     6
 78
     2
 67
     7
 79
     5
170
     0
171
     0
290
     0
174
     0
 93
        1
 44
50.0
173
     0
291
     1
 45
0.0
1001
ACAD
1000
AcDbSavedByObjectVersion
1070
     0
  0
VISUALSTYLE
  5
FB
102
{ACAD_XDICTIONARY
360
27FB
102
}
102
{ACAD_REACTORS
330
EB
102
}
330
EB
100
AcDbVisualStyle
  2
ColorChange
 70
    16
 71
     2
 72
     2
 73
     3
 90
        0
 40
-0.6
 41
-30.0
 62
     5
 63
     8
 74
     1
 91
        4
 64
     7
 65
   257
 75
     1
175
     1
 42
1.0
 92
        8
 66
     8
 43
1.0
 76
     1
 77
     6
 78
     2
 67
     7
 79
     5
170
     0
171
     0
290
     0
174
     0
 93
        1
 44
0.0
173
     0
291
     1
 45
0.0
1001
ACAD
1000
AcDbSavedByObjectVersion
1070
     0
  0
VISUALSTYLE
  5
F4
102
{ACAD_XDICTIONARY
360
27ED
102
}
102
{ACAD_REACTORS
330
EB
102
}
330
EB
100
AcDbVisualStyle
  2
Conceptual
 70
     9
 71
     3
 72
     2
 73
     0
 90
        0
 40
-0.6
 41
-30.0
 62
     5
 63
     7
 74
     2
 91
        2
 64
     7
 65
   257
 75
     1
175
     1
 42
40.0
 92
        8
 66
     7
 43
1.0
 76
     1
 77
     6
 78
     2
 67
     7
 79
     3
170
     0
171
     0
290
     0
174
     0
 93
        1
 44
0.0
173
     0
291
     0
 45
0.0
1001
ACAD
1000
AcDbSavedByObjectVersion
1070
     0
  0
VISUALSTYLE
  5
F6
102
{ACAD_XDICTIONARY
360
27F1
102
}
102
{ACAD_REACTORS
330
EB
102
}
330
EB
100
AcDbVisualStyle
  2
Dim
 70
    11
 71
     2
 72
     2
 73
     0
 90
        0
 40
-0.6
 41
-30.0
 62
     5
 63
     7
 74
     1
 91
        4
 64
     7
 65
   257
 75
     1
175
     1
 42
1.0
 92
        8
 66
     7
 43
1.0
 76
     1
 77
     6
 78
     2
 67
     7
 79
     5
170
     0
171
     0
290
     0
174
     0
 93
        1
 44
-50.0
173
     0
291
     1
 45
0.0
1001
ACAD
1000
AcDbSavedByObjectVersion
1070
     0
  0
VISUALSTYLE
  5
BE5
102
{ACAD_XDICTIONARY
360
2802
102
}
102
{ACAD_REACTORS
330
EB
102
}
330
EB
100
AcDbVisualStyle
  2
EdgeColorOff
 70
    22
 71
     2
 72
     2
 73
     0
 90
        0
 40
-0.6
 41
-30.0
 62
     5
 63
     7
 74
     1
 91
        4
 64
     7
 65
   257
 75
     1
175
     1
 42
1.0
 92
        8
 66
     7
 43
1.0
 76
     1
 77
     6
 78
     2
 67
     7
 79
     5
170
     0
171
     0
290
     0
174
     0
 93
        1
 44
0.0
173
     0
291
     1
 45
0.0
1001
ACAD
1000
AcDbSavedByObjectVersion
1070
     0
  0
VISUALSTYLE
  5
FA
102
{ACAD_XDICTIONARY
360
27F9
102
}
102
{ACAD_REACTORS
330
EB
102
}
330
EB
100
AcDbVisualStyle
  2
Facepattern
 70
    15
 71
     2
 72
     2
 73
     0
 90
        0
 40
-0.6
 41
-30.0
 62
     5
 63
     7
 74
     1
 91
        4
 64
     7
 65
   257
 75
     1
175
     1
 42
1.0
 92
        8
 66
     7
 43
1.0
 76
     1
 77
     6
 78
     2
 67
     7
 79
     5
170
     0
171
     0
290
     0
174
     0
 93
        1
 44
0.0
173
     0
291
     1
 45
0.0
1001
ACAD
1000
AcDbSavedByObjectVersion
1070
     0
  0
VISUALSTYLE
  5
EC
102
{ACAD_XDICTIONARY
360
27DD
102
}
102
{ACAD_REACTORS
330
EB
102
}
330
EB
100
AcDbVisualStyle
  2
Flat
 70
     0
 71
     2
 72
     1
 73
     1
 90
        2
 40
-0.6
 41
30.0
 62
     5
 63
     7
 74
     0
 91
        4
 64
     7
 65
   257
 75
     1
175
     1
 42
1.0
 92
        8
 66
     7
 43
1.0
 76
     1
 77
     6
 78
     2
 67
     7
 79
     5
170
     0
171
     0
290
     0
174
     0
 93
       13
 44
0.0
173
     0
291
     1
 45
0.0
1001
ACAD
1000
AcDbSavedByObjectVersion
1070
     0
  0
VISUALSTYLE
  5
ED
102
{ACAD_XDICTIONARY
360
27DF
102
}
102
{ACAD_REACTORS
330
EB
102
}
330
EB
100
AcDbVisualStyle
  2
FlatWithEdges
 70
     1
 71
     2
 72
     1
 73
     1
 90
        2
 40
-0.6
 41
30.0
 62
     5
 63
     7
 74
     1
 91
        4
 64
     7
 65
   257
 75
     1
175
     1
 42
1.0
 92
        0
 66
   257
 43
1.0
 76
     1
 77
     6
 78
     2
 67
     7
 79
     5
170
     0
171
     0
290
     0
174
     0
 93
       13
 44
0.0
173
     0
291
     1
 45
0.0
1001
ACAD
1000
AcDbSavedByObjectVersion
1070
     0
  0
VISUALSTYLE
  5
EE
102
{ACAD_XDICTIONARY
360
27E1
102
}
102
{ACAD_REACTORS
330
EB
102
}
330
EB
100
AcDbVisualStyle
  2
Gouraud
 70
     2
 71
     2
 72
     2
 73
     1
 90
        2
 40
-0.6
 41
30.0
 62
     5
 63
     7
 74
     0
 91
        4
 64
     7
 65
   257
 75
     1
175
     1
 42
1.0
 92
        0
 66
     7
 43
1.0
 76
     1
 77
     6
 78
     2
 67
     7
 79
     5
170
     0
171
     0
290
     0
174
     0
 93
       13
 44
0.0
173
     0
291
     1
 45
0.0
1001
ACAD
1000
AcDbSavedByObjectVersion
1070
     0
  0
VISUALSTYLE
  5
EF
102
{ACAD_XDICTIONARY
360
27E3
102
}
102
{ACAD_REACTORS
330
EB
102
}
330
EB
100
AcDbVisualStyle
  2
GouraudWithEdges
 70
     3
 71
     2
 72
     2
 73
     1
 90
        2
 40
-0.6
 41
30.0
 62
     5
 63
     7
 74
     1
 91
        4
 64
     7
 65
   257
 75
     1
175
     1
 42
1.0
 92
        0
 66
   257
 43
1.0
 76
     1
 77
     6
 78
     2
 67
     7
 79
     5
170
     0
171
     0
290
     0
174
     0
 93
       13
 44
0.0
173
     0
291
     1
 45
0.0
1001
ACAD
1000
AcDbSavedByObjectVersion
1070
     0
  0
VISUALSTYLE
  5
BE3
102
{ACAD_XDICTIONARY
360
27FE
102
}
102
{ACAD_REACTORS
330
EB
102
}
330
EB
100
AcDbVisualStyle
  2
JitterOff
 70
    20
 71
     2
 72
     2
 73
     0
 90
        0
 40
-0.6
 41
-30.0
 62
     5
 63
     7
 74
     1
 91
        4
 64
     7
 65
   257
 75
     1
175
     1
 42
1.0
 92
       10
 66
     7
 43
1.0
 76
     1
 77
     6
 78
     2
 67
     7
 79
     5
170
     0
171
     0
290
     0
174
     0
 93
        1
 44
0.0
173
     0
291
     1
 45
0.0
1001
ACAD
1000
AcDbSavedByObjectVersion
1070
     0
  0
VISUALSTYLE
  5
F9
102
{ACAD_XDICTIONARY
360
27F7
102
}
102
{ACAD_REACTORS
330
EB
102
}
330
EB
100
AcDbVisualStyle
  2
Linepattern
 70
    14
 71
     2
 72
     2
 73
     0
 90
        0
 40
-0.6
 41
-30.0
 62
     5
 63
     7
 74
     1
 91
        4
 64
     7
 65
   257
 75
     7
175
     7
 42
1.0
 92
        8
 66
     7
 43
1.0
 76
     1
 77
     6
 78
     2
 67
     7
 79
     5
170
     0
171
     0
290
     0
174
     0
 93
        1
 44
0.0
173
     0
291
     1
 45
0.0
1001
ACAD
1000
AcDbSavedByObjectVersion
1070
     0
  0
VISUALSTYLE
  5
BE4
102
{ACAD_XDICTIONARY
360
2800
102
}
102
{ACAD_REACTORS
330
EB
102
}
330
EB
100
AcDbVisualStyle
  2
OverhangOff
 70
    21
 71
     2
 72
     2
 73
     0
 90
        0
 40
-0.6
 41
-30.0
 62
     5
 63
     7
 74
     1
 91
        4
 64
     7
 65
   257
 75
     1
175
     1
 42
1.0
 92
        9
 66
     7
 43
1.0
 76
     1
 77
     6
 78
     2
 67
     7
 79
     5
170
     0
171
     0
290
     0
174
     0
 93
        1
 44
0.0
173
     0
291
     1
 45
0.0
1001
ACAD
1000
AcDbSavedByObjectVersion
1070
     0
  0
VISUALSTYLE
  5
F5
102
{ACAD_XDICTIONARY
360
27EF
102
}
102
{ACAD_REACTORS
330
EB
102
}
330
EB
100
AcDbVisualStyle
  2
Realistic
 70
     8
 71
     2
 72
     2
 73
     0
 90
        0
 40
-0.6
 41
-30.0
 62
     5
 63
     7
 74
     1
 91
        0
 64
     7
 65
   257
 75
     1
175
     1
 42
1.0
 92
        8
 66
     8
 43
1.0
 76
     1
 77
     6
 78
     2
 67
     7
 79
     5
170
     0
171
     0
290
     0
174
     0
 93
       13
 44
0.0
173
     0
291
     0
 45
0.0
1001
ACAD
1000
AcDbSavedByObjectVersion
1070
     0
  0
VISUALSTYLE
  5
F8
102
{ACAD_XDICTIONARY
360
27F5
102
}
102
{ACAD_REACTORS
330
EB
102
}
330
EB
100
AcDbVisualStyle
  2
Thicken
 70
    13
 71
     2
 72
     2
 73
     0
 90
        0
 40
-0.6
 41
-30.0
 62
     5
 63
     7
 74
     1
 91
        4
 64
     7
 65
   257
 75
     1
175
     1
 42
1.0
 92
       12
 66
     7
 43
1.0
 76
     1
 77
     6
 78
     2
 67
     7
 79
     5
170
     0
171
     0
290
     0
174
     0
 93
        1
 44
0.0
173
     0
291
     1
 45
0.0
1001
ACAD
1000
AcDbSavedByObjectVersion
1070
     0
  0
DICTIONARYVAR
  5
C52
102
{ACAD_REACTORS
330
3CB
102
}
330
3CB
100
DictionaryVariables
280
     0
  1
1:1
  0
DICTIONARYVAR
  5
C51
102
{ACAD_REACTORS
330
3CB
102
}
330
3CB
100
DictionaryVariables
280
     0
  1
STANDARD
  0
DICTIONARYVAR
  5
3CC
102
{ACAD_REACTORS
330
3CB
102
}
330
3CB
100
DictionaryVariables
280
     0
  1
STANDARD
  0
DICTIONARYVAR
  5
C56
102
{ACAD_REACTORS
330
3CB
102
}
330
3CB
100
DictionaryVariables
280
     0
  1
1
  0
DICTIONARYVAR
  5
C54
102
{ACAD_REACTORS
330
3CB
102
}
330
3CB
100
DictionaryVariables
280
     0
  1
0
  0
DICTIONARYVAR
  5
2112
102
{ACAD_REACTORS
330
3CB
102
}
330
3CB
100
DictionaryVariables
280
     0
  1
1
  0
DICTIONARYVAR
  5
2113
102
{ACAD_REACTORS
330
3CB
102
}
330
3CB
100
DictionaryVariables
280
     0
  1
15
  0
DICTIONARYVAR
  5
2111
102
{ACAD_REACTORS
330
3CB
102
}
330
3CB
100
DictionaryVariables
280
     0
  1
0
  0
DICTIONARYVAR
  5
2110
102
{ACAD_REACTORS
330
3CB
102
}
330
3CB
100
DictionaryVariables
280
     0
  1
0
  0
DICTIONARYVAR
  5
C53
102
{ACAD_REACTORS
330
3CB
102
}
330
3CB
100
DictionaryVariables
280
     0
  1
127
  0
DICTIONARYVAR
  5
27D4
102
{ACAD_REACTORS
330
3CB
102
}
330
3CB
100
DictionaryVariables
280
     0
  1
2
  0
DICTIONARY
  5
210E
330
22
100
AcDbDictionary
280
     1
281
     1
  3
ADSK_XREC_LAYOUTTHUMBNAIL
360
210F
  0
DICTIONARY
  5
27D9
330
E9
100
AcDbDictionary
280
     1
281
     1
  3
ACAD_XREC_ROUNDTRIP
360
27DA
  0
DICTIONARY
  5
27D7
330
E8
100
AcDbDictionary
280
     1
281
     1
  3
ACAD_XREC_ROUNDTRIP
360
27D8
  0
DICTIONARY
  5
27DB
330
EA
100
AcDbDictionary
280
     1
281
     1
  3
ACAD_XREC_ROUNDTRIP
360
27DC
  0
DICTIONARY
  5
C14
330
FE
100
AcDbDictionary
280
     1
281
     1
  3
ACAD_ROUNDTRIP_2008_TABLESTYLE_CELLSTYLEMAP
360
27D5
  3
ACAD_XREC_ROUNDTRIP
360
27FD
  0
DICTIONARY
  5
27E7
330
F1
100
AcDbDictionary
280
     1
281
     1
  3
ACAD_XREC_ROUNDTRIP
360
27E8
  0
DICTIONARY
  5
27EB
330
F3
100
AcDbDictionary
280
     1
281
     1
  3
ACAD_XREC_ROUNDTRIP
360
27EC
  0
DICTIONARY
  5
27E9
330
F2
100
AcDbDictionary
280
     1
281
     1
  3
ACAD_XREC_ROUNDTRIP
360
27EA
  0
DICTIONARY
  5
27E5
330
F0
100
AcDbDictionary
280
     1
281
     1
  3
ACAD_XREC_ROUNDTRIP
360
27E6
  0
DICTIONARY
  5
27F3
330
F7
100
AcDbDictionary
280
     1
281
     1
  3
ACAD_XREC_ROUNDTRIP
360
27F4
  0
DICTIONARY
  5
27FB
330
FB
100
AcDbDictionary
280
     1
281
     1
  3
ACAD_XREC_ROUNDTRIP
360
27FC
  0
DICTIONARY
  5
27ED
330
F4
100
AcDbDictionary
280
     1
281
     1
  3
ACAD_XREC_ROUNDTRIP
360
27EE
  0
DICTIONARY
  5
27F1
330
F6
100
AcDbDictionary
280
     1
281
     1
  3
ACAD_XREC_ROUNDTRIP
360
27F2
  0
DICTIONARY
  5
2802
330
BE5
100
AcDbDictionary
280
     1
281
     1
  3
ACAD_XREC_ROUNDTRIP
360
2803
  0
DICTIONARY
  5
27F9
330
FA
100
AcDbDictionary
280
     1
281
     1
  3
ACAD_XREC_ROUNDTRIP
360
27FA
  0
DICTIONARY
  5
27DD
330
EC
100
AcDbDictionary
280
     1
281
     1
  3
ACAD_XREC_ROUNDTRIP
360
27DE
  0
DICTIONARY
  5
27DF
330
ED
100
AcDbDictionary
280
     1
281
     1
  3
ACAD_XREC_ROUNDTRIP
360
27E0
  0
DICTIONARY
  5
27E1
330
EE
100
AcDbDictionary
280
     1
281
     1
  3
ACAD_XREC_ROUNDTRIP
360
27E2
  0
DICTIONARY
  5
27E3
330
EF
100
AcDbDictionary
280
     1
281
     1
  3
ACAD_XREC_ROUNDTRIP
360
27E4
  0
DICTIONARY
  5
27FE
330
BE3
100
AcDbDictionary
280
     1
281
     1
  3
ACAD_XREC_ROUNDTRIP
360
27FF
  0
DICTIONARY
  5
27F7
330
F9
100
AcDbDictionary
280
     1
281
     1
  3
ACAD_XREC_ROUNDTRIP
360
27F8
  0
DICTIONARY
  5
2800
330
BE4
100
AcDbDictionary
280
     1
281
     1
  3
ACAD_XREC_ROUNDTRIP
360
2801
  0
DICTIONARY
  5
27EF
330
F5
100
AcDbDictionary
280
     1
281
     1
  3
ACAD_XREC_ROUNDTRIP
360
27F0
  0
DICTIONARY
  5
27F5
330
F8
100
AcDbDictionary
280
     1
281
     1
  3
ACAD_XREC_ROUNDTRIP
360
27F6
  0
XRECORD
  5
210F
102
{ACAD_REACTORS
330
210E
102
}
330
210E
100
AcDbXrecord
280
     1
310
280000000001000086000000010008000000000000860000000000000000000000010000000000008080800000000000FFFFFF000000000000000000000000000000000000000000000000000000000000000000330000006600000099000000CC000000FF00000000330000333300006633000099330000CC330000FF3300
310
0000660000336600006666000099660000CC660000FF66000000990000339900006699000099990000CC990000FF99000000CC000033CC000066CC000099CC0000CCCC0000FFCC000000FF000033FF000066FF000099FF0000CCFF0000FFFF000000003300330033006600330099003300CC003300FF003300003333003333
310
33006633330099333300CC333300FF33330000663300336633006666330099663300CC663300FF66330000993300339933006699330099993300CC993300FF99330000CC330033CC330066CC330099CC3300CCCC3300FFCC330000FF330033FF330066FF330099FF3300CCFF3300FFFF330000006600330066006600660099
310
006600CC006600FF00660000336600333366006633660099336600CC336600FF33660000666600336666006666660099666600CC666600FF66660000996600339966006699660099996600CC996600FF99660000CC660033CC660066CC660099CC6600CCCC6600FFCC660000FF660033FF660066FF660099FF6600CCFF6600
310
FFFF660000009900330099006600990099009900CC009900FF00990000339900333399006633990099339900CC339900FF33990000669900336699006666990099669900CC669900FF66990000999900339999006699990099999900CC999900FF99990000CC990033CC990066CC990099CC9900CCCC9900FFCC990000FF99
310
0033FF990066FF990099FF9900CCFF9900FFFF99000000CC003300CC006600CC009900CC00CC00CC00FF00CC000033CC003333CC006633CC009933CC00CC33CC00FF33CC000066CC003366CC006666CC009966CC00CC66CC00FF66CC000099CC003399CC006699CC009999CC00CC99CC00FF99CC0000CCCC0033CCCC0066CC
310
CC0099CCCC00CCCCCC00FFCCCC0000FFCC0033FFCC0066FFCC0099FFCC00CCFFCC00FFFFCC000000FF003300FF006600FF009900FF00CC00FF00FF00FF000033FF003333FF006633FF009933FF00CC33FF00FF33FF000066FF003366FF006666FF009966FF00CC66FF00FF66FF000099FF003399FF006699FF009999FF00CC
310
99FF00FF99FF0000CCFF0033CCFF0066CCFF0099CCFF00CCCCFF00FFCCFF0000FFFF0033FFFF0066FFFF0099FFFF00CCFFFF00FFFFFF00000000000D0D0D001A1A1A00282828003535350043434300505050005D5D5D006B6B6B00787878008686860093939300A1A1A100AEAEAE00BBBBBB00C9C9C900D6D6D600E4E4E400
310
F1F1F100FFFFFF0000000000000000000000000000000000000000000000000000000000000000000000000000000000ECECECECECECECECECECECECECECECECECECECECECECECECECECECECECECECECECECECECECECECECECECECECECECECECECECECECECECECECECECECECECECECECECECECECECECECECECECECECECECEC
310
ECECECECECECECECECECECECECECECECECECECECECECECECECECECECECECECECECECECECECECECECECECECECECECECECECECECECECECECECECECECECECECECECECECECECECECECECECECECECECECECECECECECECECECECECECECECECECECECECECECECECECECECECECECECECECECECECECECECECECECECECECECECECECECEC
310
ECECECECECECECECECECECECECECECECECECECECECECECECECECECECECECECECECECECECECECECECECECECECECECECECECECECECECECECECECECECECECECECECECECECECECECECECECECECECECECECECECECECECECECECECECECF5F5F5F5F5F5F5F5F5F5F5F5F5F5F5F5F5F5F5F5F5F5F5F5F5F5F5F5F5F5F5F5F5F5F5F5F5
310
F5F5F5F5F5F5F5F5F5F5F5F5F5F5F5F5F5F5F5F5F5F5F5F5F5F5F5F5F5F5F5F5F5F5F5F5F5F5F5F5F5F5F5F5F5F5F5F5F5F5F5F5F5F5F5F5F5F5F5F5F5F5F5F5F5F5F5F5F5F5F5F5F5F5F5F5F5F5F5F5F5F5F5F5F5F5F5F5F5F5F5F5F5F5F5F5F5F5F5F5F5F5F5F5F5F5F5F5F5F5F5F5F5F5F5F5F5F5F5F5F5F5F5F5F5F5F5
310
F5F5F5F5F5F5F5F5F5F5F5F5ECECECECECECECECECECECECECECECECECECECECECECECECECECECECECECECECECECECECECECECECECECECECECECECECECECECECECECECECECECECECECECECECECECECECECECECECECECECECECECECECF5ECECECECECECECECECECECECECECECECECECECECECECECECECECECECECECECECECEC
310
ECECECECECECECECECECECECECECECECECECECECECECECECECECECECECECECECECECF5ECECECECECECECECECECECECECECECECECECECECECECECECECECECECECECECECF5ECF5F5F5F5F5F5F5F5F5F5F5F5ECECECECECECECECECECECECECECECECECECECECECECECF5ECECECECF5F5F5F5F5F5F5F5F5ECECECECECECECECEC
310
ECEC1B1BEC1BECECEC1B1BECECF5ECECECECECECECECECECECECECECECECECECECECECECECECECECECECECECECECECECECECECECECECECECECECECECECECECECECECECECECECECECECECECECECECECECECECECECECECECECECECECECECECF5ECECECECECECECECECECECECECECECECECECECECECECECECECECECECECECECEC
310
ECECECECECECECECECECECECECECECECECECECECECECECECECECECECECECECECECECECECF5ECECECECECF5F5F5F5F5F5F5F5F5F5F5F5F5F5F5F5F5F5ECECECECECECECECECF5ECF5F5F5F5F5F5F5F5F5F5F5F5ECECECECECECECECECECECECECECECECECECECECECECECF5ECF5F5F5F5F5F5F5F5F5F5F5F5F5F5F5F5F5F51B
310
1B1B1B1B1B1B1B1B1B1B1B1B1BECECF5ECECECECECECECECECECECECECECECECECECECECECECECECECECECECECECECECECECECECECECECECECECECECECECECECECECECECECECECECECECECECECECECECECECECECECECECECECECECECECECECECF5ECECECECECECECECECECECECECECECECECECECECECECECECECECECECECEC
310
ECECECECECECECECECECECECECECECECECECECECECECECECECECECECECECECECECECECECECECF5ECECECECECF5F5F5F5F5F5F5F5F5F5F5F5F5F5F5F5F5F5ECECECECECECECECECF5F5F5F5F5F5F5F5F5F5F5F5F5F5F5F5F5F5F5F5F5F5F5F5F5F5F5F5F5F5F5F5F5F5F5F5ECF5ECF5F5F5F5F5F5F5F5F5F5F5F5F5F5F5F5F5
310
F51B1B1B1B1B1B1B1B1BEC1B1BEC1BECECF5ECECECECECECECECECECECECECECECECECECECECECECECECECECECECECECECECECECECECECECECECECECECECECECECECECECECECECECECECECECECECECECECECECECECECECECECECECECECECECECECECF5ECECECECECECECECECECECECECECECECECECECECECECECECECECECEC
310
ECECECECECECECECECECECECECECECECECECECECECECECECECECECECECECECECECECECECECECECECF5ECECECECECF5F5F5F5F5F5F5F5F5F5F5F5F5F5F5F5F5F5ECECECECECECECECECF5ECECECECECECECECECECECECECECECECECECECECECECECECECECECECECECECECECECECECF5ECF5F5F5F5F5F5F5F5F5F5F5F5F5F5F5
310
F5F5F51B1B1B1B1B1B1B1B1B1B1B1B1BEC1BECF5ECECECECECECECECECECECECECECECECECECECECECECECECECECECECECECECECECECECECECECECECECECECECECECECECECECECECECECECECECECECECECECECECECECECECECECECECECECECECECECECECF5ECECECECECECECECECECECECECECECECECECECECECECECECECEC
310
ECECECECECECECECECECECECECECECECECECECECECECECECECECECECECECECECECECECECECECECECECECF5ECECECECECF5F5F5F5F5F5F5F5F5F5F5F5F5F5F5F5F5F5ECECECECECECECECECF5ECECECECECECECECECECECECECECECECECECECECECECECECECECECECECECECECECECECECF5ECECECECECECECECECECECECECEC
310
ECECECECECECECECECECECECECECECEC1BECECECECF5ECECECECECECECECECECECECECECECECECECECECECECECECECECECECECECECECECECECECECECECECECECECECECECECECECECECECECECECECECECECECECECECECECECECECECECECECECECECECECECECECF5ECECECECECECECECECECECECECECECECECECECECECECECEC
310
ECECECECECECECECECECECECECECECECECECECECECECECECECECECECECECECECECECECECECECECECECECECECF5ECECECECECECECECECECECECECECECECECECECECECECECECECECECECECECECECF5ECF5F5F5F5F5F5F5F5F5F5F5F5F5F5F5F5F5F5F5ECECECECECECECECECECECECECECECECF5F5F5F5F5F5F5F5F5F5F5F5F5
310
F5F5F5F5F5F5F5F5F5F5F5F5F5F5F5F5F5F51BF5F5F5F5F5ECECECECECECECECECECECECECECECECECECECECECECECECECECECECECECECECECECECECECECECECECECECECECECECECECECECECECECECECECECECECECECECECECECECECECECECECECECECECECECECECF5ECECECECECF5F5F5F5F5F5F5F5F5F5F5F5F5F5F5F5F5
310
F5F5F5F5F5F5F5F5F5F5ECECECECECECECECECECECECECECECECECECECECECECECECECECECECECECECECECECECECF5F5F5F5F5F5F5F5F5ECECECECECECECECECECECECECECECECECECECECECECECECF5F5F5F5F5F5F5F5F5F5F5F5F5F5F5F5F5F5F5F5F5F5ECECECECECECECECECECECECECECECF5ECF5F5F5F5F5F5F5F5F5
310
F5F5F5F5F5F5F5F5F5ECECECECECECECECECECECECECECECECF5ECECECECECECECECECECECECECECECECECECECECECECECECECECECECECECECECECECECECECECECECECECECECECECECECECECECECECECECECECECECECECECECECECECECECECECECECECECECECECECECECF5ECECECECECF5F5F5F5F5F5F5F5F5F5F5F5F5F5F5
310
F5F5F5F5F5F5F5F5F5F5F5F5ECECECECECECECECECECECECECECECECECECECECECECECECECECECECECECECECECECECECF5F5F5F5F5F5F5F5F5ECECECECECECECECECECECECECECECECECECECECECECECECF5F5F5F5F5F5F5F5F5F5F5F5F5F5F5F5F5F5F5F5F5F5ECECECECECECECECECECECECECECECF5EC15151515151515
310
15151515151515151515151515151515ECECECECECECECECECECECF5ECECECECECECECECECECECECECECECECECECECECECECECECECECECECECECECECECECECECECECECECECECECECECECECECECECECECECECECECECECECECECECECECECECECECECECECECECECECECECECECECF5ECECECECECF5F5F5F5F5F5F5F5F5F5F5F5F5
310
F5F5F5F5F5F5F5F5F5F5F5F5F5F5ECECECECECECECECECECECECECECECECECECECECECECECECECECECECECECECECECECECECF5ECECECECECECECECECECECECECECECECECECECECECECECECECECECECECECECECF5ECECECECECECECECECECECECECECECECECECECECECECECECECECECECECECECECECECECECF5EC1515151515
310
151515151515151515151515151515151515ECECECECECECECECECECECF5ECECECECECECECECECECECECECECECECECECECECECECECECECECECECECECECECECECECECECECECECECECECECECECECECECECECECECECECECECECECECECECECECECECECECECECECECECECECECECECECECF5ECECECECECF5F5F5F5F5F5F5F5F5F5F5
310
F5F5F5F5F5F5F5F5F5F5F5F5F5F5F5F5ECECECECECECECECECECECECECECECECECECECECECECECECECECECECECECECECECECECECF5F5F5F5F5F5F5F5F5F5F5F5F5F5F5F5F5F5F5F5F5F5F5F5F5F5F5F5F5F5F5F5F5F5F5F5F5F5F5F5F5F5F5F5F5F5F5F5F5F5F5F5F5F5F5F5F5F5F5F5F5F5F5F5F5F5F5F5F5F5F5F5F5F5F5
310
F5F5F5F5F5F5F5F5F5F5F5F5F5F5F5F5F5F5F5F5F5F5F5F5F5F5F5F5F5F5F5F5ECECECECECECECECECECECECECECECECECECECECECECECECECECECECECECECECECECECECECECECECECECECECECECECECECECECECECECECECECECECECECECECECECECECECECECECECECECECECECECECECF5ECECECECECF5F5F5F5F5F5F5F5F5
310
F5F5F5F5F5F5F5F5F5F5F5F5F5F5F5F5F5F5F5F5F5F5F5F5F5F5F5F5F5F5F5F5F5F5F5F5F5F5F5F5F5F5F5F5F5F5F5F5F5F5ECECECECF5ECECECECECECECECECECECECECECECECECECECECECECECECECECECECECECECECF5ECECECECECECECECECECECECECECECECECECECECECECECECECECECECECECECECECECECECECECEC
310
ECECECECECECECF5ECECECECECF5ECECECECECECECECECECECECECECECECECECECF5ECECECECECECECECECECECECECECECECECECECECECECECECECECECECECECECECECECECECECECECECECECECECECECECECECECECECECECECECECECECECECECECECECECECECECECECECECECECECECECECECF5ECECECECECF5F5F5F5F5F5F5
310
F5F5F5F5F5F5F5F5F5F5F5F5F5F5F5F5F5F5F5F5F5F5F5F5F5F5F5F5F5F5F5F5F5F5F5F5F5F5F5F5F5F5F5F5F5F5F5F5F5F5F5F5ECECECECF5ECECECECECF5F5F5F5F5F5F5F5F5F5F5F5F5F5F5ECECECECECECECECECECECECF5ECECECECECECECECECECECECECECECECECECECECECECECECECECECECECECECECECECECECEC
310
ECECECECECECECECECF5ECECECECF5F5F5F5ECECECECECECECECECECECECF5F5ECECECF5ECECECECECECECECECECECECECECECECECECECECECECECECECECECECECECECECECECECECECECECECECECECECECECECECECECECECECECECECECECECECECECECECECECECECECECECECECECECECECECECECF5ECECECECECF5F5F5F5F5
310
F5F5F5F5F5F5F5F5F5F5F5F5F5F5F5F5F5F5F5F5F5F5F5F5F5F5F5F5F5F5F5F5F5F5F5F5F5F5F5F5F5F5F5F5F5F5F5F5F5F5F5F5F5F5ECECECECF5ECECECECECF5F5F5F5F5F5F5F5F5F5F5F5F5F5F5ECECECECECECECECECECECECF5ECECECECECECECF5F5F5F5F5F5F5ECECECECECECECECECECECECECECECECECECECECEC
310
ECECECECECECECECECECECF5ECECECF5ECF5ECF5F5ECECECECECECECF5F5F5F5ECF5ECECECF5ECECECECECECECECECECECECECECECECECECECECECECECECECECECECECECECECECECECECECECECECECECECECECECECECECECECECECECECECECECECECECECECECECECECECECECECECECECECECECECECECF5ECECECECECF5F5F5
310
F5F5F5F5F5F5F5F5F5F5F5F5F5F5F5F5F5F5F5F5F5F5F5F5F5F5F5F5F5F5F5F5F5F5F5F5F5F5F5F5F5F5F5F5F5F5F5F5F5F5F5F5F5F5F5F5ECECECECF5ECECECECECF5F5F5F5F5F5F5F5F5F5F5F5F5F5F5ECECECECECECECECECECECECF5ECECECECECECECF5F5F5F5F5F5F5ECECECECECECECECECECECECECECECECECECEC
310
ECECECECECECECECECECECECECF5ECECF5ECF5F5F5F5F5ECECECECF5F5F5ECECECECECF5ECECECF5ECECECECECECECECECECECECECECECECECECECECECECECECECECECECECECECECECECECECECECECECECECECECECECECECECECECECECECECECECECECECECECECECECECECECECECECECECECECECECECECECF5ECF5F5F5F5F5
310
F5F5F5F5F5F5F5ECECECECECECECECECECECECECECECECECECECECECECECECECECECECECECECECECECECECECECECECECECECECECECECECECECECECECECECF5ECECECECECF5F5F5F5F5F5F5F5F5F5F5F5F5F5F5ECECECECECECECECECECECECF5ECECECECECECECF5F5F5F5F5F5F5ECECECECECECECECECECECECECECECECEC
310
ECECECECECECECECECECECECECECECF5ECF5F5F5F5F5F5F5F5F5F5ECF5F5F5F5F5F5F5F5F5F5F5ECECF5ECECECECECECECECECECECECECECECECECECECECECECECECECECECECECECECECECECECECECECECECECECECECECECECECECECECECECECECECECECECECECECECECECECECECECECECECECECECECECECECECF5ECF5F5F5
310
F5F5F5F5F5F5F5F5F5ECECECECECECECECECECECECECECECECECECECECECECECECECECECECECECECECECECECECECECECECECECECECECECECECECECECECECECECF5F5F5F5F5F5F5ECECECECECECECECECECECECECECECECECECECECECECECECECECF5ECECECECECECECECECECECECECECECECECECECECECECECECECECECECEC
310
ECECECECECECECECECECECECECECECECECF5ECECF5ECF5F5ECF5ECF5ECECECF5ECECECECECECECF5ECECECF5ECECECECECECECECECECECECECECECECECECECECECECECECECECECECECECECECECECECECECECECECECECECECECECECECECECECECECECECECECECECECECECECECECECECECECECECECECECECECECECECECF5ECF5
310
F5F5F5F5F5F5F5F5F5F5F5ECECECECECECECECECECECECECECECECECECECECECECECECECECECECECECECECECECECECECECECECECECECECECECECECECECECECECECECF5F5F5F5F5F5F5ECECECECECECECECECECECECECECECECECECECECECECECECECECF5F5F5F5F5F5F5F5F5F5F5ECECECECECECECECECECECECECECECECEC
310
ECECECECECECECECECECECECECECECECECECECF5ECECF5F5F5F5F5ECF5ECECECECF5F5ECECECECECECF5ECECECF5ECECECECECECECECECECECECECECECECECECECECECECECECECECECECECECECECECECECECECECECECECECECECECECECECECECECECECECECECECECECECECECECECECECECECECECECECECECECECECECECECF5
310
ECECECECECECECECECECECECECECECECECECECECECECECECECECECECECECECECECECECECECECECECECECECECECECECECECECECECECECECECECECECECECECECECECECECECF5F5F5F5F5F5F5ECECECECECECECECECECECECECECECECECECECECECECECECECECF5F5F5F5F5F5F5F5F5F5F5ECECECECECECECECECECECECECECEC
310
ECECECECECECECECECECECECECECECECECECECECECF5ECECECF5F5F5ECF5F5ECECECECECECF5F5F5F5ECECF5ECECECF5ECECECECECECECECECECECECECECECECECECECECECECECECECECECECECECECECECECECECECECECECECECECECECECECECECECECECECECECECECECECECECECECECECECECECECECECECECECECECECECEC
310
ECF5ECECECECECECECECECECECECECECECECECECECECECECECECECECECECECECECECECECECECECECECECECECECECECECECECECECECECECECECECECECECECECECECECECECECECF5ECECECECECECECECECECECECECECECECECECECECECECECECECECECECECECECECF5F5F5F5F5F5F5F5F5F5F5ECECECECECECECECECECECECEC
310
ECECECECECECECECECECECECECECECECECECECECECECECF5ECECECECF5F5F5F5ECECECECECECECECECECECF5F5F5ECECECF5ECECECECECECECECECECECECECECECECECECECECECECECECECECECECECECECECECECECECECECECECECECECECECECECECECECECECECECECECECECECECECECECECECECECECECECECECECECECECEC
310
ECECECF5F5F5F5F5F5F5F5F5F5F5F5F5F5F5F5F5F5F5F5F5F5F5F5F5F5F5F5F5F5F5F5F5F5F5F5F5F5F5F5F5F5F5F5F5F5F5F5F5F5F5F5F5F5F5F5F5F5F5F5F5F5F5F5F5F5F5F5F5F5F5F5F5F5F5F5F5F5F5F5F5F5F5F5F5F5F5F5F5F5F5F5F5F5F5F5F5F5F5F5F5F5F5F5F5F5F5F5F5F5F5F5F5F5F5F5F5F5F5F5F5F5F5F5
310
F5F5F5F5F5F5F5F5F5F5F5F5F5F5F5F5F5F5F5F5F5F5F5F5F5F5F5F5F5F5F5F5F5F5F5F5F5F5F5F5F5F5F5F5F5F5F5F5F5F5F5F5ECECECECECECECECECECECECECECECECECECECECECECECECECECECECECECECECECECECECECECECECECECECECECECECECECECECECECECECECECECECECECECECECECECECECECECECECECECEC
310
ECECECECECF5ECECECECECECECECECECECECECECECECECECECECECECECECECECECECECECECECECECECECECECECECECECECECECECECECECECECECECECECECECECECECECECECECECECECECECECECECECECECECECECECECECECECECECECECECECECECECECECECECECECECECECECECECECECECECECECECECECECECECECECECECEC
310
ECECECECECECECECECECECECECECECECECECECECECECECECECECECECECECECECECECECECECECECECECECECECECECECECECECECECECF5ECECECECECECECECECECECECECECECECECECECECECECECECECECECECECECECECECECECECECECECECECECECECECECECECECECECECECECECECECECECECECECECECECECECECECECECECEC
310
ECECECECECECECF5ECECECECECECECECECECECECECECECECECECECECECECECECECECECECECECECECECECECECECECECECECECECECECECECECECECECECECECECECECECECECECECECECECECECECECECECECECECECECECECECECECECECECECECECECECECECECECECECECECECECECECECECECECECECECECECECECECECECECECECEC
310
ECECECECECECECECECECECECECECECECECECECECECECECECECECECECECECECECECECECECECECECECECECECECECECECECECECECECECECECF5ECECECECECECECECECECECECECECECECECECECECECECECECECECECECECECECECECECECECECECECECECECECECECECECECECECECECECECECECECECECECECECECECECECECECECECEC
310
ECECECECECECECECECF5ECECECECECECECECECECECECECECECECECECECECECECECECECECECECECECECECECECECECECECECECECF5F5F5F5F5F5F5F5F5ECECECECECECECECECECECECECECECECECECECECECECECECECECECECECECECECECECECECECECECECECECECECECECECECECECECECECECECECECECECECECF5F5F5F5F5EC
310
ECECECECECECECECECECECECECECECECECECECECECECECECECECECECECECECECECECECECECECECECECECECECECECECECECECECECECECECECECF5ECECECECECECECECECECECECECECECECECECECECECECECECECECECECECECECECECECECECECECECECECECECECECECECECECECECECECECECECECECECECECECECECECECECECEC
310
ECECECECECECECECECECECF5ECECECECECECECECECECECECECECECECECECECECECECECECECECECECECECECECECECECECECECECECECF5F5F5F5F5F5F5F5F5ECECECECECECECECECECECECECECECECECECECECECECECECECECECECECECECECECECECECECECECECECECECECECECECECECECECECECECECECECECECECECF5F5F5F5
310
F5ECECECECECECECECECECECECECECECECECECECECECECECECECECECECECECECECECECECECECECECECECECECECECECECECECECECECECECECECECECF5ECECECECECECECECECECECECECECECECECECECECECECECECECECECECECECECECECECECECECECECECECECECECECECECECECECECECECECECECECECECECECECECECECECEC
310
ECECECECECECECECECECECECECF5ECECECECECECECECECECECECECECECECECECECECECECECECECECECECECECECECECECECECECECECECECF5F5F5F5F5F5F5F5F5ECECECECECECECECECECECECECECECECECECECECECECECECECECECECECECECECECECECECECECECECECECECECECECECECECECECECECECECECECECECECECF5F5
310
F5F5F5ECECECECECECECECECECECECECECECECECECECECECECECECECECECECECECECECECECECECECECECECECECECECECECECECECECECECECECECECECECF5ECECECECECECECECECECECECECECECECECECECECECECECECECECECECECECECECECECECECECECECECECECECECECECECECECECECECECECECECECECECECECECECECEC
310
ECECECECECECECECECECECECECECECF5ECECECECECECECECECECECECECECECECECECECECECECECECECECECECECECECECECECECECECECECECECF5F5F5F5F5F5F5F5F5ECECECECECECECECECECECECECECECECECECECECECECECECECECECECECECECECECECECECECECECECECECECECECECECECECECECECECECECECECECECECEC
310
F5F5F5F5F5ECECECECECECECECECECECECECECECECECECECECECECECECECECECECECECECECECECECECECECECECECECECECECECECECECECECECECECECECECECF5ECECECECECECECECECECECECECECECECECECECECECECECECECECECECECECECECECECECECECECECECECECECECECECECECECECECECECECECECECECECECECECEC
310
ECECECECECECECECECECECECECECECECECF5ECECECECECECECECECECECECECECECECECECECECECECECECECECECECECECECECECECECECECECECECECECECECECECECECECECECECECECECECECECECECECECECECECECECECECECECECECECECECECECECECECECECECECECECECECECECECECECECECECECECECECECECECECECECECEC
310
ECECECECECECECECECECECECECECECECECECECECECECECECECECECECECECECECECECECECECECECECECECECECECECECECECECECECECECECECECECECECECECECECECF5ECECECECECECECECECECECECECECECECECECECECECECECECECECECECECECECECECECECECECECECECECECECECECECECECECECECECECECECECECECECECEC
310
ECECECECECECECECECECECECECECECECECECECF5ECECECECECECECECECECECECECECECECECECECECECECECECECECECECECECECECECECECECECECECECECECECECECECECECECECECECECECECECECECECECECECECECECECECECECECECECECECECECECECECECECECECECECECECECECECECECECECECECECECECECECECECECECECEC
310
ECECECECECECECECECECECECECECECECECECECECECECECECECECECECECECECECECECECECECECECECECECECECECECECECECECECECECECECECECECECECECECECECECECECF5ECECECECECECECECECECECECECECECECECECECECECECECECECECECECECECECECECECECECECECECECECECECECECECECECECECECECECECECECECECEC
310
ECECECECECECECECECECECECECECECECECECECECECF5ECECECECECECECECECECECECECECECECECECECECECECECECECECECECECECECECECECECECECECECECECECECECECECECECECECECECECECECECECECECECECECECECECECECECECECECECECECECECECECECECECECECECECECECECECECECECECECECECECECECECECECECECEC
310
ECECECECECECECECECECECECECECECECECECECECECECECECECECECECECECECECECECECECECECECECECECECECECECECECECECECECECECECECECECECECECECECECECECECECECF5ECECECECECECECECECECECECECECECECECECECECECECECECECECECECECECECECECECECECECECECECECECECECECECECECECECECECECECECECEC
310
ECECECECECECECECECECECECECECECECECECECECECECECF5ECECECECECECECECECECECECECECECECECECECECECECECECECECECECECECECECECEFEFEFEFEFECEFF5F5F5F5F5F5F5F5F5F5F5F5EFF5EFEFEFEFEFEFEFEFECECECECECECECECECECECECECECECECECECECECECECECECECECECECECECECECECECECECECECECECEC
310
ECECECECECF5F5F5F5F5F5F5F5F5F5F5ECECECECECECECECECECECECECECECECECECECECECECECECECECECECECECECECECECECECECECECECECECECECECECECECECECECECECECECF5ECECECECECECECECECECECECECECECECECECECECECECECECECECECECECECECECECECECECECECECECECECECECECECECECECECECECECECEC
310
ECECECECECECECECECECECECECECECECECECECECECECECECECF5ECECECECECECECECECECECECECECECECECECECECECECECECECECECECECECECECECECECEFECECECF5ECECECECECECECECECECECECF5F5ECECECECECEFECECECECECECECECECECECECECECECECECECECECECECECECECECECECECECECECECECECECECECECECEC
310
ECECECECECF5F5F5F5ECECECECECECECF5F5F5F5F5ECECECECECECECECECECECECECECECECECECECECECECECECECECECECECECECECECECECECECECECECECECECECECECECECECECECECF5ECECECECECECECECECECECECECECECECECECECECECECECECECECECECECECECECECECECECECECECECECECECECECECECECECECECECEC
310
ECECECECECECECECECECECECECECECECECECECECECECECECECECECF5ECECECECECECECECECECECECECECECECECECECECECECECECECECECECECECECECEFEFEFEFECECECF5ECECECECECECECECECECECECF5F5ECECECECECEFECECECECECECECECECECECECECECECECECECECECECECECECECECECECECECECECECECECECECECEC
310
ECECECECECF5F5F5ECECECECECECECECECECECECECF5F5F5ECECECECECECECECECECECECECECECECECECECECECECECECECECECECECECECECECECECECECECECECECECECECECECECECECECECF5ECECECECECECECECECECECECECECECECECECECECECECECECECECECECECECECECECECECECECECECECECECECECECECECECECECEC
310
ECECECECECECECECECECECECECECECECECECECECECECECECECECECECECF5ECECECECECECECECECECECECECECECECECECECECECECECECECECECECECECECECEFEFEFEFECECECF5ECECECECECECECECECECECECF5F5ECECECECECEFECECECECECECECECECECECECECECECECECECECECECECECECECECECECECECECECECECECECEC
310
ECECECECECECF5F5ECECECECECECECECECECECECECECECECECF5F5F5ECECECECECECECECECECECECECECECECECECECECECECECECECECECECECECECECECECECECECECECECECECECECECECECECECF5ECECECECECECECECECECECECECECECECECECECECECECECECECECECECECECECECECECECECECECECECECECECECECECECECEC
310
ECECECECECECECECECECECECECECECECECECECECECECECECECECECECECECECF5ECECECECECECECECECECECECECECECECECECECECECECECECECECECECECECECECEFEFEFEFECECECF5ECECECECECECECECECECECECF5F5ECECECECECEFECECECECECECECECECECECECECECECECECECECECECECECECECECECECECECECECECECEC
310
ECECECECECECECF5F5ECECECECECECF5F5F5F5F5F5F5F5ECECECECECF5F5ECECECECECECECECECECECECECECECECECECECECECECECECECECECECECECECECECECECECECECECECECECECECECECECECECF5ECECECECECECECECECECECECECECECECECECECECECECECECECECECECECECECECECECECECECECECECECECECECECECEC
310
ECECECECECECECECECECECECECECECECECECECECECECECECECECECECECECECECECF5ECECECECECECECECECECECECECECECECECECECECECECECECECECECECECECECECEFEFEFEFECECECF5F5F5F5F5F5F5F5F5F5F5F5F5F5F5ECECECECECEFECECECECECECECECECECECECECECECECECECECECECECECECECECECECECECECECEC
310
ECECECECECECECECF5F5ECECECECF5F5F5F5F5F5F5F5F5F5F5F5F5ECECECECECF5F5ECECECECECECECECECECECECECECECECECECECECECECECECECECECECECECECECECECECECECECECECECECECECECECECF5ECECECECECECECECECECECECECECECECECECECECECECECECECECECECECECECECECECECECECECECECECECECECEC
310
ECECECECECECECECECECECECECECECECECECECECECECECECECECECECECECECECECECECF5ECECECECECECECECECECECECECECECECECECECECECECECECECECECECECECECECEFEFEFEFECECECF5ECECECECECECECECECECECECF5F5ECECECECECEFECECECECECECECECECECECECECECECECECECECECECECECECECECECECECECEC
310
ECECECECECECECECECF5F5ECECECECF5F5F5ECECECF5ECF5ECECECF5F5F5ECECECECF5F5ECECECECECECECECECECECECECECECECECECECECECECECECECECECECECECECECECECECECECECECECECECECECECECECF5ECECECECECECECECECECECECECECECECECECECECECECECECECECECECECECECECECECECECECECECECECECEC
310
ECECECECECECECECECECECECECECECECECECECECECECECECECECECECECECECECECECECECECF5ECECECECECECECECECECECECECECECECECECECECECECECECECECECECECECECECECECECEFECECECF5ECECECECECECECECECECECECF5F5ECECECECECEFECECECECECECECECECECECECECECECECECECECECECECECECECECECECEC
310
ECECECECECECECECECECECF5ECECECECF5F5F5ECECECECF5ECF5ECECECECECF5F5ECECECECEFF5ECECECECECECECECECECECECECECECECECECECECECECECECECECECECECECECECECECECECECECECECECECECECECECF5ECECECECECECECECECECECECECECECECECECECECECECECECECECECECECECECECECECECECECECECECEC
310
ECECECECECECECECECECECECECECECECECECECECECECECECECECECECECECECECECECECECECECECF5ECECECECECECECECECECECECECECECECECECECECECECECECECECECECECECECECECECECEFECECECF5ECECECECECECECECECECECECF5F5ECECECECECEFECECECECECECECECECECECECECECECECECECECECECECECECECECEC
310
ECECECECECECECECECECECECF5F5ECECECF5F5ECECECECECF5F5ECF5F5ECECECECECF5F5ECEFEFECF5F5ECECECECECECECECECECECECECECECECECECECECECECECECECECECECECECECECECECECECECECECECECECECECECF5ECECECECECECECECECECECECECECECECECECECECECECECECECECECECECECECECECECECECECECEC
310
ECECECECECECECECECECECECECECECECECECECECECECECECECECECECECECECECECECECECECECECECECF5ECECECECECECECECECECECECECECECECECECECECECECECECECECECECECECECECECEFEFEFEFEFECEFF5F5F5F5F5F5F5F5F5F5F5F5F5F5ECECECECECEFECECECECECECECECECECECECECECECECECECECECECECECECEC
310
ECECECECECECECECECECECECECF5F5ECECECF5F5ECECECECF5F5F5F5ECF5F5F5F5ECECECECF5EFECECECF5F5ECECECECECECECECECECECECECECECECECECECECECECECECECECECECECECECECECECECECECECECECECECECECECF5ECECECECECECECECECECECECECECECECECECECECECECECECECECECECECECECECECECECECEC
310
ECECECECECECECECECECECECECECECECECECECECECECECECECECECECECECECECECECECECECECECECECECECF5ECECECECECECECECECECECECECECECECECECECECECECECECECECECECECECECECECECECEFECECECF5ECECECECECECECECECECECECF5F5ECECECECECEFECECECECECECECECECECECECECECECECECECECECECECEC
310
ECEFEFEFEFEFEFEFEFEFEFECECECECF5ECECECECF5ECEFECECF5F5F5ECECECECECECF5F5ECECEFEFF5F5ECECECF5ECECECECECECECECECECECECECECECECECECECECECECECECECECECECECECECECECECECECECECECECECECECECECF5ECECECECECECECECECECECECECECECECECECECECECECECECECECECECECECECECECECEC
310
ECECECECECECECECECECECECECECECECECECECECECECECECECECECECECECECECECECECECECECECECECECECECECF5ECECECECECECECECECECECECECECECECECECECECECECECECECECECECECECECECECECECEFECECECF5ECECECECECECECECECECECECF5F5ECECECEFEFEFECECECECECECECECECECECECECECECECECECECECEC
310
ECECECEFEFEFEFEFEFECECECECEFEFEFECF5ECECECF5F5ECECEFF5F5ECECECECECECECECECF5F5EFECECECF5ECECECF5F5ECECECECECECECECECECECECECECECECECECECECECECECECECECECECECECECECECECECECECECECECECECECECF5ECECECECECECECECECECECECECECECECECECECECECECECECECECECECECECECECEC
310
ECECECECECECECECECECECECECECECECECECECECECECECECECECECECECECECECECECECECECECECECECECECECECECECF5ECECECECECECECECECECECECECECECECECECECECECECECECECECECECECECECECECECECEFECECECF5ECECECECECECECECECECECECF5F5ECECECEFEFEFECECECECECECECECECECECECECECECECECECEC
310
ECECECECECECECECECECECECECECECECECECEFEFECECECF5ECECECECEFECECECECECECECECECECEFEFF5ECECECF5F5ECECF5F5ECECECECECECECECECECECECECECECECECECECECECECECECECECECECECECECECECECECECECECECECECECECECF5ECECECECECECECECECECECECECECECECECECECECECECECECECECECECECECEC
310
ECECECECECECECECECECECECECECECECECECECECECECECECECECECECECECECECECECECECECECECECECECECECECECECECECF5ECECECECECECECECECECECECECECECECECECECECECECECECECECECECECECECECEFEFEFEFECECECF5ECECECECECECECECECECECECF5F5ECECECEFEFEFECECECECECECECECECECECECECECECECEC
310
ECECECECECECECECECECECECECECECECECECECECF5F5EFEFEFEFECECECF5F5EFEFECECECECECECECEFECECF5ECECECF5F5ECECECF5ECECECECECECECECECECECECECECECECECECECECECECECECECECECECECECECECECECECECECECECECECECECECF5ECECECECECECECECECECECECECECECECECECECECECECECECECECECECEC
310
ECECECECECECECECECECECECECECECECECECECECECECECECECECECECECECECECECECECECECECECECECECECECECECECECECECECF5ECECECECECECECECECECECECECECECECECECECECECECECECECECECECECECECECEFEFEFEFECECECF5ECECECECECECECECECECECECF5F5ECECECEFEFEFECECECECECECECECECECECECECECEC
310
ECECECECECECECECECECECECECECECECECECECECECECF5F5ECECF5F5EFEFEFEFF5ECECEFECECECECEFEFECECECF5ECECECF5F5ECECECF5ECECECECECECECECECECECECECECECECECECECECECECECECECECECECECECECECECECECECECECECECECECECECF5ECECECECECECECECECECECECECECECECECECECECECECECECECECEC
310
ECECECECECECECECECECECECECECECECECECECECECECECECECECECECECECECECECECECECECECECECECECECECECECECECECECECECECF5ECECECECECECECECECECECECECECECECECECECECECECECECECECECECECECECECEFEFEFEFECECECF5ECECECECECECECECECECECECF5F5ECECECEFEFEFECECECECECECECECECECECECEC
310
ECECECECECECECECECECECECECECECECECECECECECECECECF5ECECECF5F5ECECECF5EFEFEFEFEFEFECEFECECECECECF5F5ECECF5F5ECECECF5ECECECECECECECECECECECECECECECECECECECECECECECECECECECECECECECECECECECECECECECECECECECECF5ECECECECECECECECECECECECECECECECECECECECECECECECEC
310
ECECECECECECECECECECECECECECECECECECECECECECECECECECECECECECECECECECECECECECECECECECECECECECECECECECECECECECECF5ECECECECECECECECECECECECECECECECECECECECECECECECECECECECECECECECEFEFEFEFECECECF5ECECECECECECECECECECECECF5F5ECECECECECEFECECECECECECECECECECEC
310
ECECECECECECECECECECECECECECECECECECECECECECECECECECF5ECECECF5F5ECECECF5ECECECECEFEFEFECECECECECECF5F5ECECECF5ECECECF5ECECECECECECECECECECECECECECECECECECECECECECECECECECECECECECECECECECECECECECECECECECECECF5ECECECECECECECECECECECECECECECECECECECECECECEC
310
ECECECECECECECECECECECECECECECECECECECECECECECECECECECECECECECECECECECECECECECECECECECECECECECECECECECECECECECECECF5ECECECECECECECECECECECECECECECECECECECECECECECECECECECECECECECECEFEFEFEFECECECF5ECECECECECECECECECECECECF5F5ECECECECECEFECECECECECECECECEC
310
ECECECECECECECECECECECECECECECECECECECECECECECECECECECECF5ECECECF5F5ECECECF5ECECECEFEFECECEFEFECECECECF5F5ECECF5F5ECECECF5ECECECECECECECECECECECECECECECECECECECECECECECECECECECECECECECECECECECECECECECECECECECECF5ECECECECECECECECECECECECECECECECECECECECEC
310
ECECECECECECECECECECECECECECECECECECECECECECECECECECECECECECECECECECECECECECECECECECECECECECECECECECECECECECECECECECECF5ECECECECECECECECECECECECECECECECECECECECECECECECECECECECECECECECECECECEFECECECF5ECECECECECECECECECECECECF5F5ECECECECECEFECECECECECECEC
310
ECECECECECECECECECECECECECECECECECECECECECECECECECECECECECECF5F5ECECF5F5ECECECF5F5ECEFECECECECECECEFECECECF5ECECECF5F5ECECECF5ECECECECECECECECECECECECECECECECECECECECECECECECECECECECECECECECECECECECECECECECECECECECF5ECECECECECECECECECECECECECECECECECECEC
310
ECECECECECECECECECECECECECECECECECECECECECECECECECECECECECECECECECECECECECECECECECECECECECECECECECECECECECECECECECECECECECF5ECECECECECECECECECECECECECECECECECECECECECECECECECECECECECECECECECECECEFECECECF5ECECECECECECECECECECECECF5F5ECECECECECEFECECECECEC
310
ECECECECECECECECECECECECECECECECECECECECECECECECECECECECECECECECF5F5ECECECF5ECECECF5EFEFECECECECECECECECEFEFF5F5ECECECF5F5ECECECF5ECECECECECECECECECECECECECECECECECECECECECECECECECECECECECECECECECECECECECECECECECECECECF5ECECECECECECECECECECECECECECECECEC
310
ECECECECECECECECECECECECECECECECECECECECECECECECECECECECECECECECECECECECECECECECECECECECECECECECECECECECECECECECECECECECECECECF5ECECECECECECECECECECECECECECECECECECECECECECECECECECECECECECECECECECECEFECECECF5ECECECECECECECECECECECECF5F5ECECECECECEFECECEC
310
ECECECECECECECECECECECECECECECECECECECECECECECECECECECECECECECECECECF5F5ECECECF5F5ECECEFF5F5ECECECECECECECECECF5EFEFECECECF5ECECECF5F5ECECECECECECECECECECECECECECECECECECECECECECECECECECECECECECECECECECECECECECECECECECECECF5ECECECECECECECECECECECECECECEC
310
ECECECECECECECECECECECECECECECECECECECECECECECECECECECECECECECECECECECECECECECECECECECECECECECECECECECECECECECECECECECECECECECECECF5ECECECECECECECECECECECECECECECECECECECECECECECECECECECECECECECECECECECEFECECECF5ECECECECECECF5ECECECECECF5F5ECECECECECEFEC
310
ECECECECECECECECECECECECECECECECECECECECECECECECECECECECECECECECECECECECECF5ECECECF5F5EFEFECECF5F5ECECECECECECECF5F5F5EFECECF5F5ECECECF5F5ECECECECECECECECECECECECECECECECECECECECECECECECECECECECECECECECECECECECECECECECECECECECF5ECECECECECECECECECECECECEC
310
ECECECECECECECECECECECECECECECECECECECECECECECECECECECECECECECECECECECECECECECECECECECECECECECECECECECECECECECECECECECECECECECECECECECF5ECECECECECECECECECECECECECECECECECECECECECECECECECECECECECECECECECECECEFECECECF5ECECECECECECF5ECECECECECF5F5ECECECECEC
310
EFECECECECECECECECECECECECECECECECECECECECECECECECECECECECECECECECECECECECECECF5F5ECECECEFF5ECECECECF5F5F5ECECECF5F5F5F5ECECEFEFF5ECECECECF5ECECECECECECECECECECECECECECECECECECECECECECECECECECECECECECECECECECECECECECECECECECECECECF5ECECECECECECECECECECEC
310
ECECECECECECECECECECECECECECECECECECECECECECECECECECECECECECECECECECECECECECECECECECECECECECECECECECECECECECECECECECECECECECECECECECECECECF5ECECECECECECECECECECECECECECECECECECECECECECECECECECECECECECECECECEFEFEFEFEFECEFF5F5F5F5F5F5F5F5F5F5EFEFF5F5ECECEC
310
ECECEFECECECECECECECECECECECECECECECECECECECECECECECECECECECECECECECECECECECECECECF5F5F5F5EFF5F5F5F5F5ECECF5F5F5ECF5F5F5ECECECECECF5EFECECECF5F5ECECECECECECECECECECECECECECECECECECECECECECECECECECECECECECECECECECECECECECECECECECECECECF5ECECECECECECECECEC
310
ECECECECECECECECECECECECECECECECECECECECECECECECECECECECECECECECECECECECECECECECECECECECECECECECECECECECECECECECECECECECECECECECECECECECECECECF5ECECECECECECECECECECECECECECECECECECECECECECECECECECECECECECECECECECECEFECECECF5ECEFF5F5ECECF5ECF5F5EFECF5F5EC
310
ECECECECEFECECECECECECECECECECECECECECECECECECECECECECECECECECECECECECECECECECECECECECECF5EFEFF5ECF5F5F5F5ECECECECF5ECF5ECECECECECF5F5F5ECEFEFECF5ECECECECECECECECECECECECECECECECECECECECECECECECECECECECECECECECECECECECECECECECECECECECECECF5ECECECECECECEC
310
ECECECECECECECECECECECECECECECECECECECECECECECECECECECECECECECECECECECECECECECECECECECECECECECECECECECECECECECECECECECECECECECECECECECECECECECECECF5ECECECECECECECECECECECECECECECECECECECECECECECECECECECECECECECECEFEFEFEFECECECF5ECF5EFECF5F5F5F5ECEFF5ECF5
310
F5ECECECECECEFECECECECECECECECECECECECECECECECECECECECECECECECECECECECECECECECECECECECECECECEFF5F5F5F5F5F5F5F5ECECECECF5F5F5ECECECF5F5F5F5F5F5F5F5EFF5ECECECECECECECECECECECECECECECECECECECECECECECECECECECECECECECECECECECECECECECECECECECECECECF5ECECECECEC
310
ECECECECECECECECECECECECECECECECECECECECECECECECECECECECECECECECECECECECECECECECECECECECECECECECECECECECECECECECECECECECECECECECECECECECECECECECECECECF5ECECECECECECECECECECECECECECECECECECECECECECECECECECECECECECECECEFEFEFEFECECECF5ECF5F5EFF5F5F5EFEFECF5
310
ECF5F5ECECECECECEFECECECECECECECECECECECECECECECECECECECECECECECECECECECECECECECECECECECECECEFEFECF5F5F5ECECF5ECF5F5F5ECECF5ECF5ECECF5F5F5ECECECECECF5F5EFEFECECECECECECECECECECECECECECECECECECECECECECECECECECECECECECECECECECECECECECECECECECECECECF5ECECEC
310
ECECECECECECECECECECECECECECECECECECECECECECECECECECECECECECECECECECECECECECECECECECECECECECECECECECECECECECECECECECECECECECECECECECECECECECECECECECECECECF5ECECECECECECECECECECECECECECECECECECECECECECECECECECECECECECECECEFEFEFEFECECECF5F5F5F5F5EFEFEFF5F5
310
F5F5F5EFF5EFEFEFEFEFEFEFEFECECECECECECECECECECECECECECECECECECECECECECECECECECECECECECECECECECEFECECECECF5F5F5F5F5ECF5F5F5F5F5F5ECF5F5F5F5F5F5ECECECECF5F5ECECECEFECECECECECECECECECECECECECECECECECECECECECECECECECECECECECECECECECECECECECECECECECECECECF5EC
310
ECECECECECECECECECECECECECECECECECECECECECECECECECECECECECECECECECECECECECECECECECECECECECECECECECECECECECECECECECECECECECECECECECECECECECECECECECECECECECECECF5ECECECECECECECECECECECECECECECECECECECECECECECECECECECECECECECECEFEFEFEFECECECF5ECF5ECF5F5EFEF
310
EFF5ECF5ECF5F5ECECECECECECECECECECECECECECECECECECECECECECECECECECECECECECECECECECECECECECECECECEFECECECECECECF5F5F5F5ECF5ECECECECF5ECF5ECECECF5F5ECECECF5F5ECECECECECEFECECECECECECECECECECECECECECECECECECECECECECECECECECECECECECECECECECECECECECECECECECEC
310
F5ECECECECECECECECECECECECECECECECECECECECECECECECECECECECECECECECECECECECECECECECECECECECECECECECECECECECECECECECECECECECECECECECECECECECECECECECECECECECECECECECF5ECECECECECECECECECECECECECECECECECECECECECECECECECECECECECECECECEFEFEFEFECECECF5ECF5F5EFEF
310
F5F5F5EFEFF5ECF5F5ECECECECECECECECECECECECECECECECECECECECECECECECECECECECECECECECECECECECECECECEFEFECECECECECECECF5F5F5F5ECF5ECECECECF5ECF5ECECECF5F5F5F5F5F5ECECECECECECECEFEFECECECECECECECECECECECECECECECECECECECECECECECECECECECECECECECECECECECECECECEC
310
ECECF5ECECECECECECECECECECECECECECECECECECECECECECECECECECECECECECECECECECECECECECECECECECECECECECECECECECECECECECECECECECECECECECECECECECECECECECECECECECECECECECECECF5ECECECECECECECECECECECECECECECECECECECECECECECECECECECECECECECECECECECEFECECECF5ECECEF
310
F5F5F5F5F5F5EFEFEFF5F5ECECECECECECECECECECECECECECECECECECECECECECECECECECECECECECECEFEFEFEFEFEFEFEFECECECECECECECECECF5F5F5F5F5F5F5ECECECF5F5F5ECECECF5F5F5F5ECECECECECECECECECECECEFECECECECECECECECECECECECECECECECECECECECECECECECECECECECECECECECECECECEC
310
ECECECECF5ECECECECECECECECECECECECECECECECECECECECECECECECECECECECECECECECECECECECECECECECECECECECECECECECECECECECECECECECECECECECECECECECECECECECECECECECECECECECECECECECF5ECECECECECECECECECECECECECECECECECECECECECECECECECECECECECECECECECECECEFECECECF5EC
310
EFF5F5F5F5F5F5F5F5ECECEFEFECECECECECECECECECECECECECECECECECECECECECECECECECECECECECECECEFEFEFEFEFEFEFECECECECECECECECECECF5F5F5F5F5F5F5F5F5F5F5ECF5F5F5F5F5F5F5ECECECECECECECECECECECECECEFEFECECECECECECECECECECECECECECECECECECECECECECECECECECECECECECECEC
310
ECECECECECECF5ECECECECECECECECECECECECECECECECECECECECECECECECECECECECECECECECECECECECECECECECECECECECECECECECECECECECECECECECECECECECECECECECECECECECECECECECECECECECECECECECF5ECECECECECECECECECECECECECECECECECECECECECECECECECECECECECECECECECEFEFEFEFEFEC
310
EFEFF5F5F5F5F5F5F5F5F5F5F5F5ECEFECECECECECECECECECECECECECECECECECECECECECECECECECECECECECECEFEFEFEFEFEFEFECECECECECECECECECECECECECECECECECECF5F5EFECEFF5F5ECECECECECECECECECECECECECECECECECECECEFEFEFEFEFEFEFEFEFECECECECECECECECECECECECECECECECECECECECEC
310
ECECECECECECECECF5ECECECECECECECECECECECECECECECECECECECECECECECECECECECECECECECECECECECECECECECECECECECECECECECECECECECECECECECECECECECECECECECECECECECECECECECECECECECECECECECECF5ECECECECECECECECECECECECECECECECECECECECECECECECECECECECECECECECECECECECEC
310
ECEFECECECECECECECF5ECECECECECECECECEFEFECECECECECECECECECECECECECECECECECECECECECECECECECECECECECECECECECECECECECECECECECECECECECECECECECECECECECECECECECECECECECECECECECECECECECECECECECECECECECECECECEFEFEFEFEFEFEFECECECECECECECECECECECECECECECECECECECEC
310
ECECECECECECECECECECF5ECECECECECECECECECECECECECECECECECECECECECECECECECECECECECECECECECECECECECECECECECECECECECECECECECECECECECECECECECECECECECECECECECECECECECECECECECECECECECECECECF5ECECECECECECECECECECECECECECECECECECECECECECECECECECECECECECEFEFEFEFEF
310
EFEFEFECECECECECECECECECECECECECECECECECECECEFEFEFEFEFEFEFEFECECECECECECECECECECECECECECECECECECECECECECECECECECECECECECECECECECECECECECECECECECECECECECECEFECEFECECECECECECECECECECECECECECECECECECECECECECECECECECECECECECECECECECECECECECECECECECECECECECEC
310
ECECECECECECECECECECECECF5ECECECECECECECECECECECECECECECECECECECECECECECECECECECECECECECECECECECECECECECECECECECECECECECECECECECECECECECECECECECECECECECECECECECECECECECECECECECECECECECECF5ECECECECECECECECECECECECECECECECECECECECECECECECECECECECECECEFEFEF
310
EFEFEFEFECECECECECECECECECECECECECECECECECECECECEFEFEFEFEFEFEFECECECECECECECECECECECECECECECECECECECECECECECECECECECECECECECECECECECECECECECECECECECECECECECECEFECEFECECECECECECECECECECECECECECECECECECECECECECECECECECECECECECECECECECECECECECECECECECECECEC
310
ECECECECECECECECECECECECECECF5ECECECECECECECECECECECECECECECECECECECECECECECECECECECECECECECECECECECECECECECECECECECECECECECECECECECECECECECECECECECECECECECECECECECECECECECECECECECECECECECECF5ECECECECECECECECECECECECECECECECECECECECECECECECECECECECECECEF
310
EFEFEFEFEFEFECECECECECECECECECECECECECECECECECECECECEFEFEFEFEFEFEFECECECECECECECECECECECECECECECECECECECECECECECECECECECECECECECECECECECECECECECECECECECECECECEFECEFECEFECEFECECECECECECECECECECECECECECECECECECECECECECECECECECECECECECECECECECECECECECECECEC
310
ECECECECECECECECECECECECECECECECF5ECECECECECECECECECECECECECECECECECECECECECECECECECECECECECECECECECECECECECECECECECECECECECECECECECECECECECECECECECECECECECECECECECECECECECECECECECECECECECECECECF5ECECECECECECECECECECECECECECECECECECECECECECECECECECECECEC
310
ECECECECECECECECECECECECECECECECECECECECECECECECECECECECECECECECECECECECECECECECECECECECECECECECECECECECECECECECECECECECECECECECECECECECECECECECECECECECECECECECEFEFEFEFEFEFEFEFEFEFEFEFEFEFEFECECECECECECECECECECECECECECECECECECECECECECECECECECECECECECECEC
310
ECECECECECECECECECECECECECECECECECECF5ECECECECECECECECECECECECECECECECECECECECECECECECECECECECECECECECECECECECECECECECECECECECECECECECECECECECECECECECECECECECECECECECECECECECECECECECECECECECECECECECF5ECECECECECECECECECECECECECECECECECECECECECECECECECECEC
310
ECECECECECECECECECECECECECECECECECECECECECECECECECECECECECECECECECECECECECECECECECECECECECECECECECECECECECECECECECECECECECECECECECECECECECECECECECECECECECECECECECECECECECEFECEFECECECEFEFEFEFEFECECECECECECECECECECECECECECECECECECECECECECECECECECECECECECEC
310
ECECECECECECECECECECECECECECECECECECECECF5ECECECECECECECECECECECECECECECECECECECECECECECECECECECECECECECECECECECECECECECECECECECECECECECECECECECECECECECECECECECECECECECECECECECECECECECECECECECECECECECECF5ECECECECECECECECECECECECECECECECECECECECECECECECEC
310
ECECECECECECECECECECECECECECECECECECECECECECECECECECECECECECECECECECECECECECECECECECECECECECECECECECECECECECECECECECECECECECECECECECECECECECECECECECECECECECECECECECECECECECECECECECECECECECECECECECECECECECECECECECECECECECECECECECECECECECECECECECECECECECEC
310
ECECECECECECECECECECECECECECECECECECECECECECF5ECECECECECECECECECECECECECECECECECECECECECECECECECECECECECECECECECECECECECECECECECECECECECECECECECECECECECECECECECECECECECECECECECECECECECECECECECECECECECECECECF5ECECECECECECECECECECECECECECECECECECECECECECEC
310
ECECECECECECECECECECECECECECECECECECF5F5F5F5F5F5ECECECECECECECECECECECECECECECECECECECECECECECECECECECECECECECECECECECECECECECECECECECECECECECECECECECECECECECECECECECECECECECECECECECECECECECECECECECECECECECECECECECECECECECECECECECECECECECECECECECECECECEC
310
ECECECECECECECECECECECECECECECECECECECECECECECECF5ECECECECECECECECECECECECECECECECECECECECECECECECECECECECECECECECECECECECECECECECECECECECECECECECECECECECECECECECECECECECECECECECECECECECECECECECECECECECECECECECF5ECECECECECECECECECECECECECECECECECECECECEC
310
ECECECECECECECECECECECECECECECECECECECECF5F5F5F5F5F5ECECECECECECECECECECECECECECECECECECECECECECECECECECECECECECECECECECECECECECECECECECECECECECECECECECECECECECECECECECECECECECECECECECECECECECECECECECECECECECECECECECECECECECECECECECECECECECECECECECECECEC
310
ECECECECECECECECECECECECECECECECECECECECECECECECECECF5ECECECECECECECECECECECECECECECECECECECECECECECECECECECECECECECECECECECECECECECECECECECECECECECECECECECECECECECECECECECECECECECECECECECECECECECECECECECECECECECECF5ECECECECECECECECECECECECECECECECECECEC
310
ECECECECECECECECECECECECECECECECECECECECECECF5F5F5F5F5F5ECECECECECECECECECECECECECECECECECECECECECECECECECECECECECECECECECECECECECECECECECECECECECECECECECECECECECECECECECECECECECECECECECECECECECECECECECECECECECECECECECECECECECECECECECECECECECECECECECECEC
310
ECECECECECECECECECECECECECECECECECECECECECECECECECECECECF5ECECECECECECECECECECECECECECECECECECECECECECECECECECECECECECECECECECECECECECECECECECECECECECECECECECECECECECECECECECECECECECECECECECECECECECECECECECECECECECECECF5ECECECECECECECECECECECECECECECECEC
310
ECECECECECECECECECECECECECECECECECECECECECECECECF5F5F5F5F5F5ECECECECECECECECECECECECECECECECECECECECECECECECECECECECECECECECECECECECECECECECECECECECECECECECECECECECECECECECECECECECECECECECECECECECECECECECECECECECECECECECECECECECECECECECECECECECECECECECEC
310
ECECECECECECECECECECECECECECECECECECECECECECECECECECECECECECF5ECECECECECECECECECECECECECECECECECECECECECECECECECECECECECECECECECECECECECECECECECECECECECECECECECECECECECECECECECECECECECECECECECECECECECECECECECECECECECECECECF5ECECECECECECECECECECECECECECEC
310
ECECECECECECECECECECECECECECECECECECECECECECECECECECECECECECECECECECECECECECECECECECECECECECECECECECECECECECECECECECECECECECECECECECECECECECECECECECECECECECECECECECECECECECECECECECECECECECECECECECECECECECECECECECECECECECECECECECECECECECECECECECECECECECEC
310
ECECECECECECECECECECECECECECECECECECECECECECECECECECECECECECECECF5ECECECECECECECECECECECECECECECECECECECECECECECECECECECECECECECECECECECECECECECECECECECECECECECECECECECECECECECECECECECECECECECECECECECECECECECECECECECECECECECECF5ECECECECECECECECECECECECEC
310
ECECECECECECECECECECECECECECECECECECECECECECECECECECECECECECECECECECECECECECECECECECECECECECECECECECECECECECECECECECECECECECECECECECECECECECECECECECECECECECECECECECECECECECECECECECECECECECECECECECECECECECECECECECECECECECECECECECECECECECECECECECECECECECEC
310
ECECECECECECECECECECECECECECECECECECECECECECECECECECECECECECECECECECF5ECECECECECECECECECECECECECECECECECECECECECECECECECECECECECECECECECECECECECECECECECECECECECECECECECECECECECECECECECECECECECECECECECECECECECECECECECECECECECECECECF5ECECECECECECECECECECEC
310
ECECECECECECECECECECECECECECECECECECECECECECECECECECECECECECECECECECECECECECECECECECECECECECECECECECECECECECECECECECECECECECECECECECECECECECECECECECECECECECECECECECECECECECECECECECECECECECECECECECECECECECECECECECECECECECECECECECECECECECECECECECECECECECEC
310
ECECECECECECECECECECECECECECECECECECECECECECECECECECECECECECECECECECECECF5ECECECECECECECECECECECECECECECECECECECECECECECECECECECECECECECECECECECECECECECECECECECECECECECECECECECECECECECECECECECECECECECECECECECECECECECECECECECECECECECECF5ECECECECECECECECEC
310
ECECECECECECECECECECECECECECECECECECECECECECECECECECECECECECECECECECECECECECECECECECECECECECECECECECECECECECECECECECECECECECECECECECECECECECECECECECECECECECECECECECECECECECECECECECECECECECECECECECECECECECECECECECECECECECECECECECECECECECECECECECECECECECEC
310
ECECECECECECECECECECECECECECECECECECECECECECECECECECECECECECECECECECECECECECF5ECECECECECECECECECECECECECECECECECECECECECECECECECECECECECECECECECECECECECECECECECECECECECECECECECECECECECECECECECECECECECECECECECECECECECECECECECECECECECECECECF5ECECECECECECEC
310
ECECECECECECECECECECECECECECECECECECECECECECECECECECECECECECECECECECECECECECECECECECECECECECECECECECECECECECECECECECECECECECECECECECECECECECECECECECECECECECECECECECECECECECECECECECECECECECECECECECECECECECECECECECECECECECECECECECECECECECECECECECECECECECEC
310
ECECECECECECECECECECECECECECECECECECECECECECECECECECECECECECECECECECECECECECECECF5ECECECECECECECECECECECECECECECECECECECECECECECECECECECECECECECECECECECECECECECECECECECECECECECECECECECECECECECECECECECECECECECECECECECECECECECECECECECECECECECECF5ECECECECEC
310
ECECECECECECECECECECECECECECECECECECECECECECECECECECECECEFEFEFEFEFECEFF5F5F5F5F5F5F5F5F5F5F5F5EFF5EFEFEFEFEFEFEFEFECECECECECECECECECECECECECECECECECECECECECECECECECECECECECECECECECECECECECECECECECECECECECECECECECECECECECECECECECECECECECECECECECECECECECEC
310
ECECECECECECECECECECECECECECECECECECECECECECECECECECECECECECECECECECECECECECECECECECF5ECECECECECECECECECECECECECECECECECECECECECECECECECECECECECECECECECECECECECECECECECECECECECECECECECECECECECECECECECECECECECECECECECECECECECECECECECECECECECECECECF5ECECEC
310
ECECECECECECECECECECECECECECECECECECECECECECECECECECECECECECECECEFECECECF5ECECECF5F5F5F5F5F5ECECECF5F5ECECECECECEFECECECECECECECECECECECECECECECECECECECECECECECECECECECECECECECECECECECECECECECECECECECECECECECECECECECECECECECECECECECECECECECECECECECECECEC
310
ECECECECECECECECECECECECECECECECECECECECECECECECECECECECECECECECECECECECECECECECECECECECF5ECECECECECECECECECECECECECECECECECECECECECECECECECECECECECECECECECECECECECECECECECECECECECECECECECECECECECECECECECECECECECECECECECECECECECECECECECECECECECECECECF5EC
310
ECECECECECECECECECECECECECECECECECECECECECECECECECECECECECECECECECECEFECECECF5ECECF5F5ECECECECF5F5F5ECF5F5ECECECECECEFECECECECECECECECECECECECECECECECECECECECECECECECECECECECECECECECECECECECECECECECECECECECECECECECECECECECECECECECECECECECECECECECECECECEC
310
ECECECECECECECECECECECECECECECECECECECECECECECECECECECECECECECECECECECECECECECECECECECECECECF5ECECECECECECECECECECECECECECECECECECECECECECECECECECECECECECECECECECECECECECECECECECECECECECECECECECECECECECECECECECECECECECECECECECECECECECECECECECECECECECECEC
310
F5ECECECECECECECECECECECECECECECECECECECECECECECECECECECECECECECECECECECEFECECECF5ECF5ECECECECECECECECF5ECF5F5ECECECECECEFECECECECECECECECECECECECECECECECECECECECECECECECECECECECECECECECECECECECECECECECECECECECECECECECECECECECECECECECECECECECECECECECECEC
310
ECECECECECECECECECECECECECECECECECECECECECECECECECECECECECECECECECECECECECECECECECECECECECECECECF5ECECECECECECECECECECECECECECECECECECECECECECECECECECECECECECECECECECECECECECECECECECECECECECECECECECECECECECECECECECECECECECECECECECECECECECECECECECECECECEC
310
ECECF5ECECECECECECECECECECECECECECECECECECECECECECECECECECECECECECECECECECECEFECECECF5ECF5ECECECECECECECECF5ECF5F5ECECECECECEFECECECECECECECECECECECECECECECECECECECECECECECECECECECECECECECECECECECECECECECECECECECECECECECECECECECECECECECECECECECECECECECEC
310
ECECECECECECECECECECECECECECECECECECECECECECECECECECECECECECECECECECECECECECECECECECECECECECECECECECF5ECECECECECECECECECECECECECECECECECECECECECECECECECECECECECECECECECECECECECECECECECECECECECECECECECECECECECECECECECECECECECECECECECECECECECECECECECECECEC
310
ECECECECF5ECECECECECECECECECECECECECECECECECECECECECECECECECECECECECECECECEFEFEFEFECECECF5ECF5F5F5F5F5F5F5F5F5F5ECF5F5ECECECECECEFECECECECECECECECECECECECECECECECECECECECECECECECECECECECECECECECECECECECECECECECECECECECECECECECECECECECECECECECECECECECECEC
310
ECECECECECECECECECECECECECECECECECECECECECECECECECECECECECECECECECECECECECECECECECECECECECECECECECECECECF5ECECECECECECECECECECECECECECECECECECECECECECECECECECECECECECECECECECECECECECECECECECECECECECECECECECECECECECECECECECECECECECECECECECECECECECECECECEC
310
ECECECECECECF5ECECECECECECECECECECECECECECECECECECECECECECECECECECECECECECECECEFEFEFEFECECECF5ECF5ECF5F5ECECF5F5ECF5ECF5F5ECECECECECEFECECECECECECECECECECECECECECECECECECECECECECECECECECECECECECECECECECECECECECECECECECECECECECECECECECECECECECECECECECECEC
310
ECECECECECECECECECECECECECECECECECECECECECECECECECECECECECECECECECECECECECECECECECECECECECECECECECECECECECECF5ECECECECECECECECECECECECECECECECECECECECECECECECECECECECECECECECECECECECECECECECECECECECECECECECECECECECECECECECECECECECECECECECECECECECECECECEC
310
ECECECECECECECECF5ECECECECECECECECECECECECECECECECECECECECECECECECECECECECECECECECEFEFEFEFECECECF5ECF5F5F5F5ECECF5F5ECF5ECF5F5ECECECECECEFECECECECECECECECECECECECECECECECECECECECECECECECECECECECECECECECECECECECECECECECECECECECECECECECECECECECECECECECECEC
310
ECECECECECECECECECECECECECECECECECECECECECECECECECECECECECECECECECECECECECECECECECECECECECECECECECECECECECECECECF5ECECECECECECECECECECECECECECECECECECECECECECECECECECECECECECECECECECECECECECECECECECECECECECECECECECECECECECECECECECECECECECECECECECECECECEC
310
ECECECECECECECECECECF5ECECECECECECECECECECECECECECECECECECECECECECECECECECECECECECECECEFEFEFEFECECECF5ECF5F5F5F5F5F5F5F5F5F5ECF5F5ECECECECECEFECECECECECECECECECECECECECECECECECECECECECECECECECECECECECECECECECECECECECECECECECECECECECECECECECECECECECECECEC
310
ECECECECECECECECECECECECECECECECECECECECECECECECECECECECECECECECECECECECECECECECECECECECECECECECECECECECECECECECECECF5ECECECECECECECECECECECECECECECECECECECECECECECECECECECECECECECECECECECECECECECECECECECECECECECECECECECECECECECECECECECECECECECECECECECEC
310
ECECECECECECECECECECECECF5ECECECECECECECECECECECECECECECECECECECECECECECECECECECECECECECECEFEFEFEFECECECF5F5F5F5F5F5F5F5F5F5F5F5F5F5F5ECECECECECEFECECECECECECECECECECECECECECECECECECECECECECECECECECECECECECECECECECECECECECECECECECECECECECECECECECECECECEC
310
ECECECECECECECECECECECECECECECECECECECECECECECECECECECECECECECECECECECECECECECECECECECECECECECECECECECECECECECECECECECECF5ECECECECECECECECECECECECECECECECECECECECECECECECECECECECECECECECECECECECECECECECECECECECECECECECECECECECECECECECECECECECECECECECECEC
310
ECECECECECECECECECECECECECECF5ECECECECECECECECECECECECECECECECECECECECECECECECECECECECECECECECECECECEFECECECF5ECF5F5F5F5F5F5F5F5F5F5ECF5F5ECECECECECEFECECECECECECECECECECECECECECECECECECECECECECECECECECECECECECECECECECECECECECECECECECECECECECECECECECECEC
310
ECECECECECECECECECECECECECECECECECECECECECECECECECECECECECECECECECECECECECECECECECECECECECECECECECECECECECECECECECECECECECECF5ECECECECECECECECECECECECECECECECECECECECECECECECECECECECECECECECECECECECECECECECECECECECECECECECECECECECECECECECECECECECECECECEC
310
ECECECECECECECECECECECECECECECECF5ECECECECECECECECECECECECECECECECECECECECECECECECECECECECECECECECECECECEFECECECF5ECECECECECECECECECECECECF5F5ECECECECECEFECECECECECECECECECECECECECECECECECECECECECECECECECECECECECECECECECECECECECECECECECECECECECECECECECEC
310
ECECECECECECECECECF5F5F5F5F5ECECECECECECECECECECECECECECECECECECECECECECECECECECECECECECECECECECECECECECECECECECECECECECECECECECF5ECECECECECECECECECECECECECECECECECECECECECECECECECECECECECECECECECECECECECECECECECECECECECECECECECECECECECECECECECECECECECEC
310
ECECECECECECECECECECECECECECECECECECF5ECECECECECECECECECECECECECECECECECECECECECECECECECECECECECECECECECECECEFECECECF5ECECECECECECECECECECECECF5F5ECECECECECEFECECECECECECECECECECECECECECECECECECECECECECECECECECECECECECECECECECECECECECECECECECECECECECECEC
310
ECECECECECECECECECF5F5F5F5F5F5F5F5F5ECECECECECECECECECECECECECECECECECECECECECECECECECECECECECECECECECECECECECECECECECECECECECECECECF5ECECECECECECECECECECECECECECECECECECECECECECECECECECECECECECECECECECECECECECECECECECECECECECECECECECECECECECECECECECECEC
310
ECECECECECECECECECECECECECECECECECECECECF5ECECECECECECECECECECECECECECECECECECECECECECECECECECECECECECECECECECECEFECECECF5ECECECECECECECECECECECECF5F5ECECECEFEFEFECECECECECECECECECECECECECECECECECECECECECECECECECECECECECECECECECECECECECECECECECECECECECEC
310
ECECECECECECECECECECF5F5F5ECECECECECECECF5F5ECECECECECECECECECECECECECECECECECECECECECECECECECECECECECECECECECECECECECECECECECECECECECECF5ECECECECECECECECECECECECECECECECECECECECECECECECECECECECECECECECECECECECECECECECECECECECECECECECECECECECECECECECECEC
310
ECECECECECECECECECECECECECECECECECECECECECECF5ECECECECECECECECECECECECECECECECECECECECECECECECECECECECECECECECECECECEFECECECF5ECECECECECECECECECECECECF5F5ECECECEFEFEFECECECECECECECECECECECECECECECECECECECECECECECECECECECECECECECECECECECECECECECECECECECEC
310
ECECECECECECECECECECF5F5F5F5ECECECECECECECECECF5F5ECECECECECECECECECECECECECECECECECECECECECECECECECECECECECECECECECECECECECECECECECECECECECF5ECECECECECECECECECECECECECECECECECECECECECECECECECECECECECECECECECECECECECECECECECECECECECECECECECECECECECECECEC
310
ECECECECECECECECECECECECECECECECECECECECECECECECF5ECECECECECECECECECECECECECECECECECECECECECECECECECECECECECECECECECEFEFEFEFEFECEFF5F5F5F5F5F5F5F5F5F5F5F5F5F5ECECECEFEFEFECECECECECECECECECECECECECECECECECECECECECECECECECECECECECECECECECECECECECECECECECEC
310
ECECECECECECECECECECF5F5ECF5F5ECECECECF5F5F5F5F5ECECECF5ECECECECECECECECECECECECECECECECECECECECECECECECECECECECECECECECECECECECECECECECECECECECF5ECECECECECECECECECECECECECECECECECECECECECECECECECECECECECECECECECECECECECECECECECECECECECECECECECECECECECEC
310
ECECECECECECECECECECECECECECECECECECECECECECECECECECF5ECECECECECECECECECECECECECECECECECECECECECECECECECECECECECECECECECECECECECECECF5ECECECF5ECECECECF5ECECECF5F5ECECECEFEFEFECECECECECECECECECECECECECECECECECECECECECECECECECECECECECECECECECECECECECECECEC
310
ECECECECECECECECECECF5F5ECECECF5F5ECECF5F5F5F5ECF5F5F5F5ECECF5ECECECECECECECECECECECECECECECECECECECECECECECECECECECECECECECECECECECECECECECECECECECF5ECECECECECECECECECECECECECECECECECECECECECECECECECECECECECECECECECECECECECECECECECECECECECECECECECECECEC
310
ECECECECECECECECECECECECECECECECECECECECECECECECECECECECF5ECECECECECECECECECECECECECECECECECECECECECECECECECECECECECECECECECEFEFEFEFEFECEFF5F5F5F5F5F5F5F5F5F5F5F5F5F5ECECECEFEFEFECECECECECECECECECECECECECECECECECECECECECECECECECECECECECECECECECECECECECEC
310
ECECECECECECECECECECF5F5ECECECECECF5ECECECF5F5ECECECECECF5F5F5ECECF5ECECECECECECECECECECECECECECECECECECECECECECECECECECECECECECECECECECECECECECECECECECF5ECECECECECECECECECECECECECECECECECECECECECECECECECECECECECECECECECECECECECECECECECECECECECECECECECEC
310
ECECECECECECECECECECECECECECECECECECECECECECECECECECECECECECF5ECECECECECECECECECECECECECECECECECECECECECECECECECECECECECECECECECECECEFECECECF5ECECECECECECECECECECECECF5F5ECECECECECEFECECECECECECECECECECECECECECECECECECECECECECECECECECECECECECECECECECECEC
310
ECECECECECECECECECECECF5F5ECECECECECF5F5ECECF5F5ECECECECECECF5F5F5F5ECECF5ECECECECECECECECECECECECECECECECECECECECECECECECECECECECECECECECECECECECECECECECECF5ECECECECECECECECECECECECECECECECECECECECECECECECECECECECECECECECECECECECECECECECECECECECECECECEC
310
ECECECECECECECECECECECECECECECECECECECECECECECECECECECECECECECECF5ECECECECECECECECECECECECECECECECECECECECECECECECECECECECECECECECECECECEFECECECF5ECECECECECECECECECECECECF5F5ECECECECECEFECECECECECECECECECECECECECECECECECECECECECECECECECECECECECECECECECEC
310
ECECECECECECECECECECECECECF5ECECECECECECF5F5ECECF5F5ECECF5F5F5F5F5F5ECF5F5ECECF5ECECECECECECECECECECECECECECECECECECECECECECECECECECECECECECECECECECECECECECECECF5ECECECECECECECECECECECECECECECECECECECECECECECECECECECECECECECECECECECECECECECECECECECECECEC
310
ECECECECECECECECECECECECECECECECECECECECECECECECECECECECECECECECECECF5ECECECECECECECECECECECECECECECECECECECECECECECECECECECECECECECECECECECEFECECECF5ECECECECECECECECECECECECF5F5ECECECECECEFECECECECECECECECECECECECECECECECECECECECECECECECECECECECECECECEC
310
ECECECECECECECECECECECECECECF5ECECECECECECECF5F5ECECF5ECECECF5F5F5F5ECF5F5ECF5F5ECF5ECECECECECECECECECECECECECECECECECECECECECECECECECECECECECECECECECECECECECECECECF5ECECECECECECECECECECECECECECECECECECECECECECECECECECECECECECECECECECECECECECECECECECECEC
310
ECECECECECECECECECECECECECECECECECECECECECECECECECECECECECECECECECECECECF5ECECECECECECECECECECECECECECECECECECECECECECECECECECECECECECECECECECECEFECECECF5ECECECF5F5F5F5F5F5ECECECF5F5ECECECECECEFECECECECECECECECECECECECECECECECECECECECECECECECECECECECECEC
310
ECECECECECECECECECECECECECECECECF5ECECECECECECECF5F5ECECF5ECECF5F5F5F5ECECF5F5F5ECF5F5ECF5ECECECECECECECECECECECECECECECECECECECECECECECECECECECECECECECECECECECECECECECF5ECECECECECECECECECECECECECECECECECECECECECECECECECECECECECECECECECECECECECECECECECEC
310
ECECECECECECECECECECECECECECECECECECECECECECECECECECECECECECECECECECECECECECF5ECECECECECECECECECECECECECECECECECECECECECECECECECECECECECECECECEFEFEFEFECECECF5ECECECECF5ECECECF5ECECECF5F5ECECECECECEFECECECECECECECECECECECECECECECECECECECECECECECECECECECEC
310
ECECECECECECECECECECECECECECECECECF5F5ECECECECECECECECF5ECECF5ECECF5F5ECECF5F5ECF5F5ECECF5ECECF5ECECECECECECECECECECECECECECECECECECECECECECECECECECECECECECECECECECECECECECF5ECECECECECECECECECECECECECECECECECECECECECECECECECECECECECECECECECECECECECECECEC
310
ECECECECECECECECECECECECECECECECECECECECECECECECECECECECECECECECECECECECECECECECF5ECECECECECECECECECECECECECECECECECECECECECECECECECECECECECECECECEFEFEFEFECECECF5F5F5F5F5F5F5F5F5F5F5F5F5F5F5ECECECECECEFECECECECECECECECECECECECECECECECECECECECECECECECECEC
310
ECECECECECECECECECECECECECECECECECECECF5ECECECECECECECECECF5F5ECF5F5ECF5ECF5F5ECECECECF5F5ECF5F5ECF5ECECECECECECECECECECECECECECECECECECECECECECECECECECECECECECECECECECECECECECF5ECECECECECECECECECECECECECECECECECECECECECECECECECECECECECECECECECECECECECEC
310
ECECECECECECECECECECECECECECECECECECECECECECECECECECECECECECECECECECECECECECECECECECF5ECECECECECECECECECECECECECECECECECECECECECECECECECECECECECECECECEFEFEFEFECECECF5ECECECECF5ECECECF5ECECECF5F5ECECECECECEFECECECECECECECECECECECECECECECECECECECECECECECEC
310
ECECECECECECECECECECECECECECECECECECECECECF5ECECECECECECECECECF5F5ECF5F5ECF5F5ECECECECECECF5F5F5ECF5ECECF5ECECECECECECECECECECECECECECECECECECECECECECECECECECECECECECECECECECECECECF5ECECECECECECECECECECECECECECECECECECECECECECECECECECECECECECECECECECECEC
310
ECECECECECECECECECECECECECECECECECECECECECECECECECECECECECECECECECECECECECECECECECECECECF5ECECECECECECECECECECECECECECECECECECECECECECECECECECECECECECECECEFEFEFEFECECECF5ECECECECF5F5F5F5F5ECECECF5F5ECECECECECEFECECECECECECECECECECECECECECECECECECECECECEC
310
ECECECECECECECECECECECECECECECECECECECECECECECF5ECECECECECECECECECF5F5ECF5F5ECF5ECECECECECECECECF5F5ECF5F5ECF5ECECECECECECECECECECECECECECECECECECECECECECECECECECECECECECECECECECECECECF5ECECECECECECECECECECECECECECECECECECECECECECECECECECECECECECECECECEC
310
ECECECECECECECECECECECECECECECECECECECECECECECECECECECECECECECECECECECECECECECECECECECECECECF5ECECECECECECECECECECECECECECECECECECECECECECECECECECECECECECECECEFEFEFEFECECECF5ECECECECF5ECECF5F5ECECECF5F5ECECECECECEFECECECECECECECECECECECECECECECECECECECEC
310
ECECECECECECECECECECECECECECECECECECECECECECECECECF5ECECECECECECECECECECF5F5ECF5ECECF5ECECECECECECECF5F5ECECF5ECF5F5ECECECECECECECECECECECECECECECECECECECECECECECECECECECECECECECECECECECECF5ECECECECECECECECECECECECECECECECECECECECECECECECECECECECECECECEC
310
ECECECECECECECECECECECECECECECECECECECECECECECECECECECECECECECECECECECECECECECECECECECECECECECECF5ECECECECECECECECECECECECECECECECECECECECECECECECECECECECECECECECECECECEFECECECF5ECECECECF5ECECF5F5ECECECF5F5ECECECECECEFECECECECECECECECECECECECECECECECECEC
310
ECECECECECECECECECECECECECECECECECECECECECECECECECECECF5F5ECECECECECECECECECF5F5ECF5F5ECF5ECECECECECECECECF5F5ECF5ECECF5ECECECECECECECECECECECECECECECECECECECECECECECECECECECECECECECECECECECECF5ECECECECECECECECECECECECECECECECECECECECECECECECECECECECECEC
310
ECECECECECECECECECECECECECECECECECECECECECECECECECECECECECECECECECECECECECECECECECECECECECECECECECECF5ECECECECECECECECECECECECECECECECECECECECECECECECECECECECECECECECECECECEFECECECF5ECECECECF5ECECF5ECECECECF5F5ECECECECECEFECECECECECECECECECECECECECECECEC
310
ECECECECECECECECECECECECECECECECECECECECECECECECECECECECECECF5ECECECECF5F5F5F5ECF5F5ECECF5ECF5F5ECECECECECECECF5F5ECF5F5ECF5ECECECECECECECECECECECECECECECECECECECECECECECECECECECECECECECECECECECECF5ECECECECECECECECECECECECECECECECECECECECECECECECECECECEC
310
ECECECECECECECECECECECECECECECECECECECECECECECECECECECECECECECECECECECECECECECECECECECECECECECECECECECECF5ECECECECECECECECECECECECECECECECECECECECECECECECECECECECECECECECECECECEFECECECF5ECECECECF5F5F5F5ECECECECF5F5ECECECECECEFECECECECECECECECECECECECECEC
310
ECECECECECECECECECECECECECECECECECECECECECECECECECECECECECECECECF5ECECECF5ECECECF5F5ECF5F5ECF5F5ECF5F5ECECECECECECF5F5ECF5F5ECF5ECECECECECECECECECECECECECECECECECECECECECECECECECECECECECECECECECECECECF5ECECECECECECECECECECECECECECECECECECECECECECECECECEC
310
ECECECECECECECECECECECECECECECECECECECECECECECECECECECECECECECECECECECECECECECECECECECECECECECECECECECECECECF5ECECECECECECECECECECECECECECECECECECECECECECECECECECECECECECECECECECECEFECECECF5ECECECECECECECECECECECECF5F5ECECECECECEFECECECECECECECECECECECEC
310
ECECECECECECECECECECECECECECECECECECECECECECECECECECECECECECECECECECF5ECECF5F5ECECF5F5F5F5F5F5ECECF5F5ECF5F5ECECECECECF5F5ECF5F5ECF5ECECECECECECECECECECECECECECECECECECECECECECECECECECECECECECECECECECECECF5ECECECECECECECECECECECECECECECECECECECECECECECEC
310
ECECECECECECECECECECECECECECECECECECECECECECECECECECECECECECECECECECECECECECECECECECECECECECECECECECECECECECECECF5ECECECECECECECECECECECECECECECECECECECECECECECECECECECECECECECECECECECEFECECECEFECECECECECECECECECECECECF5EFECECECECECEFECECECECECECECECECEC
310
ECECECECECECECECECECECECECECECECECECECECECECECECECECECECECECECECECECECECECF5ECF5ECECF5F5ECF5F5F5F5F5ECF5F5ECECF5F5ECECECF5F5ECECF5F5ECF5F5ECECECECECECECECECECECECECECECECECECECECECECECECECECECECECECECECECECECF5ECECECECECECECECECECECECECECECECECECECECECEC
310
ECECECECECECECECECECECECECECECECECECECECECECECECECECECECECECECECECECECECECECECECECECECECECECECECECECECECECECECECECECF5ECECECECECECECECECECECECECECECECECECECECECECECECECECECECECECECECECEFEFEFEFEFECEFF5F5F5F5F5F5F5F5F5F5F5F5EFECEFEFEFEFEFEFEFEFECECECECECEC
310
ECECECECECECECECECECECECECECECECECECECECECECECECECECECECECECECECECECECECECECECF5ECF5ECECF5F5F5ECF5F5ECF5F5ECF5F5ECECF5F5F5F5F5F5ECECF5F5ECECF5ECECECECECECECECECECECECECECECECECECECECECECECECECECECECECECECECECECECF5ECECECECECECECECECECECECECECECECECECECEC
310
ECECECECECECECECECECECECECECECECECECECECECECECECECECECECECECECECECECECECECECECECECECECECECECECECECECECECECECECECECECECECF5ECECECECECECECECECECECECECECECECECECECECECECECECECECECECECECECECECECECECECECECEFECECECECECECECECECECECECECEFECECECECECECECECECECECEC
310
ECECECECECECECECECECECECECECECECECECECECECECECECECECECECECECECECECECECECECECECECECF5ECF5ECF5ECF5F5F5F5F5ECF5F5ECECF5F5ECF5F5F5F5F5ECECECF5F5ECECF5ECECECECECECECECECECECECECECECECECECECECECECECECECECECECECECECECECECECF5ECECECECECECECECECECECECECECECECECEC
310
ECECECECECECECECECECECECECECECECECECECECECECECECECECECECECECECECECECECECECECECECECECECECECECECECECECECECECECECECECECECECECECF5ECECECECECECECECECECECECECECECECECECECECECECECECECECECECECECECECECECECECECECECEFECECECECECECECECECECECECEFEFECECECECECECECECECEC
310
ECECECECECECECECECECECECECECECECECECECECECECECECECECECECECECECECECECECECECECECECECECECF5F5F5F5F5F5ECECF5F5ECF5ECF5F5ECECF5F5F5F5ECECECECECF5F5ECECF5ECECECECECECECECECECECECECECECECECECECECECECECECECECECECECECECECECECECECF5ECECECECECECECECECECECECECECECEC
310
ECECECECECECECECECECECECECECECECECECECECECECECECECECECECECECECECECECECECECECECECECECECECECECECECECECECECECECECECECECECECECECECECF5ECECECECECECECECECECECECECECECECECECECECECECECECECECECECECECECECECECECECECECECEFEFEFEFEFEFEFEFEFEFEFEFEFEFEFECECECECECECECEC
310
ECECECECECECECECECECECECECECECECECECECECECECECECECECECECECECECECECECECECECECECECECECECECECECF5ECF5F5F5ECF5F5F5ECF5ECECF5F5ECECF5F5F5ECECECECF5F5F5ECECF5ECECECECECECECECECECECECECECECECECECECECECECECECECECECECECECECECECECECECF5ECECECECECECECECECECECECECEC
310
ECECECECECECECECECECECECECECECECECECECECECECECECECECECECECECECECECECECECECECECECECECECECECECECECECECECECECECECECECECECECECECECECECECF5ECECECECECECECECECECECECECECECECECECECECECECECECECECECECECECECECECECECECECECECEFEFEFECEFEFEFEFEFECECECEFEFEFECECECECECEC
310
ECECECECECECECECECECECECECECECECECECECECECECECECECECECECECECECECECECECECECECECECECECECECECECECECF5F5F5F5ECF5F5F5ECECECF5ECECF5F5F5ECF5F5F5F5F5F5F5F5ECECECF5ECECECECECECECECECECECECECECECECECECECECECECECECECECECECECECECECECECECECF5ECECECECECECECECECECECEC
310
ECECECECECECECECECECECECECECECECECECECECECECECECECECECECECECECECECECECECECECECECECECECECECECECECECECECECECECECECECECECECECECECECECECECECF5ECECECECECECECECECECECECECECECECECECECECECECECECECECECECECECECECECECECECECECECEFECECECEFEFEFEFEFECECECECEFEFECECECEC
310
ECECECECECECECECECECECECECECECECECECECECECECECECECECECECECECECECECECECECECECECECECECECECECECECECECECECF5ECF5F5F5F5ECECECECF5ECECECF5F5F5F5F5ECF5F5F5ECECECECF5F5ECECECECECECECECECECECECECECECECECECECECECECECECECECECECECECECECECECECECF5ECECECECECECECECECEC
310
ECECECECECECECECECECECECECECECECECECECECECECECECECECECECECECECECECECECECECECECECECECECECECECECECECECECECECECECECECECECECECECECECECECECECECECF5ECECECECECECECECECECECECECECECECECECECECECECECECECECECECECECECECECECECECECECECEFECECECECECECECECECECECECECEFECEC
310
ECECECECECECECECECECECECECECECECECECECECECECECECECECECECECECECECECECECECECECECECECECECECECECECECECECECECECECF5ECF5F5F5ECECECF5F5ECECECECF5F5F5F5ECECECECECECECF5F5ECECECECECECECECECECECECECECECECECECECECECECECECECECECECECECECECECECECECECF5ECECECECECECECEC
310
ECECECECECECECECECECECECECECECECECECECECECECECECECECECECECECECECECECECECECECECECECECECECECECECECECECECECECECECECECECECECECECECECECECECECECECECECF5ECECECECECECECECECECECECECECECECECECECECECECECECECECECECECECECECECECECECECECECEFECECECECECECECECECECECECECEF
310
ECECECECECECECECECECECECECECECECECECECECECECECECECECECECECECECECECECECECECECECECECECECECECECECECECECECECECECECECECF5ECF5F5F5F5F5F5ECECECECECECF5ECF5F5ECECECECECF5F5F5ECECECECECECECECECECECECECECECECECECECECECECECECECECECECECECECECECECECECECF5ECECECECECEC
310
ECECECECECECECECECECECECECECECECECECECECECECECECECECECECECECECECECECECECECECECECECECECECECECECECECECECECECECECECECECECECECECECECECECECECECECECECECECF5ECECECECECECECECECECECECECECECECECECECECECECECECECECECECECECECECECECECECECECECEFEFECECECECECECECECECECEF
310
ECEFECECECECECECECECECECECECECECECECECECECECECECECECECECECECECECECECECECECECECECECECECECECECECECECECECECECECECECECECECECF5ECECF5ECECECECECECF5F5F5ECECF5F5F5F5F5F5F5F5F5ECECECECECECECECECECECECECECECECECECECECECECECECECECECECECECECECECECECECECECF5ECECECEC
310
ECECECECECECECECECECECECECECECECECECECECECECECECECECECECECECECECECECECECECECECECECECECECECECECECECECECECECECECECECECECECECECECECECECECECECECECECECECECECF5ECECECECECECECECECECECECECECECECECECECECECECECECECECECECECECECECECECECECECECECEFEFEFEFEFEFEFEFEFEFEF
310
EFEFEFEFECECECECECECECECECECECECECECECECECECECECECECECECECECECECECECECECECECECECECECECECECECECECECECECECECECECECECECECECECECF5F5ECECECECECECECF5F5ECECF5F5ECECF5F5F5F5F5ECECECECECECECECECECECECECECECECECECECECECECECECECECECECECECECECECECECECECECECECF5ECEC
310
ECECECECECECECECECECECECECECECECECECECECECECECECECECECECECECECECECECECECECECECECECECECECECECECECECECECECECECECECECECECECECECECECECECECECECECECECECECECECECECF5ECECECECECECECECECECECECECECECECECECECECECECECECECECECECECECECECECECECECECECECEFECECECEFEFEFEFEF
310
ECECECECECEFECECECECECECECECECECECECECECECECECECECECECECECECECECECECECECECECECECECECECECECECECECECECECECECECECECECECECECECECECECECF5F5ECECECECF5F5ECECF5F5ECECECECECF5F5ECECECECECECECECECECECECECECECECECECECECECECECECECECECECECECECECECECECECECECECECECECF5
310
ECECECECECECECECECECECECECECECECECECECECECECECECECECECECECECECECECECECECECECECECECECECECECECECECECECECECECECECECECECECECECECECECECECECECECECECECECECECECECECECECF5ECECECECECECECECECECECECECECECECECECECECECECECECECECECECECECECECECECECECECECECECECECECECECEC
310
ECECECECECECECECECECECECECECECECECECECECECECECECECECECECECECECECECECECECECECECECECECECECECECECECECECECECECECECECECECECECECECECECECECECECECF5ECF5F5ECECF5F5ECECECECECF5F5ECECECECECECECECECECECECECECECECECECECECECECECECECECECECECECECECECECECECECECECECECECEC
310
ECF5ECECECECECECECECECECECECECECECECECECECECECECECECECECECECECECECECECECECECECECECECECECECECECECECECECECECECECECECECECECECECECECECECECECECECECECECECECECECECECECECECF5ECECECECECECECECECECECECECECECECECECECECECECECECECECECECECECECECECECECECECECECECECECECEC
310
ECECECECECECECECECECECECECECECECECECECECECECECECECECECECECECECECECECECECECECECECECECECECECECECECECECECECECECECECECECECECECECECECECECECECECECECECF5F5ECF5F5ECECECECECF5F5F5ECECECECECECECECECECECECECECECECECECECECECECECECECECECECECECECECECECECECECECECECECEC
310
ECECECF5ECECECECECECECECECECECECECECECECECECECECECECECECECECECECECECECECECECECECECECECECECECECECECECECECECECECECECECECECECECECECECECECECECECECECECECECECECECECECECECECECF5ECECECECECECECECECECECECECECECECECECECECECECECECECECECECECECECECECECECECECECECECECEC
310
ECECECECECECECECECECECECECECECECECECECECECECECECECECECECECECECECECECECECECECECECECECECECECECECECECECECECECECECECECECECECECECECECECECECECECECECECECECECF5F5F5ECECECECECF5ECECECECECECECECECECECECECECECECECECECECECECECECECECECECECECECECECECECECECECECECECECEC
310
ECECECECECF5ECECECECECECECECECECECECECECECECECECECECECECECECECECECECECECECECECECECECECECECECECECECECECECECECECECECECECECECECECECECECECECECECECECECECECECECECECECECECECECECECF5ECECECECECECECECECECECECECECECECECECECECECECECECECECECECECECECECECECECECECECECEC
310
ECECECECECECECECECECECECECECECECECECECECECECECECECECECECECECECECECECECECECECECECECECECECECECECECECECECECECECECECECECECECECECECECECECECECECECECECECECECECECECECF5F5F5F5F5F5ECECECECECECECECECECECECECECECECECECECECECECECECECECECECECECECECECECECECECECECECECEC
310
ECECECECECECECF5ECECECECECECECECECECECECECECECECECECECECECECECECECECECECECECECECECECECECECECECECECECECECECECECECECECECECECECECECECECECECECECECECECECECECECECECECECECECECECECECECF5ECECECECECECECECECECECECECECECECECECECECECECECECECECECECECECECECECECECECECEC
310
ECECECECECECECECECECECECECECECECECECECECECECECECECECECECECECECECECECECECECECECECECECECECECECECECECECECECECECECECECECECECECECECECECECECECECECECECECECECECECECECECECECECECECECECECECECECECECECECECECECECECECECECECECECECECECECECECECECECECECECECECECECECECECECEC
310
ECECECECECECECECECF5ECECECECECECECECECECECECECECECECECECECECECECECECECECECECECECECECECECECECECECECECECECECECECECECECECECECECECECECECECECECECECECECECECECECECECECECECECECECECECECECECF5ECECECECECECECECECECECECECECECECECECECECECECECECECECECECECECECECECECECEC
310
ECECECECECECECECECECECECECECECECECECECECECECECECECECECECECECECECECECECECECECECECECECECECECECECECECECECECECECECECECECECECECECECECECECECECECECECECECECECECECECECECECECECECECECECECECECECECECECECECECECECECECECECECECECECECECECECECF5F5F5F5F5F5F5F5F5F5F5F5F5F5F5
310
F5F5F5F5F5F5F5F5F5F5F5F5ECECECECECECECECECECECECECECECECECECECECECECECECECECECECECECECECECECECECECECECECECECECECECECECECECECECECECECECECECECECECECECECECECECECECECECECECECECECECECECECECF5ECECECECECECECECECECECECECECECECECECECECECECECECECECECECECECECECECEC
310
ECECECECECECECECECECECECECECECECECECECECECECECECECECECECECECECECECECECECECECECECECECECECECECECECECECECECECECECECECECECECECECECECECECECECECECECECECECECECECECECECECECECECECECECECECECECECECECECECECECECECECECECECECECECECECECECECECECF5ECECECF5F5F5F5F5F5F5F5F5
310
F5F5F5F5F5F5F5F5ECECECECECF5ECECECECECECECECECECECECECECECECECECECECECECECECECECECECECECECECECECECECECECECECECECECECECECECECECECECECECECECECECECECECECECECECECECECECECECECECECECECECECECECECF5ECECECECECECECECECECECECECECECECECECECECECECECECECECECECECECECEC
310
ECECECECECECECECECECECECECECECECECECECECECECECECECECECECECECECECECECECECECECECECECECECECECECECECECECECECECECECECECECECECECECECECECECECECECECECECECECECECECECECECECECECECECECECECECECECECECECECECECECECECECECECECECECECECECECECECECECECECF5ECECECF5F5F5F5F5F5F5
310
F5F5F5F5F5F5F5F5F5F5ECECECECECF5ECECECECECECECECECECECECECECECECECECECECECECECECECECECECECECECECECECECECECECECECECECECECECECECECECECECECECECECECECECECECECECECECECECECECECECECECECECECECECECECECF5ECECECECECECECECECECECECECECECECECECECECECECECECECECECECECEC
310
ECECECECECECECECECECECECECECECECECECECECECECECECECECECECECECECECECECECECECECECECECECECECECECECECECECECECECECECECECECECECECECECECECECECECECECECECECECECECECECECECECECECECECECECECECECECECECECECECECECECECECECECECECECECECECECECECECECECECECECF5ECECECF5F5F5F5F5
310
F5F5F5F5F5F5F5F5F5F5F5F5ECECECECECF5ECECECECECECECECECECECECECECECECECECECECECECECECECECECECECECECECECECECECECECECECECECECECECECECECECECECECECECECECECECECECECECECECECECECECECECECECECECECECECECECECF5F5F5F5F5F5F5F5F5F5F5F5F5F5F5F5F5F5F5F5F5F5F5F5F5F5F5F5F5
310
F5F5F5F5F5F5F5F5F5F5F5F5F5F5F5F5F5F5F5F5F5F5F5F5F5F5F5F5F5F5F5F5F5F5F5F5F5F5F5F5F5F5F5F5F5F5F5F5F5F5F5F5F5F5F5F5F5F5F5F5F5F5F5F5F5F5F5F5F5F5F5F5F5F5F5F5F5F5F5F5F5F5F5F5F5F5F5F5F5F5F5F5F5F5F5F5F5F5F5F5F5F5F5F5F5F5F5F5F5F5F5F5F5F5F5F5F5F5F5F5F5F5F5F5F5F5F5
310
F5F5F5F5F5F5F5F5F5F5F5F5F5F5F5F5F5F5F5F5ECECECECECECECECECECECECECECECECECECECECECECECECECECECECECECECECECECECECECECECECECECECECECECECECECECECECECECECECECECECECECECECECECECECECECECECECECECECECECECECECECECECECECECECECECECECECECECECECECECECECECECECECECECEC
310
ECECECECECECECECECECECECECECECECECECECECECECECECECECECECECECECECECECECECECECECECECECECECECECECECECECECECECECECECECECECECECECECECECECECECECECECECECECECECECECECECECECECECECECECECECECECECECECECECECECECECECECECECECECECECECECECECECECECECECECECECECECECECECECEC
310
ECECECECECECECECECECECECECECECECECECECECECECECECECECECECECECECECECECECECECECECECECECECECECECECECECECECECECECECECECECECECECEC
  0
XRECORD
  5
27DA
102
{ACAD_REACTORS
330
27D9
102
}
330
27D9
100
AcDbXrecord
280
     1
102
MATERIAL
148
0.0
149
0.0
149
0.0
 93
        0
 94
       63
282
     0
 72
     1
 77
     1
171
     1
175
     1
179
     1
273
     0
  0
XRECORD
  5
27D8
102
{ACAD_REACTORS
330
27D7
102
}
330
27D7
100
AcDbXrecord
280
     1
102
MATERIAL
148
0.0
149
0.0
149
0.0
 93
        0
 94
       63
282
     0
 72
     1
 77
     1
171
     1
175
     1
179
     1
273
     0
  0
XRECORD
  5
27DC
102
{ACAD_REACTORS
330
27DB
102
}
330
27DB
100
AcDbXrecord
280
     1
102
MATERIAL
148
0.0
149
0.0
149
0.0
 93
        0
 94
       63
282
     0
 72
     1
 77
     1
171
     1
175
     1
179
     1
273
     0
  0
CELLSTYLEMAP
  5
27D5
102
{ACAD_REACTORS
330
C14
102
}
330
C14
100
AcDbCellStyleMap
 90
        3
300
CELLSTYLE
  1
TABLEFORMAT_BEGIN
 90
        5
170
     1
 91
        0
 92
    32768
 62
   257
 93
        1
300
CONTENTFORMAT
  1
CONTENTFORMAT_BEGIN
 90
        0
 91
        0
 92
      512
 93
        0
300

 40
0.0
140
1.0
 94
        5
 62
     0
340
11
144
0.25
309
CONTENTFORMAT_END
171
     0
 94
        6
 95
        1
302
GRIDFORMAT
  1
GRIDFORMAT_BEGIN
 90
        0
 91
        1
 62
     0
 92
       -2
340
0
 93
        0
 40
0.045
309
GRIDFORMAT_END
 95
        2
302
GRIDFORMAT
  1
GRIDFORMAT_BEGIN
 90
        0
 91
        1
 62
     0
 92
       -2
340
0
 93
        0
 40
0.045
309
GRIDFORMAT_END
 95
        4
302
GRIDFORMAT
  1
GRIDFORMAT_BEGIN
 90
        0
 91
        1
 62
     0
 92
       -2
340
0
 93
        0
 40
0.045
309
GRIDFORMAT_END
 95
        8
302
GRIDFORMAT
  1
GRIDFORMAT_BEGIN
 90
        0
 91
        1
 62
     0
 92
       -2
340
0
 93
        0
 40
0.045
309
GRIDFORMAT_END
 95
       16
302
GRIDFORMAT
  1
GRIDFORMAT_BEGIN
 90
        0
 91
        1
 62
     0
 92
       -2
340
0
 93
        0
 40
0.045
309
GRIDFORMAT_END
 95
       32
302
GRIDFORMAT
  1
GRIDFORMAT_BEGIN
 90
        0
 91
        1
 62
     0
 92
       -2
340
0
 93
        0
 40
0.045
309
GRIDFORMAT_END
309
TABLEFORMAT_END
  1
CELLSTYLE_BEGIN
 90
        1
 91
        1
300
_TITLE
309
CELLSTYLE_END
300
CELLSTYLE
  1
TABLEFORMAT_BEGIN
 90
        5
170
     1
 91
        0
 92
        0
 62
   257
 93
        1
300
CONTENTFORMAT
  1
CONTENTFORMAT_BEGIN
 90
        0
 91
        0
 92
      512
 93
        0
300

 40
0.0
140
1.0
 94
        5
 62
     0
340
11
144
0.18
309
CONTENTFORMAT_END
171
     0
 94
        6
 95
        1
302
GRIDFORMAT
  1
GRIDFORMAT_BEGIN
 90
        0
 91
        1
 62
     0
 92
       -2
340
0
 93
        0
 40
0.045
309
GRIDFORMAT_END
 95
        2
302
GRIDFORMAT
  1
GRIDFORMAT_BEGIN
 90
        0
 91
        1
 62
     0
 92
       -2
340
0
 93
        0
 40
0.045
309
GRIDFORMAT_END
 95
        4
302
GRIDFORMAT
  1
GRIDFORMAT_BEGIN
 90
        0
 91
        1
 62
     0
 92
       -2
340
0
 93
        0
 40
0.045
309
GRIDFORMAT_END
 95
        8
302
GRIDFORMAT
  1
GRIDFORMAT_BEGIN
 90
        0
 91
        1
 62
     0
 92
       -2
340
0
 93
        0
 40
0.045
309
GRIDFORMAT_END
 95
       16
302
GRIDFORMAT
  1
GRIDFORMAT_BEGIN
 90
        0
 91
        1
 62
     0
 92
       -2
340
0
 93
        0
 40
0.045
309
GRIDFORMAT_END
 95
       32
302
GRIDFORMAT
  1
GRIDFORMAT_BEGIN
 90
        0
 91
        1
 62
     0
 92
       -2
340
0
 93
        0
 40
0.045
309
GRIDFORMAT_END
309
TABLEFORMAT_END
  1
CELLSTYLE_BEGIN
 90
        2
 91
        1
300
_HEADER
309
CELLSTYLE_END
300
CELLSTYLE
  1
TABLEFORMAT_BEGIN
 90
        5
170
     1
 91
        0
 92
        0
 62
   257
 93
        1
300
CONTENTFORMAT
  1
CONTENTFORMAT_BEGIN
 90
        0
 91
        0
 92
      512
 93
        0
300

 40
0.0
140
1.0
 94
        2
 62
     0
340
11
144
0.18
309
CONTENTFORMAT_END
171
     0
 94
        6
 95
        1
302
GRIDFORMAT
  1
GRIDFORMAT_BEGIN
 90
        0
 91
        1
 62
     0
 92
       -2
340
0
 93
        0
 40
0.045
309
GRIDFORMAT_END
 95
        2
302
GRIDFORMAT
  1
GRIDFORMAT_BEGIN
 90
        0
 91
        1
 62
     0
 92
       -2
340
0
 93
        0
 40
0.045
309
GRIDFORMAT_END
 95
        4
302
GRIDFORMAT
  1
GRIDFORMAT_BEGIN
 90
        0
 91
        1
 62
     0
 92
       -2
340
0
 93
        0
 40
0.045
309
GRIDFORMAT_END
 95
        8
302
GRIDFORMAT
  1
GRIDFORMAT_BEGIN
 90
        0
 91
        1
 62
     0
 92
       -2
340
0
 93
        0
 40
0.045
309
GRIDFORMAT_END
 95
       16
302
GRIDFORMAT
  1
GRIDFORMAT_BEGIN
 90
        0
 91
        1
 62
     0
 92
       -2
340
0
 93
        0
 40
0.045
309
GRIDFORMAT_END
 95
       32
302
GRIDFORMAT
  1
GRIDFORMAT_BEGIN
 90
        0
 91
        1
 62
     0
 92
       -2
340
0
 93
        0
 40
0.045
309
GRIDFORMAT_END
309
TABLEFORMAT_END
  1
CELLSTYLE_BEGIN
 90
        3
 91
        2
300
_DATA
309
CELLSTYLE_END
  0
XRECORD
  5
27FD
102
{ACAD_REACTORS
330
C14
102
}
330
C14
100
AcDbXrecord
280
     1
102
ACAD_ROUNDTRIP_PRE2007_TABLESTYLE
 90
      512
 91
        0
  1

 92
      512
 93
        0
  2

 94
      512
 95
        0
  3

  0
XRECORD
  5
27E8
102
{ACAD_REACTORS
330
27E7
102
}
330
27E7
100
AcDbXrecord
280
     1
102
RTVSPropertyOp0
 70
     1
102
RTVSPropertyOp1
 70
     1
102
RTVSPropertyOp2
 70
     1
102
RTVSPropertyOp3
 70
     1
102
RTVSPropertyOp4
 70
     1
102
RTVSPropertyOp5
 70
     1
102
RTVSPropertyOp6
 70
     1
102
RTVSPropertyOp7
 70
     1
102
RTVSPropertyOp8
 70
     1
102
RTVSPropertyOp9
 70
     1
102
RTVSPropertyOp10
 70
     1
102
RTVSPropertyOp11
 70
     1
102
RTVSPropertyOp12
 70
     1
102
RTVSPropertyOp13
 70
     1
102
RTVSPropertyOp14
 70
     1
102
RTVSPropertyOp15
 70
     1
102
RTVSPropertyOp16
 70
     1
102
RTVSPropertyOp17
 70
     1
102
RTVSPropertyOp18
 70
     1
102
RTVSPropertyOp19
 70
     1
102
RTVSPropertyOp20
 70
     1
102
RTVSPropertyOp21
 70
     1
102
RTVSPropertyOp22
 70
     1
102
RTVSPropertyOp23
 70
     1
102
RTVSPropertyOp24
 70
     1
102
RTVSPropertyOp25
 70
     1
102
RTVSPropertyOp26
 70
     1
102
RTVSPropertyOp27
 70
     1
  0
XRECORD
  5
27EC
102
{ACAD_REACTORS
330
27EB
102
}
330
27EB
100
AcDbXrecord
280
     1
102
RTVSPropertyOp0
 70
     1
102
RTVSPropertyOp1
 70
     1
102
RTVSPropertyOp2
 70
     1
102
RTVSPropertyOp3
 70
     1
102
RTVSPropertyOp4
 70
     1
102
RTVSPropertyOp5
 70
     1
102
RTVSPropertyOp6
 70
     1
102
RTVSPropertyOp7
 70
     1
102
RTVSPropertyOp8
 70
     1
102
RTVSPropertyOp9
 70
     1
102
RTVSPropertyOp10
 70
     1
102
RTVSPropertyOp11
 70
     1
102
RTVSPropertyOp12
 70
     1
102
RTVSPropertyOp13
 70
     1
102
RTVSPropertyOp14
 70
     1
102
RTVSPropertyOp15
 70
     1
102
RTVSPropertyOp16
 70
     1
102
RTVSPropertyOp17
 70
     1
102
RTVSPropertyOp18
 70
     1
102
RTVSPropertyOp19
 70
     1
102
RTVSPropertyOp20
 70
     1
102
RTVSPropertyOp21
 70
     1
102
RTVSPropertyOp22
 70
     1
102
RTVSPropertyOp23
 70
     1
102
RTVSPropertyOp24
 70
     1
102
RTVSPropertyOp25
 70
     1
102
RTVSPropertyOp26
 70
     1
102
RTVSPropertyOp27
 70
     1
  0
XRECORD
  5
27EA
102
{ACAD_REACTORS
330
27E9
102
}
330
27E9
100
AcDbXrecord
280
     1
102
RTVSPropertyOp0
 70
     1
102
RTVSPropertyOp1
 70
     1
102
RTVSPropertyOp2
 70
     1
102
RTVSPropertyOp3
 70
     1
102
RTVSPropertyOp4
 70
     1
102
RTVSPropertyOp5
 70
     1
102
RTVSPropertyOp6
 70
     1
102
RTVSPropertyOp7
 70
     1
102
RTVSPropertyOp8
 70
     1
102
RTVSPropertyOp9
 70
     1
102
RTVSPropertyOp10
 70
     1
102
RTVSPropertyOp11
 70
     1
102
RTVSPropertyOp12
 70
     1
102
RTVSPropertyOp13
 70
     1
102
RTVSPropertyOp14
 70
     1
102
RTVSPropertyOp15
 70
     1
102
RTVSPropertyOp16
 70
     1
102
RTVSPropertyOp17
 70
     1
102
RTVSPropertyOp18
 70
     1
102
RTVSPropertyOp19
 70
     1
102
RTVSPropertyOp20
 70
     1
102
RTVSPropertyOp21
 70
     1
102
RTVSPropertyOp22
 70
     1
102
RTVSPropertyOp23
 70
     1
102
RTVSPropertyOp24
 70
     1
102
RTVSPropertyOp25
 70
     1
102
RTVSPropertyOp26
 70
     1
102
RTVSPropertyOp27
 70
     1
  0
XRECORD
  5
27E6
102
{ACAD_REACTORS
330
27E5
102
}
330
27E5
100
AcDbXrecord
280
     1
102
RTVSPropertyOp0
 70
     1
102
RTVSPropertyOp1
 70
     1
102
RTVSPropertyOp2
 70
     1
102
RTVSPropertyOp3
 70
     1
102
RTVSPropertyOp4
 70
     1
102
RTVSPropertyOp5
 70
     1
102
RTVSPropertyOp6
 70
     1
102
RTVSPropertyOp7
 70
     1
102
RTVSPropertyOp8
 70
     1
102
RTVSPropertyOp9
 70
     1
102
RTVSPropertyOp10
 70
     1
102
RTVSPropertyOp11
 70
     1
102
RTVSPropertyOp12
 70
     1
102
RTVSPropertyOp13
 70
     1
102
RTVSPropertyOp14
 70
     1
102
RTVSPropertyOp15
 70
     1
102
RTVSPropertyOp16
 70
     1
102
RTVSPropertyOp17
 70
     1
102
RTVSPropertyOp18
 70
     1
102
RTVSPropertyOp19
 70
     1
102
RTVSPropertyOp20
 70
     1
102
RTVSPropertyOp21
 70
     1
102
RTVSPropertyOp22
 70
     1
102
RTVSPropertyOp23
 70
     1
102
RTVSPropertyOp24
 70
     1
102
RTVSPropertyOp25
 70
     1
102
RTVSPropertyOp26
 70
     1
102
RTVSPropertyOp27
 70
     1
  0
XRECORD
  5
27F4
102
{ACAD_REACTORS
330
27F3
102
}
330
27F3
100
AcDbXrecord
280
     1
102
RTVSPropertyOp0
 70
     1
102
RTVSPropertyOp1
 70
     1
102
RTVSPropertyOp2
 70
     1
102
RTVSPropertyOp3
 70
     1
102
RTVSPropertyOp4
 70
     1
102
RTVSPropertyOp5
 70
     1
102
RTVSPropertyOp6
 70
     1
102
RTVSPropertyOp7
 70
     1
102
RTVSPropertyOp8
 70
     1
102
RTVSPropertyOp9
 70
     1
102
RTVSPropertyOp10
 70
     1
102
RTVSPropertyOp11
 70
     1
102
RTVSPropertyOp12
 70
     1
102
RTVSPropertyOp13
 70
     1
102
RTVSPropertyOp14
 70
     1
102
RTVSPropertyOp15
 70
     1
102
RTVSPropertyOp16
 70
     1
102
RTVSPropertyOp17
 70
     1
102
RTVSPropertyOp18
 70
     1
102
RTVSPropertyOp19
 70
     1
102
RTVSPropertyOp20
 70
     1
102
RTVSPropertyOp21
 70
     1
102
RTVSPropertyOp22
 70
     1
102
RTVSPropertyOp23
 70
     1
102
RTVSPropertyOp24
 70
     1
102
RTVSPropertyOp25
 70
     1
102
RTVSPropertyOp26
 70
     1
102
RTVSPropertyOp27
 70
     1
  0
XRECORD
  5
27FC
102
{ACAD_REACTORS
330
27FB
102
}
330
27FB
100
AcDbXrecord
280
     1
102
RTVSPropertyOp0
 70
     1
102
RTVSPropertyOp1
 70
     1
102
RTVSPropertyOp2
 70
     1
102
RTVSPropertyOp3
 70
     1
102
RTVSPropertyOp4
 70
     1
102
RTVSPropertyOp5
 70
     1
102
RTVSPropertyOp6
 70
     1
102
RTVSPropertyOp7
 70
     1
102
RTVSPropertyOp8
 70
     1
102
RTVSPropertyOp9
 70
     1
102
RTVSPropertyOp10
 70
     1
102
RTVSPropertyOp11
 70
     1
102
RTVSPropertyOp12
 70
     1
102
RTVSPropertyOp13
 70
     1
102
RTVSPropertyOp14
 70
     1
102
RTVSPropertyOp15
 70
     1
102
RTVSPropertyOp16
 70
     1
102
RTVSPropertyOp17
 70
     1
102
RTVSPropertyOp18
 70
     1
102
RTVSPropertyOp19
 70
     1
102
RTVSPropertyOp20
 70
     1
102
RTVSPropertyOp21
 70
     1
102
RTVSPropertyOp22
 70
     1
102
RTVSPropertyOp23
 70
     1
102
RTVSPropertyOp24
 70
     1
102
RTVSPropertyOp25
 70
     1
102
RTVSPropertyOp26
 70
     1
102
RTVSPropertyOp27
 70
     1
  0
XRECORD
  5
27EE
102
{ACAD_REACTORS
330
27ED
102
}
330
27ED
100
AcDbXrecord
280
     1
102
RTVSPropertyOp0
 70
     1
102
RTVSPropertyOp1
 70
     1
102
RTVSPropertyOp2
 70
     1
102
RTVSPropertyOp3
 70
     1
102
RTVSPropertyOp4
 70
     1
102
RTVSPropertyOp5
 70
     1
102
RTVSPropertyOp6
 70
     1
102
RTVSPropertyOp7
 70
     1
102
RTVSPropertyOp8
 70
     1
102
RTVSPropertyOp9
 70
     1
102
RTVSPropertyOp10
 70
     1
102
RTVSPropertyOp11
 70
     1
102
RTVSPropertyOp12
 70
     1
102
RTVSPropertyOp13
 70
     1
102
RTVSPropertyOp14
 70
     1
102
RTVSPropertyOp15
 70
     1
102
RTVSPropertyOp16
 70
     1
102
RTVSPropertyOp17
 70
     1
102
RTVSPropertyOp18
 70
     1
102
RTVSPropertyOp19
 70
     1
102
RTVSPropertyOp20
 70
     1
102
RTVSPropertyOp21
 70
     1
102
RTVSPropertyOp22
 70
     1
102
RTVSPropertyOp23
 70
     1
102
RTVSPropertyOp24
 70
     1
102
RTVSPropertyOp25
 70
     1
102
RTVSPropertyOp26
 70
     1
102
RTVSPropertyOp27
 70
     1
  0
XRECORD
  5
27F2
102
{ACAD_REACTORS
330
27F1
102
}
330
27F1
100
AcDbXrecord
280
     1
102
RTVSPropertyOp0
 70
     1
102
RTVSPropertyOp1
 70
     1
102
RTVSPropertyOp2
 70
     1
102
RTVSPropertyOp3
 70
     1
102
RTVSPropertyOp4
 70
     1
102
RTVSPropertyOp5
 70
     1
102
RTVSPropertyOp6
 70
     1
102
RTVSPropertyOp7
 70
     1
102
RTVSPropertyOp8
 70
     1
102
RTVSPropertyOp9
 70
     1
102
RTVSPropertyOp10
 70
     1
102
RTVSPropertyOp11
 70
     1
102
RTVSPropertyOp12
 70
     1
102
RTVSPropertyOp13
 70
     1
102
RTVSPropertyOp14
 70
     1
102
RTVSPropertyOp15
 70
     1
102
RTVSPropertyOp16
 70
     1
102
RTVSPropertyOp17
 70
     1
102
RTVSPropertyOp18
 70
     1
102
RTVSPropertyOp19
 70
     1
102
RTVSPropertyOp20
 70
     1
102
RTVSPropertyOp21
 70
     1
102
RTVSPropertyOp22
 70
     1
102
RTVSPropertyOp23
 70
     1
102
RTVSPropertyOp24
 70
     1
102
RTVSPropertyOp25
 70
     1
102
RTVSPropertyOp26
 70
     1
102
RTVSPropertyOp27
 70
     1
  0
XRECORD
  5
2803
102
{ACAD_REACTORS
330
2802
102
}
330
2802
100
AcDbXrecord
280
     1
102
RTVSPropertyOp0
 70
     0
102
RTVSPropertyOp1
 70
     0
102
RTVSPropertyOp2
 70
     0
102
RTVSPropertyOp3
 70
     0
102
RTVSPropertyOp4
 70
     0
102
RTVSPropertyOp5
 70
     0
102
RTVSPropertyOp6
 70
     0
102
RTVSPropertyOp7
 70
     0
102
RTVSPropertyOp8
 70
     0
102
RTVSPropertyOp9
 70
     0
102
RTVSPropertyOp10
 70
     0
102
RTVSPropertyOp11
 70
     0
102
RTVSPropertyOp12
 70
     0
102
RTVSPropertyOp13
 70
     0
102
RTVSPropertyOp14
 70
     2
102
RTVSPropertyOp15
 70
     0
102
RTVSPropertyOp16
 70
     0
102
RTVSPropertyOp17
 70
     0
102
RTVSPropertyOp18
 70
     0
102
RTVSPropertyOp19
 70
     0
102
RTVSPropertyOp20
 70
     0
102
RTVSPropertyOp21
 70
     0
102
RTVSPropertyOp22
 70
     0
102
RTVSPropertyOp23
 70
     0
102
RTVSPropertyOp24
 70
     0
102
RTVSPropertyOp25
 70
     0
102
RTVSPropertyOp26
 70
     0
102
RTVSPropertyOp27
 70
     0
  0
XRECORD
  5
27FA
102
{ACAD_REACTORS
330
27F9
102
}
330
27F9
100
AcDbXrecord
280
     1
102
RTVSPropertyOp0
 70
     1
102
RTVSPropertyOp1
 70
     1
102
RTVSPropertyOp2
 70
     1
102
RTVSPropertyOp3
 70
     1
102
RTVSPropertyOp4
 70
     1
102
RTVSPropertyOp5
 70
     1
102
RTVSPropertyOp6
 70
     1
102
RTVSPropertyOp7
 70
     1
102
RTVSPropertyOp8
 70
     1
102
RTVSPropertyOp9
 70
     1
102
RTVSPropertyOp10
 70
     1
102
RTVSPropertyOp11
 70
     1
102
RTVSPropertyOp12
 70
     1
102
RTVSPropertyOp13
 70
     1
102
RTVSPropertyOp14
 70
     1
102
RTVSPropertyOp15
 70
     1
102
RTVSPropertyOp16
 70
     1
102
RTVSPropertyOp17
 70
     1
102
RTVSPropertyOp18
 70
     1
102
RTVSPropertyOp19
 70
     1
102
RTVSPropertyOp20
 70
     1
102
RTVSPropertyOp21
 70
     1
102
RTVSPropertyOp22
 70
     1
102
RTVSPropertyOp23
 70
     1
102
RTVSPropertyOp24
 70
     1
102
RTVSPropertyOp25
 70
     1
102
RTVSPropertyOp26
 70
     1
102
RTVSPropertyOp27
 70
     1
  0
XRECORD
  5
27DE
102
{ACAD_REACTORS
330
27DD
102
}
330
27DD
100
AcDbXrecord
280
     1
102
RTVSPropertyOp0
 70
     1
102
RTVSPropertyOp1
 70
     1
102
RTVSPropertyOp2
 70
     1
102
RTVSPropertyOp3
 70
     1
102
RTVSPropertyOp4
 70
     1
102
RTVSPropertyOp5
 70
     1
102
RTVSPropertyOp6
 70
     1
102
RTVSPropertyOp7
 70
     1
102
RTVSPropertyOp8
 70
     1
102
RTVSPropertyOp9
 70
     1
102
RTVSPropertyOp10
 70
     1
102
RTVSPropertyOp11
 70
     1
102
RTVSPropertyOp12
 70
     1
102
RTVSPropertyOp13
 70
     1
102
RTVSPropertyOp14
 70
     1
102
RTVSPropertyOp15
 70
     1
102
RTVSPropertyOp16
 70
     1
102
RTVSPropertyOp17
 70
     1
102
RTVSPropertyOp18
 70
     1
102
RTVSPropertyOp19
 70
     1
102
RTVSPropertyOp20
 70
     1
102
RTVSPropertyOp21
 70
     1
102
RTVSPropertyOp22
 70
     1
102
RTVSPropertyOp23
 70
     1
102
RTVSPropertyOp24
 70
     1
102
RTVSPropertyOp25
 70
     1
102
RTVSPropertyOp26
 70
     1
102
RTVSPropertyOp27
 70
     1
  0
XRECORD
  5
27E0
102
{ACAD_REACTORS
330
27DF
102
}
330
27DF
100
AcDbXrecord
280
     1
102
RTVSPropertyOp0
 70
     1
102
RTVSPropertyOp1
 70
     1
102
RTVSPropertyOp2
 70
     1
102
RTVSPropertyOp3
 70
     1
102
RTVSPropertyOp4
 70
     1
102
RTVSPropertyOp5
 70
     1
102
RTVSPropertyOp6
 70
     1
102
RTVSPropertyOp7
 70
     1
102
RTVSPropertyOp8
 70
     1
102
RTVSPropertyOp9
 70
     1
102
RTVSPropertyOp10
 70
     1
102
RTVSPropertyOp11
 70
     1
102
RTVSPropertyOp12
 70
     1
102
RTVSPropertyOp13
 70
     1
102
RTVSPropertyOp14
 70
     1
102
RTVSPropertyOp15
 70
     1
102
RTVSPropertyOp16
 70
     1
102
RTVSPropertyOp17
 70
     1
102
RTVSPropertyOp18
 70
     1
102
RTVSPropertyOp19
 70
     1
102
RTVSPropertyOp20
 70
     1
102
RTVSPropertyOp21
 70
     1
102
RTVSPropertyOp22
 70
     1
102
RTVSPropertyOp23
 70
     1
102
RTVSPropertyOp24
 70
     1
102
RTVSPropertyOp25
 70
     1
102
RTVSPropertyOp26
 70
     1
102
RTVSPropertyOp27
 70
     1
  0
XRECORD
  5
27E2
102
{ACAD_REACTORS
330
27E1
102
}
330
27E1
100
AcDbXrecord
280
     1
102
RTVSPropertyOp0
 70
     1
102
RTVSPropertyOp1
 70
     1
102
RTVSPropertyOp2
 70
     1
102
RTVSPropertyOp3
 70
     1
102
RTVSPropertyOp4
 70
     1
102
RTVSPropertyOp5
 70
     1
102
RTVSPropertyOp6
 70
     1
102
RTVSPropertyOp7
 70
     1
102
RTVSPropertyOp8
 70
     1
102
RTVSPropertyOp9
 70
     1
102
RTVSPropertyOp10
 70
     1
102
RTVSPropertyOp11
 70
     1
102
RTVSPropertyOp12
 70
     1
102
RTVSPropertyOp13
 70
     1
102
RTVSPropertyOp14
 70
     1
102
RTVSPropertyOp15
 70
     1
102
RTVSPropertyOp16
 70
     1
102
RTVSPropertyOp17
 70
     1
102
RTVSPropertyOp18
 70
     1
102
RTVSPropertyOp19
 70
     1
102
RTVSPropertyOp20
 70
     1
102
RTVSPropertyOp21
 70
     1
102
RTVSPropertyOp22
 70
     1
102
RTVSPropertyOp23
 70
     1
102
RTVSPropertyOp24
 70
     1
102
RTVSPropertyOp25
 70
     1
102
RTVSPropertyOp26
 70
     1
102
RTVSPropertyOp27
 70
     1
  0
XRECORD
  5
27E4
102
{ACAD_REACTORS
330
27E3
102
}
330
27E3
100
AcDbXrecord
280
     1
102
RTVSPropertyOp0
 70
     1
102
RTVSPropertyOp1
 70
     1
102
RTVSPropertyOp2
 70
     1
102
RTVSPropertyOp3
 70
     1
102
RTVSPropertyOp4
 70
     1
102
RTVSPropertyOp5
 70
     1
102
RTVSPropertyOp6
 70
     1
102
RTVSPropertyOp7
 70
     1
102
RTVSPropertyOp8
 70
     1
102
RTVSPropertyOp9
 70
     1
102
RTVSPropertyOp10
 70
     1
102
RTVSPropertyOp11
 70
     1
102
RTVSPropertyOp12
 70
     1
102
RTVSPropertyOp13
 70
     1
102
RTVSPropertyOp14
 70
     1
102
RTVSPropertyOp15
 70
     1
102
RTVSPropertyOp16
 70
     1
102
RTVSPropertyOp17
 70
     1
102
RTVSPropertyOp18
 70
     1
102
RTVSPropertyOp19
 70
     1
102
RTVSPropertyOp20
 70
     1
102
RTVSPropertyOp21
 70
     1
102
RTVSPropertyOp22
 70
     1
102
RTVSPropertyOp23
 70
     1
102
RTVSPropertyOp24
 70
     1
102
RTVSPropertyOp25
 70
     1
102
RTVSPropertyOp26
 70
     1
102
RTVSPropertyOp27
 70
     1
  0
XRECORD
  5
27FF
102
{ACAD_REACTORS
330
27FE
102
}
330
27FE
100
AcDbXrecord
280
     1
102
RTVSPropertyOp0
 70
     0
102
RTVSPropertyOp1
 70
     0
102
RTVSPropertyOp2
 70
     0
102
RTVSPropertyOp3
 70
     0
102
RTVSPropertyOp4
 70
     0
102
RTVSPropertyOp5
 70
     0
102
RTVSPropertyOp6
 70
     0
102
RTVSPropertyOp7
 70
     0
102
RTVSPropertyOp8
 70
     0
102
RTVSPropertyOp9
 70
     0
102
RTVSPropertyOp10
 70
     0
102
RTVSPropertyOp11
 70
     0
102
RTVSPropertyOp12
 70
     0
102
RTVSPropertyOp13
 70
     0
102
RTVSPropertyOp14
 70
     2
102
RTVSPropertyOp15
 70
     0
102
RTVSPropertyOp16
 70
     0
102
RTVSPropertyOp17
 70
     0
102
RTVSPropertyOp18
 70
     0
102
RTVSPropertyOp19
 70
     0
102
RTVSPropertyOp20
 70
     0
102
RTVSPropertyOp21
 70
     0
102
RTVSPropertyOp22
 70
     0
102
RTVSPropertyOp23
 70
     0
102
RTVSPropertyOp24
 70
     0
102
RTVSPropertyOp25
 70
     0
102
RTVSPropertyOp26
 70
     0
102
RTVSPropertyOp27
 70
     0
  0
XRECORD
  5
27F8
102
{ACAD_REACTORS
330
27F7
102
}
330
27F7
100
AcDbXrecord
280
     1
102
RTVSPropertyOp0
 70
     1
102
RTVSPropertyOp1
 70
     1
102
RTVSPropertyOp2
 70
     1
102
RTVSPropertyOp3
 70
     1
102
RTVSPropertyOp4
 70
     1
102
RTVSPropertyOp5
 70
     1
102
RTVSPropertyOp6
 70
     1
102
RTVSPropertyOp7
 70
     1
102
RTVSPropertyOp8
 70
     1
102
RTVSPropertyOp9
 70
     1
102
RTVSPropertyOp10
 70
     1
102
RTVSPropertyOp11
 70
     1
102
RTVSPropertyOp12
 70
     1
102
RTVSPropertyOp13
 70
     1
102
RTVSPropertyOp14
 70
     1
102
RTVSPropertyOp15
 70
     1
102
RTVSPropertyOp16
 70
     1
102
RTVSPropertyOp17
 70
     1
102
RTVSPropertyOp18
 70
     1
102
RTVSPropertyOp19
 70
     1
102
RTVSPropertyOp20
 70
     1
102
RTVSPropertyOp21
 70
     1
102
RTVSPropertyOp22
 70
     1
102
RTVSPropertyOp23
 70
     1
102
RTVSPropertyOp24
 70
     1
102
RTVSPropertyOp25
 70
     1
102
RTVSPropertyOp26
 70
     1
102
RTVSPropertyOp27
 70
     1
  0
XRECORD
  5
2801
102
{ACAD_REACTORS
330
2800
102
}
330
2800
100
AcDbXrecord
280
     1
102
RTVSPropertyOp0
 70
     0
102
RTVSPropertyOp1
 70
     0
102
RTVSPropertyOp2
 70
     0
102
RTVSPropertyOp3
 70
     0
102
RTVSPropertyOp4
 70
     0
102
RTVSPropertyOp5
 70
     0
102
RTVSPropertyOp6
 70
     0
102
RTVSPropertyOp7
 70
     0
102
RTVSPropertyOp8
 70
     0
102
RTVSPropertyOp9
 70
     0
102
RTVSPropertyOp10
 70
     0
102
RTVSPropertyOp11
 70
     0
102
RTVSPropertyOp12
 70
     0
102
RTVSPropertyOp13
 70
     0
102
RTVSPropertyOp14
 70
     2
102
RTVSPropertyOp15
 70
     0
102
RTVSPropertyOp16
 70
     0
102
RTVSPropertyOp17
 70
     0
102
RTVSPropertyOp18
 70
     0
102
RTVSPropertyOp19
 70
     0
102
RTVSPropertyOp20
 70
     0
102
RTVSPropertyOp21
 70
     0
102
RTVSPropertyOp22
 70
     0
102
RTVSPropertyOp23
 70
     0
102
RTVSPropertyOp24
 70
     0
102
RTVSPropertyOp25
 70
     0
102
RTVSPropertyOp26
 70
     0
102
RTVSPropertyOp27
 70
     0
  0
XRECORD
  5
27F0
102
{ACAD_REACTORS
330
27EF
102
}
330
27EF
100
AcDbXrecord
280
     1
102
RTVSPropertyOp0
 70
     1
102
RTVSPropertyOp1
 70
     1
102
RTVSPropertyOp2
 70
     1
102
RTVSPropertyOp3
 70
     1
102
RTVSPropertyOp4
 70
     1
102
RTVSPropertyOp5
 70
     1
102
RTVSPropertyOp6
 70
     1
102
RTVSPropertyOp7
 70
     1
102
RTVSPropertyOp8
 70
     1
102
RTVSPropertyOp9
 70
     1
102
RTVSPropertyOp10
 70
     1
102
RTVSPropertyOp11
 70
     1
102
RTVSPropertyOp12
 70
     1
102
RTVSPropertyOp13
 70
     1
102
RTVSPropertyOp14
 70
     1
102
RTVSPropertyOp15
 70
     1
102
RTVSPropertyOp16
 70
     1
102
RTVSPropertyOp17
 70
     1
102
RTVSPropertyOp18
 70
     1
102
RTVSPropertyOp19
 70
     1
102
RTVSPropertyOp20
 70
     1
102
RTVSPropertyOp21
 70
     1
102
RTVSPropertyOp22
 70
     1
102
RTVSPropertyOp23
 70
     1
102
RTVSPropertyOp24
 70
     1
102
RTVSPropertyOp25
 70
     1
102
RTVSPropertyOp26
 70
     1
102
RTVSPropertyOp27
 70
     1
  0
XRECORD
  5
27F6
102
{ACAD_REACTORS
330
27F5
102
}
330
27F5
100
AcDbXrecord
280
     1
102
RTVSPropertyOp0
 70
     1
102
RTVSPropertyOp1
 70
     1
102
RTVSPropertyOp2
 70
     1
102
RTVSPropertyOp3
 70
     1
102
RTVSPropertyOp4
 70
     1
102
RTVSPropertyOp5
 70
     1
102
RTVSPropertyOp6
 70
     1
102
RTVSPropertyOp7
 70
     1
102
RTVSPropertyOp8
 70
     1
102
RTVSPropertyOp9
 70
     1
102
RTVSPropertyOp10
 70
     1
102
RTVSPropertyOp11
 70
     1
102
RTVSPropertyOp12
 70
     1
102
RTVSPropertyOp13
 70
     1
102
RTVSPropertyOp14
 70
     1
102
RTVSPropertyOp15
 70
     1
102
RTVSPropertyOp16
 70
     1
102
RTVSPropertyOp17
 70
     1
102
RTVSPropertyOp18
 70
     1
102
RTVSPropertyOp19
 70
     1
102
RTVSPropertyOp20
 70
     1
102
RTVSPropertyOp21
 70
     1
102
RTVSPropertyOp22
 70
     1
102
RTVSPropertyOp23
 70
     1
102
RTVSPropertyOp24
 70
     1
102
RTVSPropertyOp25
 70
     1
102
RTVSPropertyOp26
 70
     1
102
RTVSPropertyOp27
 70
     1
  0
ENDSEC
  0
EOF
