  0
SECTION
  2
HEADER
  9
$ACADVER
  1
AC1018
  9
$ACADMAINTVER
 70
   104
  9
$DWGCODEPAGE
  3
ANSI_1252
  9
$AUTHOR
  1
‘Created by Cad / Cam Services, Inc. for Amazon Services LLC on January, 2013’
  9
$LASTSAVEDBY
  1
om
  9
$INSBASE
 10
0.0
 20
0.0
 30
0.0
  9
$EXTMIN
 10
-0.0012063766794768
 20
-0.00071363523519
 30
-0.0000000349181948
  9
$EXTMAX
 10
7.81823359719096
 20
5.920324741843856
 30
0.0000000814935746
  9
$LIMMIN
 10
0.0
 20
0.0
  9
$LIMMAX
 10
16.53543307086614
 20
11.69291338582677
  9
$ORTHOMODE
 70
     1
  9
$REGENMODE
 70
     1
  9
$FILLMODE
 70
     1
  9
$QTEXTMODE
 70
     0
  9
$MIRRTEXT
 70
     1
  9
$LTSCALE
 40
1.0
  9
$ATTMODE
 70
     1
  9
$TEXTSIZE
 40
0.2
  9
$TRACEWID
 40
0.05
  9
$TEXTSTYLE
  7
SLDTEXTSTYLE0
  9
$CLAYER
  8
0
  9
$CELTYPE
  6
ByLayer
  9
$CECOLOR
 62
   256
  9
$CELTSCALE
 40
1.0
  9
$DISPSILH
 70
     0
  9
$DIMSCALE
 40
1.0
  9
$DIMASZ
 40
0.07
  9
$DIMEXO
 40
0.05
  9
$DIMDLI
 40
0.38
  9
$DIMRND
 40
0.0
  9
$DIMDLE
 40
0.0
  9
$DIMEXE
 40
0.04
  9
$DIMTP
 40
0.0
  9
$DIMTM
 40
0.0
  9
$DIMTXT
 40
0.07
  9
$DIMCEN
 40
0.09
  9
$DIMTSZ
 40
0.0
  9
$DIMTOL
 70
     0
  9
$DIMLIM
 70
     0
  9
$DIMTIH
 70
     1
  9
$DIMTOH
 70
     1
  9
$DIMSE1
 70
     0
  9
$DIMSE2
 70
     0
  9
$DIMTAD
 70
     1
  9
$DIMZIN
 70
     0
  9
$DIMBLK
  1

  9
$DIMASO
 70
     1
  9
$DIMSHO
 70
     1
  9
$DIMPOST
  1

  9
$DIMAPOST
  1

  9
$DIMALT
 70
     0
  9
$DIMALTD
 70
     2
  9
$DIMALTF
 40
25.4
  9
$DIMLFAC
 40
1.0
  9
$DIMTOFL
 70
     1
  9
$DIMTVP
 40
0.0
  9
$DIMTIX
 70
     0
  9
$DIMSOXD
 70
     0
  9
$DIMSAH
 70
     0
  9
$DIMBLK1
  1

  9
$DIMBLK2
  1

  9
$DIMSTYLE
  2
Standard
  9
$DIMCLRD
 70
     0
  9
$DIMCLRE
 70
     0
  9
$DIMCLRT
 70
     0
  9
$DIMTFAC
 40
1.0
  9
$DIMGAP
 40
0.03
  9
$DIMJUST
 70
     0
  9
$DIMSD1
 70
     0
  9
$DIMSD2
 70
     0
  9
$DIMTOLJ
 70
     1
  9
$DIMTZIN
 70
     0
  9
$DIMALTZ
 70
     0
  9
$DIMALTTZ
 70
     0
  9
$DIMUPT
 70
     0
  9
$DIMDEC
 70
     3
  9
$DIMTDEC
 70
     3
  9
$DIMALTU
 70
     2
  9
$DIMALTTD
 70
     2
  9
$DIMTXSTY
  7
Standard
  9
$DIMAUNIT
 70
     0
  9
$DIMADEC
 70
     0
  9
$DIMALTRND
 40
0.0
  9
$DIMAZIN
 70
     0
  9
$DIMDSEP
 70
    46
  9
$DIMATFIT
 70
     3
  9
$DIMFRAC
 70
     0
  9
$DIMLDRBLK
  1

  9
$DIMLUNIT
 70
     2
  9
$DIMLWD
 70
    -2
  9
$DIMLWE
 70
    -2
  9
$DIMTMOVE
 70
     0
  9
$LUNITS
 70
     2
  9
$LUPREC
 70
     2
  9
$SKETCHINC
 40
0.1
  9
$FILLETRAD
 40
0.5
  9
$AUNITS
 70
     0
  9
$AUPREC
 70
     2
  9
$MENU
  1
.
  9
$ELEVATION
 40
0.0
  9
$PELEVATION
 40
0.0
  9
$THICKNESS
 40
0.0
  9
$LIMCHECK
 70
     0
  9
$CHAMFERA
 40
0.5
  9
$CHAMFERB
 40
0.5
  9
$CHAMFERC
 40
1.0
  9
$CHAMFERD
 40
0.0
  9
$SKPOLY
 70
     0
  9
$TDCREATE
 40
2456293.576833044
  9
$TDUCREATE
 40
2456293.347666377
  9
$TDUPDATE
 40
2456366.399400127
  9
$TDUUPDATE
 40
2456366.170233461
  9
$TDINDWG
 40
0.0077515509
  9
$TDUSRTIMER
 40
0.0077515509
  9
$USRTIMER
 70
     1
  9
$ANGBASE
 50
0.0
  9
$ANGDIR
 70
     0
  9
$PDMODE
 70
     0
  9
$PDSIZE
 40
-1.0
  9
$PLINEWID
 40
0.0
  9
$SPLFRAME
 70
     0
  9
$SPLINETYPE
 70
     6
  9
$SPLINESEGS
 70
     8
  9
$HANDSEED
  5
23F0
  9
$SURFTAB1
 70
     6
  9
$SURFTAB2
 70
     6
  9
$SURFTYPE
 70
     6
  9
$SURFU
 70
     6
  9
$SURFV
 70
     6
  9
$UCSBASE
  2

  9
$UCSNAME
  2

  9
$UCSORG
 10
0.0
 20
0.0
 30
0.0
  9
$UCSXDIR
 10
1.0
 20
0.0
 30
0.0
  9
$UCSYDIR
 10
0.0
 20
1.0
 30
0.0
  9
$UCSORTHOREF
  2

  9
$UCSORTHOVIEW
 70
     0
  9
$UCSORGTOP
 10
0.0
 20
0.0
 30
0.0
  9
$UCSORGBOTTOM
 10
0.0
 20
0.0
 30
0.0
  9
$UCSORGLEFT
 10
0.0
 20
0.0
 30
0.0
  9
$UCSORGRIGHT
 10
0.0
 20
0.0
 30
0.0
  9
$UCSORGFRONT
 10
0.0
 20
0.0
 30
0.0
  9
$UCSORGBACK
 10
0.0
 20
0.0
 30
0.0
  9
$PUCSBASE
  2

  9
$PUCSNAME
  2

  9
$PUCSORG
 10
0.0
 20
0.0
 30
0.0
  9
$PUCSXDIR
 10
1.0
 20
0.0
 30
0.0
  9
$PUCSYDIR
 10
0.0
 20
1.0
 30
0.0
  9
$PUCSORTHOREF
  2

  9
$PUCSORTHOVIEW
 70
     0
  9
$PUCSORGTOP
 10
0.0
 20
0.0
 30
0.0
  9
$PUCSORGBOTTOM
 10
0.0
 20
0.0
 30
0.0
  9
$PUCSORGLEFT
 10
0.0
 20
0.0
 30
0.0
  9
$PUCSORGRIGHT
 10
0.0
 20
0.0
 30
0.0
  9
$PUCSORGFRONT
 10
0.0
 20
0.0
 30
0.0
  9
$PUCSORGBACK
 10
0.0
 20
0.0
 30
0.0
  9
$USERI1
 70
     0
  9
$USERI2
 70
     0
  9
$USERI3
 70
     0
  9
$USERI4
 70
     0
  9
$USERI5
 70
     0
  9
$USERR1
 40
0.0
  9
$USERR2
 40
0.0
  9
$USERR3
 40
0.0
  9
$USERR4
 40
0.0
  9
$USERR5
 40
0.0
  9
$WORLDVIEW
 70
     1
  9
$SHADEDGE
 70
     3
  9
$SHADEDIF
 70
    70
  9
$TILEMODE
 70
     1
  9
$MAXACTVP
 70
    64
  9
$PINSBASE
 10
0.0
 20
0.0
 30
0.0
  9
$PLIMCHECK
 70
     0
  9
$PEXTMIN
 10
1.000000000000000E+20
 20
1.000000000000000E+20
 30
1.000000000000000E+20
  9
$PEXTMAX
 10
-1.000000000000000E+20
 20
-1.000000000000000E+20
 30
-1.000000000000000E+20
  9
$PLIMMIN
 10
0.0
 20
0.0
  9
$PLIMMAX
 10
12.0
 20
9.0
  9
$UNITMODE
 70
     0
  9
$VISRETAIN
 70
     1
  9
$PLINEGEN
 70
     0
  9
$PSLTSCALE
 70
     1
  9
$TREEDEPTH
 70
  3020
  9
$CMLSTYLE
  2
Standard
  9
$CMLJUST
 70
     0
  9
$CMLSCALE
 40
1.0
  9
$PROXYGRAPHICS
 70
     1
  9
$MEASUREMENT
 70
     0
  9
$CELWEIGHT
370
    -1
  9
$ENDCAPS
280
     0
  9
$JOINSTYLE
280
     0
  9
$LWDISPLAY
290
     1
  9
$INSUNITS
 70
     1
  9
$HYPERLINKBASE
  1

  9
$STYLESHEET
  1

  9
$XEDIT
290
     1
  9
$CEPSNTYPE
380
     0
  9
$PSTYLEMODE
290
     1
  9
$FINGERPRINTGUID
  2
{A1D71716-B3FC-42BE-9085-22F018370CE7}
  9
$VERSIONGUID
  2
{6F148BB1-8756-42F6-BF17-9F78DFB25CB5}
  9
$EXTNAMES
290
     1
  9
$PSVPSCALE
 40
0.0
  9
$OLESTARTUP
290
     0
  9
$SORTENTS
280
   127
  9
$INDEXCTL
280
     0
  9
$HIDETEXT
280
     0
  9
$XCLIPFRAME
290
     0
  9
$HALOGAP
280
     0
  9
$OBSCOLOR
 70
   257
  9
$OBSLTYPE
280
     0
  9
$INTERSECTIONDISPLAY
280
     0
  9
$INTERSECTIONCOLOR
 70
   257
  9
$DIMASSOC
280
     1
  9
$PROJECTNAME
  1

  0
ENDSEC
  0
SECTION
  2
CLASSES
  0
CLASS
  1
ACDBDICTIONARYWDFLT
  2
AcDbDictionaryWithDefault
  3
ObjectDBX Classes
 90
        0
 91
        1
280
     0
281
     0
  0
CLASS
  1
VISUALSTYLE
  2
AcDbVisualStyle
  3
ObjectDBX Classes
 90
     4095
 91
       19
280
     0
281
     0
  0
CLASS
  1
MATERIAL
  2
AcDbMaterial
  3
ObjectDBX Classes
 90
     1153
 91
        3
280
     0
281
     0
  0
CLASS
  1
TABLESTYLE
  2
AcDbTableStyle
  3
ObjectDBX Classes
 90
     4095
 91
        1
280
     0
281
     0
  0
CLASS
  1
DICTIONARYVAR
  2
AcDbDictionaryVar
  3
ObjectDBX Classes
 90
        0
 91
       16
280
     0
281
     0
  0
CLASS
  1
SORTENTSTABLE
  2
AcDbSortentsTable
  3
ObjectDBX Classes
 90
        0
 91
        1
280
     0
281
     0
  0
CLASS
  1
PLOTSETTINGS
  2
AcDbPlotSettings
  3
ObjectDBX Classes
 90
        0
 91
        2
280
     0
281
     0
  0
CLASS
  1
SCALE
  2
AcDbScale
  3
ObjectDBX Classes
 90
     1153
 91
       33
280
     0
281
     0
  0
CLASS
  1
MLEADERSTYLE
  2
AcDbMLeaderStyle
  3
ACDB_MLEADERSTYLE_CLASS
 90
     4095
 91
        1
280
     0
281
     0
  0
CLASS
  1
CELLSTYLEMAP
  2
AcDbCellStyleMap
  3
ObjectDBX Classes
 90
     1152
 91
        2
280
     0
281
     0
  0
ENDSEC
  0
SECTION
  2
TABLES
  0
TABLE
  2
VPORT
  5
8
102
{ACAD_XDICTIONARY
360
4DC
102
}
330
0
100
AcDbSymbolTable
 70
     1
  0
VPORT
  5
29
330
8
100
AcDbSymbolTableRecord
100
AcDbViewportTableRecord
  2
*Active
 70
     0
 10
0.0
 20
0.0
 11
1.0
 21
1.0
 12
3.908513610255742
 22
2.959805553304333
 13
0.0
 23
0.0
 14
0.5
 24
0.5
 15
0.5
 25
0.5
 16
0.0
 26
0.0
 36
1.0
 17
0.0
 27
0.0
 37
0.0
 40
5.99398751519501
 41
2.588477366255144
 42
50.0
 43
0.0
 44
0.0
 50
0.0
 51
0.0
 71
     0
 72
  2000
 73
     1
 74
     3
 75
     0
 76
     0
 77
     0
 78
     0
281
     0
 65
     1
110
0.0
120
0.0
130
0.0
111
1.0
121
0.0
131
0.0
112
0.0
122
1.0
132
0.0
 79
     0
146
0.0
  0
ENDTAB
  0
TABLE
  2
LTYPE
  5
5
330
0
100
AcDbSymbolTable
 70
     2
  0
LTYPE
  5
14
330
5
100
AcDbSymbolTableRecord
100
AcDbLinetypeTableRecord
  2
ByBlock
 70
     0
  3

 72
    65
 73
     0
 40
0.0
  0
LTYPE
  5
15
330
5
100
AcDbSymbolTableRecord
100
AcDbLinetypeTableRecord
  2
ByLayer
 70
     0
  3

 72
    65
 73
     0
 40
0.0
  0
LTYPE
  5
16
330
5
100
AcDbSymbolTableRecord
100
AcDbLinetypeTableRecord
  2
Continuous
 70
     0
  3
Solid line
 72
    65
 73
     0
 40
0.0
  0
LTYPE
  5
C23
330
5
100
AcDbSymbolTableRecord
100
AcDbLinetypeTableRecord
  2
HIDDEN
 70
     0
  3
Hidden __ __ __ __ __ __ __ __ __ __ __ __ __ __
 72
    65
 73
     2
 40
0.075
 49
0.05
 74
     0
 49
-0.025
 74
     0
  0
ENDTAB
  0
TABLE
  2
LAYER
  5
2
102
{ACAD_XDICTIONARY
360
61E
102
}
330
0
100
AcDbSymbolTable
 70
     4
  0
LAYER
  5
10
102
{ACAD_XDICTIONARY
360
BB6
102
}
330
2
100
AcDbSymbolTableRecord
100
AcDbLayerTableRecord
  2
0
 70
     0
 62
     7
  6
Continuous
370
    -3
390
F
  0
LAYER
  5
44
102
{ACAD_XDICTIONARY
360
BB8
102
}
330
2
100
AcDbSymbolTableRecord
100
AcDbLayerTableRecord
  2
FORMAT
 70
     0
 62
     7
  6
Continuous
370
    -3
390
F
  0
LAYER
  5
125
330
2
100
AcDbSymbolTableRecord
100
AcDbLayerTableRecord
  2
Defpoints
 70
     0
 62
     7
  6
Continuous
290
     0
370
    -3
390
F
  0
LAYER
  5
61C
102
{ACAD_XDICTIONARY
360
BBA
102
}
330
2
100
AcDbSymbolTableRecord
100
AcDbLayerTableRecord
  2
DIM
 70
     0
 62
     8
  6
Continuous
370
    -3
390
F
1001
AcAecLayerStandard
1000

1000

  0
ENDTAB
  0
TABLE
  2
STYLE
  5
3
330
0
100
AcDbSymbolTable
 70
     5
  0
STYLE
  5
11
330
3
100
AcDbSymbolTableRecord
100
AcDbTextStyleTableRecord
  2
Standard
 70
     0
 40
0.0
 41
1.0
 50
0.0
 71
     0
 42
0.2
  3
GOTHIC.TTF
  4

1001
ACAD
1000
Century Gothic
1071
       34
  0
STYLE
  5
66
330
3
100
AcDbSymbolTableRecord
100
AcDbTextStyleTableRecord
  2
SLDTEXTSTYLE0
 70
     0
 40
0.0
 41
0.75
 50
0.0
 71
     0
 42
0.2
  3
GOTHIC.TTF
  4

1001
ACAD
1000
Century Gothic
1071
       34
  0
STYLE
  5
6A
330
3
100
AcDbSymbolTableRecord
100
AcDbTextStyleTableRecord
  2
SLDTEXTSTYLE1
 70
     0
 40
0.0
 41
0.6875
 50
0.0
 71
     0
 42
0.2
  3
GOTHIC.TTF
  4

1001
ACAD
1000
Century Gothic
1071
       34
  0
STYLE
  5
412
330
3
100
AcDbSymbolTableRecord
100
AcDbTextStyleTableRecord
  2
style2
 70
     0
 40
0.0
 41
1.0
 50
0.0
 71
     0
 42
0.2
  3

  4

1001
ACAD
1000
Euphemia
1071
       34
  0
STYLE
  5
B37
330
3
100
AcDbSymbolTableRecord
100
AcDbTextStyleTableRecord
  2
style1
 70
     0
 40
0.0
 41
1.0
 50
0.0
 71
     0
 42
0.2
  3

  4

1001
ACAD
1000
@MS PGothic
1071
    32802
  0
ENDTAB
  0
TABLE
  2
VIEW
  5
6
330
0
100
AcDbSymbolTable
 70
     2
  0
ENDTAB
  0
TABLE
  2
UCS
  5
7
330
0
100
AcDbSymbolTable
 70
     0
  0
ENDTAB
  0
TABLE
  2
APPID
  5
9
330
0
100
AcDbSymbolTable
 70
     7
  0
APPID
  5
12
330
9
100
AcDbSymbolTableRecord
100
AcDbRegAppTableRecord
  2
ACAD
 70
     0
  0
APPID
  5
3B8
330
9
100
AcDbSymbolTableRecord
100
AcDbRegAppTableRecord
  2
ACAD_EXEMPT_FROM_CAD_STANDARDS
 70
     0
  0
APPID
  5
413
330
9
100
AcDbSymbolTableRecord
100
AcDbRegAppTableRecord
  2
ACAD_PSEXT
 70
     0
  0
APPID
  5
61D
330
9
100
AcDbSymbolTableRecord
100
AcDbRegAppTableRecord
  2
AcAecLayerStandard
 70
     0
  0
APPID
  5
B19
330
9
100
AcDbSymbolTableRecord
100
AcDbRegAppTableRecord
  2
PE_URL
 70
     0
  0
APPID
  5
BF8
330
9
100
AcDbSymbolTableRecord
100
AcDbRegAppTableRecord
  2
ACAD_MLEADERVER
 70
     0
  0
APPID
  5
104B
330
9
100
AcDbSymbolTableRecord
100
AcDbRegAppTableRecord
  2
ACAD_DSTYLE_DIMRADIAL_EXTENSION
 70
     0
  0
ENDTAB
  0
TABLE
  2
DIMSTYLE
  5
A
330
0
100
AcDbSymbolTable
 70
     2
100
AcDbDimStyleTable
 71
     1
340
27
  0
DIMSTYLE
105
27
102
{ACAD_REACTORS
330
D7D
330
F21
330
F14
330
F07
330
F90
330
F7E
330
F71
330
FF0
330
FE3
330
F64
330
1064
330
104C
330
1058
330
1070
102
}
330
A
100
AcDbSymbolTableRecord
100
AcDbDimStyleTableRecord
  2
Standard
 70
     0
 41
0.07
 42
0.05
 44
0.04
 73
     0
 74
     0
 77
     1
140
0.07
147
0.03
172
     1
271
     3
272
     3
340
11
  0
DIMSTYLE
105
C24
330
A
100
AcDbSymbolTableRecord
100
AcDbDimStyleTableRecord
  2
SLDDIMSTYLE0
 70
     0
 41
0.13
 44
0.0
 78
    12
140
0.125
147
0.03125
173
     1
271
     2
272
     2
284
    12
340
11
  0
ENDTAB
  0
TABLE
  2
BLOCK_RECORD
  5
1
330
0
100
AcDbSymbolTable
 70
    65
  0
BLOCK_RECORD
  5
1F
330
1
100
AcDbSymbolTableRecord
100
AcDbBlockTableRecord
  2
*Model_Space
340
22
  0
BLOCK_RECORD
  5
1B
330
1
100
AcDbSymbolTableRecord
100
AcDbBlockTableRecord
  2
*Paper_Space
340
1E
  0
BLOCK_RECORD
  5
23
330
1
100
AcDbSymbolTableRecord
100
AcDbBlockTableRecord
  2
*Paper_Space0
340
26
  0
BLOCK_RECORD
  5
3F9
330
1
100
AcDbSymbolTableRecord
100
AcDbBlockTableRecord
  2
Block3
340
0
102
{BLKREFS
331
407
102
}
  0
BLOCK_RECORD
  5
405
330
1
100
AcDbSymbolTableRecord
100
AcDbBlockTableRecord
  2
Block2
340
0
102
{BLKREFS
331
44A
102
}
  0
BLOCK_RECORD
  5
409
102
{ACAD_XDICTIONARY
360
40A
102
}
330
1
100
AcDbSymbolTableRecord
100
AcDbBlockTableRecord
  2
amazon
340
0
310
2800000020000000200000000100080000000000000400000000000000000000000000000000000000000000000080000080000000808000800000008000800080800000C0C0C000C0DCC000F0CAA6000020400000206000002080000020A0000020C0000020E00000400000004020000040400000406000004080000040A0
310
000040C0000040E00000600000006020000060400000606000006080000060A0000060C0000060E00000800000008020000080400000806000008080000080A0000080C0000080E00000A0000000A0200000A0400000A0600000A0800000A0A00000A0C00000A0E00000C0000000C0200000C0400000C0600000C0800000C0
310
A00000C0C00000C0E00000E0000000E0200000E0400000E0600000E0800000E0A00000E0C00000E0E00040000000400020004000400040006000400080004000A0004000C0004000E00040200000402020004020400040206000402080004020A0004020C0004020E000404000004040200040404000404060004040800040
310
40A0004040C0004040E00040600000406020004060400040606000406080004060A0004060C0004060E00040800000408020004080400040806000408080004080A0004080C0004080E00040A0000040A0200040A0400040A0600040A0800040A0A00040A0C00040A0E00040C0000040C0200040C0400040C0600040C08000
310
40C0A00040C0C00040C0E00040E0000040E0200040E0400040E0600040E0800040E0A00040E0C00040E0E00080000000800020008000400080006000800080008000A0008000C0008000E00080200000802020008020400080206000802080008020A0008020C0008020E00080400000804020008040400080406000804080
310
008040A0008040C0008040E00080600000806020008060400080606000806080008060A0008060C0008060E00080800000808020008080400080806000808080008080A0008080C0008080E00080A0000080A0200080A0400080A0600080A0800080A0A00080A0C00080A0E00080C0000080C0200080C0400080C0600080C0
310
800080C0A00080C0C00080C0E00080E0000080E0200080E0400080E0600080E0800080E0A00080E0C00080E0E000C0000000C0002000C0004000C0006000C0008000C000A000C000C000C000E000C0200000C0202000C0204000C0206000C0208000C020A000C020C000C020E000C0400000C0402000C0404000C0406000C0
310
408000C040A000C040C000C040E000C0600000C0602000C0604000C0606000C0608000C060A000C060C000C060E000C0800000C0802000C0804000C0806000C0808000C080A000C080C000C080E000C0A00000C0A02000C0A04000C0A06000C0A08000C0A0A000C0A0C000C0A0E000C0C00000C0C02000C0C04000C0C06000
310
C0C08000C0C0A000F0FBFF00A4A0A000808080000000FF0000FF000000FFFF00FF000000FF00FF00FFFF0000FFFFFF0000000000000000000000000000000000000000000000000000000000000000000000000000000000000000000000000000000000000000000000000000000000000000000000000000000000000000
310
00000000000000000000000000000000000000000000000000000000000000000000000000000000000000000000000000000000000000000000000000000000000000000000000000000000000000000000000000000000000000000000000000000000000000000000000000000000000000000000000000000000000000
310
00000000000000000000000000000000000000000000000000000000000000000000000000000000000000000000000000000000000000000000000000000000000000000000000000000000000000000000000000000000000000000000000000000000000000000000000000000000000000000000000000000000000000
310
0000000000000000000000000000000000000000000000000000000000000000000000000000000000000000000000000000000000000000000000000000000000000000000000000000000000000000000000000000000000FFFFFFFFFF00000000000000000000000000000000000000000000000000FFFFFFFFFFFFFFFF
310
00000000000000000000FC00FC0000FCFC00000000FFFFFFFFFFFFFFFFFFFFFFFFFFFFFFFFFCFCFCFCFCFCFCFCFCFCFCFCFC00000000FFFFFFFFFFFFFFFFFFFFFFFFFFFFFFFCFCFC00FCFCFCFC00FCFCFCFC00000000FFFFFFFFFFFFFFFFFFFFFFFFFFFFFFFCFCFC00FCFCFCFCFCFCFCFCFC00000000000000000000000000
310
00000000000000000000000000000000FC0000000000000000000000000000000000000000000000000000000000000000000000000000000000000000000000000000000000000000000000000000000000000000000000000000000000000000000000000000000000000000000000000000000000000000000000000000
310
00000000000000000000000000000000000000000000000000000000000000000000000000000000000000000000000000000000000000000000000000000000000000000000000000000000000000000000000000000000000000000000000000000000000000000000000000000000000000000000000000000000000000
310
00000000000000000000000000000000000000000000000000000000000000000000000000000000000000000000000000000000000000000000000000000000000000000000000000000000000000000000000000000000000000000000000000000000000000000000000000000000000000000000000000000000000000
310
0000000000000000000000000000000000000000000000000000000000000000000000000000000000000000000000000000000000000000
1001
ACAD
1000
DesignCenter Data
1002
{
1070
     1
1070
     1
1002
}
  0
BLOCK_RECORD
  5
B30
330
1
100
AcDbSymbolTableRecord
100
AcDbBlockTableRecord
  2
amazon block
340
0
310
2800000020000000200000000100080000000000000400000000000000000000000000000000000000000000000080000080000000808000800000008000800080800000C0C0C000C0DCC000F0CAA6000020400000206000002080000020A0000020C0000020E00000400000004020000040400000406000004080000040A0
310
000040C0000040E00000600000006020000060400000606000006080000060A0000060C0000060E00000800000008020000080400000806000008080000080A0000080C0000080E00000A0000000A0200000A0400000A0600000A0800000A0A00000A0C00000A0E00000C0000000C0200000C0400000C0600000C0800000C0
310
A00000C0C00000C0E00000E0000000E0200000E0400000E0600000E0800000E0A00000E0C00000E0E00040000000400020004000400040006000400080004000A0004000C0004000E00040200000402020004020400040206000402080004020A0004020C0004020E000404000004040200040404000404060004040800040
310
40A0004040C0004040E00040600000406020004060400040606000406080004060A0004060C0004060E00040800000408020004080400040806000408080004080A0004080C0004080E00040A0000040A0200040A0400040A0600040A0800040A0A00040A0C00040A0E00040C0000040C0200040C0400040C0600040C08000
310
40C0A00040C0C00040C0E00040E0000040E0200040E0400040E0600040E0800040E0A00040E0C00040E0E00080000000800020008000400080006000800080008000A0008000C0008000E00080200000802020008020400080206000802080008020A0008020C0008020E00080400000804020008040400080406000804080
310
008040A0008040C0008040E00080600000806020008060400080606000806080008060A0008060C0008060E00080800000808020008080400080806000808080008080A0008080C0008080E00080A0000080A0200080A0400080A0600080A0800080A0A00080A0C00080A0E00080C0000080C0200080C0400080C0600080C0
310
800080C0A00080C0C00080C0E00080E0000080E0200080E0400080E0600080E0800080E0A00080E0C00080E0E000C0000000C0002000C0004000C0006000C0008000C000A000C000C000C000E000C0200000C0202000C0204000C0206000C0208000C020A000C020C000C020E000C0400000C0402000C0404000C0406000C0
310
408000C040A000C040C000C040E000C0600000C0602000C0604000C0606000C0608000C060A000C060C000C060E000C0800000C0802000C0804000C0806000C0808000C080A000C080C000C080E000C0A00000C0A02000C0A04000C0A06000C0A08000C0A0A000C0A0C000C0A0E000C0C00000C0C02000C0C04000C0C06000
310
C0C08000C0C0A000F0FBFF00A4A0A000808080000000FF0000FF000000FFFF00FF000000FF00FF00FFFF0000FFFFFF0000000000000000000000000000000000000000000000000000000000000000000000000000000000000000000000000000000000000000000000000000000000000000000000000000000000000000
310
00000000000000000000000000000000000000000000000000000000000000000000000000000000000000000000000000000000000000000000000000000000000000000000000000000000000000000000000000000000000000000000000000000000000000000000000000000000000000000000000000000000000000
310
00000000000000000000000000000000000000000000000000000000000000000000000000000000000000000000000000000000000000000000000000000000000000000000000000000000000000000000000000000000000000000000000000000000000000000000000000000000000000000000000000000000000000
310
0000000000000000000000000000000000000000000000000000000000000000000000000000000000000000000000000000000000000000000000000000000000000000000000000000000000000000000000000000000000FFFFFFFFFF00000000000000000000000000000000000000000000000000FFFFFFFFFFFFFFFF
310
00000000000000000000E000E0E000E0E0E0000000FFFFFFFFFFFFFFFFFFFFFFFFFFFFFFFFE0E0E0E0E0E0E0E0E0E0E0E0E000000000FFFFFFFFFFFFFFFFFFFFFFFFFFFFFFE0E0E0E0E0E0E0E0E0E0E0E0E000000000FFFFFFFFFFFFFFFFFFFFFFFFFFFFFFE0E0E0E0E0E0E0E0E0E0E0E0E0E0000000000000000000000000
310
00000000000000000000000000000000E00000000000000000000000000000000000000000000000000000000000000000000000000000000000000000000000000000000000000000000000000000000000000000000000000000000000000000000000000000000000000000000000000000000000000000000000000000
310
00000000000000000000000000000000000000000000000000000000000000000000000000000000000000000000000000000000000000000000000000000000000000000000000000000000000000000000000000000000000000000000000000000000000000000000000000000000000000000000000000000000000000
310
00000000000000000000000000000000000000000000000000000000000000000000000000000000000000000000000000000000000000000000000000000000000000000000000000000000000000000000000000000000000000000000000000000000000000000000000000000000000000000000000000000000000000
310
0000000000000000000000000000000000000000000000000000000000000000000000000000000000000000000000000000000000000000
102
{BLKREFS
331
B40
102
}
1001
ACAD
1000
DesignCenter Data
1002
{
1070
     1
1070
     1
1002
}
  0
BLOCK_RECORD
  5
C0D
330
1
100
AcDbSymbolTableRecord
100
AcDbBlockTableRecord
  2
SW_CENTERMARKSYMBOL_0
340
0
102
{BLKREFS
331
D7E
102
}
  0
BLOCK_RECORD
  5
C18
330
1
100
AcDbSymbolTableRecord
100
AcDbBlockTableRecord
  2
SW_CENTERMARKSYMBOL_1
340
0
102
{BLKREFS
331
D7F
102
}
  0
BLOCK_RECORD
  5
E5F
330
1
100
AcDbSymbolTableRecord
100
AcDbBlockTableRecord
  2
*D9
340
0
  0
BLOCK_RECORD
  5
F08
330
1
100
AcDbSymbolTableRecord
100
AcDbBlockTableRecord
  2
*D10
340
0
  0
BLOCK_RECORD
  5
F15
330
1
100
AcDbSymbolTableRecord
100
AcDbBlockTableRecord
  2
*D11
340
0
  0
BLOCK_RECORD
  5
F22
330
1
100
AcDbSymbolTableRecord
100
AcDbBlockTableRecord
  2
*D12
340
0
  0
BLOCK_RECORD
  5
F65
330
1
100
AcDbSymbolTableRecord
100
AcDbBlockTableRecord
  2
*D13
340
0
  0
BLOCK_RECORD
  5
F72
330
1
100
AcDbSymbolTableRecord
100
AcDbBlockTableRecord
  2
*D14
340
0
  0
BLOCK_RECORD
  5
F7F
330
1
100
AcDbSymbolTableRecord
100
AcDbBlockTableRecord
  2
*D15
340
0
  0
BLOCK_RECORD
  5
F91
330
1
100
AcDbSymbolTableRecord
100
AcDbBlockTableRecord
  2
*D16
340
0
  0
BLOCK_RECORD
  5
FE4
330
1
100
AcDbSymbolTableRecord
100
AcDbBlockTableRecord
  2
*D17
340
0
  0
BLOCK_RECORD
  5
FF1
330
1
100
AcDbSymbolTableRecord
100
AcDbBlockTableRecord
  2
*D18
340
0
  0
BLOCK_RECORD
  5
104D
330
1
100
AcDbSymbolTableRecord
100
AcDbBlockTableRecord
  2
*D19
340
0
  0
BLOCK_RECORD
  5
1059
330
1
100
AcDbSymbolTableRecord
100
AcDbBlockTableRecord
  2
*D20
340
0
  0
BLOCK_RECORD
  5
1065
330
1
100
AcDbSymbolTableRecord
100
AcDbBlockTableRecord
  2
*D21
340
0
  0
BLOCK_RECORD
  5
1071
330
1
100
AcDbSymbolTableRecord
100
AcDbBlockTableRecord
  2
*D22
340
0
  0
ENDTAB
  0
ENDSEC
  0
SECTION
  2
BLOCKS
  0
BLOCK
  5
20
330
1F
100
AcDbEntity
  8
0
100
AcDbBlockBegin
  2
*Model_Space
 70
     0
 10
0.0
 20
0.0
 30
0.0
  3
*Model_Space
  1

  0
ENDBLK
  5
21
330
1F
100
AcDbEntity
  8
0
100
AcDbBlockEnd
  0
BLOCK
  5
1C
330
1B
100
AcDbEntity
 67
     1
  8
0
100
AcDbBlockBegin
  2
*Paper_Space
 70
     0
 10
0.0
 20
0.0
 30
0.0
  3
*Paper_Space
  1

  0
ENDBLK
  5
1D
330
1B
100
AcDbEntity
 67
     1
  8
0
100
AcDbBlockEnd
  0
BLOCK
  5
24
330
23
100
AcDbEntity
 67
     1
  8
0
100
AcDbBlockBegin
  2
*Paper_Space0
 70
     0
 10
0.0
 20
0.0
 30
0.0
  3
*Paper_Space0
  1

  0
ENDBLK
  5
25
330
23
100
AcDbEntity
 67
     1
  8
0
100
AcDbBlockEnd
  0
BLOCK
  5
3FA
330
3F9
100
AcDbEntity
  8
0
100
AcDbBlockBegin
  2
Block3
 70
     0
 10
0.0
 20
0.0
 30
0.0
  3
Block3
  1

  0
CIRCLE
  5
3FB
330
3F9
100
AcDbEntity
  8
FORMAT
 62
     7
370
    15
100
AcDbCircle
 10
9.623096090023436
 20
2.115622186524885
 30
0.0
 40
0.0998031496062924
  0
CIRCLE
  5
3FC
330
3F9
100
AcDbEntity
  8
FORMAT
 62
     7
370
    15
100
AcDbCircle
 10
9.623096090023436
 20
2.115622186524885
 30
0.0
 40
0.1996062992125948
  0
LINE
  5
3FD
330
3F9
100
AcDbEntity
  8
FORMAT
 62
     7
370
    15
100
AcDbLine
 10
10.05890680910872
 20
2.020396293772344
 30
0.0
 11
10.05890680910872
 21
2.210848079277426
 31
0.0
  0
LINE
  5
3FE
330
3F9
100
AcDbEntity
  8
FORMAT
 62
     7
370
    15
100
AcDbLine
 10
10.05890680910872
 20
2.210848079277426
 30
0.0
 11
10.55986477488565
 21
2.315228485737483
 31
0.0
  0
LINE
  5
3FF
330
3F9
100
AcDbEntity
  8
FORMAT
 62
     7
370
    15
100
AcDbLine
 10
10.55986477488565
 20
2.315228485737483
 30
0.0
 11
10.55986477488565
 21
1.916015887312285
 31
0.0
  0
LINE
  5
400
330
3F9
100
AcDbEntity
  8
FORMAT
 62
     7
370
    15
100
AcDbLine
 10
10.55986477488565
 20
1.916015887312285
 30
0.0
 11
10.05890680910872
 21
2.020396293772344
 31
0.0
  0
LINE
  5
401
330
3F9
100
AcDbEntity
  8
FORMAT
 62
     7
370
    15
100
AcDbLine
 10
9.987169396213419
 20
2.115622186524885
 30
0.0
 11
10.59626953693931
 21
2.115622186524885
 31
0.0
  0
LINE
  5
402
330
3F9
100
AcDbEntity
  8
FORMAT
 62
     7
370
    15
100
AcDbLine
 10
9.368122674365656
 20
2.115622186524885
 30
0.0
 11
9.87806950568121
 21
2.115622186524885
 31
0.0
  0
LINE
  5
403
330
3F9
100
AcDbEntity
  8
FORMAT
 62
     7
370
    15
100
AcDbLine
 10
9.623096090023436
 20
1.872691387914879
 30
0.0
 11
9.623096090023436
 21
2.382638219230431
 31
0.0
  0
ENDBLK
  5
404
330
3F9
100
AcDbEntity
  8
0
100
AcDbBlockEnd
  0
BLOCK
  5
406
330
405
100
AcDbEntity
  8
0
100
AcDbBlockBegin
  2
Block2
 70
     0
 10
0.0
 20
0.0
 30
0.0
  3
Block2
  1

  0
INSERT
  5
407
330
405
100
AcDbEntity
  8
0
  6
Continuous
 62
     7
100
AcDbBlockReference
  2
Block3
 10
-0.0282699124868556
 20
0.0201145539810274
 30
0.0
  0
ENDBLK
  5
408
330
405
100
AcDbEntity
  8
0
100
AcDbBlockEnd
  0
BLOCK
  5
40C
330
409
100
AcDbEntity
  8
0
100
AcDbBlockBegin
  2
amazon
 70
     0
 10
0.0
 20
0.0
 30
0.0
  3
amazon
  1

  0
HATCH
  5
40D
330
409
100
AcDbEntity
  8
0
100
AcDbHatch
 10
0.0
 20
0.0
 30
0.0
210
0.0
220
0.0
230
0.9999999999999998
  2
SOLID
 70
     1
 71
     0
 91
        1
 92
        5
 93
        1
 72
     4
 94
        3
 73
     0
 74
     0
 95
       18
 96
       14
 40
0.0
 40
0.0
 40
0.0
 40
0.0
 40
0.0596755466403443
 40
0.1035834707990989
 40
0.1695571134872838
 40
0.2000964637947284
 40
0.2237461165360023
 40
0.2565225897680324
 40
0.2756876256135649
 40
0.3018435697278741
 40
0.3302551352352805
 40
0.3457181605243852
 40
0.3618589112597388
 40
0.3618589112597388
 40
0.3618589112597388
 40
0.3618589112597388
 10
0.9280407135556529
 20
0.3678371450737368
 10
1.014164084729102
 20
0.3851494268204694
 10
1.144945011486449
 20
0.4024842103214663
 10
1.481904894757406
 20
0.3990648758382389
 10
1.309526957346704
 20
0.1657833910269666
 10
1.071996456892463
 20
0.0025828528301117
 10
1.213429780952147
 20
0.147260900816045
 10
1.269689397936616
 20
0.2055836989094448
 10
1.328770741103362
 20
0.3426132943554165
 10
1.182110533057802
 20
0.3629915346337151
 10
1.077363991359149
 20
0.3586993230536737
 10
1.01802908590988
 20
0.3618658313307459
 10
0.904746484263093
 20
0.3631546035627498
 10
0.9280407135556529
 20
0.3678371450737368
 97
        0
 75
     0
 76
     1
 47
0.0083360314226261
 98
        1
 10
1.350036184717041
 20
0.3275823953230534
450
        0
451
        0
460
0.0
461
0.0
452
        0
462
0.0
453
        0
470

1001
ACAD
1010
0.0
1020
0.0
1030
0.0
  0
HATCH
  5
40E
330
409
100
AcDbEntity
  8
0
100
AcDbHatch
 10
0.0
 20
0.0
 30
0.0
210
0.0
220
0.0
230
0.9999999999999998
  2
SOLID
 70
     1
 71
     0
 91
        9
 92
        7
 72
     1
 73
     1
 93
       20
 10
-1.397399278738596
 20
0.888299103756417
 42
0.0
 10
-1.517557092146972
 20
0.8521069912840207
 42
0.0
 10
-1.634457615432786
 20
0.8260486703038981
 42
0.113500075695427
 10
-1.796297882939342
 20
0.77249506361993
 42
0.335029435887297
 10
-1.882119182302076
 20
0.5660893728218724
 42
0.2523749963765925
 10
-1.737967057103837
 20
0.4398788302234422
 42
0.1008759599722844
 10
-1.585598263595066
 20
0.4319165654795154
 42
0.1558313267708922
 10
-1.397230403062579
 20
0.516966153393244
 42
0.0
 10
-1.397399278738596
 20
0.5017673425512395
 42
0.1600174655974661
 10
-1.372064800007926
 20
0.4395169090987201
 42
0.0
 10
-1.217886400875514
 20
0.4395169090987201
 42
-0.1096578030042886
 10
-1.250459302100694
 20
0.4735374948229208
 42
-0.1371553684281488
 10
-1.269279200586318
 20
0.540854824021424
 42
0.0
 10
-1.269279200586318
 20
0.9244912162288137
 42
0.267077244638994
 10
-1.391608540743007
 20
1.084460353356798
 42
0.1085027846705916
 10
-1.618171164820246
 20
1.110518674336923
 42
0.3343505200399534
 10
-1.854867580389672
 20
0.9063951599926172
 42
0.0
 10
-1.71371834174733
 20
0.9063951599926172
 42
-0.2815324590939715
 10
-1.623703637535193
 20
0.9970774848409384
 42
-0.1775171235246243
 10
-1.454582816445004
 20
0.984570122933
 42
-0.2483479329952881
 97
        0
 92
       22
 72
     1
 73
     1
 93
        8
 10
-1.397399278738596
 20
0.7768273973414295
 42
0.0
 10
-1.397399278738596
 20
0.658841110681435
 42
-0.2004737922071577
 10
-1.563882996111615
 20
0.5415786662708722
 42
-0.1115040980661369
 10
-1.686936178517754
 20
0.5404929028967014
 42
-0.2738586692622027
 10
-1.742672031725241
 20
0.6002098884761536
 42
-0.289643054085014
 10
-1.707203761502306
 20
0.6928616964054842
 42
-0.1190249358109779
 10
-1.625409587314685
 20
0.7261584398800891
 42
-0.0006545690929014
 10
-1.500908720409647
 20
0.7514929186107651
 42
0.031014715336947
 97
        0
 92
        7
 72
     1
 73
     1
 93
       27
 10
-1.062984159493659
 20
0.4395169090987201
 42
0.0
 10
-0.9348640813413879
 20
0.4395169090987201
 42
0.0
 10
-0.9348640813413879
 20
0.8535546757829193
 42
-0.1716644096531924
 10
-0.8769567013855592
 20
0.9534449062067299
 42
-0.1448545784781812
 10
-0.7799618399595332
 20
0.9997708101713946
 42
-0.1340090766267909
 10
-0.6862242686560336
 20
0.9885512553049524
 42
-0.2563461470910333
 10
-0.6192688605821033
 20
0.8998805797475881
 42
0.0
 10
-0.6192688605821033
 20
0.4395169090987201
 42
0.0
 10
-0.4904249401803611
 20
0.4395169090987201
 42
0.0
 10
-0.4904249401803753
 20
0.8641979875178154
 42
-0.1830801363087423
 10
-0.4212980053581035
 20
0.9621310132001053
 42
-0.1206854715101709
 10
-0.3311796453018374
 20
0.9975992834230517
 42
-0.2157527517618656
 10
-0.216674861049178
 20
0.9774303127070119
 42
-0.2679983488848178
 10
-0.1748297194210906
 20
0.9063951599927708
 42
0.0
 10
-0.1748297194210977
 20
0.4395169090987201
 42
0.0
 10
-0.0467096412688122
 20
0.4395169090987201
 42
0.0
 10
-0.0467096412688122
 20
0.9063951599926172
 42
0.0
 10
-0.0467096412688122
 20
0.9360726922199805
 42
0.2784603970195297
 10
-0.1675912969266093
 20
1.094594144849069
 42
0.1495326253440701
 10
-0.3521710705358245
 20
1.102556409592997
 42
0.1796241607690637
 10
-0.5034541006704388
 20
0.9896370186791244
 42
0.1190036376854939
 10
-0.5809052213613626
 20
1.073602719615081
 42
0.1510696384071214
 10
-0.753179676729971
 20
1.112690201085266
 42
0.122416550902687
 10
-0.8494506959065404
 20
1.081564984359008
 42
0.0903817772246913
 10
-0.9348640813413879
 20
1.001218494670287
 42
0.0
 10
-0.9348640813413879
 20
1.101108725094101
 42
0.0
 10
-1.062984159493659
 20
1.101108725094101
 42
0.0
 97
        0
 92
        7
 72
     1
 73
     1
 93
       20
 10
0.1120662149268909
 20
0.5660893728218764
 42
0.2523749963765703
 10
0.256218340125109
 20
0.4398788302234467
 42
0.100875959972303
 10
0.4085871336339224
 20
0.4319165654795159
 42
0.1558313267708855
 10
0.5969549941663886
 20
0.516966153393244
 42
0.0
 10
0.5967861184903711
 20
0.5017673425512395
 42
0.1600174655974661
 10
0.6221205972210555
 20
0.4395169090987201
 42
0.0
 10
0.7762989963534466
 20
0.4395169090987201
 42
-0.1096578030036369
 10
0.7437260951284089
 20
0.4735374948226645
 42
-0.1371553684287215
 10
0.7249061966426496
 20
0.540854824021424
 42
0.0
 10
0.7249061966426496
 20
0.9244912162288137
 42
0.2670772446390557
 10
0.6025768564859249
 20
1.084460353356814
 42
0.1085027846705556
 10
0.3760142324087567
 20
1.110518674336923
 42
0.3343505200399825
 10
0.1393178168393021
 20
0.9063951599926172
 42
0.0
 10
0.2804670554816368
 20
0.9063951599926172
 42
-0.2815324590939487
 10
0.370481759693746
 20
0.9970774848409313
 42
-0.1775171235246857
 10
0.539602580783992
 20
0.9845701229329858
 42
-0.2483479329952225
 10
0.5967861184903711
 20
0.888299103756417
 42
0.0
 10
0.4766283050820306
 20
0.8521069912840264
 42
0.0
 10
0.359727781796181
 20
0.8260486703038981
 42
0.113500075695427
 10
0.1978875142896257
 20
0.77249506361993
 42
0.335029435887291
 97
        0
 92
       22
 72
     1
 73
     1
 93
        8
 10
0.2869816357266757
 20
0.6928616964054842
 42
-0.1190249358109779
 10
0.3687758099142826
 20
0.7261584398800891
 42
-0.0006545690929014
 10
0.4932766768193205
 20
0.7514929186107651
 42
0.0310147153369478
 10
0.5967861184903711
 20
0.7768273973414419
 42
0.0
 10
0.5967861184903711
 20
0.658841110681435
 42
-0.2004737922071577
 10
0.430302401117352
 20
0.5415786662708722
 42
-0.1115040980661369
 10
0.3072492187112061
 20
0.5404929028967014
 42
-0.2738586692622027
 10
0.251513365503726
 20
0.6002098884761536
 42
-0.289643054085014
 97
        0
 92
        7
 72
     1
 73
     1
 93
       10
 10
1.490731296558529
 20
0.9717250567569255
 42
0.0
 10
1.490731296558529
 20
1.101108725094102
 42
0.0
 10
0.9246866574902696
 20
1.101108725094102
 42
0.0
 10
0.9246866574902767
 20
0.9648744605637409
 42
0.0
 10
1.298313112053691
 20
0.9648744605637409
 42
0.0
 10
0.8993521787595994
 20
0.5408548240214275
 42
0.0
 10
0.8993521787595994
 20
0.4395169090987241
 42
-0.1473109550280885
 10
1.52402804003313
 20
0.4395169090987184
 42
0.0
 10
1.52402804003313
 20
0.581774738538516
 42
0.0747823019347494
 10
1.16328520907988
 20
0.6214717791056393
 42
0.0
 97
        0
 92
        7
 72
     1
 73
     1
 93
        2
 10
1.658662698430447
 20
0.7829800564617493
 42
1.0
 10
2.353551257900427
 20
0.7829800564617493
 42
1.0
 97
        0
 92
       22
 72
     1
 73
     1
 93
        2
 10
2.212041370259932
 20
0.7829800564617493
 42
-1.0
 10
1.800172586070949
 20
0.7829800564617493
 42
-1.0
 97
        0
 92
        7
 72
     1
 73
     1
 93
       15
 10
2.520758817522896
 20
0.4395169090987201
 42
0.0
 10
2.649602737924617
 20
0.4395169090987201
 42
0.0
 10
2.649602737924617
 20
0.7753797128425455
 42
-0.1884880930389393
 10
2.726330016366098
 20
0.9404157457166672
 42
-0.0825504763720134
 10
2.808124190553712
 20
1.002666179169187
 42
-0.1879859195515259
 10
2.9333488997082
 20
1.010628443913113
 42
-0.3400688989443128
 10
3.022381496390295
 20
0.8948632846375158
 42
0.0
 10
3.022381496390295
 20
0.4395169090987201
 42
0.0
 10
3.151225416792009
 20
0.4395169090987201
 42
0.0
 10
3.151225416792023
 20
0.9382442189683235
 42
0.3709832727766776
 10
2.952118968473769
 20
1.109868265359158
 42
0.160618198198489
 10
2.773379762580219
 20
1.083012668857902
 42
0.0920112842116662
 10
2.649602737924617
 20
0.9831224384341012
 42
0.0
 10
2.649602737924631
 20
1.101108725094101
 42
0.0
 10
2.520758817522896
 20
1.1011087250941
 42
0.0
 97
        0
 75
     0
 76
     1
 47
0.0079344138681199
 98
        9
 10
-1.376638647914745
 20
0.8943652481782571
 10
-1.376638647914745
 20
0.8943652481782571
 10
-1.008011843667617
 20
0.7810537369378041
 10
0.2295103337683244
 20
0.706616395506853
 10
0.2295103337683244
 20
0.706616395506853
 10
1.173803717490862
 20
0.7215039733471374
 10
1.736822720547962
 20
0.9152585806937842
 10
1.736822720547962
 20
0.9152585806937842
 10
2.581717008623201
 20
0.8854836988984509
450
        0
451
        0
460
0.0
461
0.0
452
        0
462
0.0
453
        0
470

1001
ACAD
1010
0.0
1020
0.0
1030
0.0
  0
TEXT
  5
40F
330
409
100
AcDbEntity
  8
0
 62
   150
100
AcDbText
 10
3.411151618523078
 20
0.4239129498757777
 30
0.0
 40
1.05
  1
supply
 41
1.08
  7
style2
100
AcDbText
  0
HATCH
  5
410
330
409
100
AcDbEntity
  8
0
100
AcDbHatch
 10
0.0
 20
0.0
 30
0.0
210
0.0
220
0.0
230
0.9999999999999998
  2
SOLID
 70
     1
 71
     0
 91
        1
 92
        7
 72
     1
 73
     1
 93
        2
 10
-1.177902949885989
 20
0.4051926481048067
 42
0.3081272588713221
 10
1.212164975232198
 20
0.2933070771634125
 42
-0.177724595219735
 97
        0
 75
     0
 76
     1
 47
0.0009928164167271
 98
        1
 10
0.1755697210077258
 20
0.0593374821502257
450
        0
451
        0
460
0.0
461
0.0
452
        0
462
0.0
453
        0
470

1001
ACAD
1010
0.0
1020
0.0
1030
0.0
  0
ENDBLK
  5
411
330
409
100
AcDbEntity
  8
0
100
AcDbBlockEnd
  0
BLOCK
  5
B31
330
B30
100
AcDbEntity
  8
0
100
AcDbBlockBegin
  2
amazon block
 70
     0
 10
0.0
 20
0.0
 30
0.0
  3
amazon block
  1

  0
HATCH
  5
B32
330
B30
100
AcDbEntity
  8
0
100
AcDbHatch
 10
0.0
 20
0.0
 30
0.0
210
0.0
220
0.0
230
1.0
  2
SOLID
 70
     1
 71
     0
 91
        1
 92
        7
 72
     1
 73
     1
 93
        2
 10
0.1428560650202613
 20
0.0268249692297831
 42
0.3005568377796329
 10
0.6100026189360293
 20
0.0009915743964171
 42
-0.1486648242730099
 97
        0
 75
     0
 76
     1
 47
0.0083360314226261
 98
        1
 10
0.3681872109149253
 20
-0.0332769951503647
450
        0
451
        0
460
0.0
461
0.0
452
        0
462
0.0
453
        0
470

1001
ACAD
1010
0.0
1020
0.0
1030
0.0
  0
HATCH
  5
B33
330
B30
100
AcDbEntity
  8
0
100
AcDbHatch
 10
0.0
 20
0.0
 30
0.0
210
0.0
220
0.0
230
1.0
  2
SOLID
 70
     1
 71
     0
 91
        1
 92
        5
 93
        1
 72
     4
 94
        3
 73
     0
 74
     0
 95
       18
 96
       14
 40
0.0
 40
0.0
 40
0.0
 40
0.0
 40
0.3060284443094571
 40
0.531197286149225
 40
0.8695236589091486
 40
1.026135711767838
 40
1.14741598223591
 40
1.315500460348882
 40
1.413679231894078
 40
1.543957423309552
 40
1.719337158993241
 40
1.76919128251474
 40
1.852441399548553
 40
1.852441399548553
 40
1.852441399548553
 40
1.852441399548553
 10
0.5476248318910955
 20
0.0189472839500944
 10
0.5671265702171127
 20
0.0228674694218305
 10
0.5967407336623403
 20
0.0267937023518194
 10
0.6730410215606746
 20
0.0260155775369224
 10
0.6340109953118472
 20
-0.0267925718215847
 10
0.5802183818763105
 20
-0.0637796196110996
 10
0.6122605658026537
 20
-0.030937261100445
 10
0.624929189918916
 20
-0.0180757154749651
 10
0.6383573330340191
 20
0.013562833138125
 10
0.6020518241954172
 20
0.0146147000415664
 10
0.5794789444548947
 20
0.0158864032827642
 10
0.5641956865595646
 20
0.0167018526831093
 10
0.5423196975867733
 20
0.017880860532975
 10
0.5476248318910955
 20
0.0189472839500944
 97
        0
 75
     0
 76
     1
 47
0.0083360314226261
 98
        1
 10
0.644363460657651
 20
0.0075847933888076
450
        0
451
        0
460
0.0
461
0.0
452
        0
462
0.0
453
        0
470

1001
ACAD
1010
0.0
1020
0.0
1030
0.0
  0
HATCH
  5
B34
330
B30
100
AcDbEntity
  8
0
100
AcDbHatch
 10
0.0
 20
0.0
 30
0.0
210
0.0
220
0.0
230
1.0
  2
SOLID
 70
     1
 71
     0
 91
        9
 92
        7
 72
     1
 73
     1
 93
       20
 10
0.1000542808940033
 20
0.1169245515333142
 42
0.0
 10
0.076623507279372
 20
0.1098670896011966
 42
0.0
 10
0.0538279052386379
 20
0.1047857170100728
 42
0.113500075695427
 10
0.0222690530748579
 20
0.0943427637066989
 42
0.335029435887297
 10
0.0055338996991239
 20
0.0540936540010777
 42
0.2523749963765925
 10
0.0336435641127828
 20
0.0294825981943836
 42
0.1008759599722844
 10
0.0633554788469937
 20
0.0279299565693179
 42
0.1558313267708922
 10
0.1000872116508269
 20
0.0445146262124951
 42
0.0
 10
0.1000542808940033
 20
0.0415508580983044
 42
0.1600174655974661
 10
0.1049945042464841
 20
0.029412023575063
 42
0.0
 10
0.1350592920773046
 20
0.029412023575063
 42
-0.1096578030042886
 10
0.128707576338396
 20
0.0360460377912819
 42
-0.1371553684281488
 10
0.125037696133699
 20
0.0491729169849902
 42
0.0
 10
0.125037696133699
 20
0.1239820134654312
 42
0.267077244638994
 10
0.1011834748031433
 20
0.1551759952053882
 42
0.1085027846705916
 10
0.0570037631080815
 20
0.1602573677965124
 42
0.3343505200399534
 10
0.0108479620720452
 20
0.1204532824993727
 42
0.0
 10
0.0383720636073015
 20
0.1204532824993727
 42
-0.2815324590939715
 10
0.0559249309286685
 20
0.1381363358447958
 42
-0.1775171235246243
 10
0.0889034910412541
 20
0.1356974002727478
 42
-0.2483479329952881
 97
        0
 92
       22
 72
     1
 73
     1
 93
        8
 10
0.1000542808940033
 20
0.0951875687823911
 42
0.0
 10
0.1000542808940033
 20
0.0721802428836922
 42
-0.2004737922071577
 10
0.0675899560062661
 20
0.0493140662236327
 42
-0.1115040980661369
 10
0.0435945854370701
 20
0.0491023423656691
 42
-0.2738586692622027
 10
0.0327260940616085
 20
0.0607471545536624
 42
-0.289643054085014
 10
0.0396424067550818
 20
0.0788142570998818
 42
-0.1190249358109779
 10
0.0555922707216681
 20
0.0853071220774298
 42
-0.0006545690929014
 10
0.0798699397681482
 20
0.090247345429912
 42
0.031014715336947
 97
        0
 92
        7
 72
     1
 73
     1
 93
       27
 10
0.1652652291467689
 20
0.029412023575063
 42
0.0
 10
0.190248644386461
 20
0.029412023575063
 42
0.0
 10
0.190248644386461
 20
0.1101493880784821
 42
-0.1716644096531924
 10
0.201540583477847
 20
0.1296279830111251
 42
-0.1448545784781812
 10
0.2204545814559218
 20
0.1386615342842345
 42
-0.1340090766267909
 10
0.2387334078601029
 20
0.1364737210852782
 42
-0.2563461470910333
 10
0.251789712434519
 20
0.1191829393515924
 42
0.0
 10
0.251789712434519
 20
0.029412023575063
 42
0.0
 10
0.2769142769128621
 20
0.029412023575063
 42
0.0
 10
0.2769142769128585
 20
0.1122248338667866
 42
-0.1830801363087423
 10
0.290394029203199
 20
0.1313217738748333
 42
-0.1206854715101709
 10
0.3079671094141716
 20
0.1382380865683075
 42
-0.2157527517618656
 10
0.3302955423434426
 20
0.1343051372786799
 42
-0.2679983488848178
 10
0.33845534496092
 20
0.1204532824994029
 42
0.0
 10
0.3384553449609164
 20
0.029412023575063
 42
0.0
 10
0.3634387602006122
 20
0.029412023575063
 42
0.0
 10
0.3634387602006122
 20
0.1204532824993727
 42
0.0
 10
0.3634387602006122
 20
0.1262404012837086
 42
0.2784603970195297
 10
0.3398668373473406
 20
0.1571520845463814
 42
0.1495326253440701
 10
0.3038737814935466
 20
0.1587047261714471
 42
0.1796241607690637
 10
0.2743735906172944
 20
0.1366854449432417
 42
0.1190036376854939
 10
0.259270622082564
 20
0.1530587566257537
 42
0.1510696384071214
 10
0.2256771032856868
 20
0.1606808155124395
 42
0.122416550902687
 10
0.2069042545462558
 20
0.154611398250819
 42
0.0903817772246913
 10
0.190248644386461
 20
0.1389438327615187
 42
0.0
 10
0.190248644386461
 20
0.1584224276941626
 42
0.0
 10
0.1652652291467689
 20
0.1584224276941626
 42
0.0
 97
        0
 92
        7
 72
     1
 73
     1
 93
       20
 10
0.394400052158776
 20
0.0540936540010786
 42
0.2523749963765703
 10
0.4225097165724279
 20
0.0294825981943845
 42
0.100875959972303
 10
0.4522216313066459
 20
0.0279299565693183
 42
0.1558313267708855
 10
0.4889533641104756
 20
0.0445146262124951
 42
0.0
 10
0.4889204333536519
 20
0.0415508580983044
 42
0.1600174655974661
 10
0.4938606567061364
 20
0.029412023575063
 42
0.0
 10
0.5239254445369533
 20
0.029412023575063
 42
-0.1096578030036369
 10
0.5175737287980695
 20
0.0360460377912322
 42
-0.1371553684287215
 10
0.5139038485933476
 20
0.0491729169849902
 42
0.0
 10
0.5139038485933476
 20
0.1239820134654312
 42
0.2670772446390557
 10
0.4900496272627848
 20
0.1551759952053913
 42
0.1085027846705556
 10
0.4458699155677373
 20
0.1602573677965129
 42
0.3343505200399825
 10
0.3997141145316938
 20
0.1204532824993727
 42
0.0
 10
0.4272382160669502
 20
0.1204532824993727
 42
-0.2815324590939487
 10
0.44479108338831
 20
0.138136335844794
 42
-0.1775171235246857
 10
0.4777696435009098
 20
0.1356974002727447
 42
-0.2483479329952225
 10
0.4889204333536519
 20
0.1169245515333142
 42
0.0
 10
0.4654896597390277
 20
0.1098670896011979
 42
0.0
 10
0.4426940576982866
 20
0.1047857170100728
 42
0.113500075695427
 10
0.4111352055345066
 20
0.0943427637066989
 42
0.335029435887291
 97
        0
 92
       22
 72
     1
 73
     1
 93
        8
 10
0.428508559214734
 20
0.0788142570998818
 42
-0.1190249358109779
 10
0.4444584231813167
 20
0.0853071220774298
 42
-0.0006545690929014
 10
0.4687360922277968
 20
0.090247345429912
 42
0.0310147153369478
 10
0.4889204333536519
 20
0.0951875687823938
 42
0.0
 10
0.4889204333536519
 20
0.0721802428836922
 42
-0.2004737922071577
 10
0.4564561084659147
 20
0.0493140662236327
 42
-0.1115040980661369
 10
0.4324607378967152
 20
0.0491023423656691
 42
-0.2738586692622027
 10
0.4215922465212572
 20
0.0607471545536624
 42
-0.289643054085014
 97
        0
 92
        7
 72
     1
 73
     1
 93
       10
 10
0.663239743076943
 20
0.1331926123684131
 42
0.0
 10
0.663239743076943
 20
0.1584224276941626
 42
0.0
 10
0.5528610384586337
 20
0.1584224276941626
 42
0.0
 10
0.5528610384586337
 20
0.131856746110742
 42
0.0
 10
0.6257181970985002
 20
0.131856746110742
 42
0.0
 10
0.5479208151061528
 20
0.0491729169849911
 42
0.0
 10
0.5479208151061528
 20
0.0294120235750635
 42
-0.1473109550280885
 10
0.6697326080544919
 20
0.0294120235750626
 42
0.0
 10
0.6697326080544919
 20
0.0571523003158232
 42
0.0747823019347494
 10
0.5993877560186079
 20
0.0648932232264121
 42
0.0
 97
        0
 92
        7
 72
     1
 73
     1
 93
        2
 10
0.6959863664419679
 20
0.0963873373108535
 42
1.0
 10
0.8314896355386132
 20
0.0963873373108535
 42
1.0
 97
        0
 92
       22
 72
     1
 73
     1
 93
        2
 10
0.8038952074487184
 20
0.0963873373108535
 42
-1.0
 10
0.7235807945318662
 20
0.0963873373108535
 42
-1.0
 97
        0
 92
        7
 72
     1
 73
     1
 93
       15
 10
0.8640951096649978
 20
0.029412023575063
 42
0.0
 10
0.8892196741433302
 20
0.029412023575063
 42
0.0
 10
0.8892196741433302
 20
0.0949052703051088
 42
-0.1884880930389393
 10
0.9041814934394203
 20
0.1270872967155627
 42
-0.0825504763720134
 10
0.9201313574060066
 20
0.1392261312388041
 42
-0.1879859195515259
 10
0.9445501756911305
 20
0.1407787728638694
 42
-0.3400688989443128
 10
0.9619115320441373
 20
0.1182045668051281
 42
0.0
 10
0.9619115320441373
 20
0.029412023575063
 42
0.0
 10
0.9870360965224733
 20
0.029412023575063
 42
0.0
 10
0.9870360965224769
 20
0.1266638489996357
 42
0.3709832727766776
 10
0.9482103391004166
 20
0.1601305380458484
 42
0.160618198198489
 10
0.9133561939511736
 20
0.1548936967281036
 42
0.0920112842116662
 10
0.8892196741433302
 20
0.1354151017954623
 42
0.0
 10
0.8892196741433338
 20
0.1584224276941626
 42
0.0
 10
0.8640951096649978
 20
0.1584224276941621
 42
0.0
 97
        0
 75
     0
 76
     1
 47
0.0079344138681199
 98
        9
 10
0.1041026039046571
 20
0.1181074496955725
 10
0.1041026039046571
 20
0.1181074496955725
 10
0.175984830732844
 20
0.0960117050036842
 10
0.4173016553328531
 20
0.0814964234246487
 10
0.4173016553328531
 20
0.0814964234246487
 10
0.6014388651587482
 20
0.0843995011035044
 10
0.7112275707548826
 20
0.1221816495361003
 10
0.7112275707548826
 20
0.1221816495361003
 10
0.8759819569295572
 20
0.1163755475860104
450
        0
451
        0
460
0.0
461
0.0
452
        0
462
0.0
453
        0
470

1001
ACAD
1010
0.0
1020
0.0
1030
0.0
  0
HATCH
  5
B35
330
B30
100
AcDbEntity
  8
0
 62
   150
100
AcDbHatch
 10
0.0
 20
0.0
 30
0.0
210
0.0
220
0.0
230
1.0
  2
SOLID
 70
     1
 71
     0
 91
        8
 92
        7
 72
     1
 73
     1
 93
       22
 10
1.131716859301388
 20
0.0982802106585603
 42
0.0484183422992068
 10
1.088571435005292
 20
0.1135920246412381
 42
-0.1024497749852004
 10
1.063583383368957
 20
0.125237861247649
 42
-0.5197370575112227
 10
1.065952625421378
 20
0.1500864950045506
 42
-0.1784163181567931
 10
1.097462280584622
 20
0.1562497626075707
 42
-0.1611556671223822
 10
1.130948711999153
 20
0.1417059730721331
 42
0.0
 10
1.143877562730139
 20
0.1560685971400009
 42
0.0879608039459819
 10
1.125754289819187
 20
0.1671964668262178
 42
0.096844267443967
 10
1.086490181797579
 20
0.1727441735534061
 42
0.1289645081611661
 10
1.053342092127955
 20
0.1633533786648891
 42
0.2520599057044872
 10
1.037629278411372
 20
0.1399706628121899
 42
0.2998873610886212
 10
1.050463850241648
 20
0.1096908005921695
 42
0.087968247036807
 10
1.088782354168369
 20
0.0932096049078468
 42
-0.0908267507933147
 10
1.119928772767817
 20
0.0811747820304691
 42
-0.4466858316882535
 10
1.125453128485816
 20
0.0540976492614389
 42
-0.2058443735084833
 10
1.094059901125532
 20
0.0433269295271455
 42
-0.2322683613354944
 10
1.04833474053288
 20
0.0635860005622337
 42
0.0
 10
1.033442870302863
 20
0.0487121861500608
 42
0.0897498636939959
 10
1.054992265021407
 20
0.0336893058402592
 42
0.1162784600455089
 10
1.100093060274716
 20
0.0271838680846326
 42
0.1305494116801128
 10
1.134902795650507
 20
0.0379471166909786
 42
0.2700443324603339
 10
1.150563716135536
 20
0.0687356163070478
 42
0.2747552069495999
 97
        0
 92
        7
 72
     1
 73
     1
 93
       17
 10
1.204964925758659
 20
0.0711619205531866
 42
0.0
 10
1.204964925758659
 20
0.1705032481376225
 42
0.0
 10
1.182530424786222
 20
0.1705032481376221
 42
0.0
 10
1.182530424786222
 20
0.068114123580882
 42
0.231056446390574
 10
1.200275679141658
 20
0.0337787716591849
 42
0.1033983125445035
 10
1.222016181175408
 20
0.0271400549874108
 42
0.1113661879093152
 10
1.256252700835137
 20
0.0321455417860066
 42
0.060456799039856
 10
1.280359576718197
 20
0.0437750658039402
 42
0.0
 10
1.282436740080608
 20
0.0292528824702614
 42
0.0
 10
1.305008011852606
 20
0.0292528824702614
 42
0.0
 10
1.303035750365566
 20
0.045573054697837
 42
0.0
 10
1.303035750365566
 20
0.1704535782767582
 42
0.0
 10
1.280726706724607
 20
0.1704535782767582
 42
0.0
 10
1.280726706724607
 20
0.0603385752977079
 42
-0.0926529444633646
 10
1.271406905425951
 20
0.0542136206901671
 42
-0.0664344377826394
 10
1.252018117536273
 20
0.0470706779667407
 42
-0.0713593701437487
 10
1.22596399727168
 20
0.0462232117768133
 42
-0.3666103947779491
 97
        0
 92
        7
 72
     1
 73
     1
 93
       12
 10
1.34888971452673
 20
-0.0300855190343001
 42
0.0
 10
1.37158389411627
 20
-0.0300855190342997
 42
0.0
 10
1.37158389411627
 20
0.0381322242109672
 42
0.2065475696655794
 10
1.43316687203049
 20
0.0295489681525751
 42
0.2194428372319613
 10
1.471434120104095
 20
0.0681246169490031
 42
0.1323036971285341
 10
1.475462458348772
 20
0.1210354643912233
 42
0.1641390880683366
 10
1.453695611337639
 20
0.1611617476764042
 42
0.205639974219759
 10
1.404711616991345
 20
0.1717914749112652
 42
0.0657328919071964
 10
1.371062306057382
 20
0.1603071107053626
 42
0.0
 10
1.369185970032088
 20
0.1704922854774775
 42
0.0
 10
1.347893491957236
 20
0.1704922854774775
 42
0.0
 10
1.348889714526734
 20
0.1571025974974671
 42
0.0
 97
        0
 92
       22
 72
     1
 73
     1
 93
        8
 10
1.37158389411627
 20
0.1447873628418232
 42
-0.1242339830404592
 10
1.408127279067805
 20
0.1549128436768488
 42
-0.229840994742505
 10
1.439329608924591
 20
0.143501077402358
 42
-0.1934262502536381
 10
1.452032531529923
 20
0.1169919663469652
 42
-0.1013985410677669
 10
1.45007247035501
 20
0.0757878280977211
 42
-0.2083357761076617
 10
1.426144858393048
 20
0.0470888301796872
 42
-0.1496858148879605
 10
1.383365488627418
 20
0.0497243925890185
 42
-0.0899155484976542
 10
1.37158389411627
 20
0.0564933659367366
 42
0.0
 97
        0
 92
        7
 72
     1
 73
     1
 93
       12
 10
1.536384209201344
 20
0.0381322242109672
 42
0.2065475696655794
 10
1.597967187115564
 20
0.0295489681525751
 42
0.2194428372319613
 10
1.63623443518917
 20
0.0681246169490031
 42
0.1323036971285341
 10
1.640262773433846
 20
0.1210354643912233
 42
0.1641390880683366
 10
1.618495926422713
 20
0.1611617476764042
 42
0.205639974219759
 10
1.569511932076419
 20
0.1717914749112652
 42
0.0657328919071964
 10
1.535862621142456
 20
0.1603071107053626
 42
0.0
 10
1.533986285117165
 20
0.1704922854774775
 42
0.0
 10
1.51269380704231
 20
0.1704922854774775
 42
0.0
 10
1.513690029611812
 20
0.1571025974974671
 42
0.0
 10
1.513690029611804
 20
-0.0300855190343001
 42
0.0
 10
1.536384209201344
 20
-0.0300855190342997
 42
0.0
 97
        0
 92
       22
 72
     1
 73
     1
 93
        8
 10
1.53638420920134
 20
0.0564933659367348
 42
0.0
 10
1.536384209201344
 20
0.1447873628418232
 42
-0.1242339830404592
 10
1.572927594152879
 20
0.1549128436768488
 42
-0.229840994742505
 10
1.604129924009665
 20
0.143501077402358
 42
-0.1934262502536381
 10
1.616832846614997
 20
0.1169919663469652
 42
-0.1013985410677669
 10
1.614872785440084
 20
0.0757878280977211
 42
-0.2083357761076617
 10
1.590945173478122
 20
0.0470888301796872
 42
-0.1496858148879605
 10
1.548165803712493
 20
0.0497243925890185
 42
-0.0899155484976689
 97
        0
 92
        7
 72
     1
 73
     1
 93
        9
 10
1.700061888317705
 20
0.2342426883985293
 42
0.0
 10
1.677630680467434
 20
0.2342426883985293
 42
0.0
 10
1.67763068046743
 20
0.0525526462764159
 42
0.3003574180393968
 10
1.689763445472692
 20
0.0294232917661481
 42
0.1772930531369512
 10
1.716213749579594
 20
0.0296692382956376
 42
0.0
 10
1.726340843842322
 20
0.0328930300171466
 42
0.0
 10
1.722947015877874
 20
0.0450847282577249
 42
0.0
 10
1.715478639728772
 20
0.0445718860057287
 42
-0.4033750267256485
 10
1.700061888317705
 20
0.0551463102997136
 42
0.0
 97
        0
 92
        7
 72
     1
 73
     1
 93
       13
 10
1.756550300014353
 20
0.1705037737446156
 42
0.0
 10
1.733158403445031
 20
0.1705037737446147
 42
0.0
 10
1.789004390745333
 20
0.0387212794769898
 42
-0.1248046720339364
 10
1.779651976914252
 20
0.0098440558334927
 42
-0.2041270254703542
 10
1.758338890268429
 20
-0.0108879300937863
 42
-0.1582846410265598
 10
1.728104948139659
 20
-0.0088290148710986
 42
0.0
 10
1.723524002749954
 20
-0.0288461752875353
 42
0.0503996825504031
 10
1.752727303871125
 20
-0.0310194851179708
 42
0.1573307408029109
 10
1.778748174224848
 20
-0.02185783610684
 42
0.1379639421479074
 10
1.7998397718477
 20
0.0061205808064937
 42
0.0
 10
1.863932002621172
 20
0.1705037737446151
 42
0.0
 10
1.84037943355916
 20
0.1705037737446147
 42
0.0
 10
1.801429340670335
 20
0.0575527643750102
 42
0.0
 97
        0
 75
     0
 76
     1
 47
0.0008892483299936
 98
        8
 10
1.136466178840407
 20
0.0806040287034282
 10
1.218376325116423
 20
0.039698608137611
 10
1.365280380260387
 20
0.0654868019383397
 10
1.365280380260387
 20
0.0654868019383397
 10
1.532067085388874
 20
0.0510462190903649
 10
1.532067085388874
 20
0.0510462190903649
 10
1.692326025665067
 20
0.0661634458554534
 10
1.78937173321124
 20
0.0643849607353548
450
        0
451
        0
460
0.0
461
0.0
452
        0
462
0.0
453
        0
470

1001
ACAD
1010
0.0
1020
0.0
1030
0.0
  0
ENDBLK
  5
B36
330
B30
100
AcDbEntity
  8
0
100
AcDbBlockEnd
  0
BLOCK
  5
C0E
330
C0D
100
AcDbEntity
  8
0
100
AcDbBlockBegin
  2
SW_CENTERMARKSYMBOL_0
 70
     0
 10
0.0
 20
0.0
 30
0.0
  3
SW_CENTERMARKSYMBOL_0
  1

  0
LINE
  5
C0F
330
C0D
100
AcDbEntity
  8
0
  6
Continuous
 62
     0
370
     0
100
AcDbLine
 10
0.0
 20
0.0
 30
0.0
 11
0.0
 21
0.0999999999999995
 31
0.0
  0
LINE
  5
C10
330
C0D
100
AcDbEntity
  8
0
  6
Continuous
 62
     0
370
     0
100
AcDbLine
 10
0.0
 20
0.0
 30
0.0
 11
-0.1000000000000006
 21
0.0
 31
0.0
  0
LINE
  5
C11
330
C0D
100
AcDbEntity
  8
0
  6
Continuous
 62
     0
370
     0
100
AcDbLine
 10
0.0
 20
0.0
 30
0.0
 11
0.0
 21
-0.1000000000000006
 31
0.0
  0
LINE
  5
C12
330
C0D
100
AcDbEntity
  8
0
  6
Continuous
 62
     0
370
     0
100
AcDbLine
 10
0.0
 20
0.0
 30
0.0
 11
0.0999999999999995
 21
0.0
 31
0.0
  0
LINE
  5
C13
330
C0D
100
AcDbEntity
  8
0
  6
Continuous
 62
     0
370
     0
100
AcDbLine
 10
0.0
 20
0.2
 30
0.0
 11
0.0
 21
0.2874999999999996
 31
0.0
  0
LINE
  5
C14
330
C0D
100
AcDbEntity
  8
0
  6
Continuous
 62
     0
370
     0
100
AcDbLine
 10
-0.2
 20
0.0
 30
0.0
 11
-0.2874999999999996
 21
0.0
 31
0.0
  0
LINE
  5
C15
330
C0D
100
AcDbEntity
  8
0
  6
Continuous
 62
     0
370
     0
100
AcDbLine
 10
0.0
 20
-0.2
 30
0.0
 11
0.0
 21
-0.2875000000000007
 31
0.0
  0
LINE
  5
C16
330
C0D
100
AcDbEntity
  8
0
  6
Continuous
 62
     0
370
     0
100
AcDbLine
 10
0.2
 20
0.0
 30
0.0
 11
0.2874999999999996
 21
0.0
 31
0.0
  0
ENDBLK
  5
C17
330
C0D
100
AcDbEntity
  8
0
100
AcDbBlockEnd
  0
BLOCK
  5
C19
330
C18
100
AcDbEntity
  8
0
100
AcDbBlockBegin
  2
SW_CENTERMARKSYMBOL_1
 70
     0
 10
0.0
 20
0.0
 30
0.0
  3
SW_CENTERMARKSYMBOL_1
  1

  0
LINE
  5
C1A
330
C18
100
AcDbEntity
  8
0
  6
Continuous
 62
     0
370
     0
100
AcDbLine
 10
0.0
 20
0.0
 30
0.0
 11
0.0
 21
0.0999999999999995
 31
0.0
  0
LINE
  5
C1B
330
C18
100
AcDbEntity
  8
0
  6
Continuous
 62
     0
370
     0
100
AcDbLine
 10
0.0
 20
0.0
 30
0.0
 11
-0.1000000000000006
 21
0.0
 31
0.0
  0
LINE
  5
C1C
330
C18
100
AcDbEntity
  8
0
  6
Continuous
 62
     0
370
     0
100
AcDbLine
 10
0.0
 20
0.0
 30
0.0
 11
0.0
 21
-0.0999999999999995
 31
0.0
  0
LINE
  5
C1D
330
C18
100
AcDbEntity
  8
0
  6
Continuous
 62
     0
370
     0
100
AcDbLine
 10
0.0
 20
0.0
 30
0.0
 11
0.0999999999999995
 21
0.0
 31
0.0
  0
LINE
  5
C1E
330
C18
100
AcDbEntity
  8
0
  6
Continuous
 62
     0
370
     0
100
AcDbLine
 10
0.0
 20
0.2
 30
0.0
 11
0.0
 21
0.2249999999999999
 31
0.0
  0
LINE
  5
C1F
330
C18
100
AcDbEntity
  8
0
  6
Continuous
 62
     0
370
     0
100
AcDbLine
 10
-0.2
 20
0.0
 30
0.0
 11
-0.2249999999999999
 21
0.0
 31
0.0
  0
LINE
  5
C20
330
C18
100
AcDbEntity
  8
0
  6
Continuous
 62
     0
370
     0
100
AcDbLine
 10
0.0
 20
-0.2
 30
0.0
 11
0.0
 21
-0.2249999999999999
 31
0.0
  0
LINE
  5
C21
330
C18
100
AcDbEntity
  8
0
  6
Continuous
 62
     0
370
     0
100
AcDbLine
 10
0.2
 20
0.0
 30
0.0
 11
0.2249999999999999
 21
0.0
 31
0.0
  0
ENDBLK
  5
C22
330
C18
100
AcDbEntity
  8
0
100
AcDbBlockEnd
  0
BLOCK
  5
E60
330
E5F
100
AcDbEntity
  8
0
100
AcDbBlockBegin
  2
*D9
 70
     1
 10
0.0
 20
0.0
 30
0.0
  3
*D9
  1

  0
LINE
  5
1172
330
E5F
100
AcDbEntity
  8
DIM
 62
     0
370
    -2
100
AcDbLine
 10
1.75540364175266
 20
1.243846618505346
 30
0.0
 11
1.356702854351087
 21
1.243846618505347
 31
0.0
  0
LINE
  5
1173
330
E5F
100
AcDbEntity
  8
DIM
 62
     0
370
    -2
100
AcDbLine
 10
1.75540364175266
 20
3.116588191707584
 30
0.0
 11
1.356702854351087
 21
3.116588191707584
 31
0.0
  0
LINE
  5
1174
330
E5F
100
AcDbEntity
  8
DIM
 62
     0
370
    -2
100
AcDbLine
 10
1.396702854351087
 20
1.313846618505347
 30
0.0
 11
1.396702854351087
 21
3.046588191707584
 31
0.0
  0
SOLID
  5
1175
330
E5F
100
AcDbEntity
  8
DIM
 62
     0
100
AcDbTrace
 10
1.38503618768442
 20
1.313846618505347
 30
0.0
 11
1.408369521017753
 21
1.313846618505347
 31
0.0
 12
1.396702854351087
 22
1.243846618505347
 32
0.0
 13
1.396702854351087
 23
1.243846618505347
 33
0.0
  0
SOLID
  5
1176
330
E5F
100
AcDbEntity
  8
DIM
 62
     0
100
AcDbTrace
 10
1.385036187684421
 20
3.046588191707584
 30
0.0
 11
1.408369521017754
 21
3.046588191707584
 31
0.0
 12
1.396702854351087
 22
3.116588191707584
 32
0.0
 13
1.396702854351087
 23
3.116588191707584
 33
0.0
  0
MTEXT
  5
1177
330
E5F
100
AcDbEntity
  8
DIM
 62
     0
100
AcDbMText
 10
1.293181440347008
 20
2.180217405106465
 30
0.0
 40
0.07
 41
0.0
 71
     2
 72
     1
  1
\A1;1.873
 11
0.0000000000000001
 21
1.0
 31
0.0
 73
     1
 44
1.0
  0
POINT
  5
1178
330
E5F
100
AcDbEntity
  8
Defpoints
 62
     0
100
AcDbPoint
 10
1.80540364175266
 20
1.243846618505346
 30
0.0
  0
POINT
  5
1179
330
E5F
100
AcDbEntity
  8
Defpoints
 62
     0
100
AcDbPoint
 10
1.80540364175266
 20
3.116588191707584
 30
0.0
  0
POINT
  5
117A
330
E5F
100
AcDbEntity
  8
Defpoints
 62
     0
100
AcDbPoint
 10
1.396702854351087
 20
3.116588191707584
 30
0.0
  0
ENDBLK
  5
E61
330
E5F
100
AcDbEntity
  8
0
100
AcDbBlockEnd
  0
BLOCK
  5
F09
330
F08
100
AcDbEntity
  8
0
100
AcDbBlockBegin
  2
*D10
 70
     1
 10
0.0
 20
0.0
 30
0.0
  3
*D10
  1

  0
LINE
  5
117B
330
F08
100
AcDbEntity
  8
DIM
 62
     0
370
    -2
100
AcDbLine
 10
1.75540364175266
 20
1.243846618505346
 30
0.0
 11
1.54668731729945
 21
1.243846618505346
 31
0.0
  0
LINE
  5
117C
330
F08
100
AcDbEntity
  8
DIM
 62
     0
370
    -2
100
AcDbLine
 10
1.75540364175266
 20
1.619684399833805
 30
0.0
 11
1.54668731729945
 21
1.619684399833805
 31
0.0
  0
LINE
  5
117D
330
F08
100
AcDbEntity
  8
DIM
 62
     0
370
    -2
100
AcDbLine
 10
1.58668731729945
 20
1.313846618505347
 30
0.0
 11
1.58668731729945
 21
1.549684399833805
 31
0.0
  0
SOLID
  5
117E
330
F08
100
AcDbEntity
  8
DIM
 62
     0
100
AcDbTrace
 10
1.575020650632783
 20
1.313846618505347
 30
0.0
 11
1.598353983966116
 21
1.313846618505347
 31
0.0
 12
1.58668731729945
 22
1.243846618505346
 32
0.0
 13
1.58668731729945
 23
1.243846618505346
 33
0.0
  0
SOLID
  5
117F
330
F08
100
AcDbEntity
  8
DIM
 62
     0
100
AcDbTrace
 10
1.575020650632783
 20
1.549684399833805
 30
0.0
 11
1.598353983966116
 21
1.549684399833805
 31
0.0
 12
1.58668731729945
 22
1.619684399833805
 32
0.0
 13
1.58668731729945
 23
1.619684399833805
 33
0.0
  0
MTEXT
  5
1180
330
F08
100
AcDbEntity
  8
DIM
 62
     0
100
AcDbMText
 10
1.51992661029741
 20
1.431765509169576
 30
0.0
 40
0.07
 41
0.0
 71
     5
 72
     1
  1
\A1;0.376
 11
0.0000000000000001
 21
1.0
 31
0.0
 73
     1
 44
1.0
  0
POINT
  5
1181
330
F08
100
AcDbEntity
  8
Defpoints
 62
     0
100
AcDbPoint
 10
1.80540364175266
 20
1.243846618505346
 30
0.0
  0
POINT
  5
1182
330
F08
100
AcDbEntity
  8
Defpoints
 62
     0
100
AcDbPoint
 10
1.80540364175266
 20
1.619684399833805
 30
0.0
  0
POINT
  5
1183
330
F08
100
AcDbEntity
  8
Defpoints
 62
     0
100
AcDbPoint
 10
1.58668731729945
 20
1.619684399833805
 30
0.0
  0
ENDBLK
  5
F0A
330
F08
100
AcDbEntity
  8
0
100
AcDbBlockEnd
  0
BLOCK
  5
F16
330
F15
100
AcDbEntity
  8
0
100
AcDbBlockBegin
  2
*D11
 70
     1
 10
0.0
 20
0.0
 30
0.0
  3
*D11
  1

  0
LINE
  5
1184
330
F15
100
AcDbEntity
  8
DIM
 62
     0
370
    -2
100
AcDbLine
 10
1.75540364175266
 20
1.619684399833805
 30
0.0
 11
1.54668731729945
 21
1.619684399833805
 31
0.0
  0
LINE
  5
1185
330
F15
100
AcDbEntity
  8
DIM
 62
     0
370
    -2
100
AcDbLine
 10
1.755403641752661
 20
2.740750410379126
 30
0.0
 11
1.54668731729945
 21
2.740750410379126
 31
0.0
  0
LINE
  5
1186
330
F15
100
AcDbEntity
  8
DIM
 62
     0
370
    -2
100
AcDbLine
 10
1.58668731729945
 20
1.689684399833805
 30
0.0
 11
1.58668731729945
 21
2.670750410379126
 31
0.0
  0
SOLID
  5
1187
330
F15
100
AcDbEntity
  8
DIM
 62
     0
100
AcDbTrace
 10
1.575020650632783
 20
1.689684399833805
 30
0.0
 11
1.598353983966116
 21
1.689684399833805
 31
0.0
 12
1.58668731729945
 22
1.619684399833805
 32
0.0
 13
1.58668731729945
 23
1.619684399833805
 33
0.0
  0
SOLID
  5
1188
330
F15
100
AcDbEntity
  8
DIM
 62
     0
100
AcDbTrace
 10
1.575020650632783
 20
2.670750410379126
 30
0.0
 11
1.598353983966117
 21
2.670750410379126
 31
0.0
 12
1.58668731729945
 22
2.740750410379126
 32
0.0
 13
1.58668731729945
 23
2.740750410379126
 33
0.0
  0
MTEXT
  5
1189
330
F15
100
AcDbEntity
  8
DIM
 62
     0
100
AcDbMText
 10
1.520140750338199
 20
2.180217405106466
 30
0.0
 40
0.07
 41
0.0
 71
     5
 72
     1
  1
\A1;1.121
 11
0.0000000000000001
 21
1.0
 31
0.0
 73
     1
 44
1.0
  0
POINT
  5
118A
330
F15
100
AcDbEntity
  8
Defpoints
 62
     0
100
AcDbPoint
 10
1.80540364175266
 20
1.619684399833805
 30
0.0
  0
POINT
  5
118B
330
F15
100
AcDbEntity
  8
Defpoints
 62
     0
100
AcDbPoint
 10
1.805403641752661
 20
2.740750410379126
 30
0.0
  0
POINT
  5
118C
330
F15
100
AcDbEntity
  8
Defpoints
 62
     0
100
AcDbPoint
 10
1.58668731729945
 20
2.740750410379126
 30
0.0
  0
ENDBLK
  5
F17
330
F15
100
AcDbEntity
  8
0
100
AcDbBlockEnd
  0
BLOCK
  5
F23
330
F22
100
AcDbEntity
  8
0
100
AcDbBlockBegin
  2
*D12
 70
     1
 10
0.0
 20
0.0
 30
0.0
  3
*D12
  1

  0
LINE
  5
118D
330
F22
100
AcDbEntity
  8
DIM
 62
     0
370
    -2
100
AcDbLine
 10
1.755403641752661
 20
2.740750410379126
 30
0.0
 11
1.54668731729945
 21
2.740750410379126
 31
0.0
  0
LINE
  5
118E
330
F22
100
AcDbEntity
  8
DIM
 62
     0
370
    -2
100
AcDbLine
 10
1.75540364175266
 20
3.116588191707584
 30
0.0
 11
1.54668731729945
 21
3.116588191707584
 31
0.0
  0
LINE
  5
118F
330
F22
100
AcDbEntity
  8
DIM
 62
     0
370
    -2
100
AcDbLine
 10
1.58668731729945
 20
2.810750410379126
 30
0.0
 11
1.58668731729945
 21
3.046588191707584
 31
0.0
  0
SOLID
  5
1190
330
F22
100
AcDbEntity
  8
DIM
 62
     0
100
AcDbTrace
 10
1.575020650632783
 20
2.810750410379126
 30
0.0
 11
1.598353983966117
 21
2.810750410379126
 31
0.0
 12
1.58668731729945
 22
2.740750410379126
 32
0.0
 13
1.58668731729945
 23
2.740750410379126
 33
0.0
  0
SOLID
  5
1191
330
F22
100
AcDbEntity
  8
DIM
 62
     0
100
AcDbTrace
 10
1.575020650632783
 20
3.046588191707584
 30
0.0
 11
1.598353983966117
 21
3.046588191707584
 31
0.0
 12
1.58668731729945
 22
3.116588191707584
 32
0.0
 13
1.58668731729945
 23
3.116588191707584
 33
0.0
  0
MTEXT
  5
1192
330
F22
100
AcDbEntity
  8
DIM
 62
     0
100
AcDbMText
 10
1.51992661029741
 20
2.928669301043355
 30
0.0
 40
0.07
 41
0.0
 71
     5
 72
     1
  1
\A1;0.376
 11
0.0000000000000001
 21
1.0
 31
0.0
 73
     1
 44
1.0
  0
POINT
  5
1193
330
F22
100
AcDbEntity
  8
Defpoints
 62
     0
100
AcDbPoint
 10
1.805403641752661
 20
2.740750410379126
 30
0.0
  0
POINT
  5
1194
330
F22
100
AcDbEntity
  8
Defpoints
 62
     0
100
AcDbPoint
 10
1.80540364175266
 20
3.116588191707584
 30
0.0
  0
POINT
  5
1195
330
F22
100
AcDbEntity
  8
Defpoints
 62
     0
100
AcDbPoint
 10
1.58668731729945
 20
3.116588191707584
 30
0.0
  0
ENDBLK
  5
F24
330
F22
100
AcDbEntity
  8
0
100
AcDbBlockEnd
  0
BLOCK
  5
F66
330
F65
100
AcDbEntity
  8
0
100
AcDbBlockBegin
  2
*D13
 70
     1
 10
0.0
 20
0.0
 30
0.0
  3
*D13
  1

  0
LINE
  5
1196
330
F65
100
AcDbEntity
  8
DIM
 62
     0
370
    -2
100
AcDbLine
 10
2.377903641752661
 20
1.441217405106465
 30
0.0
 11
2.548348956444734
 21
1.441217405106465
 31
0.0
  0
LINE
  5
1197
330
F65
100
AcDbEntity
  8
DIM
 62
     0
370
    -2
100
AcDbLine
 10
2.315403641752662
 20
2.919217405106465
 30
0.0
 11
2.548348956444734
 21
2.919217405106465
 31
0.0
  0
LINE
  5
1198
330
F65
100
AcDbEntity
  8
DIM
 62
     0
370
    -2
100
AcDbLine
 10
2.508348956444734
 20
1.511217405106465
 30
0.0
 11
2.508348956444734
 21
2.849217405106465
 31
0.0
  0
SOLID
  5
1199
330
F65
100
AcDbEntity
  8
DIM
 62
     0
100
AcDbTrace
 10
2.496682289778068
 20
1.511217405106465
 30
0.0
 11
2.520015623111401
 21
1.511217405106465
 31
0.0
 12
2.508348956444734
 22
1.441217405106465
 32
0.0
 13
2.508348956444734
 23
1.441217405106465
 33
0.0
  0
SOLID
  5
119A
330
F65
100
AcDbEntity
  8
DIM
 62
     0
100
AcDbTrace
 10
2.496682289778068
 20
2.849217405106465
 30
0.0
 11
2.520015623111401
 21
2.849217405106465
 31
0.0
 12
2.508348956444734
 22
2.919217405106465
 32
0.0
 13
2.508348956444734
 23
2.919217405106465
 33
0.0
  0
MTEXT
  5
119B
330
F65
100
AcDbEntity
  8
DIM
 62
     0
100
AcDbMText
 10
2.441588249442694
 20
2.180217405106465
 30
0.0
 40
0.07
 41
0.0
 71
     5
 72
     1
  1
\A1;1.478
 11
0.0000000000000001
 21
1.0
 31
0.0
 73
     1
 44
1.0
  0
POINT
  5
119C
330
F65
100
AcDbEntity
  8
Defpoints
 62
     0
100
AcDbPoint
 10
2.327903641752661
 20
1.441217405106465
 30
0.0
  0
POINT
  5
119D
330
F65
100
AcDbEntity
  8
Defpoints
 62
     0
100
AcDbPoint
 10
2.265403641752662
 20
2.919217405106465
 30
0.0
  0
POINT
  5
119E
330
F65
100
AcDbEntity
  8
Defpoints
 62
     0
100
AcDbPoint
 10
2.508348956444734
 20
2.919217405106465
 30
0.0
  0
ENDBLK
  5
F67
330
F65
100
AcDbEntity
  8
0
100
AcDbBlockEnd
  0
BLOCK
  5
F73
330
F72
100
AcDbEntity
  8
0
100
AcDbBlockBegin
  2
*D14
 70
     1
 10
0.0
 20
0.0
 30
0.0
  3
*D14
  1

  0
LINE
  5
11F2
330
F72
100
AcDbEntity
  8
DIM
 62
     0
370
    -2
100
AcDbLine
 10
1.755403641752661
 20
3.94938036177466
 30
0.0
 11
1.54668731729945
 21
3.94938036177466
 31
0.0
  0
LINE
  5
11F3
330
F72
100
AcDbEntity
  8
DIM
 62
     0
370
    -2
100
AcDbLine
 10
1.740403641752661
 20
4.840880361774656
 30
0.0
 11
1.54668731729945
 21
4.840880361774656
 31
0.0
  0
LINE
  5
11F4
330
F72
100
AcDbEntity
  8
DIM
 62
     0
370
    -2
100
AcDbLine
 10
1.58668731729945
 20
4.01938036177466
 30
0.0
 11
1.58668731729945
 21
4.770880361774656
 31
0.0
  0
SOLID
  5
11F5
330
F72
100
AcDbEntity
  8
DIM
 62
     0
100
AcDbTrace
 10
1.575020650632783
 20
4.01938036177466
 30
0.0
 11
1.598353983966116
 21
4.01938036177466
 31
0.0
 12
1.58668731729945
 22
3.94938036177466
 32
0.0
 13
1.58668731729945
 23
3.94938036177466
 33
0.0
  0
SOLID
  5
11F6
330
F72
100
AcDbEntity
  8
DIM
 62
     0
100
AcDbTrace
 10
1.575020650632783
 20
4.770880361774656
 30
0.0
 11
1.598353983966117
 21
4.770880361774656
 31
0.0
 12
1.58668731729945
 22
4.840880361774656
 32
0.0
 13
1.58668731729945
 23
4.840880361774656
 33
0.0
  0
MTEXT
  5
11F7
330
F72
100
AcDbEntity
  8
DIM
 62
     0
100
AcDbMText
 10
1.51992661029741
 20
4.395130361774658
 30
0.0
 40
0.07
 41
0.0
 71
     5
 72
     1
  1
\A1;0.892
 11
0.0000000000000001
 21
1.0
 31
0.0
 73
     1
 44
1.0
  0
POINT
  5
11F8
330
F72
100
AcDbEntity
  8
Defpoints
 62
     0
100
AcDbPoint
 10
1.805403641752661
 20
3.94938036177466
 30
0.0
  0
POINT
  5
11F9
330
F72
100
AcDbEntity
  8
Defpoints
 62
     0
100
AcDbPoint
 10
1.790403641752661
 20
4.840880361774656
 30
0.0
  0
POINT
  5
11FA
330
F72
100
AcDbEntity
  8
Defpoints
 62
     0
100
AcDbPoint
 10
1.58668731729945
 20
4.840880361774656
 30
0.0
  0
ENDBLK
  5
F74
330
F72
100
AcDbEntity
  8
0
100
AcDbBlockEnd
  0
BLOCK
  5
F80
330
F7F
100
AcDbEntity
  8
0
100
AcDbBlockBegin
  2
*D15
 70
     1
 10
0.0
 20
0.0
 30
0.0
  3
*D15
  1

  0
LINE
  5
11FB
330
F7F
100
AcDbEntity
  8
DIM
 62
     0
370
    -2
100
AcDbLine
 10
1.740403641752661
 20
4.840880361774656
 30
0.0
 11
1.546687317299451
 21
4.840880361774656
 31
0.0
  0
LINE
  5
11FC
330
F7F
100
AcDbEntity
  8
DIM
 62
     0
370
    -2
100
AcDbLine
 10
1.740403641752662
 20
4.933880361774658
 30
0.0
 11
1.546687317299451
 21
4.933880361774658
 31
0.0
  0
LINE
  5
11FD
330
F7F
100
AcDbEntity
  8
DIM
 62
     0
370
    -2
100
AcDbLine
 10
1.586687317299451
 20
4.770880361774656
 30
0.0
 11
1.586687317299451
 21
4.700880361774657
 31
0.0
  0
LINE
  5
11FE
330
F7F
100
AcDbEntity
  8
DIM
 62
     0
370
    -2
100
AcDbLine
 10
1.586687317299451
 20
5.003880361774658
 30
0.0
 11
1.586687317299451
 21
5.073880361774658
 31
0.0
  0
LINE
  5
11FF
330
F7F
100
AcDbEntity
  8
DIM
 62
     0
370
    -2
100
AcDbLine
 10
1.586687317299451
 20
4.840880361774656
 30
0.0
 11
1.586687317299451
 21
4.933880361774658
 31
0.0
  0
SOLID
  5
1200
330
F7F
100
AcDbEntity
  8
DIM
 62
     0
100
AcDbTrace
 10
1.575020650632784
 20
4.770880361774656
 30
0.0
 11
1.598353983966118
 21
4.770880361774656
 31
0.0
 12
1.586687317299451
 22
4.840880361774656
 32
0.0
 13
1.586687317299451
 23
4.840880361774656
 33
0.0
  0
SOLID
  5
1201
330
F7F
100
AcDbEntity
  8
DIM
 62
     0
100
AcDbTrace
 10
1.575020650632784
 20
5.003880361774658
 30
0.0
 11
1.598353983966118
 21
5.003880361774658
 31
0.0
 12
1.586687317299451
 22
4.933880361774658
 32
0.0
 13
1.586687317299451
 23
4.933880361774658
 33
0.0
  0
MTEXT
  5
1202
330
F7F
100
AcDbEntity
  8
DIM
 62
     0
100
AcDbMText
 10
1.51992661029741
 20
4.887380361774657
 30
0.0
 40
0.07
 41
0.0
 71
     5
 72
     1
  1
\A1;0.093
 11
0.0000000000000001
 21
1.0
 31
0.0
 73
     1
 44
1.0
  0
POINT
  5
1203
330
F7F
100
AcDbEntity
  8
Defpoints
 62
     0
100
AcDbPoint
 10
1.790403641752661
 20
4.840880361774656
 30
0.0
  0
POINT
  5
1204
330
F7F
100
AcDbEntity
  8
Defpoints
 62
     0
100
AcDbPoint
 10
1.790403641752662
 20
4.933880361774658
 30
0.0
  0
POINT
  5
1205
330
F7F
100
AcDbEntity
  8
Defpoints
 62
     0
100
AcDbPoint
 10
1.586687317299451
 20
4.933880361774658
 30
0.0
  0
ENDBLK
  5
F81
330
F7F
100
AcDbEntity
  8
0
100
AcDbBlockEnd
  0
BLOCK
  5
F92
330
F91
100
AcDbEntity
  8
0
100
AcDbBlockBegin
  2
*D16
 70
     1
 10
0.0
 20
0.0
 30
0.0
  3
*D16
  1

  0
LINE
  5
1206
330
F91
100
AcDbEntity
  8
DIM
 62
     0
370
    -2
100
AcDbLine
 10
1.740403641752662
 20
4.933880361774658
 30
0.0
 11
1.54668731729945
 21
4.933880361774658
 31
0.0
  0
LINE
  5
1207
330
F91
100
AcDbEntity
  8
DIM
 62
     0
370
    -2
100
AcDbLine
 10
1.755403641752661
 20
5.824380361774661
 30
0.0
 11
1.54668731729945
 21
5.824380361774661
 31
0.0
  0
LINE
  5
1208
330
F91
100
AcDbEntity
  8
DIM
 62
     0
370
    -2
100
AcDbLine
 10
1.58668731729945
 20
5.003880361774658
 30
0.0
 11
1.58668731729945
 21
5.754380361774661
 31
0.0
  0
SOLID
  5
1209
330
F91
100
AcDbEntity
  8
DIM
 62
     0
100
AcDbTrace
 10
1.575020650632783
 20
5.003880361774658
 30
0.0
 11
1.598353983966117
 21
5.003880361774658
 31
0.0
 12
1.58668731729945
 22
4.933880361774658
 32
0.0
 13
1.58668731729945
 23
4.933880361774658
 33
0.0
  0
SOLID
  5
120A
330
F91
100
AcDbEntity
  8
DIM
 62
     0
100
AcDbTrace
 10
1.575020650632783
 20
5.754380361774661
 30
0.0
 11
1.598353983966117
 21
5.754380361774661
 31
0.0
 12
1.58668731729945
 22
5.824380361774661
 32
0.0
 13
1.58668731729945
 23
5.824380361774661
 33
0.0
  0
MTEXT
  5
120B
330
F91
100
AcDbEntity
  8
DIM
 62
     0
100
AcDbMText
 10
1.51992661029741
 20
5.379130361774659
 30
0.0
 40
0.07
 41
0.0
 71
     5
 72
     1
  1
\A1;0.891
 11
0.0000000000000001
 21
1.0
 31
0.0
 73
     1
 44
1.0
  0
POINT
  5
120C
330
F91
100
AcDbEntity
  8
Defpoints
 62
     0
100
AcDbPoint
 10
1.790403641752662
 20
4.933880361774658
 30
0.0
  0
POINT
  5
120D
330
F91
100
AcDbEntity
  8
Defpoints
 62
     0
100
AcDbPoint
 10
1.805403641752661
 20
5.824380361774661
 30
0.0
  0
POINT
  5
120E
330
F91
100
AcDbEntity
  8
Defpoints
 62
     0
100
AcDbPoint
 10
1.58668731729945
 20
5.824380361774661
 30
0.0
  0
ENDBLK
  5
F93
330
F91
100
AcDbEntity
  8
0
100
AcDbBlockEnd
  0
BLOCK
  5
FE5
330
FE4
100
AcDbEntity
  8
0
100
AcDbBlockBegin
  2
*D17
 70
     1
 10
0.0
 20
0.0
 30
0.0
  3
*D17
  1

  0
LINE
  5
120F
330
FE4
100
AcDbEntity
  8
DIM
 62
     0
370
    -2
100
AcDbLine
 10
1.790403641752662
 20
3.914380361774661
 30
0.0
 11
1.790403641752662
 21
3.631251696910385
 31
0.0
  0
LINE
  5
1210
330
FE4
100
AcDbEntity
  8
DIM
 62
     0
370
    -2
100
AcDbLine
 10
2.290403641752661
 20
3.914380361774662
 30
0.0
 11
2.290403641752661
 21
3.631251696910385
 31
0.0
  0
LINE
  5
1211
330
FE4
100
AcDbEntity
  8
DIM
 62
     0
370
    -2
100
AcDbLine
 10
1.860403641752662
 20
3.671251696910385
 30
0.0
 11
2.220403641752661
 21
3.671251696910385
 31
0.0
  0
SOLID
  5
1212
330
FE4
100
AcDbEntity
  8
DIM
 62
     0
100
AcDbTrace
 10
1.860403641752662
 20
3.682918363577051
 30
0.0
 11
1.860403641752662
 21
3.659585030243718
 31
0.0
 12
1.790403641752662
 22
3.671251696910385
 32
0.0
 13
1.790403641752662
 23
3.671251696910385
 33
0.0
  0
SOLID
  5
1213
330
FE4
100
AcDbEntity
  8
DIM
 62
     0
100
AcDbTrace
 10
2.220403641752661
 20
3.682918363577051
 30
0.0
 11
2.220403641752661
 21
3.659585030243718
 31
0.0
 12
2.290403641752661
 22
3.671251696910385
 32
0.0
 13
2.290403641752661
 23
3.671251696910385
 33
0.0
  0
MTEXT
  5
1214
330
FE4
100
AcDbEntity
  8
DIM
 62
     0
100
AcDbMText
 10
2.040403641752661
 20
3.738012403912424
 30
0.0
 40
0.07
 41
0.0
 71
     5
 72
     1
  1
\A1;0.500
 73
     1
 44
1.0
  0
POINT
  5
1215
330
FE4
100
AcDbEntity
  8
Defpoints
 62
     0
100
AcDbPoint
 10
1.790403641752662
 20
3.964380361774661
 30
0.0
  0
POINT
  5
1216
330
FE4
100
AcDbEntity
  8
Defpoints
 62
     0
100
AcDbPoint
 10
2.290403641752661
 20
3.964380361774662
 30
0.0
  0
POINT
  5
1217
330
FE4
100
AcDbEntity
  8
Defpoints
 62
     0
100
AcDbPoint
 10
2.290403641752661
 20
3.671251696910385
 30
0.0
  0
ENDBLK
  5
FE6
330
FE4
100
AcDbEntity
  8
0
100
AcDbBlockEnd
  0
BLOCK
  5
FF2
330
FF1
100
AcDbEntity
  8
0
100
AcDbBlockBegin
  2
*D18
 70
     1
 10
0.0
 20
0.0
 30
0.0
  3
*D18
  1

  0
LINE
  5
1218
330
FF1
100
AcDbEntity
  8
DIM
 62
     0
370
    -2
100
AcDbLine
 10
1.805403641752661
 20
3.89938036177466
 30
0.0
 11
1.805403641752661
 21
3.749113557056916
 31
0.0
  0
LINE
  5
1219
330
FF1
100
AcDbEntity
  8
DIM
 62
     0
370
    -2
100
AcDbLine
 10
2.275403641752662
 20
3.899380361774661
 30
0.0
 11
2.275403641752662
 21
3.749113557056916
 31
0.0
  0
LINE
  5
121A
330
FF1
100
AcDbEntity
  8
DIM
 62
     0
370
    -2
100
AcDbLine
 10
1.875403641752661
 20
3.789113557056916
 30
0.0
 11
2.205403641752662
 21
3.789113557056916
 31
0.0
  0
SOLID
  5
121B
330
FF1
100
AcDbEntity
  8
DIM
 62
     0
100
AcDbTrace
 10
1.875403641752661
 20
3.800780223723583
 30
0.0
 11
1.875403641752661
 21
3.777446890390249
 31
0.0
 12
1.805403641752661
 22
3.789113557056916
 32
0.0
 13
1.805403641752661
 23
3.789113557056916
 33
0.0
  0
SOLID
  5
121C
330
FF1
100
AcDbEntity
  8
DIM
 62
     0
100
AcDbTrace
 10
2.205403641752662
 20
3.800780223723583
 30
0.0
 11
2.205403641752662
 21
3.777446890390249
 31
0.0
 12
2.275403641752662
 22
3.789113557056916
 32
0.0
 13
2.275403641752662
 23
3.789113557056916
 33
0.0
  0
MTEXT
  5
121D
330
FF1
100
AcDbEntity
  8
DIM
 62
     0
100
AcDbMText
 10
2.040403641752662
 20
3.855874264058956
 30
0.0
 40
0.07
 41
0.0
 71
     5
 72
     1
  1
\A1;0.470
 73
     1
 44
1.0
  0
POINT
  5
121E
330
FF1
100
AcDbEntity
  8
Defpoints
 62
     0
100
AcDbPoint
 10
1.805403641752661
 20
3.94938036177466
 30
0.0
  0
POINT
  5
121F
330
FF1
100
AcDbEntity
  8
Defpoints
 62
     0
100
AcDbPoint
 10
2.275403641752662
 20
3.949380361774661
 30
0.0
  0
POINT
  5
1220
330
FF1
100
AcDbEntity
  8
Defpoints
 62
     0
100
AcDbPoint
 10
2.275403641752662
 20
3.789113557056916
 30
0.0
  0
ENDBLK
  5
FF3
330
FF1
100
AcDbEntity
  8
0
100
AcDbBlockEnd
  0
BLOCK
  5
104E
330
104D
100
AcDbEntity
  8
0
100
AcDbBlockBegin
  2
*D19
 70
     1
 10
0.0
 20
0.0
 30
0.0
  3
*D19
  1

  0
LINE
  5
11CE
330
104D
100
AcDbEntity
  8
DIM
 62
     0
370
    -2
100
AcDbLine
 10
2.646365784329087
 20
3.229429146710879
 30
0.0
 11
2.298439203771643
 21
3.229429146710878
 31
0.0
  0
LINE
  5
11CF
330
104D
100
AcDbEntity
  8
DIM
 62
     0
370
    -2
100
AcDbLine
 10
2.298439203771643
 20
3.229429146710878
 30
0.0
 11
2.20507245529836
 21
3.117183139124886
 31
0.0
  0
LINE
  5
11D0
330
104D
100
AcDbEntity
  8
DIM
 62
     0
370
    -2
100
AcDbLine
 10
1.875734828206963
 20
2.721251671088044
 30
0.0
 11
1.830970490544054
 21
2.667435743393716
 31
0.0
  0
MTEXT
  5
11D1
102
{ACAD_XDICTIONARY
360
23D0
102
}
330
104D
100
AcDbEntity
  8
DIM
 62
     0
100
AcDbMText
 10
2.487402494050365
 20
3.298378840796534
 30
0.0
 40
0.07
 41
0.0
 71
     5
 72
     1
  1
\A1;\U+22050.375
 73
     1
 44
1.0
  0
LINE
  5
11D2
330
104D
100
AcDbEntity
  8
DIM
 62
     0
370
    -2
100
AcDbLine
 10
1.920499165869871
 20
2.775067598782372
 30
0.0
 11
2.160308117635452
 21
3.063367211430558
 31
0.0
  0
SOLID
  5
11D3
330
104D
100
AcDbEntity
  8
DIM
 62
     0
100
AcDbTrace
 10
1.866765506924575
 20
2.728712394031862
 30
0.0
 11
1.884704149489351
 21
2.713790948144226
 31
0.0
 12
1.920499165869871
 22
2.775067598782372
 32
0.0
 13
1.920499165869871
 23
2.775067598782372
 33
0.0
  0
SOLID
  5
11D4
330
104D
100
AcDbEntity
  8
DIM
 62
     0
100
AcDbTrace
 10
2.196103134015972
 20
3.124643862068704
 30
0.0
 11
2.214041776580748
 21
3.109722416181068
 31
0.0
 12
2.160308117635452
 22
3.063367211430558
 32
0.0
 13
2.160308117635452
 23
3.063367211430558
 33
0.0
  0
POINT
  5
11D5
330
104D
100
AcDbEntity
  8
Defpoints
 62
     0
100
AcDbPoint
 10
2.160308117635452
 20
3.063367211430558
 30
0.0
  0
POINT
  5
11D6
330
104D
100
AcDbEntity
  8
Defpoints
 62
     0
100
AcDbPoint
 10
1.920499165869871
 20
2.775067598782372
 30
0.0
  0
ENDBLK
  5
104F
330
104D
100
AcDbEntity
  8
0
100
AcDbBlockEnd
  0
BLOCK
  5
105A
330
1059
100
AcDbEntity
  8
0
100
AcDbBlockBegin
  2
*D20
 70
     1
 10
0.0
 20
0.0
 30
0.0
  3
*D20
  1

  0
LINE
  5
11D7
330
1059
100
AcDbEntity
  8
DIM
 62
     0
370
    -2
100
AcDbLine
 10
1.469318024194249
 20
3.229429146710877
 30
0.0
 11
1.818386684969233
 21
3.229429146710877
 31
0.0
  0
LINE
  5
11D8
330
1059
100
AcDbEntity
  8
DIM
 62
     0
370
    -2
100
AcDbLine
 10
1.818386684969233
 20
3.229429146710877
 30
0.0
 11
1.926914279526791
 21
3.077789674629119
 31
0.0
  0
LINE
  5
11D9
330
1059
100
AcDbEntity
  8
DIM
 62
     0
370
    -2
100
AcDbLine
 10
2.153893003978532
 20
2.760645135583808
 30
0.0
 11
2.194632775033972
 21
2.703721756780804
 31
0.0
  0
MTEXT
  5
11DA
102
{ACAD_XDICTIONARY
360
23D2
102
}
330
1059
100
AcDbEntity
  8
DIM
 62
     0
100
AcDbMText
 10
1.628852354581741
 20
3.298378840796533
 30
0.0
 40
0.07
 41
0.0
 71
     5
 72
     1
  1
\A1;\U+22050.250
 73
     1
 44
1.0
  0
LINE
  5
11DB
330
1059
100
AcDbEntity
  8
DIM
 62
     0
370
    -2
100
AcDbLine
 10
2.113153232923091
 20
2.817568514386812
 30
0.0
 11
1.967654050582231
 21
3.020866295826115
 31
0.0
  0
SOLID
  5
11DC
330
1059
100
AcDbEntity
  8
DIM
 62
     0
100
AcDbTrace
 10
2.163380233779032
 20
2.767435097426382
 30
0.0
 11
2.144405774178031
 21
2.753855173741235
 31
0.0
 12
2.113153232923091
 22
2.817568514386812
 32
0.0
 13
2.113153232923091
 23
2.817568514386812
 33
0.0
  0
SOLID
  5
11DD
330
1059
100
AcDbEntity
  8
DIM
 62
     0
100
AcDbTrace
 10
1.936401509327291
 20
3.084579636471693
 30
0.0
 11
1.91742704972629
 21
3.070999712786546
 31
0.0
 12
1.967654050582231
 22
3.020866295826115
 32
0.0
 13
1.967654050582231
 23
3.020866295826115
 33
0.0
  0
POINT
  5
11DE
330
1059
100
AcDbEntity
  8
Defpoints
 62
     0
100
AcDbPoint
 10
1.967654050582231
 20
3.020866295826115
 30
0.0
  0
POINT
  5
11DF
330
1059
100
AcDbEntity
  8
Defpoints
 62
     0
100
AcDbPoint
 10
2.113153232923091
 20
2.817568514386812
 30
0.0
  0
ENDBLK
  5
105B
330
1059
100
AcDbEntity
  8
0
100
AcDbBlockEnd
  0
BLOCK
  5
1066
330
1065
100
AcDbEntity
  8
0
100
AcDbBlockBegin
  2
*D21
 70
     1
 10
0.0
 20
0.0
 30
0.0
  3
*D21
  1

  0
LINE
  5
11E0
330
1065
100
AcDbEntity
  8
DIM
 62
     0
370
    -2
100
AcDbLine
 10
6.100093185021438
 20
2.871979631980476
 30
0.0
 11
5.752166604463995
 21
2.871979631980477
 31
0.0
  0
LINE
  5
11E1
330
1065
100
AcDbEntity
  8
DIM
 62
     0
370
    -2
100
AcDbLine
 10
5.752166604463995
 20
2.871979631980477
 30
0.0
 11
5.231340218105894
 21
2.533243287212953
 31
0.0
  0
LINE
  5
11E2
330
1065
100
AcDbEntity
  8
DIM
 62
     0
370
    -2
100
AcDbLine
 10
4.145745493426494
 20
1.827191522999976
 30
0.0
 11
4.087064697497877
 21
1.789026562772248
 31
0.0
  0
MTEXT
  5
11E3
102
{ACAD_XDICTIONARY
360
23D4
102
}
330
1065
100
AcDbEntity
  8
DIM
 62
     0
100
AcDbMText
 10
5.941129894742717
 20
2.940929326066132
 30
0.0
 40
0.07
 41
0.0
 71
     5
 72
     1
  1
\A1;\U+22051.155
 73
     1
 44
1.0
  0
LINE
  5
11E4
330
1065
100
AcDbEntity
  8
DIM
 62
     0
370
    -2
100
AcDbLine
 10
4.20442628935511
 20
1.865356483227704
 30
0.0
 11
5.172659422177278
 21
2.495078326985225
 31
0.0
  0
SOLID
  5
11E5
330
1065
100
AcDbEntity
  8
DIM
 62
     0
100
AcDbTrace
 10
4.139384666721872
 20
1.836971655654745
 30
0.0
 11
4.152106320131115
 21
1.817411390345206
 31
0.0
 12
4.20442628935511
 22
1.865356483227704
 32
0.0
 13
4.20442628935511
 23
1.865356483227704
 33
0.0
  0
SOLID
  5
11E6
330
1065
100
AcDbEntity
  8
DIM
 62
     0
100
AcDbTrace
 10
5.224979391401273
 20
2.543023419867723
 30
0.0
 11
5.237701044810516
 21
2.523463154558184
 31
0.0
 12
5.172659422177278
 22
2.495078326985225
 32
0.0
 13
5.172659422177278
 23
2.495078326985225
 33
0.0
  0
POINT
  5
11E7
330
1065
100
AcDbEntity
  8
Defpoints
 62
     0
100
AcDbPoint
 10
5.172659422177278
 20
2.495078326985225
 30
0.0
  0
POINT
  5
11E8
330
1065
100
AcDbEntity
  8
Defpoints
 62
     0
100
AcDbPoint
 10
4.20442628935511
 20
1.865356483227704
 30
0.0
  0
ENDBLK
  5
1067
330
1065
100
AcDbEntity
  8
0
100
AcDbBlockEnd
  0
BLOCK
  5
1072
330
1071
100
AcDbEntity
  8
0
100
AcDbBlockBegin
  2
*D22
 70
     1
 10
0.0
 20
0.0
 30
0.0
  3
*D22
  1

  0
LINE
  5
11E9
330
1071
100
AcDbEntity
  8
DIM
 62
     0
370
    -2
100
AcDbLine
 10
3.355692348844891
 20
2.871979631980477
 30
0.0
 11
3.703618929402335
 21
2.871979631980477
 31
0.0
  0
LINE
  5
11EA
330
1071
100
AcDbEntity
  8
DIM
 62
     0
370
    -2
100
AcDbLine
 10
3.703618929402335
 20
2.871979631980477
 30
0.0
 11
4.011377185594552
 21
2.655825337274328
 31
0.0
  0
LINE
  5
11EB
330
1071
100
AcDbEntity
  8
DIM
 62
     0
370
    -2
100
AcDbLine
 10
5.365708525937836
 20
1.704609472938601
 30
0.0
 11
5.422991422508247
 21
1.664376777770322
 31
0.0
  0
MTEXT
  5
11EC
102
{ACAD_XDICTIONARY
360
23D6
102
}
330
1071
100
AcDbEntity
  8
DIM
 62
     0
100
AcDbMText
 10
3.514655639123613
 20
2.940929326066133
 30
0.0
 40
0.07
 41
0.0
 71
     5
 72
     1
  1
\A1;\U+22051.515
 73
     1
 44
1.0
  0
LINE
  5
11ED
330
1071
100
AcDbEntity
  8
DIM
 62
     0
370
    -2
100
AcDbLine
 10
5.308425629367425
 20
1.744842168106879
 30
0.0
 11
4.068660082164963
 21
2.61559264210605
 31
0.0
  0
SOLID
  5
11EE
330
1071
100
AcDbEntity
  8
DIM
 62
     0
100
AcDbTrace
 10
5.372413975132548
 20
1.714156622367002
 30
0.0
 11
5.359003076743123
 21
1.695062323510199
 31
0.0
 12
5.308425629367425
 22
1.744842168106879
 32
0.0
 13
5.308425629367425
 23
1.744842168106879
 33
0.0
  0
SOLID
  5
11EF
330
1071
100
AcDbEntity
  8
DIM
 62
     0
100
AcDbTrace
 10
4.018082634789265
 20
2.66537248670273
 30
0.0
 11
4.004671736399838
 21
2.646278187845926
 31
0.0
 12
4.068660082164963
 22
2.61559264210605
 32
0.0
 13
4.068660082164963
 23
2.61559264210605
 33
0.0
  0
POINT
  5
11F0
330
1071
100
AcDbEntity
  8
Defpoints
 62
     0
100
AcDbPoint
 10
4.068660082164963
 20
2.61559264210605
 30
0.0
  0
POINT
  5
11F1
330
1071
100
AcDbEntity
  8
Defpoints
 62
     0
100
AcDbPoint
 10
5.308425629367425
 20
1.744842168106879
 30
0.0
  0
ENDBLK
  5
1073
330
1071
100
AcDbEntity
  8
0
100
AcDbBlockEnd
  0
ENDSEC
  0
SECTION
  2
ENTITIES
  0
LWPOLYLINE
  5
43D
330
1F
100
AcDbEntity
  8
FORMAT
370
    15
100
AcDbPolyline
 90
        4
 70
     1
 43
0.0
 10
0.0
 20
0.0
 10
7.817532181279499
 20
0.0
 10
7.817532181279499
 20
5.920072913978676
 10
0.0
 20
5.920072913978676
  0
LINE
  5
43E
330
1F
100
AcDbEntity
  8
FORMAT
370
    15
100
AcDbLine
 10
3.082140968351494
 20
0.9200729139786767
 30
0.0
 11
7.817532181279499
 21
0.9200729139786767
 31
0.0
  0
LINE
  5
43F
330
1F
100
AcDbEntity
  8
FORMAT
370
    15
100
AcDbLine
 10
0.0
 20
0.9200729139786767
 30
0.0
 11
3.082140968351494
 21
0.9200729139786767
 31
0.0
  0
LINE
  5
440
330
1F
100
AcDbEntity
  8
FORMAT
370
    15
100
AcDbLine
 10
4.534705884173073
 20
0.4824823583890561
 30
0.0
 11
3.082140968351494
 21
0.4824823583890561
 31
0.0
  0
LINE
  5
441
330
1F
100
AcDbEntity
  8
FORMAT
370
    15
100
AcDbLine
 10
4.534705884173073
 20
0.9200729139786767
 30
0.0
 11
4.534705884173073
 21
0.0
 31
0.0
  0
LINE
  5
442
330
1F
100
AcDbEntity
  8
FORMAT
370
    15
100
AcDbLine
 10
6.662113250276226
 20
0.9200729139786767
 30
0.0
 11
6.662113250276226
 21
0.4824823583890561
 31
0.0
  0
LINE
  5
443
330
1F
100
AcDbEntity
  8
FORMAT
370
    15
100
AcDbLine
 10
7.817532181279499
 20
0.2876474825925048
 30
0.0
 11
6.203342078121128
 21
0.2876474825925048
 31
0.0
  0
LINE
  5
444
330
1F
100
AcDbEntity
  8
FORMAT
370
    15
100
AcDbLine
 10
6.203342078121128
 20
0.0
 30
0.0
 11
6.203342078121128
 21
0.4824823583890561
 31
0.0
  0
LINE
  5
445
330
1F
100
AcDbEntity
  8
FORMAT
370
    15
100
AcDbLine
 10
6.648150604513871
 20
5.920072913978676
 30
0.0
 11
6.648150604513871
 21
5.713512965581298
 31
0.0
  0
LINE
  5
446
330
1F
100
AcDbEntity
  8
FORMAT
370
    15
100
AcDbLine
 10
7.817532181279499
 20
0.4824823583890561
 30
0.0
 11
4.534705884173073
 21
0.4824823583890561
 31
0.0
  0
LINE
  5
447
330
1F
100
AcDbEntity
  8
FORMAT
370
    15
100
AcDbLine
 10
6.648150604513871
 20
5.713512965581298
 30
0.0
 11
7.817532181279499
 21
5.713512965581298
 31
0.0
  0
LINE
  5
448
330
1F
100
AcDbEntity
  8
FORMAT
370
    15
100
AcDbLine
 10
3.082140968351494
 20
0.9200729139786767
 30
0.0
 11
3.082140968351494
 21
0.0
 31
0.0
  0
MTEXT
  5
449
330
1F
100
AcDbEntity
  8
0
  6
Continuous
 62
   160
370
     0
100
AcDbMText
 10
6.289167025593215
 20
0.450815748205473
 30
0.0
 40
0.0632486422433626
 41
0.0
 71
     1
 72
     1
  1
http://www.amazonsupply.com
  7
SLDTEXTSTYLE0
 73
     1
 44
1.0
1001
PE_URL
1000
http://www.amazonsupply.com/
1002
{
1000
http://www.amazonsupply.com/
1002
{
1071
        1
1002
}
1002
}
  0
INSERT
  5
44A
330
1F
100
AcDbEntity
  8
0
  6
Continuous
 62
     7
100
AcDbBlockReference
  2
Block2
 10
-0.3468127978931141
 20
-0.9182794672710128
 30
0.0
 41
0.7589837069203722
 42
0.7589837069203403
 43
0.7589837069203434
  0
TEXT
  5
44B
330
1F
100
AcDbEntity
  8
FORMAT
 62
     7
100
AcDbText
 10
4.564384258699726
 20
0.8091831855881503
 30
0.0
 40
0.0758983706920343
  1
MATERIAL :
 41
0.9
  7
SLDTEXTSTYLE1
100
AcDbText
  0
TEXT
  5
44C
330
1F
100
AcDbEntity
  8
FORMAT
 62
     7
100
AcDbText
 10
3.34125075734437
 20
0.5998565856360666
 30
0.0
 40
0.0948729633650429
  1
B0026HEKG0
 41
0.9
  7
SLDTEXTSTYLE1
100
AcDbText
  0
TEXT
  5
44D
330
1F
100
AcDbEntity
  8
FORMAT
 62
     7
100
AcDbText
 10
6.821935069446098
 20
5.76100146430052
 30
0.0
 40
0.0948729633650429
  1
B0026HEKG0
  7
SLDTEXTSTYLE1
100
AcDbText
  0
TEXT
  5
44E
330
1F
100
AcDbEntity
  8
FORMAT
 62
     7
100
AcDbText
 10
3.342193177479275
 20
0.1406363096822567
 30
0.0
 40
0.0948729633650429
  1
Climax Metal 
 41
0.9
  7
SLDTEXTSTYLE1
100
AcDbText
  0
TEXT
  5
44F
330
1F
100
AcDbEntity
  8
FORMAT
 62
     0
100
AcDbText
 10
4.932849920050552
 20
0.6223794032377923
 30
0.0
 40
0.0948729633650439
  1
Aluminum 
 41
0.9
  7
SLDTEXTSTYLE1
100
AcDbText
  0
TEXT
  5
450
330
1F
100
AcDbEntity
  8
FORMAT
 62
     7
100
AcDbText
 10
0.078176610197247
 20
0.7128331563650347
 30
0.0
 40
0.0758983706920343
  1
ITEM NAME:
 41
0.9
  7
SLDTEXTSTYLE1
100
AcDbText
  0
TEXT
  5
451
330
1F
100
AcDbEntity
  8
FORMAT
 62
     7
100
AcDbText
 10
3.141546560644255
 20
0.7728910164568463
 30
0.0
 40
0.0758983706920343
  1
ASIN :
 41
0.9
  7
SLDTEXTSTYLE1
100
AcDbText
  0
TEXT
  5
453
330
1F
100
AcDbEntity
  8
FORMAT
 62
     0
100
AcDbText
 10
4.593368872834695
 20
0.3549923676293416
 30
0.0
 40
0.047436481682522
  1
# UNLESS OTHERWISE SPECIFIED
 41
0.95
  7
SLDTEXTSTYLE1
100
AcDbText
  0
TEXT
  5
454
330
1F
100
AcDbEntity
  8
FORMAT
 62
     0
100
AcDbText
 10
4.66464452452659
 20
0.2833237162468096
 30
0.0
 40
0.047436481682522
  1
DIMENSIONS ARE IN INCHES
 41
0.95
  7
SLDTEXTSTYLE1
100
AcDbText
  0
TEXT
  5
455
330
1F
100
AcDbEntity
  8
FORMAT
 62
     0
100
AcDbText
 10
4.593368872834695
 20
0.1437932992455799
 30
0.0
 40
0.047436481682522
  1
# INFORMATION IN THIS DRAWING IS PROVIDED FOR
 41
0.95
  7
SLDTEXTSTYLE1
100
AcDbText
  0
TEXT
  5
456
330
1F
100
AcDbEntity
  8
FORMAT
 62
     0
100
AcDbText
 10
4.664451037857594
 20
0.0721246478630482
 30
0.0
 40
0.047436481682522
  1
REFERENCE ONLY
 41
0.95
  7
SLDTEXTSTYLE1
100
AcDbText
  0
TEXT
  5
457
330
1F
100
AcDbEntity
  8
FORMAT
 62
     7
100
AcDbText
 10
3.124175072515578
 20
0.3274243238521903
 30
0.0
 40
0.0758983706920343
  1
BRAND :
 41
0.9
  7
SLDTEXTSTYLE1
100
AcDbText
  0
MTEXT
  5
50B
330
1F
100
AcDbEntity
  8
FORMAT
 62
     7
100
AcDbMText
 10
0.2891165747955244
 20
0.6327204922072316
 30
0.0
 40
0.0948729633650429
 41
2.769479188149864
 71
     1
 72
     1
  1
{\fCalibri|b0|i0|c0|p34;\H0.91667x;\C256;Climax Metal 2C-112-A Aluminum Two-Piece Clamping Collar, 1-1/8" Bore Size, 1-7/8" OD, With 1/4-28 x 3/4 Set Screw}
  7
SLDTEXTSTYLE1
 73
     1
 44
1.0
  0
TEXT
  5
A8A
330
1F
100
AcDbEntity
  8
FORMAT
 62
     7
100
AcDbText
 10
1.8829320139263
 20
3.478349658530596
 30
0.0
 40
0.1
  1
TOP
 41
0.9
  7
SLDTEXTSTYLE1
100
AcDbText
  0
TEXT
  5
A8B
330
1F
100
AcDbEntity
  8
FORMAT
 62
     7
100
AcDbText
 10
1.8829320139263
 20
1.016436080351994
 30
0.0
 40
0.1
  1
FRONT
 41
0.9
  7
SLDTEXTSTYLE1
100
AcDbText
  0
INSERT
  5
B40
330
1F
100
AcDbEntity
  8
0
100
AcDbBlockReference
  2
amazon block
 10
6.286976216279747
 20
0.0786364949805145
 30
0.0
 41
0.7717303722539058
 42
0.7717303722539058
 43
0.7717303722539058
  0
LINE
  5
D44
330
1F
100
AcDbEntity
  8
0
  6
Continuous
 62
     7
370
    15
100
AcDbLine
 10
2.135031804056795
 20
1.279347825200473
 30
0.0
 11
2.150032511586559
 21
1.279347825200472
 31
0.0
  0
SPLINE
  5
D45
330
1F
100
AcDbEntity
  8
0
  6
Continuous
 62
     7
370
    15
100
AcDbSpline
210
0.0
220
0.0
230
1.0
 70
     8
 71
     3
 72
    62
 73
    58
 74
     0
 42
0.0000000001
 43
0.0000000001
 40
0.0
 40
0.0
 40
0.0
 40
0.0
 40
0.0625000000000001
 40
0.0625000000000001
 40
0.1250000000000002
 40
0.1250000000000002
 40
0.1875000000000002
 40
0.1875000000000002
 40
0.2500000000000003
 40
0.2500000000000003
 40
0.3125000000000004
 40
0.3125000000000004
 40
0.3437500000000003
 40
0.3437500000000003
 40
0.3750000000000003
 40
0.3750000000000003
 40
0.4062500000000002
 40
0.4062500000000002
 40
0.4218750000000002
 40
0.4218750000000002
 40
0.4375000000000001
 40
0.4375000000000001
 40
0.46875
 40
0.46875
 40
0.484375
 40
0.484375
 40
0.4999999999999999
 40
0.4999999999999999
 40
0.5312499999999996
 40
0.5312499999999996
 40
0.5468749999999996
 40
0.5468749999999996
 40
0.5624999999999995
 40
0.5624999999999995
 40
0.5781249999999993
 40
0.5781249999999993
 40
0.5937499999999992
 40
0.5937499999999992
 40
0.6249999999999992
 40
0.6249999999999992
 40
0.6406249999999992
 40
0.6406249999999992
 40
0.6562499999999992
 40
0.6562499999999992
 40
0.6874999999999992
 40
0.6874999999999992
 40
0.7187499999999993
 40
0.7187499999999993
 40
0.7499999999999993
 40
0.7499999999999993
 40
0.8124999999999996
 40
0.8124999999999996
 40
0.8749999999999996
 40
0.8749999999999996
 40
0.9374999999999998
 40
0.9374999999999998
 40
1.0
 40
1.0
 40
1.0
 40
1.0
 10
1.930774771918764
 20
1.279347825200472
 30
0.0
 10
1.919059278786469
 20
1.287282338111337
 30
0.0
 10
1.908173532206737
 20
1.296492905237716
 30
0.0
 10
1.888292190201631
 20
1.31755621863381
 30
0.0
 10
1.879296911372487
 20
1.329407184596503
 30
0.0
 10
1.863791702321814
 20
1.355981691730254
 30
0.0
 10
1.857268749677086
 20
1.370700126571009
 30
0.0
 10
1.847825084225437
 20
1.403473869920777
 30
0.0
 10
1.844989775057134
 20
1.421229561828253
 30
0.0
 10
1.844821300402261
 20
1.459483245566373
 30
0.0
 10
1.847469628786002
 20
1.479546297032348
 30
0.0
 10
1.857316559200633
 20
1.510625380379542
 30
0.0
 10
1.861632643823686
 20
1.521232481824879
 30
0.0
 10
1.872641124495595
 20
1.542297670274045
 30
0.0
 10
1.879258640411143
 20
1.552645251487535
 30
0.0
 10
1.895151918194429
 20
1.572692928341187
 30
0.0
 10
1.904539267809202
 20
1.582464209455066
 30
0.0
 10
1.920391380321255
 20
1.595699415604629
 30
0.0
 10
1.925985300077329
 20
1.599897845521075
 30
0.0
 10
1.937842527022972
 20
1.607807491328038
 30
0.0
 10
1.944155235227698
 20
1.611543540524161
 30
0.0
 10
1.963833982768115
 20
1.621703775735051
 30
0.0
 10
1.977780728910507
 20
1.627046676608279
 30
0.0
 10
2.000025213866448
 20
1.632654880281443
 30
0.0
 10
2.007732528341135
 20
1.63412449184536
 30
0.0
 10
2.023135406571654
 20
1.636108025248558
 30
0.0
 10
2.03085895517975
 20
1.63663783699557
 30
0.0
 10
2.054095143241837
 20
1.63685170105932
 30
0.0
 10
2.06987705651537
 20
1.63508956429441
 30
0.0
 10
2.092263490710537
 20
1.629869247497572
 30
0.0
 10
2.099559473291515
 20
1.627706854055609
 30
0.0
 10
2.113823968515282
 20
1.622565640809155
 30
0.0
 10
2.120790021712906
 20
1.619578834609153
 30
0.0
 10
2.134014705729938
 20
1.613007213647011
 30
0.0
 10
2.140327504147755
 20
1.609404703274349
 30
0.0
 10
2.152388985213129
 20
1.601626346225741
 30
0.0
 10
2.158168000881256
 20
1.597423995880333
 30
0.0
 10
2.174423815949628
 20
1.58423354418478
 30
0.0
 10
2.183819676018609
 20
1.574708695687308
 30
0.0
 10
2.196090094585184
 20
1.559640108971918
 30
0.0
 10
2.199867448558115
 20
1.554486715503729
 30
0.0
 10
2.206720092895735
 20
1.54416146971406
 30
0.0
 10
2.20981739422331
 20
1.538963610758623
 30
0.0
 10
2.218228260859802
 20
1.523308913934851
 30
0.0
 10
2.222666076697647
 20
1.512792597899931
 30
0.0
 10
2.229576429453874
 20
1.491776873150032
 30
0.0
 10
2.232006790963508
 20
1.481382477805269
 30
0.0
 10
2.235153329184715
 20
1.461156289165806
 30
0.0
 10
2.235881472531769
 20
1.451279777356455
 30
0.0
 10
2.235946492364139
 20
1.422413729392669
 30
0.0
 10
2.233210226831532
 20
1.404703914169092
 30
0.0
 10
2.224047654645007
 20
1.37206185002225
 30
0.0
 10
2.217569044381431
 20
1.35708553475341
 30
0.0
 10
2.20190803665059
 20
1.329942601460845
 30
0.0
 10
2.192814322647871
 20
1.317907379656864
 30
0.0
 10
2.172759491096543
 20
1.296592693622631
 30
0.0
 10
2.161797485108826
 20
1.287315849529818
 30
0.0
 10
2.150032511586559
 20
1.279347825200472
 30
0.0
  0
LINE
  5
D46
330
1F
100
AcDbEntity
  8
0
  6
Continuous
 62
     7
370
    15
100
AcDbLine
 10
1.930774771918764
 20
1.279347825200472
 30
0.0
 11
1.945775479448527
 21
1.279347825200472
 31
0.0
  0
LINE
  5
D47
330
1F
100
AcDbEntity
  8
0
  6
Continuous
 62
     7
370
    15
100
AcDbLine
 10
2.275403641752662
 20
1.243846618505346
 30
0.0
 11
2.275403641752662
 21
3.116588191707584
 31
0.0
  0
LINE
  5
D48
330
1F
100
AcDbEntity
  8
0
  6
Continuous
 62
     7
370
    15
100
AcDbLine
 10
1.80540364175266
 20
1.243846618505346
 30
0.0
 11
2.275403641752662
 21
1.243846618505346
 31
0.0
  0
LINE
  5
D49
330
1F
100
AcDbEntity
  8
0
  6
Continuous
 62
     7
370
    15
100
AcDbLine
 10
1.80540364175266
 20
1.243846618505346
 30
0.0
 11
1.80540364175266
 21
3.116588191707584
 31
0.0
  0
LINE
  5
D4A
330
1F
100
AcDbEntity
  8
0
  6
Continuous
 62
     7
370
    15
100
AcDbLine
 10
2.275403641752662
 20
3.116588191707584
 30
0.0
 11
1.80540364175266
 21
3.116588191707584
 31
0.0
  0
LINE
  5
D4B
330
1F
100
AcDbEntity
  8
0
  6
Continuous
 62
     7
370
    15
100
AcDbLine
 10
1.945775479448527
 20
3.081086985012457
 30
0.0
 11
1.930774771918764
 21
3.081086985012457
 31
0.0
  0
SPLINE
  5
D4C
330
1F
100
AcDbEntity
  8
0
  6
Continuous
 62
     7
370
    15
100
AcDbSpline
210
0.0
220
0.0
230
1.0
 70
     8
 71
     3
 72
    62
 73
    58
 74
     0
 42
0.0000000001
 43
0.0000000001
 40
0.0
 40
0.0
 40
0.0
 40
0.0
 40
0.0625000000000003
 40
0.0625000000000003
 40
0.1250000000000006
 40
0.1250000000000006
 40
0.1875000000000009
 40
0.1875000000000009
 40
0.2500000000000013
 40
0.2500000000000013
 40
0.3125000000000016
 40
0.3125000000000016
 40
0.3437500000000018
 40
0.3437500000000018
 40
0.3750000000000019
 40
0.3750000000000019
 40
0.4062500000000021
 40
0.4062500000000021
 40
0.4218750000000021
 40
0.4218750000000021
 40
0.437500000000002
 40
0.437500000000002
 40
0.4687500000000019
 40
0.4687500000000019
 40
0.4843750000000017
 40
0.4843750000000017
 40
0.5000000000000016
 40
0.5000000000000016
 40
0.5312500000000013
 40
0.5312500000000013
 40
0.5468750000000011
 40
0.5468750000000011
 40
0.562500000000001
 40
0.562500000000001
 40
0.5781250000000009
 40
0.5781250000000009
 40
0.5937500000000007
 40
0.5937500000000007
 40
0.6250000000000008
 40
0.6250000000000008
 40
0.6406250000000007
 40
0.6406250000000007
 40
0.6562500000000007
 40
0.6562500000000007
 40
0.6875000000000007
 40
0.6875000000000007
 40
0.7187500000000006
 40
0.7187500000000006
 40
0.7500000000000005
 40
0.7500000000000005
 40
0.8125000000000003
 40
0.8125000000000003
 40
0.8750000000000001
 40
0.8750000000000001
 40
0.9375000000000001
 40
0.9375000000000001
 40
1.0
 40
1.0
 40
1.0
 40
1.0
 10
2.150032511586557
 20
3.081086985012458
 30
0.0
 10
2.161748004718854
 20
3.073152472101594
 30
0.0
 10
2.172633751298586
 20
3.063941904975213
 30
0.0
 10
2.192515093303692
 20
3.04287859157912
 30
0.0
 10
2.201510372132836
 20
3.031027625616427
 30
0.0
 10
2.217015581183508
 20
3.004453118482676
 30
0.0
 10
2.223538533828238
 20
2.989734683641922
 30
0.0
 10
2.232982199279886
 20
2.956960940292154
 30
0.0
 10
2.235817508448189
 20
2.939205248384677
 30
0.0
 10
2.235985983103061
 20
2.900951564646557
 30
0.0
 10
2.233337654719322
 20
2.880888513180582
 30
0.0
 10
2.22349072430469
 20
2.849809429833388
 30
0.0
 10
2.219174639681638
 20
2.839202328388051
 30
0.0
 10
2.208166159009727
 20
2.818137139938884
 30
0.0
 10
2.20154864309418
 20
2.807789558725396
 30
0.0
 10
2.185655365310894
 20
2.787741881871744
 30
0.0
 10
2.176268015696121
 20
2.777970600757862
 30
0.0
 10
2.160415903184068
 20
2.764735394608301
 30
0.0
 10
2.154821983427994
 20
2.760536964691854
 30
0.0
 10
2.142964756482351
 20
2.752627318884891
 30
0.0
 10
2.136652048277626
 20
2.748891269688769
 30
0.0
 10
2.116973300737208
 20
2.738731034477879
 30
0.0
 10
2.103026554594817
 20
2.73338813360465
 30
0.0
 10
2.080782069638875
 20
2.727779929931486
 30
0.0
 10
2.073074755164188
 20
2.726310318367571
 30
0.0
 10
2.057671876933669
 20
2.724326784964371
 30
0.0
 10
2.049948328325572
 20
2.723796973217361
 30
0.0
 10
2.026712140263486
 20
2.72358310915361
 30
0.0
 10
2.010930226989954
 20
2.72534524591852
 30
0.0
 10
1.988543792794787
 20
2.730565562715359
 30
0.0
 10
1.981247810213808
 20
2.732727956157321
 30
0.0
 10
1.96698331499004
 20
2.737869169403775
 30
0.0
 10
1.960017261792415
 20
2.740855975603778
 30
0.0
 10
1.946792577775386
 20
2.747427596565919
 30
0.0
 10
1.940479779357568
 20
2.75103010693858
 30
0.0
 10
1.928418298292193
 20
2.758808463987189
 30
0.0
 10
1.922639282624067
 20
2.763010814332597
 30
0.0
 10
1.906383467555695
 20
2.77620126602815
 30
0.0
 10
1.896987607486714
 20
2.785726114525622
 30
0.0
 10
1.88471718892014
 20
2.800794701241012
 30
0.0
 10
1.880939834947208
 20
2.8059480947092
 30
0.0
 10
1.874087190609588
 20
2.816273340498871
 30
0.0
 10
1.870989889282014
 20
2.821471199454307
 30
0.0
 10
1.862579022645521
 20
2.83712589627808
 30
0.0
 10
1.858141206807676
 20
2.847642212312998
 30
0.0
 10
1.851230854051448
 20
2.868657937062899
 30
0.0
 10
1.848800492541815
 20
2.879052332407661
 30
0.0
 10
1.845653954320609
 20
2.899278521047124
 30
0.0
 10
1.844925810973554
 20
2.909155032856475
 30
0.0
 10
1.844860791141186
 20
2.938021080820262
 30
0.0
 10
1.847597056673789
 20
2.955730896043839
 30
0.0
 10
1.856759628860316
 20
2.988372960190679
 30
0.0
 10
1.863238239123891
 20
3.003349275459521
 30
0.0
 10
1.878899246854731
 20
3.030492208752085
 30
0.0
 10
1.887992960857452
 20
3.042527430556067
 30
0.0
 10
1.908047792408781
 20
3.063842116590299
 30
0.0
 10
1.919009798396496
 20
3.073118960683112
 30
0.0
 10
1.930774771918765
 20
3.081086985012458
 30
0.0
  0
LINE
  5
D4D
330
1F
100
AcDbEntity
  8
0
  6
Continuous
 62
     7
370
    15
100
AcDbLine
 10
2.150032511586559
 20
3.081086985012457
 30
0.0
 11
2.135031804056795
 21
3.081086985012457
 31
0.0
  0
SPLINE
  5
D4E
330
1F
100
AcDbEntity
  8
0
  6
Continuous
 62
     7
370
    15
100
AcDbSpline
210
0.0
220
0.0
230
1.0
 70
     8
 71
     3
 72
     8
 73
     4
 74
     0
 42
0.0000000001
 43
0.0000000001
 40
0.0
 40
0.0
 40
0.0
 40
0.0
 40
0.0005391456522714
 40
0.0005391456522714
 40
0.0005391456522714
 40
0.0005391456522714
 10
1.790403641752662
 20
1.258865002385334
 30
0.0
 10
1.795403591839512
 20
1.253858824573785
 30
0.0
 10
1.800403592639578
 20
1.248852697411897
 30
0.0
 10
1.80540364175266
 20
1.243846618505346
 30
0.0
  0
LINE
  5
D4F
330
1F
100
AcDbEntity
  8
0
  6
Continuous
 62
     7
370
    15
100
AcDbLine
 10
1.790403641752662
 20
1.258865002385334
 30
0.0
 11
1.790403641752661
 21
3.101569807827595
 31
0.0
  0
SPLINE
  5
D50
330
1F
100
AcDbEntity
  8
0
  6
Continuous
 62
     7
370
    15
100
AcDbSpline
210
0.0
220
0.0
230
1.0
 70
     8
 71
     3
 72
     8
 73
     4
 74
     0
 42
0.0000000001
 43
0.0000000001
 40
0.0
 40
0.0
 40
0.0
 40
0.0
 40
0.0005391456522715
 40
0.0005391456522715
 40
0.0005391456522715
 40
0.0005391456522715
 10
1.80540364175266
 20
3.116588191707584
 30
0.0
 10
1.800403592639578
 20
3.111582112801033
 30
0.0
 10
1.795403591839512
 20
3.106575985639144
 30
0.0
 10
1.790403641752661
 20
3.101569807827595
 30
0.0
  0
LINE
  5
D51
330
1F
100
AcDbEntity
  8
0
  6
Continuous
 62
     7
370
    15
100
AcDbLine
 10
2.290403641752661
 20
3.101569807827595
 30
0.0
 11
2.290403641752661
 21
1.258865002385335
 31
0.0
  0
SPLINE
  5
D52
330
1F
100
AcDbEntity
  8
0
  6
Continuous
 62
     7
370
    15
100
AcDbSpline
210
0.0
220
0.0
230
1.0
 70
     8
 71
     3
 72
     8
 73
     4
 74
     0
 42
0.0000000001
 43
0.0000000001
 40
0.0
 40
0.0
 40
0.0
 40
0.0
 40
0.0005391456522715
 40
0.0005391456522715
 40
0.0005391456522715
 40
0.0005391456522715
 10
2.275403641752662
 20
1.243846618505346
 30
0.0
 10
2.280403690865744
 20
1.248852697411897
 30
0.0
 10
2.285403691665811
 20
1.253858824573785
 30
0.0
 10
2.290403641752661
 20
1.258865002385335
 30
0.0
  0
SPLINE
  5
D53
330
1F
100
AcDbEntity
  8
0
  6
Continuous
 62
     7
370
    15
100
AcDbSpline
210
0.0
220
0.0
230
1.0
 70
     8
 71
     3
 72
     8
 73
     4
 74
     0
 42
0.0000000001
 43
0.0000000001
 40
0.0
 40
0.0
 40
0.0
 40
0.0
 40
0.0005391456522715
 40
0.0005391456522715
 40
0.0005391456522715
 40
0.0005391456522715
 10
2.290403641752661
 20
3.101569807827595
 30
0.0
 10
2.285403691665811
 20
3.106575985639145
 30
0.0
 10
2.280403690865744
 20
3.111582112801033
 30
0.0
 10
2.275403641752662
 20
3.116588191707584
 30
0.0
  0
LINE
  5
D54
330
1F
100
AcDbEntity
  8
0
  6
Continuous
 62
     7
370
    15
100
AcDbLine
 10
2.159482134773022
 20
2.919217405106465
 30
0.0
 11
2.099942888262842
 21
2.816092405106465
 31
0.0
  0
CIRCLE
  5
D55
330
1F
100
AcDbEntity
  8
0
  6
Continuous
 62
     7
370
    15
100
AcDbCircle
 10
2.040403641752662
 20
2.919217405106465
 30
0.0
 40
0.1875
  0
LINE
  5
D56
330
1F
100
AcDbEntity
  8
0
  6
Continuous
 62
     7
370
    15
100
AcDbLine
 10
2.099942888262842
 20
2.816092405106465
 30
0.0
 11
1.98086439524248
 21
2.816092405106465
 31
0.0
  0
LINE
  5
D57
330
1F
100
AcDbEntity
  8
0
  6
Continuous
 62
     7
370
    15
100
AcDbLine
 10
1.98086439524248
 20
3.022342405106465
 30
0.0
 11
2.099942888262841
 21
3.022342405106465
 31
0.0
  0
LINE
  5
D58
330
1F
100
AcDbEntity
  8
0
  6
Continuous
 62
     7
370
    15
100
AcDbLine
 10
1.921325148732301
 20
2.919217405106465
 30
0.0
 11
1.98086439524248
 21
3.022342405106465
 31
0.0
  0
LINE
  5
D59
330
1F
100
AcDbEntity
  8
0
  6
Continuous
 62
     7
370
    15
100
AcDbLine
 10
2.099942888262841
 20
3.022342405106465
 30
0.0
 11
2.159482134773022
 21
2.919217405106465
 31
0.0
  0
LINE
  5
D5A
330
1F
100
AcDbEntity
  8
0
  6
Continuous
 62
     7
370
    15
100
AcDbLine
 10
1.98086439524248
 20
2.816092405106465
 30
0.0
 11
1.921325148732301
 21
2.919217405106465
 31
0.0
  0
CIRCLE
  5
D5B
330
1F
100
AcDbEntity
  8
0
  6
Continuous
 62
     7
370
    15
100
AcDbCircle
 10
2.040403641752662
 20
1.441217405106465
 30
0.0
 40
0.1875
  0
LINE
  5
D5C
330
1F
100
AcDbEntity
  8
0
  6
Continuous
 62
     7
370
    15
100
AcDbLine
 10
1.921325148732301
 20
1.441217405106465
 30
0.0
 11
1.98086439524248
 21
1.544342405106465
 31
0.0
  0
LINE
  5
D5D
330
1F
100
AcDbEntity
  8
0
  6
Continuous
 62
     7
370
    15
100
AcDbLine
 10
1.98086439524248
 20
1.544342405106465
 30
0.0
 11
2.099942888262841
 21
1.544342405106465
 31
0.0
  0
LINE
  5
D5E
330
1F
100
AcDbEntity
  8
0
  6
Continuous
 62
     7
370
    15
100
AcDbLine
 10
2.159482134773022
 20
1.441217405106465
 30
0.0
 11
2.099942888262842
 21
1.338092405106465
 31
0.0
  0
LINE
  5
D5F
330
1F
100
AcDbEntity
  8
0
  6
Continuous
 62
     7
370
    15
100
AcDbLine
 10
1.98086439524248
 20
1.338092405106465
 30
0.0
 11
1.921325148732301
 21
1.441217405106465
 31
0.0
  0
LINE
  5
D60
330
1F
100
AcDbEntity
  8
0
  6
Continuous
 62
     7
370
    15
100
AcDbLine
 10
2.099942888262842
 20
1.338092405106465
 30
0.0
 11
1.98086439524248
 21
1.338092405106465
 31
0.0
  0
LINE
  5
D61
330
1F
100
AcDbEntity
  8
0
  6
Continuous
 62
     7
370
    15
100
AcDbLine
 10
2.099942888262841
 20
1.544342405106465
 30
0.0
 11
2.159482134773022
 21
1.441217405106465
 31
0.0
  0
LINE
  5
D62
330
1F
100
AcDbEntity
  8
0
  6
HIDDEN
 62
     7
370
     0
100
AcDbLine
 10
2.135031804056795
 20
1.279347825200473
 30
0.0
 11
1.945775479448527
 21
1.279347825200472
 31
0.0
  0
LINE
  5
D63
330
1F
100
AcDbEntity
  8
0
  6
HIDDEN
 62
     7
370
     0
100
AcDbLine
 10
1.945775479448527
 20
3.081086985012457
 30
0.0
 11
2.135031804056795
 21
3.081086985012457
 31
0.0
  0
SPLINE
  5
D64
330
1F
100
AcDbEntity
  8
0
  6
HIDDEN
 62
     7
370
     0
100
AcDbSpline
210
0.0
220
0.0
230
1.0
 70
     8
 71
     3
 72
    14
 73
    10
 74
     0
 42
0.0000000001
 43
0.0000000001
 40
0.0
 40
0.0
 40
0.0
 40
0.0
 40
0.25
 40
0.25
 40
0.5
 40
0.5
 40
0.75
 40
0.75
 40
1.0
 40
1.0
 40
1.0
 40
1.0
 10
2.290403641752661
 20
2.936319415419888
 30
0.0
 10
2.288419952503762
 20
2.936319415419888
 30
0.0
 10
2.286480638201055
 20
2.935502914629125
 30
0.0
 10
2.283714655400524
 20
2.932728970143249
 30
0.0
 10
2.282904883837591
 20
2.930768463548177
 30
0.0
 10
2.282902402689018
 20
2.926851893406166
 30
0.0
 10
2.283695914028374
 20
2.924902497985644
 30
0.0
 10
2.286492134849929
 20
2.922094241856539
 30
0.0
 10
2.288419951562099
 20
2.921291119388654
 30
0.0
 10
2.290403641752661
 20
2.921291119388655
 30
0.0
  0
SPLINE
  5
D65
330
1F
100
AcDbEntity
  8
0
  6
HIDDEN
 62
     7
370
     0
100
AcDbSpline
210
0.0
220
0.0
230
1.0
 70
     8
 71
     3
 72
    14
 73
    10
 74
     0
 42
0.0000000001
 43
0.0000000001
 40
0.0
 40
0.0
 40
0.0
 40
0.0
 40
0.25
 40
0.25
 40
0.5
 40
0.5
 40
0.75
 40
0.75
 40
1.0
 40
1.0
 40
1.0
 40
1.0
 10
2.290403641752661
 20
1.439143690824275
 30
0.0
 10
2.288419951568855
 20
1.439143690824275
 30
0.0
 10
2.286480658497133
 20
1.438327118010919
 30
0.0
 10
2.283714728286204
 20
1.435553126960232
 30
0.0
 10
2.282904933655281
 20
1.433592642569935
 30
0.0
 10
2.282902353118238
 20
1.429676079772736
 30
0.0
 10
2.283695837751574
 20
1.427726659848242
 30
0.0
 10
2.286492109346285
 20
1.424918448564654
 30
0.0
 10
2.288419953491127
 20
1.424115394793041
 30
0.0
 10
2.290403641752661
 20
1.424115394793041
 30
0.0
  0
LINE
  5
D66
330
1F
100
AcDbEntity
  8
0
  6
HIDDEN
 62
     7
370
     0
100
AcDbLine
 10
2.275403641752662
 20
1.619601449215091
 30
0.0
 11
1.805403641752662
 21
1.619601449215091
 31
0.0
  0
SPLINE
  5
D67
330
1F
100
AcDbEntity
  8
0
  6
HIDDEN
 62
     7
370
     0
100
AcDbSpline
210
0.0
220
0.0
230
1.0
 70
     8
 71
     3
 72
     8
 73
     4
 74
     0
 42
0.0000000001
 43
0.0000000001
 40
0.0
 40
0.0
 40
0.0
 40
0.0
 40
0.000539697846165
 40
0.000539697846165
 40
0.000539697846165
 40
0.000539697846165
 10
1.805403641752661
 20
1.619601449215091
 30
0.0
 10
1.800403861035055
 20
1.614584865894372
 30
0.0
 10
1.795403855311856
 20
1.609568506817043
 30
0.0
 10
1.790403641752661
 20
1.604552354925371
 30
0.0
  0
SPLINE
  5
D68
330
1F
100
AcDbEntity
  8
0
  6
HIDDEN
 62
     7
370
     0
100
AcDbSpline
210
0.0
220
0.0
230
1.0
 70
     8
 71
     3
 72
     8
 73
     4
 74
     0
 42
0.0000000001
 43
0.0000000001
 40
0.0
 40
0.0
 40
0.0
 40
0.0
 40
0.000539697846165
 40
0.000539697846165
 40
0.000539697846165
 40
0.000539697846165
 10
2.275403641752662
 20
1.619601449215091
 30
0.0
 10
2.280403422470268
 20
1.614584865894371
 30
0.0
 10
2.285403428193466
 20
1.609568506817043
 30
0.0
 10
2.290403641752662
 20
1.604552354925371
 30
0.0
  0
CIRCLE
  5
D69
330
1F
100
AcDbEntity
  8
0
  6
HIDDEN
 62
     7
370
     0
100
AcDbCircle
 10
2.040403641752662
 20
1.441217405106465
 30
0.0
 40
0.1250000000000009
  0
CIRCLE
  5
D6A
330
1F
100
AcDbEntity
  8
0
  6
HIDDEN
 62
     7
370
     0
100
AcDbCircle
 10
2.040403641752662
 20
2.919217405106465
 30
0.0
 40
0.1250000000000009
  0
LINE
  5
D6B
330
1F
100
AcDbEntity
  8
0
  6
HIDDEN
 62
     7
370
     0
100
AcDbLine
 10
1.805403641752661
 20
2.740833360997839
 30
0.0
 11
2.275403641752662
 21
2.740833360997839
 31
0.0
  0
SPLINE
  5
D6C
330
1F
100
AcDbEntity
  8
0
  6
HIDDEN
 62
     7
370
     0
100
AcDbSpline
210
0.0
220
0.0
230
1.0
 70
     8
 71
     3
 72
     8
 73
     4
 74
     0
 42
0.0000000001
 43
0.0000000001
 40
0.0
 40
0.0
 40
0.0
 40
0.0
 40
0.000539697846165
 40
0.000539697846165
 40
0.000539697846165
 40
0.000539697846165
 10
1.790403641752661
 20
2.755882455287559
 30
0.0
 10
1.795403855311856
 20
2.750866303395887
 30
0.0
 10
1.800403861035055
 20
2.745849944318559
 30
0.0
 10
1.805403641752661
 20
2.740833360997839
 30
0.0
  0
SPLINE
  5
D6D
330
1F
100
AcDbEntity
  8
0
  6
HIDDEN
 62
     7
370
     0
100
AcDbSpline
210
0.0
220
0.0
230
1.0
 70
     8
 71
     3
 72
     8
 73
     4
 74
     0
 42
0.0000000001
 43
0.0000000001
 40
0.0
 40
0.0
 40
0.0
 40
0.0
 40
0.000539697846165
 40
0.000539697846165
 40
0.000539697846165
 40
0.000539697846165
 10
2.290403641752662
 20
2.755882455287559
 30
0.0
 10
2.285403428193466
 20
2.750866303395887
 30
0.0
 10
2.280403422470268
 20
2.745849944318559
 30
0.0
 10
2.275403641752662
 20
2.740833360997839
 30
0.0
  0
SPLINE
  5
D6E
330
1F
100
AcDbEntity
  8
0
  6
HIDDEN
 62
     7
370
     0
100
AcDbSpline
210
0.0
220
0.0
230
1.0
 70
     8
 71
     3
 72
     8
 73
     4
 74
     0
 42
0.0000000001
 43
0.0000000001
 40
0.0
 40
0.0
 40
0.0
 40
0.0
 40
0.0005397368641287
 40
0.0005397368641287
 40
0.0005397368641287
 40
0.0005397368641287
 10
2.275403641752662
 20
2.740750410379126
 30
0.0
 10
2.280403412733072
 20
2.745767726308832
 30
0.0
 10
2.285403418711677
 20
2.750784808071442
 30
0.0
 10
2.290403641752661
 20
2.755801673480783
 30
0.0
  0
SPLINE
  5
D6F
330
1F
100
AcDbEntity
  8
0
  6
HIDDEN
 62
     7
370
     0
100
AcDbSpline
210
0.0
220
0.0
230
1.0
 70
     8
 71
     3
 72
     8
 73
     4
 74
     0
 42
0.0000000001
 43
0.0000000001
 40
0.0
 40
0.0
 40
0.0
 40
0.0
 40
0.0005397368641287
 40
0.0005397368641287
 40
0.0005397368641287
 40
0.0005397368641287
 10
2.290403641752661
 20
1.604633136732147
 30
0.0
 10
2.285403418711677
 20
1.609650002141488
 30
0.0
 10
2.280403412733072
 20
1.614667083904098
 30
0.0
 10
2.275403641752662
 20
1.619684399833805
 30
0.0
  0
LINE
  5
D70
330
1F
100
AcDbEntity
  8
0
  6
HIDDEN
 62
     7
370
     0
100
AcDbLine
 10
2.275403641752662
 20
1.619684399833803
 30
0.0
 11
1.805403641752661
 21
1.619684399833803
 31
0.0
  0
LINE
  5
D71
330
1F
100
AcDbEntity
  8
0
  6
HIDDEN
 62
     7
370
     0
100
AcDbLine
 10
1.805403641752661
 20
2.740750410379126
 30
0.0
 11
2.275403641752662
 21
2.740750410379126
 31
0.0
  0
SPLINE
  5
D72
330
1F
100
AcDbEntity
  8
0
  6
HIDDEN
 62
     7
370
     0
100
AcDbSpline
210
0.0
220
0.0
230
1.0
 70
     8
 71
     3
 72
     8
 73
     4
 74
     0
 42
0.0000000001
 43
0.0000000001
 40
0.0
 40
0.0
 40
0.0
 40
0.0
 40
0.0005397368641287
 40
0.0005397368641287
 40
0.0005397368641287
 40
0.0005397368641287
 10
1.80540364175266
 20
1.619684399833805
 30
0.0
 10
1.80040387077225
 20
1.614667083904098
 30
0.0
 10
1.795403864793645
 20
1.609650002141488
 30
0.0
 10
1.790403641752662
 20
1.604633136732147
 30
0.0
  0
SPLINE
  5
D73
330
1F
100
AcDbEntity
  8
0
  6
HIDDEN
 62
     7
370
     0
100
AcDbSpline
210
0.0
220
0.0
230
1.0
 70
     8
 71
     3
 72
     8
 73
     4
 74
     0
 42
0.0000000001
 43
0.0000000001
 40
0.0
 40
0.0
 40
0.0
 40
0.0
 40
0.0005397368641287
 40
0.0005397368641287
 40
0.0005397368641287
 40
0.0005397368641287
 10
1.790403641752662
 20
2.755801673480783
 30
0.0
 10
1.795403864793645
 20
2.750784808071442
 30
0.0
 10
1.80040387077225
 20
2.745767726308832
 30
0.0
 10
1.805403641752661
 20
2.740750410379126
 30
0.0
  0
SPLINE
  5
D74
330
1F
100
AcDbEntity
  8
0
  6
HIDDEN
 62
     7
370
     0
100
AcDbSpline
210
0.0
220
0.0
230
1.0
 70
     8
 71
     3
 72
     8
 73
     4
 74
     0
 42
0.0000000001
 43
0.0000000001
 40
0.0
 40
0.0
 40
0.0
 40
0.0
 40
0.0005391602010996
 40
0.0005391602010996
 40
0.0005391602010996
 40
0.0005391602010996
 10
2.275403641752662
 20
3.116538530575714
 30
0.0
 10
2.28040369303256
 20
3.111532183984359
 30
0.0
 10
2.285403693867994
 20
3.106525787011411
 30
0.0
 10
2.290403641752661
 20
3.101519337156974
 30
0.0
  0
SPLINE
  5
D75
330
1F
100
AcDbEntity
  8
0
  6
HIDDEN
 62
     7
370
     0
100
AcDbSpline
210
0.0
220
0.0
230
1.0
 70
     8
 71
     3
 72
     8
 73
     4
 74
     0
 42
0.0000000001
 43
0.0000000001
 40
0.0
 40
0.0
 40
0.0
 40
0.0
 40
0.0005391602010996
 40
0.0005391602010996
 40
0.0005391602010996
 40
0.0005391602010996
 10
1.790403641752662
 20
3.101519337156974
 30
0.0
 10
1.795403589637329
 20
3.106525787011411
 30
0.0
 10
1.800403590472762
 20
3.111532183984359
 30
0.0
 10
1.805403641752661
 20
3.116538530575714
 30
0.0
  0
LINE
  5
D76
330
1F
100
AcDbEntity
  8
0
  6
HIDDEN
 62
     7
370
     0
100
AcDbLine
 10
2.275403641752662
 20
3.116538530575714
 30
0.0
 11
1.805403641752661
 21
3.116538530575714
 31
0.0
  0
SPLINE
  5
D77
330
1F
100
AcDbEntity
  8
0
  6
HIDDEN
 62
     7
370
     0
100
AcDbSpline
210
0.0
220
0.0
230
1.0
 70
     8
 71
     3
 72
     8
 73
     4
 74
     0
 42
0.0000000001
 43
0.0000000001
 40
0.0
 40
0.0
 40
0.0
 40
0.0
 40
0.0005391602010996
 40
0.0005391602010996
 40
0.0005391602010996
 40
0.0005391602010996
 10
2.290403641752661
 20
1.258915473055956
 30
0.0
 10
2.285403693867994
 20
1.253909023201519
 30
0.0
 10
2.28040369303256
 20
1.248902626228571
 30
0.0
 10
2.275403641752662
 20
1.243896279637216
 30
0.0
  0
SPLINE
  5
D78
330
1F
100
AcDbEntity
  8
0
  6
HIDDEN
 62
     7
370
     0
100
AcDbSpline
210
0.0
220
0.0
230
1.0
 70
     8
 71
     3
 72
     8
 73
     4
 74
     0
 42
0.0000000001
 43
0.0000000001
 40
0.0
 40
0.0
 40
0.0
 40
0.0
 40
0.0005391602010996
 40
0.0005391602010996
 40
0.0005391602010996
 40
0.0005391602010996
 10
1.805403641752661
 20
1.243896279637216
 30
0.0
 10
1.800403590472762
 20
1.248902626228571
 30
0.0
 10
1.795403589637329
 20
1.253909023201519
 30
0.0
 10
1.790403641752661
 20
1.258915473055956
 30
0.0
  0
LINE
  5
D79
330
1F
100
AcDbEntity
  8
0
  6
HIDDEN
 62
     7
370
     0
100
AcDbLine
 10
1.805403641752661
 20
1.243896279637216
 30
0.0
 11
2.275403641752662
 21
1.243896279637216
 31
0.0
  0
CIRCLE
  5
D7A
330
1F
100
AcDbEntity
  8
0
  6
HIDDEN
 62
     7
370
     0
100
AcDbCircle
 10
2.040403641752662
 20
1.441217405106465
 30
0.0
 40
0.1056499999999998
  0
CIRCLE
  5
D7B
330
1F
100
AcDbEntity
  8
0
  6
HIDDEN
 62
     7
370
     0
100
AcDbCircle
 10
2.040403641752662
 20
2.919217405106465
 30
0.0
 40
0.1056499999999998
  0
LINE
  5
D7C
330
1F
100
AcDbEntity
  8
0
  6
HIDDEN
 62
     7
370
     0
100
AcDbLine
 10
2.282903641752662
 20
2.928802569318326
 30
0.0
 11
2.282903641752662
 21
1.431629910400498
 31
0.0
  0
DIMENSION
  5
D7D
330
1F
100
AcDbEntity
  8
DIM
100
AcDbDimension
  2
*D9
 10
1.396702854351087
 20
3.116588191707584
 30
0.0
 11
1.396702854351087
 21
2.180217405106465
 31
0.0
 70
   160
 71
     2
 42
1.872741573202237
  3
Standard
100
AcDbAlignedDimension
 13
1.80540364175266
 23
1.243846618505346
 33
0.0
 14
1.80540364175266
 24
3.116588191707584
 34
0.0
 50
90.00000000000019
100
AcDbRotatedDimension
  0
INSERT
  5
D7E
330
1F
100
AcDbEntity
  8
0
  6
Continuous
 62
     7
370
     0
100
AcDbBlockReference
  2
SW_CENTERMARKSYMBOL_0
 10
2.040403641752662
 20
1.441217405106465
 30
0.0
  0
INSERT
  5
D7F
330
1F
100
AcDbEntity
  8
0
  6
Continuous
 62
     7
370
     0
100
AcDbBlockReference
  2
SW_CENTERMARKSYMBOL_1
 10
2.040403641752662
 20
2.919217405106465
 30
0.0
  0
SPLINE
  5
D80
330
1F
100
AcDbEntity
  8
0
  6
Continuous
 62
     7
370
    15
100
AcDbSpline
210
0.0
220
0.0
230
1.0
 70
    24
 71
     1
 72
     4
 73
     2
 74
     0
 42
0.0000000001
 43
0.0000000001
 40
0.0
 40
0.0
 40
1.0
 40
1.0
 10
1.805403641752661
 20
3.94938036177466
 30
0.0
 10
2.275403641752662
 20
3.94938036177466
 30
0.0
  0
SPLINE
  5
D81
330
1F
100
AcDbEntity
  8
0
  6
Continuous
 62
     7
370
    15
100
AcDbSpline
210
0.0
220
0.0
230
1.0
 70
    24
 71
     1
 72
     4
 73
     2
 74
     0
 42
0.0000000001
 43
0.0000000001
 40
0.0
 40
0.0
 40
1.0
 40
1.0
 10
1.790403641752662
 20
3.964380361774661
 30
0.0
 10
1.805403641752661
 20
3.94938036177466
 30
0.0
  0
SPLINE
  5
D82
330
1F
100
AcDbEntity
  8
0
  6
Continuous
 62
     7
370
    15
100
AcDbSpline
210
0.0
220
0.0
230
1.0
 70
    24
 71
     1
 72
     4
 73
     2
 74
     0
 42
0.0000000001
 43
0.0000000001
 40
0.0
 40
0.0
 40
1.0
 40
1.0
 10
2.275403641752662
 20
3.94938036177466
 30
0.0
 10
2.290403641752661
 20
3.964380361774661
 30
0.0
  0
SPLINE
  5
D83
330
1F
100
AcDbEntity
  8
0
  6
Continuous
 62
     7
370
    15
100
AcDbSpline
210
0.0
220
0.0
230
1.0
 70
    24
 71
     1
 72
     4
 73
     2
 74
     0
 42
0.0000000001
 43
0.0000000001
 40
0.0
 40
0.0
 40
1.0
 40
1.0
 10
1.805403641752661
 20
5.824380361774661
 30
0.0
 10
1.790403641752662
 20
5.80938036177466
 30
0.0
  0
SPLINE
  5
D84
330
1F
100
AcDbEntity
  8
0
  6
Continuous
 62
     7
370
    15
100
AcDbSpline
210
0.0
220
0.0
230
1.0
 70
    24
 71
     1
 72
     4
 73
     2
 74
     0
 42
0.0000000001
 43
0.0000000001
 40
0.0
 40
0.0
 40
1.0
 40
1.0
 10
2.275403641752662
 20
5.824380361774661
 30
0.0
 10
1.805403641752661
 20
5.824380361774661
 30
0.0
  0
SPLINE
  5
D85
330
1F
100
AcDbEntity
  8
0
  6
Continuous
 62
     7
370
    15
100
AcDbSpline
210
0.0
220
0.0
230
1.0
 70
    24
 71
     1
 72
     4
 73
     2
 74
     0
 42
0.0000000001
 43
0.0000000001
 40
0.0
 40
0.0
 40
1.0
 40
1.0
 10
2.290403641752662
 20
5.80938036177466
 30
0.0
 10
2.275403641752662
 20
5.824380361774661
 30
0.0
  0
SPLINE
  5
D86
330
1F
100
AcDbEntity
  8
0
  6
Continuous
 62
     7
370
    15
100
AcDbSpline
210
0.0
220
0.0
230
1.0
 70
    24
 71
     1
 72
     4
 73
     2
 74
     0
 42
0.0000000001
 43
0.0000000001
 40
0.0
 40
0.0
 40
1.0
 40
1.0
 10
1.852903641752662
 20
4.387943912960015
 30
0.0
 10
1.852903641752662
 20
4.377380361774658
 30
0.0
  0
SPLINE
  5
D87
330
1F
100
AcDbEntity
  8
0
  6
Continuous
 62
     7
370
    15
100
AcDbSpline
210
0.0
220
0.0
230
1.0
 70
    24
 71
     1
 72
     4
 73
     2
 74
     0
 42
0.0000000001
 43
0.0000000001
 40
0.0
 40
0.0
 40
1.0
 40
1.0
 10
2.227903641752662
 20
4.377380361774658
 30
0.0
 10
2.227903641752662
 20
4.388465408245128
 30
0.0
  0
SPLINE
  5
D88
330
1F
100
AcDbEntity
  8
0
  6
Continuous
 62
     7
370
    15
100
AcDbSpline
210
0.0
220
0.0
230
1.0
 70
    24
 71
     1
 72
     4
 73
     2
 74
     0
 42
0.0000000001
 43
0.0000000001
 40
0.0
 40
0.0
 40
1.0
 40
1.0
 10
1.915403641752661
 20
4.933880361774658
 30
0.0
 10
1.915403641752661
 20
4.840880361774658
 30
0.0
  0
SPLINE
  5
D89
330
1F
100
AcDbEntity
  8
0
  6
Continuous
 62
     7
370
    15
100
AcDbSpline
210
0.0
220
0.0
230
1.0
 70
    24
 71
     1
 72
     4
 73
     2
 74
     0
 42
0.0000000001
 43
0.0000000001
 40
0.0
 40
0.0
 40
1.0
 40
1.0
 10
2.165403641752662
 20
4.840880361774658
 30
0.0
 10
2.165403641752662
 20
4.933880361774658
 30
0.0
  0
LINE
  5
D8A
330
1F
100
AcDbEntity
  8
0
  6
Continuous
 62
     7
370
    15
100
AcDbLine
 10
2.275403641752662
 20
3.949380361774661
 30
0.0
 11
2.275403641752662
 21
4.840880361774656
 31
0.0
  0
LINE
  5
D8B
330
1F
100
AcDbEntity
  8
0
  6
Continuous
 62
     7
370
    15
100
AcDbLine
 10
1.805403641752661
 20
3.949380361774661
 30
0.0
 11
1.80540364175266
 21
4.840880361774656
 31
0.0
  0
LINE
  5
D8C
330
1F
100
AcDbEntity
  8
0
  6
Continuous
 62
     7
370
    15
100
AcDbLine
 10
2.275403641752662
 20
4.840880361774656
 30
0.0
 11
1.80540364175266
 21
4.840880361774656
 31
0.0
  0
LINE
  5
D8D
330
1F
100
AcDbEntity
  8
0
  6
Continuous
 62
     7
370
    15
100
AcDbLine
 10
1.945775479448527
 20
4.627380361774658
 30
0.0
 11
1.930774771918764
 21
4.627380361774658
 31
0.0
  0
SPLINE
  5
D8E
330
1F
100
AcDbEntity
  8
0
  6
Continuous
 62
     7
370
    15
100
AcDbSpline
210
0.0
220
0.0
230
1.0
 70
     8
 71
     3
 72
    62
 73
    58
 74
     0
 42
0.0000000001
 43
0.0000000001
 40
0.0
 40
0.0
 40
0.0
 40
0.0
 40
0.0625000000000003
 40
0.0625000000000003
 40
0.1250000000000006
 40
0.1250000000000006
 40
0.1875000000000009
 40
0.1875000000000009
 40
0.2500000000000013
 40
0.2500000000000013
 40
0.3125000000000016
 40
0.3125000000000016
 40
0.3437500000000018
 40
0.3437500000000018
 40
0.3750000000000019
 40
0.3750000000000019
 40
0.4062500000000021
 40
0.4062500000000021
 40
0.4218750000000021
 40
0.4218750000000021
 40
0.437500000000002
 40
0.437500000000002
 40
0.4687500000000019
 40
0.4687500000000019
 40
0.4843750000000017
 40
0.4843750000000017
 40
0.5000000000000016
 40
0.5000000000000016
 40
0.5312500000000013
 40
0.5312500000000013
 40
0.5468750000000011
 40
0.5468750000000011
 40
0.562500000000001
 40
0.562500000000001
 40
0.5781250000000009
 40
0.5781250000000009
 40
0.5937500000000007
 40
0.5937500000000007
 40
0.6250000000000008
 40
0.6250000000000008
 40
0.6406250000000007
 40
0.6406250000000007
 40
0.6562500000000007
 40
0.6562500000000007
 40
0.6875000000000007
 40
0.6875000000000007
 40
0.7187500000000006
 40
0.7187500000000006
 40
0.7500000000000005
 40
0.7500000000000005
 40
0.8125000000000003
 40
0.8125000000000003
 40
0.8750000000000001
 40
0.8750000000000001
 40
0.9375000000000001
 40
0.9375000000000001
 40
1.0
 40
1.0
 40
1.0
 40
1.0
 10
2.150032511586557
 20
4.627380361774658
 30
0.0
 10
2.161748004718854
 20
4.599835231474967
 30
0.0
 10
2.172633751298586
 20
4.572596312869785
 30
0.0
 10
2.192515093303692
 20
4.51869680372528
 30
0.0
 10
2.201510372132836
 20
4.492035308728999
 30
0.0
 10
2.217015581183508
 20
4.439201753804557
 30
0.0
 10
2.223538533828238
 20
4.413031609294877
 30
0.0
 10
2.232982199279886
 20
4.361028343597173
 30
0.0
 10
2.235817508448189
 20
4.335687464209547
 30
0.0
 10
2.235985983103061
 20
4.286531773167695
 30
0.0
 10
2.233337654719322
 20
4.263284343205686
 30
0.0
 10
2.22349072430469
 20
4.23054263854193
 30
0.0
 10
2.219174639681638
 20
4.219903739911403
 30
0.0
 10
2.208166159009727
 20
4.199728737214336
 30
0.0
 10
2.20154864309418
 20
4.190290858930985
 30
0.0
 10
2.185655365310894
 20
4.172739091716013
 30
0.0
 10
2.176268015696121
 20
4.164574352500475
 30
0.0
 10
2.160415903184068
 20
4.153888464865152
 30
0.0
 10
2.154821983427994
 20
4.150564802337522
 30
0.0
 10
2.142964756482351
 20
4.144399193720695
 30
0.0
 10
2.136652048277626
 20
4.141538622440692
 30
0.0
 10
2.116973300737208
 20
4.13385920243331
 30
0.0
 10
2.103026554594817
 20
4.129959172517159
 30
0.0
 10
2.080782069638875
 20
4.125902796855168
 30
0.0
 10
2.073074755164188
 20
4.124850004076047
 30
0.0
 10
2.057671876933669
 20
4.123432446904941
 30
0.0
 10
2.049948328325572
 20
4.123056094821111
 30
0.0
 10
2.026712140263486
 20
4.122903927397029
 30
0.0
 10
2.010930226989954
 20
4.124148228895475
 30
0.0
 10
1.988543792794787
 20
4.127915434880663
 30
0.0
 10
1.981247810213808
 20
4.129484483763915
 30
0.0
 10
1.96698331499004
 20
4.133261801210839
 30
0.0
 10
1.960017261792415
 20
4.135476634649947
 30
0.0
 10
1.946792577775386
 20
4.140424893196186
 30
0.0
 10
1.940479779357568
 20
4.143171184000008
 30
0.0
 10
1.928418298292193
 20
4.149206403807855
 30
0.0
 10
1.922639282624067
 20
4.152516757173878
 30
0.0
 10
1.906383467555695
 20
4.163114699478114
 30
0.0
 10
1.896987607486714
 20
4.171029228086574
 30
0.0
 10
1.88471718892014
 20
4.18414682926139
 30
0.0
 10
1.880939834947208
 20
4.188728467628502
 30
0.0
 10
1.874087190609588
 20
4.198122196478108
 30
0.0
 10
1.870989889282014
 20
4.2029565809776
 30
0.0
 10
1.862579022645521
 20
4.217862311907829
 30
0.0
 10
1.858141206807676
 20
4.228335136658181
 30
0.0
 10
1.851230854051448
 20
4.25033710263359
 30
0.0
 10
1.848800492541815
 20
4.261760474703862
 30
0.0
 10
1.845653954320609
 20
4.285136030376641
 30
0.0
 10
1.844925810973554
 20
4.297134462599146
 30
0.0
 10
1.844860791141186
 20
4.334054890173321
 30
0.0
 10
1.847597056673789
 20
4.359230407496927
 30
0.0
 10
1.856759628860316
 20
4.41072886523003
 30
0.0
 10
1.863238239123891
 20
4.437141128176524
 30
0.0
 10
1.878899246854731
 20
4.490844741515875
 30
0.0
 10
1.887992960857452
 20
4.517851788408712
 30
0.0
 10
1.908047792408781
 20
4.572288503636995
 30
0.0
 10
1.919009798396496
 20
4.599718894606031
 30
0.0
 10
1.930774771918765
 20
4.627380361774658
 30
0.0
  0
LINE
  5
D8F
330
1F
100
AcDbEntity
  8
0
  6
Continuous
 62
     7
370
    15
100
AcDbLine
 10
2.150032511586559
 20
4.627380361774658
 30
0.0
 11
2.135031804056795
 21
4.627380361774658
 31
0.0
  0
LINE
  5
D90
330
1F
100
AcDbEntity
  8
0
  6
Continuous
 62
     7
370
    15
100
AcDbLine
 10
1.790403641752662
 20
3.964380361774661
 30
0.0
 11
1.790403641752661
 21
4.840880361774656
 31
0.0
  0
SPLINE
  5
D91
330
1F
100
AcDbEntity
  8
0
  6
Continuous
 62
     7
370
    15
100
AcDbSpline
210
0.0
220
0.0
230
1.0
 70
    24
 71
     3
 72
     8
 73
     4
 74
     0
 42
0.0000000001
 43
0.0000000001
 40
0.0
 40
0.0
 40
0.0
 40
0.0
 40
0.0005391456522715
 40
0.0005391456522715
 40
0.0005391456522715
 40
0.0005391456522715
 10
1.80540364175266
 20
4.840880361774656
 30
0.0
 10
1.800403592639578
 20
4.840880361774656
 30
0.0
 10
1.795403591839512
 20
4.840880361774656
 30
0.0
 10
1.790403641752661
 20
4.840880361774656
 30
0.0
  0
LINE
  5
D92
330
1F
100
AcDbEntity
  8
0
  6
Continuous
 62
     7
370
    15
100
AcDbLine
 10
2.290403641752661
 20
4.840880361774656
 30
0.0
 11
2.290403641752661
 21
3.964380361774661
 31
0.0
  0
SPLINE
  5
D93
330
1F
100
AcDbEntity
  8
0
  6
Continuous
 62
     7
370
    15
100
AcDbSpline
210
0.0
220
0.0
230
1.0
 70
    24
 71
     3
 72
     8
 73
     4
 74
     0
 42
0.0000000001
 43
0.0000000001
 40
0.0
 40
0.0
 40
0.0
 40
0.0
 40
0.0005391456522715
 40
0.0005391456522715
 40
0.0005391456522715
 40
0.0005391456522715
 10
2.290403641752661
 20
4.840880361774656
 30
0.0
 10
2.285403691665811
 20
4.840880361774656
 30
0.0
 10
2.280403690865744
 20
4.840880361774656
 30
0.0
 10
2.275403641752662
 20
4.840880361774656
 30
0.0
  0
LINE
  5
D94
330
1F
100
AcDbEntity
  8
0
  6
Continuous
 62
     7
370
    15
100
AcDbLine
 10
1.805403641752661
 20
5.824380361774661
 30
0.0
 11
1.805403641752661
 21
4.933880361774658
 31
0.0
  0
SPLINE
  5
D95
330
1F
100
AcDbEntity
  8
0
  6
Continuous
 62
     7
370
    15
100
AcDbSpline
210
0.0
220
0.0
230
1.0
 70
    24
 71
     3
 72
     8
 73
     4
 74
     0
 42
0.0000000001
 43
0.0000000001
 40
0.0
 40
0.0
 40
0.0
 40
0.0
 40
0.0005391602010996
 40
0.0005391602010996
 40
0.0005391602010996
 40
0.0005391602010996
 10
1.790403641752662
 20
4.933880361774658
 30
0.0
 10
1.795403589637329
 20
4.933880361774658
 30
0.0
 10
1.800403590472762
 20
4.933880361774658
 30
0.0
 10
1.805403641752661
 20
4.933880361774658
 30
0.0
  0
LINE
  5
D96
330
1F
100
AcDbEntity
  8
0
  6
Continuous
 62
     7
370
    15
100
AcDbLine
 10
1.790403641752662
 20
4.933880361774658
 30
0.0
 11
1.790403641752662
 21
5.809380361774659
 31
0.0
  0
LINE
  5
D97
330
1F
100
AcDbEntity
  8
0
  6
Continuous
 62
     7
370
    15
100
AcDbLine
 10
2.275403641752662
 20
4.933880361774658
 30
0.0
 11
2.275403641752662
 21
5.824380361774661
 31
0.0
  0
LINE
  5
D98
330
1F
100
AcDbEntity
  8
0
  6
Continuous
 62
     7
370
    15
100
AcDbLine
 10
2.275403641752662
 20
4.933880361774658
 30
0.0
 11
1.805403641752661
 21
4.933880361774658
 31
0.0
  0
SPLINE
  5
D99
330
1F
100
AcDbEntity
  8
0
  6
Continuous
 62
     7
370
    15
100
AcDbSpline
210
0.0
220
0.0
230
1.0
 70
    11
 71
     3
 72
    70
 73
    66
 74
     0
 42
0.0000000001
 43
0.0000000001
 40
0.0
 40
0.0
 40
0.0
 40
0.0
 40
0.03125
 40
0.03125
 40
0.0624999999999999
 40
0.0624999999999999
 40
0.0937499999999998
 40
0.0937499999999998
 40
0.1249999999999998
 40
0.1249999999999998
 40
0.1562499999999997
 40
0.1562499999999997
 40
0.1874999999999996
 40
0.1874999999999996
 40
0.2187499999999996
 40
0.2187499999999996
 40
0.2499999999999995
 40
0.2499999999999995
 40
0.3124999999999993
 40
0.3124999999999993
 40
0.3749999999999991
 40
0.3749999999999991
 40
0.4062499999999988
 40
0.4062499999999988
 40
0.4374999999999984
 40
0.4374999999999984
 40
0.4687499999999982
 40
0.4687499999999982
 40
0.4843749999999982
 40
0.4843749999999982
 40
0.4999999999999981
 40
0.4999999999999981
 40
0.5156249999999981
 40
0.5156249999999981
 40
0.5312499999999979
 40
0.5312499999999979
 40
0.5624999999999981
 40
0.5624999999999981
 40
0.5937499999999981
 40
0.5937499999999981
 40
0.6249999999999982
 40
0.6249999999999982
 40
0.6874999999999983
 40
0.6874999999999983
 40
0.7499999999999984
 40
0.7499999999999984
 40
0.7812499999999984
 40
0.7812499999999984
 40
0.8124999999999985
 40
0.8124999999999985
 40
0.8437499999999987
 40
0.8437499999999987
 40
0.8749999999999989
 40
0.8749999999999989
 40
0.9062499999999991
 40
0.9062499999999991
 40
0.9374999999999992
 40
0.9374999999999992
 40
0.9531249999999994
 40
0.9531249999999994
 40
0.9687499999999996
 40
0.9687499999999996
 40
0.9843749999999998
 40
0.9843749999999998
 40
1.0
 40
1.0
 40
1.0
 40
1.0
 10
2.040403641752661
 20
5.578092360730115
 30
0.0
 10
2.04997481563624
 20
5.578092360730115
 30
0.0
 10
2.059228747001227
 20
5.576928376592862
 30
0.0
 10
2.077148486853311
 20
5.572403893367061
 30
0.0
 10
2.085318014448279
 20
5.569165198610047
 30
0.0
 10
2.100299154718492
 20
5.560997571674157
 30
0.0
 10
2.106791300021193
 20
5.556241321156006
 30
0.0
 10
2.118200494860744
 20
5.545627916239698
 30
0.0
 10
2.123098155137654
 20
5.539746476748428
 30
0.0
 10
2.131220458646299
 20
5.527481734176287
 30
0.0
 10
2.134514717311116
 20
5.521034185392808
 30
0.0
 10
2.139832964924186
 20
5.507556587806151
 30
0.0
 10
2.141831333990474
 20
5.500563932947704
 30
0.0
 10
2.144662280498051
 20
5.486381661655094
 30
0.0
 10
2.145510175316548
 20
5.479149721016469
 30
0.0
 10
2.146216956210187
 20
5.46441036156531
 30
0.0
 10
2.146068897575786
 20
5.456897285471512
 30
0.0
 10
2.144304904856311
 20
5.43440249423906
 30
0.0
 10
2.141414973914974
 20
5.419304629653872
 30
0.0
 10
2.132483916598086
 20
5.388924033486423
 30
0.0
 10
2.126403417476301
 20
5.373565774962214
 30
0.0
 10
2.114677516689815
 20
5.351420460859431
 30
0.0
 10
2.11032117914925
 20
5.344157835066862
 30
0.0
 10
2.100391260956833
 20
5.330019578165295
 30
0.0
 10
2.094864972199171
 20
5.323198774045549
 30
0.0
 10
2.082239585002604
 20
5.310677376431026
 30
0.0
 10
2.075142242756995
 20
5.304956996215922
 30
0.0
 10
2.062899265128182
 20
5.298487262195312
 30
0.0
 10
2.058526091878954
 20
5.29669559260283
 30
0.0
 10
2.04947143155325
 20
5.294269341126369
 30
0.0
 10
2.044674809066963
 20
5.293624978747079
 30
0.0
 10
2.035256505006598
 20
5.293706051910382
 30
0.0
 10
2.030503291978478
 20
5.294424856874627
 30
0.0
 10
2.02145574722044
 20
5.296997978702366
 30
0.0
 10
2.017125259518308
 20
5.298843761119416
 30
0.0
 10
2.004947738523987
 20
5.305468064890932
 30
0.0
 10
1.997933108874307
 20
5.311225704956996
 30
0.0
 10
1.98540525530832
 20
5.323820383441699
 30
0.0
 10
1.979982275486909
 20
5.330586014844506
 30
0.0
 10
1.970184659176184
 20
5.344642149269317
 30
0.0
 10
1.965805181123458
 20
5.351984021824062
 30
0.0
 10
1.954141254236073
 20
5.374166650192956
 30
0.0
 10
1.948222856378719
 20
5.389208798461297
 30
0.0
 10
1.939350517727787
 20
5.419504853972862
 30
0.0
 10
1.936430707400631
 20
5.434848580402139
 30
0.0
 10
1.934719012782264
 20
5.45738958582357
 30
0.0
 10
1.934593983699462
 20
5.46488051022186
 30
0.0
 10
1.935335579718958
 20
5.479534464194845
 30
0.0
 10
1.936196244118661
 20
5.486706667749475
 30
0.0
 10
1.939024324006484
 20
5.50073551402391
 30
0.0
 10
1.940989438486128
 20
5.507592386259606
 30
0.0
 10
1.946266923946969
 20
5.520971716016632
 30
0.0
 10
1.949614082505122
 20
5.527532428906223
 30
0.0
 10
1.957760183423295
 20
5.539813942659627
 30
0.0
 10
1.962564385576683
 20
5.54558920888407
 30
0.0
 10
1.974067981448087
 20
5.556288953548971
 30
0.0
 10
1.980565157726656
 20
5.561026153853303
 30
0.0
 10
1.991681016816805
 20
5.567090211557301
 30
0.0
 10
1.995647101640835
 20
5.568944429895134
 30
0.0
 10
2.003849206490787
 20
5.572153042428499
 30
0.0
 10
2.008105232500173
 20
5.57352256127192
 30
0.0
 10
2.016952723233614
 20
5.575764338234197
 30
0.0
 10
2.021582140563314
 20
5.576638497468767
 30
0.0
 10
2.030907576226971
 20
5.577797265108547
 30
0.0
 10
2.035618054810872
 20
5.578092360730115
 30
0.0
 10
2.040403641752661
 20
5.578092360730115
 30
0.0
  0
LINE
  5
D9A
330
1F
100
AcDbEntity
  8
0
  6
Continuous
 62
     7
370
    15
100
AcDbLine
 10
2.290403641752662
 20
5.809380361774659
 30
0.0
 11
2.290403641752661
 21
4.933880361774658
 31
0.0
  0
SPLINE
  5
D9B
330
1F
100
AcDbEntity
  8
0
  6
Continuous
 62
     7
370
    15
100
AcDbSpline
210
0.0
220
0.0
230
1.0
 70
    24
 71
     3
 72
     8
 73
     4
 74
     0
 42
0.0000000001
 43
0.0000000001
 40
0.0
 40
0.0
 40
0.0
 40
0.0
 40
0.0005391602010996
 40
0.0005391602010996
 40
0.0005391602010996
 40
0.0005391602010996
 10
2.275403641752662
 20
4.933880361774658
 30
0.0
 10
2.28040369303256
 20
4.933880361774658
 30
0.0
 10
2.285403693867994
 20
4.933880361774658
 30
0.0
 10
2.290403641752661
 20
4.933880361774658
 30
0.0
  0
LINE
  5
D9C
330
1F
100
AcDbEntity
  8
0
  6
Continuous
 62
     7
370
    15
100
AcDbLine
 10
1.852903641752662
 20
4.377380361774658
 30
0.0
 11
2.227903641752662
 21
4.377380361774658
 31
0.0
  0
LINE
  5
D9D
330
1F
100
AcDbEntity
  8
0
  6
Continuous
 62
     7
370
    15
100
AcDbLine
 10
1.945775479448527
 20
4.627380361774658
 30
0.0
 11
2.135031804056795
 21
4.627380361774658
 31
0.0
  0
SPLINE
  5
D9E
330
1F
100
AcDbEntity
  8
0
  6
HIDDEN
 62
     7
370
     0
100
AcDbSpline
210
0.0
220
0.0
230
1.0
 70
    24
 71
     1
 72
     4
 73
     2
 74
     0
 42
0.0000000001
 43
0.0000000001
 40
0.0
 40
0.0
 40
1.0
 40
1.0
 10
2.043766765322854
 20
5.577886824849441
 30
0.0
 10
2.037640871389417
 20
5.577842282742491
 30
0.0
  0
SPLINE
  5
D9F
330
1F
100
AcDbEntity
  8
0
  6
HIDDEN
 62
     7
370
     0
100
AcDbSpline
210
0.0
220
0.0
230
1.0
 70
     8
 71
     3
 72
     9
 73
     5
 74
     0
 42
0.0000000001
 43
0.0000000001
 40
0.0
 40
0.0
 40
0.0
 40
0.0
 40
0.2212742953911559
 40
1.0
 40
1.0
 40
1.0
 40
1.0
 10
2.031905034219351
 20
5.294633478232823
 30
0.0
 10
2.032505652141384
 20
5.29444176565107
 30
0.0
 10
2.035220011353198
 20
5.293575363245796
 30
0.0
 10
2.038134249555318
 20
5.293624986967918
 30
0.0
 10
2.040403641752662
 20
5.293663630235892
 30
0.0
  0
LINE
  5
DA0
330
1F
100
AcDbEntity
  8
0
  6
HIDDEN
 62
     7
370
     0
100
AcDbLine
 10
1.930774771918764
 20
4.627380361774658
 30
0.0
 11
1.844903641752662
 21
4.627380361774658
 31
0.0
  0
LINE
  5
DA1
330
1F
100
AcDbEntity
  8
0
  6
HIDDEN
 62
     7
370
     0
100
AcDbLine
 10
2.235903641752662
 20
4.627380361774658
 30
0.0
 11
2.150032511586559
 21
4.627380361774658
 31
0.0
  0
LINE
  5
DA2
330
1F
100
AcDbEntity
  8
0
  6
HIDDEN
 62
     7
370
     0
100
AcDbLine
 10
1.915403641757091
 20
5.168130361772874
 30
0.0
 11
2.165403641748232
 21
5.168130361772874
 31
0.0
  0
LINE
  5
DA3
330
1F
100
AcDbEntity
  8
0
  6
HIDDEN
 62
     7
370
     0
100
AcDbLine
 10
2.040403641752662
 20
5.187480361774658
 30
0.0
 11
2.146053641746449
 21
5.187480361774658
 31
0.0
  0
LINE
  5
DA4
330
1F
100
AcDbEntity
  8
0
  6
HIDDEN
 62
     7
370
     0
100
AcDbLine
 10
1.934753641758874
 20
5.187480361774658
 30
0.0
 11
2.040403641752662
 21
5.187480361774658
 31
0.0
  0
LINE
  5
DA5
330
1F
100
AcDbEntity
  8
0
  6
HIDDEN
 62
     7
370
     0
100
AcDbLine
 10
2.159482134773022
 20
4.502380361774658
 30
0.0
 11
2.099942888262841
 21
4.502380361774656
 31
0.0
  0
LINE
  5
DA6
330
1F
100
AcDbEntity
  8
0
  6
HIDDEN
 62
     7
370
     0
100
AcDbLine
 10
1.98086439524248
 20
4.502380361774656
 30
0.0
 11
1.921325148732301
 21
4.502380361774658
 31
0.0
  0
LINE
  5
DA7
330
1F
100
AcDbEntity
  8
0
  6
HIDDEN
 62
     7
370
     0
100
AcDbLine
 10
2.099942888262841
 20
4.502380361774656
 30
0.0
 11
1.98086439524248
 21
4.502380361774656
 31
0.0
  0
LINE
  5
DA8
330
1F
100
AcDbEntity
  8
0
  6
HIDDEN
 62
     7
370
     0
100
AcDbLine
 10
2.099942888262841
 20
4.502380361774656
 30
0.0
 11
2.099942888262841
 21
4.377380361774658
 31
0.0
  0
LINE
  5
DA9
330
1F
100
AcDbEntity
  8
0
  6
HIDDEN
 62
     7
370
     0
100
AcDbLine
 10
1.98086439524248
 20
4.502380361774656
 30
0.0
 11
1.98086439524248
 21
4.377380361774658
 31
0.0
  0
LINE
  5
DAA
330
1F
100
AcDbEntity
  8
0
  6
HIDDEN
 62
     7
370
     0
100
AcDbLine
 10
1.921325148732301
 20
4.502380361774658
 30
0.0
 11
1.921325148732301
 21
4.377380361774658
 31
0.0
  0
LINE
  5
DAB
330
1F
100
AcDbEntity
  8
0
  6
HIDDEN
 62
     7
370
     0
100
AcDbLine
 10
2.159482134773022
 20
4.377380361774658
 30
0.0
 11
2.159482134773022
 21
4.502380361774658
 31
0.0
  0
SPLINE
  5
DAC
330
1F
100
AcDbEntity
  8
0
  6
HIDDEN
 62
     7
370
     0
100
AcDbSpline
210
0.0
220
0.0
230
1.0
 70
    24
 71
     1
 72
     4
 73
     2
 74
     0
 42
0.0000000001
 43
0.0000000001
 40
0.0
 40
0.0
 40
1.0
 40
1.0
 10
1.852903641752662
 20
4.627380361774658
 30
0.0
 10
1.852903641752662
 20
4.387943912960015
 30
0.0
  0
SPLINE
  5
DAD
330
1F
100
AcDbEntity
  8
0
  6
HIDDEN
 62
     7
370
     0
100
AcDbSpline
210
0.0
220
0.0
230
1.0
 70
    24
 71
     1
 72
     4
 73
     2
 74
     0
 42
0.0000000001
 43
0.0000000001
 40
0.0
 40
0.0
 40
1.0
 40
1.0
 10
2.227903641752662
 20
4.388465408245128
 30
0.0
 10
2.227903641752662
 20
4.627380361774658
 30
0.0
  0
SPLINE
  5
DAE
330
1F
100
AcDbEntity
  8
0
  6
HIDDEN
 62
     7
370
     0
100
AcDbSpline
210
0.0
220
0.0
230
1.0
 70
    24
 71
     1
 72
     4
 73
     2
 74
     0
 42
0.0000000001
 43
0.0000000001
 40
0.0
 40
0.0
 40
1.0
 40
1.0
 10
2.235903641752662
 20
4.310004941948704
 30
0.0
 10
2.235903641752662
 20
4.627380361774658
 30
0.0
  0
SPLINE
  5
DAF
330
1F
100
AcDbEntity
  8
0
  6
HIDDEN
 62
     7
370
     0
100
AcDbSpline
210
0.0
220
0.0
230
1.0
 70
    24
 71
     1
 72
     4
 73
     2
 74
     0
 42
0.0000000001
 43
0.0000000001
 40
0.0
 40
0.0
 40
1.0
 40
1.0
 10
1.844903641752662
 20
4.627380361774658
 30
0.0
 10
1.844903641752662
 20
4.31000494194868
 30
0.0
  0
SPLINE
  5
DB0
330
1F
100
AcDbEntity
  8
0
  6
HIDDEN
 62
     7
370
     0
100
AcDbSpline
210
0.0
220
0.0
230
1.0
 70
    24
 71
     1
 72
     4
 73
     2
 74
     0
 42
0.0000000001
 43
0.0000000001
 40
0.0
 40
0.0
 40
1.0
 40
1.0
 10
2.165403641748232
 20
5.168130361772874
 30
0.0
 10
2.146053641746449
 20
5.187480361774658
 30
0.0
  0
SPLINE
  5
DB1
330
1F
100
AcDbEntity
  8
0
  6
HIDDEN
 62
     7
370
     0
100
AcDbSpline
210
0.0
220
0.0
230
1.0
 70
    24
 71
     1
 72
     4
 73
     2
 74
     0
 42
0.0000000001
 43
0.0000000001
 40
0.0
 40
0.0
 40
1.0
 40
1.0
 10
1.934753641758874
 20
5.187480361774658
 30
0.0
 10
1.915403641757091
 20
5.168130361772874
 30
0.0
  0
SPLINE
  5
DB2
330
1F
100
AcDbEntity
  8
0
  6
HIDDEN
 62
     7
370
     0
100
AcDbSpline
210
0.0
220
0.0
230
1.0
 70
    24
 71
     1
 72
     4
 73
     2
 74
     0
 42
0.0000000001
 43
0.0000000001
 40
0.0
 40
0.0
 40
1.0
 40
1.0
 10
1.934753641752662
 20
5.463755781601157
 30
0.0
 10
1.934753641752662
 20
5.187480361774658
 30
0.0
  0
SPLINE
  5
DB3
330
1F
100
AcDbEntity
  8
0
  6
HIDDEN
 62
     7
370
     0
100
AcDbSpline
210
0.0
220
0.0
230
1.0
 70
    24
 71
     1
 72
     4
 73
     2
 74
     0
 42
0.0000000001
 43
0.0000000001
 40
0.0
 40
0.0
 40
1.0
 40
1.0
 10
2.146053641752661
 20
5.187480361774658
 30
0.0
 10
2.146053641752661
 20
5.463755781601157
 30
0.0
  0
ARC
  5
DB4
330
1F
100
AcDbEntity
  8
0
  6
HIDDEN
 62
     7
370
     0
100
AcDbCircle
 10
2.290403641752661
 20
4.13688036177466
 30
0.0
 40
0.0075000000000003
100
AcDbArc
 50
180.0
 51
270.0000000000008
  0
ARC
  5
DB5
330
1F
100
AcDbEntity
  8
0
  6
HIDDEN
 62
     7
370
     0
100
AcDbCircle
 10
2.290403641752661
 20
4.13688036177466
 30
0.0
 40
0.0075000000000003
100
AcDbArc
 50
90.0
 51
180.0
  0
LINE
  5
DB6
330
1F
100
AcDbEntity
  8
0
  6
HIDDEN
 62
     7
370
     0
100
AcDbLine
 10
2.282903641752662
 20
4.840823499582628
 30
0.0
 11
2.28290364175266
 21
4.13688036177466
 31
0.0
  0
ARC
  5
DB7
330
1F
100
AcDbEntity
  8
0
  6
HIDDEN
 62
     7
370
     0
100
AcDbCircle
 10
2.290403641752661
 20
5.636880361774659
 30
0.0
 40
0.0075000000000021
100
AcDbArc
 50
90.0
 51
179.9999999999996
  0
ARC
  5
DB8
330
1F
100
AcDbEntity
  8
0
  6
HIDDEN
 62
     7
370
     0
100
AcDbCircle
 10
2.290403641752661
 20
5.636880361774659
 30
0.0
 40
0.0074999999999985
100
AcDbArc
 50
179.9999999999996
 51
270.0000000000008
  0
LINE
  5
DB9
330
1F
100
AcDbEntity
  8
0
  6
HIDDEN
 62
     7
370
     0
100
AcDbLine
 10
2.282903641752662
 20
5.636880361774659
 30
0.0
 11
2.282903641752662
 21
4.933907938769042
 31
0.0
  0
SPLINE
  5
DBA
330
1F
100
AcDbEntity
  8
0
  6
HIDDEN
 62
     7
370
     0
100
AcDbSpline
210
0.0
220
0.0
230
1.0
 70
    24
 71
     1
 72
     4
 73
     2
 74
     0
 42
0.0000000001
 43
0.0000000001
 40
0.0
 40
0.0
 40
1.0
 40
1.0
 10
1.790403641752661
 20
4.30938036177466
 30
0.0
 10
1.805403641752661
 20
4.324380361774661
 30
0.0
  0
SPLINE
  5
DBB
330
1F
100
AcDbEntity
  8
0
  6
HIDDEN
 62
     7
370
     0
100
AcDbSpline
210
0.0
220
0.0
230
1.0
 70
    24
 71
     1
 72
     4
 73
     2
 74
     0
 42
0.0000000001
 43
0.0000000001
 40
0.0
 40
0.0
 40
1.0
 40
1.0
 10
2.275403641752662
 20
4.324380361774661
 30
0.0
 10
2.290403641752661
 20
4.30938036177466
 30
0.0
  0
SPLINE
  5
DBC
330
1F
100
AcDbEntity
  8
0
  6
HIDDEN
 62
     7
370
     0
100
AcDbSpline
210
0.0
220
0.0
230
1.0
 70
    24
 71
     1
 72
     4
 73
     2
 74
     0
 42
0.0000000001
 43
0.0000000001
 40
0.0
 40
0.0
 40
1.0
 40
1.0
 10
1.805403641752661
 20
5.449380361774659
 30
0.0
 10
1.790403641752662
 20
5.464380361774662
 30
0.0
  0
SPLINE
  5
DBD
330
1F
100
AcDbEntity
  8
0
  6
HIDDEN
 62
     7
370
     0
100
AcDbSpline
210
0.0
220
0.0
230
1.0
 70
    24
 71
     1
 72
     4
 73
     2
 74
     0
 42
0.0000000001
 43
0.0000000001
 40
0.0
 40
0.0
 40
1.0
 40
1.0
 10
2.290403641752661
 20
5.464380361774662
 30
0.0
 10
2.275403641752662
 20
5.449380361774661
 30
0.0
  0
SPLINE
  5
DBE
330
1F
100
AcDbEntity
  8
0
  6
HIDDEN
 62
     7
370
     0
100
AcDbSpline
210
0.0
220
0.0
230
1.0
 70
    24
 71
     1
 72
     4
 73
     2
 74
     0
 42
0.0000000001
 43
0.0000000001
 40
0.0
 40
0.0
 40
1.0
 40
1.0
 10
1.805403641752661
 20
4.324380361774661
 30
0.0
 10
2.275403641752662
 20
4.324380361774661
 30
0.0
  0
SPLINE
  5
DBF
330
1F
100
AcDbEntity
  8
0
  6
HIDDEN
 62
     7
370
     0
100
AcDbSpline
210
0.0
220
0.0
230
1.0
 70
    24
 71
     1
 72
     4
 73
     2
 74
     0
 42
0.0000000001
 43
0.0000000001
 40
0.0
 40
0.0
 40
1.0
 40
1.0
 10
2.275403641752662
 20
5.449380361774659
 30
0.0
 10
1.805403641752661
 20
5.449380361774659
 30
0.0
  0
SPLINE
  5
DC0
330
1F
100
AcDbEntity
  8
0
  6
Continuous
 62
     7
370
    15
100
AcDbSpline
210
0.0
220
0.0
230
1.0
 70
    24
 71
     1
 72
     4
 73
     2
 74
     0
 42
0.0000000001
 43
0.0000000001
 40
0.0
 40
0.0
 40
1.0
 40
1.0
 10
4.179042855766198
 20
1.253717405106465
 30
0.0
 10
4.429042855766198
 20
1.253717405106465
 30
0.0
  0
SPLINE
  5
DC1
330
1F
100
AcDbEntity
  8
0
  6
Continuous
 62
     7
370
    15
100
AcDbSpline
210
0.0
220
0.0
230
1.0
 70
    24
 71
     1
 72
     4
 73
     2
 74
     0
 42
0.0000000001
 43
0.0000000001
 40
0.0
 40
0.0
 40
1.0
 40
1.0
 10
4.429042855766198
 20
3.106717405106465
 30
0.0
 10
4.179042855766198
 20
3.106717405106465
 30
0.0
  0
SPLINE
  5
DC2
330
1F
100
AcDbEntity
  8
0
  6
Continuous
 62
     7
370
    15
100
AcDbSpline
210
0.0
220
0.0
230
1.0
 70
    24
 71
     1
 72
     4
 73
     2
 74
     0
 42
0.0000000001
 43
0.0000000001
 40
0.0
 40
0.0
 40
1.0
 40
1.0
 10
4.735542855766196
 20
3.044217405106466
 30
0.0
 10
4.642542855766198
 20
3.044217405106466
 30
0.0
  0
SPLINE
  5
DC3
330
1F
100
AcDbEntity
  8
0
  6
Continuous
 62
     7
370
    15
100
AcDbSpline
210
0.0
220
0.0
230
1.0
 70
    24
 71
     1
 72
     4
 73
     2
 74
     0
 42
0.0000000001
 43
0.0000000001
 40
0.0
 40
0.0
 40
1.0
 40
1.0
 10
4.642542855766198
 20
2.794217405106465
 30
0.0
 10
4.735542855766196
 20
2.794217405106465
 30
0.0
  0
SPLINE
  5
DC4
330
1F
100
AcDbEntity
  8
0
  6
Continuous
 62
     7
370
    15
100
AcDbSpline
210
0.0
220
0.0
230
1.0
 70
    24
 71
     1
 72
     4
 73
     2
 74
     0
 42
0.0000000001
 43
0.0000000001
 40
0.0
 40
0.0
 40
1.0
 40
1.0
 10
4.735542855766196
 20
1.566217405106464
 30
0.0
 10
4.642542855766198
 20
1.566217405106464
 30
0.0
  0
SPLINE
  5
DC5
330
1F
100
AcDbEntity
  8
0
  6
Continuous
 62
     7
370
    15
100
AcDbSpline
210
0.0
220
0.0
230
1.0
 70
    24
 71
     1
 72
     4
 73
     2
 74
     0
 42
0.0000000001
 43
0.0000000001
 40
0.0
 40
0.0
 40
1.0
 40
1.0
 10
4.642542855766198
 20
1.316217405106465
 30
0.0
 10
4.735542855766196
 20
1.316217405106465
 30
0.0
  0
ARC
  5
DC6
330
1F
100
AcDbEntity
  8
0
  6
Continuous
 62
     7
370
    15
100
AcDbCircle
 10
4.688542855766195
 20
2.180217405106465
 30
0.0
 40
0.9375000000000003
100
AcDbArc
 50
272.8736330126904
 51
87.1263669873103
  0
ARC
  5
DC7
330
1F
100
AcDbEntity
  8
0
  6
Continuous
 62
     7
370
    15
100
AcDbCircle
 10
4.688542855766195
 20
2.180217405106465
 30
0.0
 40
0.9225000000000008
100
AcDbArc
 50
272.9203989343224
 51
87.07960106567846
  0
SPLINE
  5
DC8
330
1F
100
AcDbEntity
  8
0
  6
Continuous
 62
     7
370
    15
100
AcDbSpline
210
0.0
220
0.0
230
1.0
 70
    24
 71
     3
 72
     8
 73
     4
 74
     0
 42
0.0000000001
 43
0.0000000001
 40
0.0
 40
0.0
 40
0.0
 40
0.0
 40
0.0005391602010996
 40
0.0005391602010996
 40
0.0005391602010996
 40
0.0005391602010996
 10
4.735542855766196
 20
3.116538530575714
 30
0.0
 10
4.735542855766196
 20
3.111532183984359
 30
0.0
 10
4.735542855766196
 20
3.106525787011411
 30
0.0
 10
4.735542855766196
 20
3.101519337156974
 30
0.0
  0
SPLINE
  5
DC9
330
1F
100
AcDbEntity
  8
0
  6
Continuous
 62
     7
370
    15
100
AcDbSpline
210
0.0
220
0.0
230
1.0
 70
    24
 71
     3
 72
     8
 73
     4
 74
     0
 42
0.0000000001
 43
0.0000000001
 40
0.0
 40
0.0
 40
0.0
 40
0.0
 40
0.0005391602010996
 40
0.0005391602010996
 40
0.0005391602010996
 40
0.0005391602010996
 10
4.735542855766196
 20
1.258915473055956
 30
0.0
 10
4.735542855766196
 20
1.253909023201519
 30
0.0
 10
4.735542855766196
 20
1.248902626228571
 30
0.0
 10
4.735542855766196
 20
1.243896279637216
 30
0.0
  0
ARC
  5
DCA
330
1F
100
AcDbEntity
  8
0
  6
Continuous
 62
     7
370
    15
100
AcDbCircle
 10
4.688542855766195
 20
2.180217405106465
 30
0.0
 40
0.7575000000000004
100
AcDbArc
 50
273.5572705768362
 51
86.44272942316455
  0
LINE
  5
DCB
330
1F
100
AcDbEntity
  8
0
  6
Continuous
 62
     7
370
    15
100
AcDbLine
 10
4.735542855766196
 20
2.936257913280464
 30
0.0
 11
4.735542855766196
 21
3.101519337156974
 31
0.0
  0
LINE
  5
DCC
330
1F
100
AcDbEntity
  8
0
  6
Continuous
 62
     7
370
    15
100
AcDbLine
 10
4.735542855766196
 20
1.258915473055956
 30
0.0
 11
4.735542855766196
 21
1.424176896932465
 31
0.0
  0
ARC
  5
DCD
330
1F
100
AcDbEntity
  8
0
  6
Continuous
 62
     7
370
    15
100
AcDbCircle
 10
4.688542855766195
 20
2.180217405106465
 30
0.0
 40
0.7425000000000001
100
AcDbArc
 50
273.62922993724
 51
86.37077006276081
  0
SPLINE
  5
DCE
330
1F
100
AcDbEntity
  8
0
  6
Continuous
 62
     7
370
    15
100
AcDbSpline
210
0.0
220
0.0
230
1.0
 70
    24
 71
     3
 72
    14
 73
    10
 74
     0
 42
0.0000000001
 43
0.0000000001
 40
0.0
 40
0.0
 40
0.0
 40
0.0
 40
0.25
 40
0.25
 40
0.5
 40
0.5
 40
0.75
 40
0.75
 40
1.0
 40
1.0
 40
1.0
 40
1.0
 10
4.735542855766196
 20
2.921228369937621
 30
0.0
 10
4.735542855766196
 20
2.921228369937621
 30
0.0
 10
4.735542855766196
 20
2.922045099806059
 30
0.0
 10
4.735542855766196
 20
2.924819374476198
 30
0.0
 10
4.735542855766196
 20
2.926779964241435
 30
0.0
 10
4.735542855766196
 20
2.930696704252595
 30
0.0
 10
4.735542855766196
 20
2.932646217625759
 30
0.0
 10
4.735542855766196
 20
2.935454710486435
 30
0.0
 10
4.735542855766196
 20
2.936257913280464
 30
0.0
 10
4.735542855766196
 20
2.936257913280464
 30
0.0
  0
SPLINE
  5
DCF
330
1F
100
AcDbEntity
  8
0
  6
Continuous
 62
     7
370
    15
100
AcDbSpline
210
0.0
220
0.0
230
1.0
 70
    24
 71
     3
 72
    14
 73
    10
 74
     0
 42
0.0000000001
 43
0.0000000001
 40
0.0
 40
0.0
 40
0.0
 40
0.0
 40
0.25
 40
0.25
 40
0.5
 40
0.5
 40
0.75
 40
0.75
 40
1.0
 40
1.0
 40
1.0
 40
1.0
 10
4.735542855766196
 20
1.424176896932465
 30
0.0
 10
4.735542855766196
 20
1.424176896932465
 30
0.0
 10
4.735542855766196
 20
1.424993551597181
 30
0.0
 10
4.735542855766196
 20
1.427767777645952
 30
0.0
 10
4.735542855766196
 20
1.429728390602253
 30
0.0
 10
4.735542855766196
 20
1.433645138279876
 30
0.0
 10
4.735542855766196
 20
1.435594626067659
 30
0.0
 10
4.735542855766196
 20
1.438403165748176
 30
0.0
 10
4.735542855766196
 20
1.439206440275309
 30
0.0
 10
4.735542855766196
 20
1.439206440275309
 30
0.0
  0
ARC
  5
DD0
330
1F
100
AcDbEntity
  8
0
  6
Continuous
 62
     7
370
    15
100
AcDbCircle
 10
4.688542855766195
 20
2.180217405106465
 30
0.0
 40
0.5774999999999996
100
AcDbArc
 50
274.6681961914898
 51
85.33180380851105
  0
LINE
  5
DD1
330
1F
100
AcDbEntity
  8
0
  6
Continuous
 62
     7
370
    15
100
AcDbLine
 10
4.735542855766196
 20
2.755801673480783
 30
0.0
 11
4.735542855766196
 21
2.921228369937621
 31
0.0
  0
LINE
  5
DD2
330
1F
100
AcDbEntity
  8
0
  6
Continuous
 62
     7
370
    15
100
AcDbLine
 10
4.735542855766196
 20
1.439206440275309
 30
0.0
 11
4.735542855766196
 21
1.604633136732147
 31
0.0
  0
ARC
  5
DD3
330
1F
100
AcDbEntity
  8
0
  6
Continuous
 62
     7
370
    15
100
AcDbCircle
 10
4.688542855766195
 20
2.180217405106465
 30
0.0
 40
0.5625000000000018
100
AcDbArc
 50
274.7929688031927
 51
85.20703119680799
  0
SPLINE
  5
DD4
330
1F
100
AcDbEntity
  8
0
  6
Continuous
 62
     7
370
    15
100
AcDbSpline
210
0.0
220
0.0
230
1.0
 70
    24
 71
     3
 72
     8
 73
     4
 74
     0
 42
0.0000000001
 43
0.0000000001
 40
0.0
 40
0.0
 40
0.0
 40
0.0
 40
0.0005397368641287
 40
0.0005397368641287
 40
0.0005397368641287
 40
0.0005397368641287
 10
4.735542855766196
 20
2.740750410379126
 30
0.0
 10
4.735542855766196
 20
2.745767726308832
 30
0.0
 10
4.735542855766196
 20
2.750784808071442
 30
0.0
 10
4.735542855766196
 20
2.755801673480783
 30
0.0
  0
SPLINE
  5
DD5
330
1F
100
AcDbEntity
  8
0
  6
Continuous
 62
     7
370
    15
100
AcDbSpline
210
0.0
220
0.0
230
1.0
 70
    24
 71
     3
 72
     8
 73
     4
 74
     0
 42
0.0000000001
 43
0.0000000001
 40
0.0
 40
0.0
 40
0.0
 40
0.0
 40
0.0005397368641287
 40
0.0005397368641287
 40
0.0005397368641287
 40
0.0005397368641287
 10
4.735542855766196
 20
1.604633136732147
 30
0.0
 10
4.735542855766196
 20
1.609650002141488
 30
0.0
 10
4.735542855766196
 20
1.614667083904098
 30
0.0
 10
4.735542855766196
 20
1.619684399833805
 30
0.0
  0
ARC
  5
DD6
330
1F
100
AcDbEntity
  8
0
  6
Continuous
 62
     7
370
    15
100
AcDbCircle
 10
4.688542855766195
 20
2.180217405106465
 30
0.0
 40
0.7425000000000006
100
AcDbArc
 50
93.55191212723006
 51
266.4480878727707
  0
ARC
  5
DD7
330
1F
100
AcDbEntity
  8
0
  6
Continuous
 62
     7
370
    15
100
AcDbCircle
 10
4.688542855766195
 20
2.180217405106465
 30
0.0
 40
0.577500000000001
100
AcDbArc
 50
94.56865951567104
 51
265.4313404843298
  0
LINE
  5
DD8
330
1F
100
AcDbEntity
  8
0
  6
Continuous
 62
     7
370
    15
100
AcDbLine
 10
4.642542855766198
 20
1.439143690824275
 30
0.0
 11
4.642542855766198
 21
1.604552354925371
 31
0.0
  0
LINE
  5
DD9
330
1F
100
AcDbEntity
  8
0
  6
Continuous
 62
     7
370
    15
100
AcDbLine
 10
4.642542855766198
 20
2.755882455287558
 30
0.0
 11
4.642542855766198
 21
2.921291119388655
 31
0.0
  0
ARC
  5
DDA
330
1F
100
AcDbEntity
  8
0
  6
Continuous
 62
     7
370
    15
100
AcDbCircle
 10
4.688542855766195
 20
2.180217405106465
 30
0.0
 40
0.5624999999999992
100
AcDbArc
 50
94.69075979028845
 51
265.3092402097122
  0
SPLINE
  5
DDB
330
1F
100
AcDbEntity
  8
0
  6
Continuous
 62
     7
370
    15
100
AcDbSpline
210
0.0
220
0.0
230
1.0
 70
    24
 71
     3
 72
     8
 73
     4
 74
     0
 42
0.0000000001
 43
0.0000000001
 40
0.0
 40
0.0
 40
0.0
 40
0.0
 40
0.000539697846165
 40
0.000539697846165
 40
0.000539697846165
 40
0.000539697846165
 10
4.642542855766198
 20
1.619601449215091
 30
0.0
 10
4.642542855766198
 20
1.614584865894371
 30
0.0
 10
4.642542855766198
 20
1.609568506817043
 30
0.0
 10
4.642542855766198
 20
1.604552354925371
 30
0.0
  0
SPLINE
  5
DDC
330
1F
100
AcDbEntity
  8
0
  6
Continuous
 62
     7
370
    15
100
AcDbSpline
210
0.0
220
0.0
230
1.0
 70
    24
 71
     3
 72
     8
 73
     4
 74
     0
 42
0.0000000001
 43
0.0000000001
 40
0.0
 40
0.0
 40
0.0
 40
0.0
 40
0.000539697846165
 40
0.000539697846165
 40
0.000539697846165
 40
0.000539697846165
 10
4.642542855766198
 20
2.755882455287559
 30
0.0
 10
4.642542855766198
 20
2.750866303395887
 30
0.0
 10
4.642542855766198
 20
2.745849944318559
 30
0.0
 10
4.642542855766198
 20
2.740833360997839
 30
0.0
  0
ARC
  5
DDD
330
1F
100
AcDbEntity
  8
0
  6
Continuous
 62
     7
370
    15
100
AcDbCircle
 10
4.688542855766195
 20
2.180217405106465
 30
0.0
 40
0.7575000000000008
100
AcDbArc
 50
93.48148966272146
 51
266.5185103372794
  0
ARC
  5
DDE
330
1F
100
AcDbEntity
  8
0
  6
Continuous
 62
     7
370
    15
100
AcDbCircle
 10
4.688542855766195
 20
2.180217405106465
 30
0.0
 40
0.9224999999999994
100
AcDbArc
 50
92.85821063040893
 51
267.1417893695919
  0
LINE
  5
DDF
330
1F
100
AcDbEntity
  8
0
  6
Continuous
 62
     7
370
    15
100
AcDbLine
 10
4.642542855766198
 20
1.258865002385335
 30
0.0
 11
4.642542855766198
 21
1.424115394793041
 31
0.0
  0
LINE
  5
DE0
330
1F
100
AcDbEntity
  8
0
  6
Continuous
 62
     7
370
    15
100
AcDbLine
 10
4.642542855766198
 20
2.936319415419888
 30
0.0
 11
4.642542855766198
 21
3.101569807827595
 31
0.0
  0
ARC
  5
DE1
330
1F
100
AcDbEntity
  8
0
  6
Continuous
 62
     7
370
    15
100
AcDbCircle
 10
4.688542855766195
 20
2.180217405106465
 30
0.0
 40
0.9374999999999985
100
AcDbArc
 50
92.81244219566515
 51
267.1875578043356
  0
SPLINE
  5
DE2
330
1F
100
AcDbEntity
  8
0
  6
Continuous
 62
     7
370
    15
100
AcDbSpline
210
0.0
220
0.0
230
1.0
 70
    24
 71
     3
 72
     8
 73
     4
 74
     0
 42
0.0000000001
 43
0.0000000001
 40
0.0
 40
0.0
 40
0.0
 40
0.0
 40
0.0005391456522715
 40
0.0005391456522715
 40
0.0005391456522715
 40
0.0005391456522715
 10
4.642542855766198
 20
1.243846618505346
 30
0.0
 10
4.642542855766198
 20
1.248852697411897
 30
0.0
 10
4.642542855766198
 20
1.253858824573785
 30
0.0
 10
4.642542855766198
 20
1.258865002385335
 30
0.0
  0
SPLINE
  5
DE3
330
1F
100
AcDbEntity
  8
0
  6
Continuous
 62
     7
370
    15
100
AcDbSpline
210
0.0
220
0.0
230
1.0
 70
    24
 71
     3
 72
     8
 73
     4
 74
     0
 42
0.0000000001
 43
0.0000000001
 40
0.0
 40
0.0
 40
0.0
 40
0.0
 40
0.0005391456522715
 40
0.0005391456522715
 40
0.0005391456522715
 40
0.0005391456522715
 10
4.642542855766198
 20
3.101569807827595
 30
0.0
 10
4.642542855766198
 20
3.106575985639145
 30
0.0
 10
4.642542855766198
 20
3.111582112801033
 30
0.0
 10
4.642542855766198
 20
3.116588191707584
 30
0.0
  0
SPLINE
  5
DE4
330
1F
100
AcDbEntity
  8
0
  6
Continuous
 62
     7
370
    15
100
AcDbSpline
210
0.0
220
0.0
230
1.0
 70
    24
 71
     3
 72
    14
 73
    10
 74
     0
 42
0.0000000001
 43
0.0000000001
 40
0.0
 40
0.0
 40
0.0
 40
0.0
 40
0.25
 40
0.25
 40
0.5
 40
0.5
 40
0.75
 40
0.75
 40
1.0
 40
1.0
 40
1.0
 40
1.0
 10
4.642542855766198
 20
1.439143690824275
 30
0.0
 10
4.642542855766198
 20
1.439143690824275
 30
0.0
 10
4.642542855766198
 20
1.438327118010919
 30
0.0
 10
4.642542855766198
 20
1.435553126960232
 30
0.0
 10
4.642542855766198
 20
1.433592642569935
 30
0.0
 10
4.642542855766198
 20
1.429676079772736
 30
0.0
 10
4.642542855766198
 20
1.427726659848242
 30
0.0
 10
4.642542855766198
 20
1.424918448564654
 30
0.0
 10
4.642542855766198
 20
1.424115394793041
 30
0.0
 10
4.642542855766198
 20
1.424115394793041
 30
0.0
  0
SPLINE
  5
DE5
330
1F
100
AcDbEntity
  8
0
  6
Continuous
 62
     7
370
    15
100
AcDbSpline
210
0.0
220
0.0
230
1.0
 70
    24
 71
     3
 72
    14
 73
    10
 74
     0
 42
0.0000000001
 43
0.0000000001
 40
0.0
 40
0.0
 40
0.0
 40
0.0
 40
0.25
 40
0.25
 40
0.5
 40
0.5
 40
0.75
 40
0.75
 40
1.0
 40
1.0
 40
1.0
 40
1.0
 10
4.642542855766198
 20
2.936319415419888
 30
0.0
 10
4.642542855766198
 20
2.936319415419888
 30
0.0
 10
4.642542855766198
 20
2.935502914629125
 30
0.0
 10
4.642542855766198
 20
2.932728970143249
 30
0.0
 10
4.642542855766198
 20
2.930768463548177
 30
0.0
 10
4.642542855766198
 20
2.926851893406166
 30
0.0
 10
4.642542855766198
 20
2.924902497985644
 30
0.0
 10
4.642542855766198
 20
2.922094241856539
 30
0.0
 10
4.642542855766198
 20
2.921291119388654
 30
0.0
 10
4.642542855766198
 20
2.921291119388655
 30
0.0
  0
LINE
  5
DE6
330
1F
100
AcDbEntity
  8
0
  6
Continuous
 62
     7
370
    15
100
AcDbLine
 10
4.429042855766198
 20
1.279347825200473
 30
0.0
 11
4.429042855766198
 21
1.253717405106465
 31
0.0
  0
LINE
  5
DE7
330
1F
100
AcDbEntity
  8
0
  6
Continuous
 62
     7
370
    15
100
AcDbLine
 10
4.179042855766196
 20
1.393251077999644
 30
0.0
 11
4.179042855766198
 21
1.253717405106465
 31
0.0
  0
LINE
  5
DE8
330
1F
100
AcDbEntity
  8
0
  6
Continuous
 62
     7
370
    15
100
AcDbLine
 10
4.179042855766198
 20
3.106717405106465
 30
0.0
 11
4.179042855766196
 21
2.967183732213286
 31
0.0
  0
LINE
  5
DE9
330
1F
100
AcDbEntity
  8
0
  6
Continuous
 62
     7
370
    15
100
AcDbLine
 10
4.429042855766198
 20
3.106717405106465
 30
0.0
 11
4.429042855766198
 21
3.081086985012457
 31
0.0
  0
LINE
  5
DEA
330
1F
100
AcDbEntity
  8
0
  6
HIDDEN
 62
     7
370
     0
100
AcDbLine
 10
4.429042855766198
 20
2.723717405106466
 30
0.0
 11
4.429042855766198
 21
3.081086985012457
 31
0.0
  0
LINE
  5
DEB
330
1F
100
AcDbEntity
  8
0
  6
HIDDEN
 62
     7
370
     0
100
AcDbLine
 10
4.429042855766198
 20
1.279347825200472
 30
0.0
 11
4.429042855766198
 21
1.636717405106465
 31
0.0
  0
LINE
  5
DEC
330
1F
100
AcDbEntity
  8
0
  6
HIDDEN
 62
     7
370
     0
100
AcDbLine
 10
4.179042855766198
 20
1.628717405106465
 30
0.0
 11
4.179042855766196
 21
1.393251077999644
 31
0.0
  0
LINE
  5
DED
330
1F
100
AcDbEntity
  8
0
  6
HIDDEN
 62
     7
370
     0
100
AcDbLine
 10
4.179042855766196
 20
2.967183732213286
 30
0.0
 11
4.179042855766198
 21
2.731717405106465
 31
0.0
  0
LINE
  5
DEE
330
1F
100
AcDbEntity
  8
0
  6
HIDDEN
 62
     7
370
     0
100
AcDbLine
 10
4.969792855764415
 20
1.566217405102036
 30
0.0
 11
4.969792855764415
 21
1.316217405110895
 31
0.0
  0
LINE
  5
DEF
330
1F
100
AcDbEntity
  8
0
  6
HIDDEN
 62
     7
370
     0
100
AcDbLine
 10
4.989142855766198
 20
1.546867405106465
 30
0.0
 11
4.989142855766198
 21
1.335567405112677
 31
0.0
  0
LINE
  5
DF0
330
1F
100
AcDbEntity
  8
0
  6
HIDDEN
 62
     7
370
     0
100
AcDbLine
 10
4.969792855764415
 20
3.044217405102036
 30
0.0
 11
4.969792855764415
 21
2.794217405110894
 31
0.0
  0
LINE
  5
DF1
330
1F
100
AcDbEntity
  8
0
  6
HIDDEN
 62
     7
370
     0
100
AcDbLine
 10
4.989142855766198
 20
3.024867405106465
 30
0.0
 11
4.989142855766198
 21
2.813567405112677
 31
0.0
  0
LINE
  5
DF2
330
1F
100
AcDbEntity
  8
0
  6
HIDDEN
 62
     7
370
     0
100
AcDbLine
 10
4.304042855766198
 20
1.338092405106465
 30
0.0
 11
4.304042855766198
 21
1.441217405106465
 31
0.0
  0
LINE
  5
DF3
330
1F
100
AcDbEntity
  8
0
  6
HIDDEN
 62
     7
370
     0
100
AcDbLine
 10
4.304042855766198
 20
2.816092405106465
 30
0.0
 11
4.304042855766198
 21
2.919217405106465
 31
0.0
  0
LINE
  5
DF4
330
1F
100
AcDbEntity
  8
0
  6
HIDDEN
 62
     7
370
     0
100
AcDbLine
 10
4.304042855766198
 20
2.919217405106465
 30
0.0
 11
4.304042855766198
 21
3.022342405106465
 31
0.0
  0
LINE
  5
DF5
330
1F
100
AcDbEntity
  8
0
  6
HIDDEN
 62
     7
370
     0
100
AcDbLine
 10
4.179042855766196
 20
2.919217405106465
 30
0.0
 11
4.304042855766198
 21
2.919217405106465
 31
0.0
  0
LINE
  5
DF6
330
1F
100
AcDbEntity
  8
0
  6
HIDDEN
 62
     7
370
     0
100
AcDbLine
 10
4.304042855766198
 20
1.441217405106465
 30
0.0
 11
4.304042855766198
 21
1.544342405106465
 31
0.0
  0
LINE
  5
DF7
330
1F
100
AcDbEntity
  8
0
  6
HIDDEN
 62
     7
370
     0
100
AcDbLine
 10
4.179042855766196
 20
1.441217405106465
 30
0.0
 11
4.304042855766198
 21
1.441217405106465
 31
0.0
  0
LINE
  5
DF8
330
1F
100
AcDbEntity
  8
0
  6
HIDDEN
 62
     7
370
     0
100
AcDbLine
 10
4.304042855766198
 20
1.338092405106465
 30
0.0
 11
4.179042855766198
 21
1.338092405106465
 31
0.0
  0
LINE
  5
DF9
330
1F
100
AcDbEntity
  8
0
  6
HIDDEN
 62
     7
370
     0
100
AcDbLine
 10
4.304042855766198
 20
2.816092405106465
 30
0.0
 11
4.179042855766198
 21
2.816092405106465
 31
0.0
  0
LINE
  5
DFA
330
1F
100
AcDbEntity
  8
0
  6
HIDDEN
 62
     7
370
     0
100
AcDbLine
 10
4.304042855766198
 20
3.022342405106465
 30
0.0
 11
4.179042855766198
 21
3.022342405106465
 31
0.0
  0
LINE
  5
DFB
330
1F
100
AcDbEntity
  8
0
  6
HIDDEN
 62
     7
370
     0
100
AcDbLine
 10
4.304042855766198
 20
1.544342405106465
 30
0.0
 11
4.179042855766198
 21
1.544342405106465
 31
0.0
  0
SPLINE
  5
DFC
330
1F
100
AcDbEntity
  8
0
  6
HIDDEN
 62
     7
370
     0
100
AcDbSpline
210
0.0
220
0.0
230
1.0
 70
    24
 71
     1
 72
     4
 73
     2
 74
     0
 42
0.0000000001
 43
0.0000000001
 40
0.0
 40
0.0
 40
1.0
 40
1.0
 10
3.924934243635078
 20
2.723717405106466
 30
0.0
 10
4.429042855766198
 20
2.723717405106466
 30
0.0
  0
SPLINE
  5
DFD
330
1F
100
AcDbEntity
  8
0
  6
HIDDEN
 62
     7
370
     0
100
AcDbSpline
210
0.0
220
0.0
230
1.0
 70
    24
 71
     1
 72
     4
 73
     2
 74
     0
 42
0.0000000001
 43
0.0000000001
 40
0.0
 40
0.0
 40
1.0
 40
1.0
 10
4.429042855766198
 20
1.636717405106465
 30
0.0
 10
3.924934243635078
 20
1.636717405106465
 30
0.0
  0
SPLINE
  5
DFE
330
1F
100
AcDbEntity
  8
0
  6
HIDDEN
 62
     7
370
     0
100
AcDbSpline
210
0.0
220
0.0
230
1.0
 70
    24
 71
     1
 72
     4
 73
     2
 74
     0
 42
0.0000000001
 43
0.0000000001
 40
0.0
 40
0.0
 40
1.0
 40
1.0
 10
4.429042855766198
 20
1.628717405106465
 30
0.0
 10
4.179042855766198
 20
1.628717405106465
 30
0.0
  0
SPLINE
  5
DFF
330
1F
100
AcDbEntity
  8
0
  6
HIDDEN
 62
     7
370
     0
100
AcDbSpline
210
0.0
220
0.0
230
1.0
 70
    24
 71
     1
 72
     4
 73
     2
 74
     0
 42
0.0000000001
 43
0.0000000001
 40
0.0
 40
0.0
 40
1.0
 40
1.0
 10
4.179042855766198
 20
2.731717405106465
 30
0.0
 10
4.429042855766198
 20
2.731717405106465
 30
0.0
  0
SPLINE
  5
E00
330
1F
100
AcDbEntity
  8
0
  6
HIDDEN
 62
     7
370
     0
100
AcDbSpline
210
0.0
220
0.0
230
1.0
 70
    24
 71
     1
 72
     4
 73
     2
 74
     0
 42
0.0000000001
 43
0.0000000001
 40
0.0
 40
0.0
 40
1.0
 40
1.0
 10
4.969792855764415
 20
1.316217405110895
 30
0.0
 10
4.989142855766198
 20
1.335567405112677
 30
0.0
  0
SPLINE
  5
E01
330
1F
100
AcDbEntity
  8
0
  6
HIDDEN
 62
     7
370
     0
100
AcDbSpline
210
0.0
220
0.0
230
1.0
 70
    24
 71
     1
 72
     4
 73
     2
 74
     0
 42
0.0000000001
 43
0.0000000001
 40
0.0
 40
0.0
 40
1.0
 40
1.0
 10
4.989142855766198
 20
1.546867405100252
 30
0.0
 10
4.969792855764415
 20
1.566217405102036
 30
0.0
  0
SPLINE
  5
E02
330
1F
100
AcDbEntity
  8
0
  6
HIDDEN
 62
     7
370
     0
100
AcDbSpline
210
0.0
220
0.0
230
1.0
 70
    24
 71
     1
 72
     4
 73
     2
 74
     0
 42
0.0000000001
 43
0.0000000001
 40
0.0
 40
0.0
 40
1.0
 40
1.0
 10
4.969792855764415
 20
2.794217405110894
 30
0.0
 10
4.989142855766198
 20
2.813567405112677
 30
0.0
  0
SPLINE
  5
E03
330
1F
100
AcDbEntity
  8
0
  6
HIDDEN
 62
     7
370
     0
100
AcDbSpline
210
0.0
220
0.0
230
1.0
 70
    24
 71
     1
 72
     4
 73
     2
 74
     0
 42
0.0000000001
 43
0.0000000001
 40
0.0
 40
0.0
 40
1.0
 40
1.0
 10
4.989142855766198
 20
3.024867405100253
 30
0.0
 10
4.969792855764415
 20
3.044217405102036
 30
0.0
  0
SPLINE
  5
E04
330
1F
100
AcDbEntity
  8
0
  6
HIDDEN
 62
     7
370
     0
100
AcDbSpline
210
0.0
220
0.0
230
1.0
 70
    24
 71
     1
 72
     4
 73
     2
 74
     0
 42
0.0000000001
 43
0.0000000001
 40
0.0
 40
0.0
 40
1.0
 40
1.0
 10
5.379524879506906
 20
1.546867405106465
 30
0.0
 10
4.989142855766198
 20
1.546867405106465
 30
0.0
  0
SPLINE
  5
E05
330
1F
100
AcDbEntity
  8
0
  6
HIDDEN
 62
     7
370
     0
100
AcDbSpline
210
0.0
220
0.0
230
1.0
 70
    24
 71
     1
 72
     4
 73
     2
 74
     0
 42
0.0000000001
 43
0.0000000001
 40
0.0
 40
0.0
 40
1.0
 40
1.0
 10
4.989142855766198
 20
1.335567405106465
 30
0.0
 10
5.095326124227426
 20
1.335567405106465
 30
0.0
  0
SPLINE
  5
E06
330
1F
100
AcDbEntity
  8
0
  6
HIDDEN
 62
     7
370
     0
100
AcDbSpline
210
0.0
220
0.0
230
1.0
 70
    24
 71
     1
 72
     4
 73
     2
 74
     0
 42
0.0000000001
 43
0.0000000001
 40
0.0
 40
0.0
 40
1.0
 40
1.0
 10
5.096012725595011
 20
3.024867405106465
 30
0.0
 10
4.989142855766198
 20
3.024867405106465
 30
0.0
  0
SPLINE
  5
E07
330
1F
100
AcDbEntity
  8
0
  6
HIDDEN
 62
     7
370
     0
100
AcDbSpline
210
0.0
220
0.0
230
1.0
 70
    24
 71
     1
 72
     4
 73
     2
 74
     0
 42
0.0000000001
 43
0.0000000001
 40
0.0
 40
0.0
 40
1.0
 40
1.0
 10
4.989142855766198
 20
2.813567405106465
 30
0.0
 10
5.379754854721655
 20
2.813567405106465
 30
0.0
  0
SPLINE
  5
E08
330
1F
100
AcDbEntity
  8
0
  6
Continuous
 62
     7
370
    15
100
AcDbSpline
210
0.0
220
0.0
230
1.0
 70
    24
 71
     1
 72
     4
 73
     2
 74
     0
 42
0.0000000001
 43
0.0000000001
 40
0.0
 40
0.0
 40
1.0
 40
1.0
 10
4.538803897035897
 20
3.856082027258038
 30
0.0
 10
4.577729510612607
 20
3.833610748854813
 30
0.0
  0
SPLINE
  5
E09
330
1F
100
AcDbEntity
  8
0
  6
Continuous
 62
     7
370
    15
100
AcDbSpline
210
0.0
220
0.0
230
1.0
 70
    24
 71
     1
 72
     4
 73
     2
 74
     0
 42
0.0000000001
 43
0.0000000001
 40
0.0
 40
0.0
 40
1.0
 40
1.0
 10
4.245389323454931
 20
4.025466655133149
 30
0.0
 10
4.284498503484886
 20
4.002889406072114
 30
0.0
  0
SPLINE
  5
E0A
330
1F
100
AcDbEntity
  8
0
  6
Continuous
 62
     7
370
    15
100
AcDbSpline
210
0.0
220
0.0
230
1.0
 70
    24
 71
     1
 72
     4
 73
     2
 74
     0
 42
0.0000000001
 43
0.0000000001
 40
0.0
 40
0.0
 40
1.0
 40
1.0
 10
4.051188622015695
 20
4.466942282875489
 30
0.0
 10
4.051188622015695
 20
4.454696161198148
 30
0.0
  0
SPLINE
  5
E0B
330
1F
100
AcDbEntity
  8
0
  6
Continuous
 62
     7
370
    15
100
AcDbSpline
210
0.0
220
0.0
230
1.0
 70
    24
 71
     1
 72
     4
 73
     2
 74
     0
 42
0.0000000001
 43
0.0000000001
 40
0.0
 40
0.0
 40
1.0
 40
1.0
 10
4.603034732054384
 20
5.401338379646819
 30
0.0
 10
4.426258036757747
 20
5.29928736566898
 30
0.0
  0
SPLINE
  5
E0C
330
1F
100
AcDbEntity
  8
0
  6
Continuous
 62
     7
370
    15
100
AcDbSpline
210
0.0
220
0.0
230
1.0
 70
    24
 71
     1
 72
     4
 73
     2
 74
     0
 42
0.0000000001
 43
0.0000000001
 40
0.0
 40
0.0
 40
1.0
 40
1.0
 10
5.709354023898152
 20
5.015976738076243
 30
0.0
 10
5.709354023898152
 20
5.028222859753585
 30
0.0
  0
SPLINE
  5
E0D
330
1F
100
AcDbEntity
  8
0
  6
Continuous
 62
     7
370
    15
100
AcDbSpline
210
0.0
220
0.0
230
1.0
 70
    24
 71
     1
 72
     4
 73
     2
 74
     0
 42
0.0000000001
 43
0.0000000001
 40
0.0
 40
0.0
 40
1.0
 40
1.0
 10
5.297244823491009
 20
5.583248264631768
 30
0.0
 10
5.182813135301241
 20
5.649308272096925
 30
0.0
  0
SPLINE
  5
E0E
330
1F
100
AcDbEntity
  8
0
  6
Continuous
 62
     7
370
    15
100
AcDbSpline
210
0.0
220
0.0
230
1.0
 70
    24
 71
     1
 72
     4
 73
     2
 74
     0
 42
0.0000000001
 43
0.0000000001
 40
0.0
 40
0.0
 40
1.0
 40
1.0
 10
5.515153322458917
 20
5.457452365818589
 30
0.0
 10
5.400536628398548
 20
5.52361917489951
 30
0.0
  0
SPLINE
  5
E0F
330
1F
100
AcDbEntity
  8
0
  6
Continuous
 62
     7
370
    15
100
AcDbSpline
210
0.0
220
0.0
230
1.0
 70
    24
 71
     1
 72
     4
 73
     2
 74
     0
 42
0.0000000001
 43
0.0000000001
 40
0.0
 40
0.0
 40
1.0
 40
1.0
 10
4.613742799127008
 20
3.767671722309087
 30
0.0
 10
4.667452115528858
 20
3.798677450692391
 30
0.0
  0
SPLINE
  5
E10
330
1F
100
AcDbEntity
  8
0
  6
Continuous
 62
     7
370
    15
100
AcDbSpline
210
0.0
220
0.0
230
1.0
 70
    24
 71
     1
 72
     4
 73
     2
 74
     0
 42
0.0000000001
 43
0.0000000001
 40
0.0
 40
0.0
 40
1.0
 40
1.0
 10
4.851010420882937
 20
4.265477548917719
 30
0.0
 10
4.848891321426746
 20
4.264254218840973
 30
0.0
  0
LWPOLYLINE
  5
E11
330
1F
100
AcDbEntity
  8
0
  6
Continuous
 62
     7
370
    15
100
AcDbPolyline
 90
       69
 70
   128
 43
0.0
 10
5.024521106318978
 20
5.372952948876907
 10
4.995420265778758
 20
5.353721175509031
 10
4.966442722592761
 20
5.333060291718112
 10
4.937646451525004
 20
5.31101163330182
 10
4.909089064672178
 20
5.28761931254947
 10
4.88082769620032
 20
5.262930129987482
 10
4.852918888037693
 20
5.23699348074655
 10
4.825418476752528
 20
5.209861255737836
 10
4.798381481841969
 20
5.181587737835913
 10
4.771861995655726
 20
5.152229493276152
 10
4.745913075174641
 20
5.121845258483842
 10
4.720586635860687
 20
5.090495822561447
 10
4.6959333477908
 20
5.058243905669133
 10
4.672002534282317
 20
5.025154033541843
 10
4.64884207321284
 20
4.991292408394018
 10
4.626498301231976
 20
4.956726776470215
 10
4.605015921056569
 20
4.921526292506602
 10
4.584437912034914
 20
4.885761381374541
 10
4.564805444158865
 20
4.849503597183005
 10
4.546157795695902
 20
4.812825480121786
 10
4.528532274605929
 20
4.775800411331848
 10
4.511964143900003
 20
4.738502466093212
 10
4.496486551090383
 20
4.7010062656241
 10
4.482130461872984
 20
4.663386827787821
 10
4.468924598174965
 20
4.625719417006109
 10
4.456895380691367
 20
4.58807939367916
 10
4.446066876025781
 20
4.550542063413667
 10
4.436460748540802
 20
4.513182526360463
 10
4.428096217014591
 20
4.476075526963221
 10
4.420990016190263
 20
4.439295304418818
 10
4.415156363295041
 20
4.402915444148517
 10
4.410606929596147
 20
4.367008730577163
 10
4.407350817050343
 20
4.331647001514907
 10
4.405394540093833
 20
4.296901004432799
 10
4.40474201260897
 20
4.262840254919806
 10
4.405394540093833
 20
4.229532897604434
 10
4.407350817050343
 20
4.197045569819184
 10
4.410606929596147
 20
4.165443268280649
 10
4.415156363295041
 20
4.134789219051933
 10
4.420990016190264
 20
4.105144751047602
 10
4.428096217014591
 20
4.076569173334192
 10
4.436460748540802
 20
4.049119656471818
 10
4.446066876025781
 20
4.022851118134223
 10
4.456895380691367
 20
3.997816113236135
 10
4.468924598174965
 20
3.974064728787759
 10
4.482130461872984
 20
3.951644483686733
 10
4.496486551090383
 20
3.930600233648071
 10
4.511964143900003
 20
3.910974081462274
 10
4.528532274605929
 20
3.892805292761154
 10
4.546157795695902
 20
3.876130217459909
 10
4.564805444158865
 20
3.860982217032608
 10
4.584437912034914
 20
3.847391597766586
 10
4.605015921056569
 20
3.835385550129299
 10
4.626498301231976
 20
3.82498809436891
 10
4.64884207321284
 20
3.816220032457493
 10
4.672002534282317
 20
3.809098906472959
 10
4.6959333477908
 20
3.803638963502985
 10
4.720586635860687
 20
3.799851127141172
 10
4.745913075174641
 20
3.797742975632431
 10
4.771861995655726
 20
3.797318726711351
 10
4.798381481841969
 20
3.79857922916387
 10
4.825418476752528
 20
3.801521961129116
 10
4.852918888037695
 20
3.806141035144854
 10
4.880827696200324
 20
3.812427209926395
 10
4.909089064672178
 20
3.820367908855459
 10
4.937646451525004
 20
3.829947245141926
 10
4.966442722592761
 20
3.841146053608234
 10
4.995420265778758
 20
3.853941929032723
 10
5.024521106318978
 20
3.868309270975309
  0
SPLINE
  5
E12
330
1F
100
AcDbEntity
  8
0
  6
Continuous
 62
     7
370
    15
100
AcDbSpline
210
0.0
220
0.0
230
1.0
 70
     8
 71
     3
 72
     8
 73
     4
 74
     0
 42
0.0000000001
 43
0.0000000001
 40
0.0
 40
0.0
 40
0.0
 40
0.0
 40
0.0005391456522715
 40
0.0005391456522715
 40
0.0005391456522715
 40
0.0005391456522715
 10
5.013914504601181
 20
3.862169208447403
 30
0.0
 10
5.017450073235307
 20
3.864215835854405
 30
0.0
 10
5.020985607706972
 20
3.866262522385429
 30
0.0
 10
5.024521106318978
 20
3.868309270975309
 30
0.0
  0
LWPOLYLINE
  5
E13
330
1F
100
AcDbEntity
  8
0
  6
Continuous
 62
     7
370
    15
100
AcDbPolyline
 90
       69
 70
   128
 43
0.0
 10
5.013914504601181
 20
3.862169208447403
 10
4.984323273021596
 20
3.847532722155195
 10
4.954856450470378
 20
3.834494452649702
 10
4.925573052535492
 20
3.823080512727432
 10
4.896531727445594
 20
3.813313762008702
 10
4.867790638610475
 20
3.80521376115483
 10
4.839407348132516
 20
3.798796732692428
 10
4.811438701522387
 20
3.794075528523224
 10
4.783940713849965
 20
3.791059604184525
 10
4.756968457558418
 20
3.789754999911844
 10
4.730575952166173
 20
3.790164328541642
 10
4.704816056077657
 20
3.792286770278373
 10
4.679740360719492
 20
3.796118074336369
 10
4.655399087214187
 20
3.801650567453227
 10
4.63184098579822
 20
3.808873169257671
 10
4.609113238186006
 20
3.817771414461105
 10
4.587261363075267
 20
3.828327481828427
 10
4.566329124983047
 20
3.840520229870044
 10
4.546358446594972
 20
3.854325239183648
 10
4.527389324803319
 20
3.869714861360929
 10
4.50945975060198
 20
3.886658274361279
 10
4.492605632998845
 20
3.905121544241579
 10
4.476860727097918
 20
3.925067693118451
 10
4.462256566495252
 20
3.946456773226866
 10
4.448822400124054
 20
3.969245946926747
 10
4.436585133675489
 20
3.993389572497385
 10
4.425569275712478
 20
4.018839295547795
 10
4.415796888584413
 20
4.045544145859976
 10
4.407287544241107
 20
4.073450639471074
 10
4.40005828503447
 20
4.102502885790052
 10
4.394123589586417
 20
4.132642699534285
 10
4.389495343791347
 20
4.163809717261933
 10
4.38618281701132
 20
4.195941518266691
 10
4.384192643511534
 20
4.228973749592777
 10
4.383528809173373
 20
4.262840254919806
 10
4.384192643511534
 20
4.297473207059399
 10
4.38618281701132
 20
4.332803243798171
 10
4.389495343791347
 20
4.368759606815061
 10
4.394123589586417
 20
4.405270283394719
 10
4.40005828503447
 20
4.442262150653213
 10
4.407287544241107
 20
4.479661121987135
 10
4.415796888584411
 20
4.517392295452824
 10
4.425569275712478
 20
4.555380103778555
 10
4.436585133675489
 20
4.593548465709218
 10
4.448822400124054
 20
4.631820938380402
 10
4.462256566495252
 20
4.670120870416694
 10
4.476860727097918
 20
4.708371555447595
 10
4.492605632998845
 20
4.746496385733564
 10
4.50945975060198
 20
4.784419005594532
 10
4.527389324803319
 20
4.8220634643336
 10
4.546358446594972
 20
4.859354368349634
 10
4.566329124983047
 20
4.896217032134131
 10
4.587261363075267
 20
4.932577627849925
 10
4.609113238186006
 20
4.968363333192161
 10
4.63184098579822
 20
5.00350247723542
 10
4.655399087214187
 20
5.037924683974869
 10
4.679740360719492
 20
5.07156101327398
 10
4.704816056077657
 20
5.104344098936513
 10
4.730575952166173
 20
5.136208283626245
 10
4.756968457558418
 20
5.167089750364231
 10
4.783940713849965
 20
5.196926650340214
 10
4.811438701522387
 20
5.225659226782251
 10
4.839407348132516
 20
5.253229934636429
 10
4.867790638610475
 20
5.279583555816991
 10
4.896531727445594
 20
5.304667309796064
 10
4.925573052535492
 20
5.328430959311493
 10
4.954856450470378
 20
5.350826910981064
 10
4.984323273021596
 20
5.371810310621617
 10
5.013914504601181
 20
5.391339133082155
  0
SPLINE
  5
E14
330
1F
100
AcDbEntity
  8
0
  6
Continuous
 62
     7
370
    15
100
AcDbSpline
210
0.0
220
0.0
230
1.0
 70
     8
 71
     3
 72
     8
 73
     4
 74
     0
 42
0.0000000001
 43
0.0000000001
 40
0.0
 40
0.0
 40
0.0
 40
0.0
 40
0.0005391456522715
 40
0.0005391456522715
 40
0.0005391456522715
 40
0.0005391456522715
 10
5.024521106318978
 20
5.372952948876907
 30
0.0
 10
5.020985607706972
 20
5.379081697276401
 30
0.0
 10
5.017450073235307
 20
5.385210425019719
 30
0.0
 10
5.013914504601181
 20
5.391339133082155
 30
0.0
  0
SPLINE
  5
E15
330
1F
100
AcDbEntity
  8
0
  6
Continuous
 62
     7
370
    15
100
AcDbSpline
210
0.0
220
0.0
230
1.0
 70
     8
 71
     3
 72
    29
 73
    25
 74
     0
 42
0.0000000001
 43
0.0000000001
 40
0.0
 40
0.0
 40
0.0
 40
0.0
 40
0.0586688781884887
 40
0.106105532901602
 40
0.1538216320776333
 40
0.2026039706422171
 40
0.2518648136315852
 40
0.3092441677398612
 40
0.3679588146724373
 40
0.4162028388517304
 40
0.4657513312308194
 40
0.5140571785545799
 40
0.5642003883950341
 40
0.6063840145707598
 40
0.6499520570201809
 40
0.6897369403539261
 40
0.7306202696925056
 40
0.77157615348996
 40
0.8135157833319679
 40
0.8588022196163791
 40
0.9050421352685878
 40
0.9388800839336139
 40
0.9729838581419828
 40
1.0
 40
1.0
 40
1.0
 40
1.0
 10
4.357492654280028
 20
3.97547594290766
 30
0.0
 10
4.349486573631564
 20
3.977744427608499
 30
0.0
 10
4.33500718558311
 20
3.981847093033399
 30
0.0
 10
4.317074858564547
 20
3.988152558976391
 30
0.0
 10
4.302258454725048
 20
3.994035918487309
 30
0.0
 10
4.289858990071769
 20
3.999815918672734
 30
0.0
 10
4.279821771803609
 20
4.005475095459088
 30
0.0
 10
4.273396740949822
 20
4.010476145181172
 30
0.0
 10
4.272329125003473
 20
4.013636300666442
 30
0.0
 10
4.276527432245284
 20
4.014305007231559
 30
0.0
 10
4.28513146796784
 20
4.012384240854938
 30
0.0
 10
4.298586076410449
 20
4.007368839680887
 30
0.0
 10
4.315611813608176
 20
3.99938266275639
 30
0.0
 10
4.335299710104781
 20
3.988778421903454
 30
0.0
 10
4.355712172077033
 20
3.976723707974112
 30
0.0
 10
4.377391964121603
 20
3.963042763625427
 30
0.0
 10
4.399469853774524
 20
3.948453747355312
 30
0.0
 10
4.422269493469206
 20
3.932929807900933
 30
0.0
 10
4.445752945299284
 20
3.916715593810284
 30
0.0
 10
4.469659579357584
 20
3.900254324046345
 30
0.0
 10
4.491301171081152
 20
3.885675377711747
 30
0.0
 10
4.510199442226802
 20
3.873422848771047
 30
0.0
 10
4.525410198277548
 20
3.86391446251185
 30
0.0
 10
4.534714222885323
 20
3.858510131034874
 30
0.0
 10
4.538826775140487
 20
3.856121315813478
 30
0.0
  0
LWPOLYLINE
  5
E16
330
1F
100
AcDbEntity
  8
0
  6
Continuous
 62
     7
370
    15
100
AcDbPolyline
 90
       53
 70
   128
 43
0.0
 10
4.245389323454931
 20
4.025466655133149
 10
4.233988937825367
 20
4.03237613614838
 10
4.214018259437295
 20
4.046181145461986
 10
4.195049137645641
 20
4.061570767639267
 10
4.177119563444303
 20
4.078514180639617
 10
4.160265445841169
 20
4.096977450519915
 10
4.144520539940241
 20
4.116923599396789
 10
4.129916379337576
 20
4.138312679505204
 10
4.116482212966378
 20
4.161101853205085
 10
4.104244946517813
 20
4.185245478775723
 10
4.093229088554801
 20
4.210695201826133
 10
4.083456701426733
 20
4.237400052138312
 10
4.074947357083427
 20
4.265306545749412
 10
4.067718097876793
 20
4.29435879206839
 10
4.061783402428739
 20
4.324498605812623
 10
4.057155156633671
 20
4.355665623540271
 10
4.05384262985364
 20
4.387797424545029
 10
4.051852456353858
 20
4.420829655871115
 10
4.051188622015697
 20
4.454696161198144
 10
4.051852456353858
 20
4.489329113337735
 10
4.053842629853642
 20
4.524659150076509
 10
4.057155156633671
 20
4.560615513093397
 10
4.061783402428739
 20
4.597126189673055
 10
4.067718097876793
 20
4.63411805693155
 10
4.074947357083431
 20
4.671517028265473
 10
4.083456701426733
 20
4.709248201731162
 10
4.093229088554801
 20
4.747236010056893
 10
4.104244946517813
 20
4.785404371987555
 10
4.116482212966378
 20
4.823676844658738
 10
4.129916379337577
 20
4.86197677669503
 10
4.144520539940241
 20
4.900227461725933
 10
4.160265445841169
 20
4.9383522920119
 10
4.177119563444303
 20
4.976274911872868
 10
4.195049137645643
 20
5.013919370611937
 10
4.214018259437297
 20
5.051210274627969
 10
4.233988937825371
 20
5.088072938412468
 10
4.254921175917592
 20
5.124433534128261
 10
4.276773051028332
 20
5.160219239470498
 10
4.299500798640544
 20
5.195358383513756
 10
4.323058900056512
 20
5.229780590253206
 10
4.347400173561815
 20
5.263416919552316
 10
4.372475868919979
 20
5.296200005214847
 10
4.398235765008497
 20
5.328064189904582
 10
4.424628270400742
 20
5.358945656642566
 10
4.451600526692287
 20
5.388782556618551
 10
4.479098514364709
 20
5.417515133060589
 10
4.507067160974839
 20
5.445085840914767
 10
4.535450451452799
 20
5.471439462095327
 10
4.564191540287918
 20
5.4965232160744
 10
4.593232865377816
 20
5.520286865589829
 10
4.622516263312702
 20
5.5426828172594
 10
4.651983085863919
 20
5.563666216899955
 10
4.681574317443503
 20
5.583195039360491
  0
LINE
  5
E17
330
1F
100
AcDbEntity
  8
0
  6
Continuous
 62
     7
370
    15
100
AcDbLine
 10
5.013914504601181
 20
5.391339133082155
 30
0.0
 11
4.681574317443503
 21
5.583195039360491
 31
0.0
  0
LINE
  5
E18
330
1F
100
AcDbEntity
  8
0
  6
Continuous
 62
     7
370
    15
100
AcDbLine
 10
4.629864897982541
 20
5.409754935802471
 30
0.0
 11
4.619257795965648
 21
5.415878285457662
 31
0.0
  0
SPLINE
  5
E19
330
1F
100
AcDbEntity
  8
0
  6
Continuous
 62
     7
370
    15
100
AcDbSpline
210
0.0
220
0.0
230
1.0
 70
     8
 71
     3
 72
    41
 73
    37
 74
     0
 42
0.0000000001
 43
0.0000000001
 40
0.0
 40
0.0
 40
0.0
 40
0.0
 40
0.0565222040143601
 40
0.1133910930805608
 40
0.1715688124921198
 40
0.200967317623122
 40
0.2303632874493397
 40
0.2677365081298595
 40
0.305388767170862
 40
0.3315562953229858
 40
0.3577182020151743
 40
0.3846830508582006
 40
0.4116370847960982
 40
0.4431929809762753
 40
0.4754832242467709
 40
0.5020151265655555
 40
0.5292644239077387
 40
0.5558303259945352
 40
0.5834066894523803
 40
0.6066056631737072
 40
0.6305659995294137
 40
0.6524457795919614
 40
0.6749296523395309
 40
0.6974534265639859
 40
0.7205182139896531
 40
0.7454235846402958
 40
0.7708533232697655
 40
0.7895336498880253
 40
0.8082178933266453
 40
0.8274266692181161
 40
0.8466385804183801
 40
0.8825120684335635
 40
0.9188653971833721
 40
0.9545396277851924
 40
0.9902243577364284
 40
1.0
 40
1.0
 40
1.0
 40
1.0
 10
4.774296430512379
 20
5.326376386835313
 30
0.0
 10
4.765879267119744
 20
5.30950879517595
 30
0.0
 10
4.748993312752393
 20
5.275670152659362
 30
0.0
 10
4.721365082312972
 20
5.221438105687866
 30
0.0
 10
4.696496919819407
 20
5.174204612672182
 30
0.0
 10
4.675040466559542
 20
5.1351737813468
 30
0.0
 10
4.656579312904574
 20
5.102791603854685
 30
0.0
 10
4.635393239429857
 20
5.06744123111947
 30
0.0
 10
4.613406552544654
 20
5.033338334461475
 30
0.0
 10
4.59258780642768
 20
5.003534289501997
 30
0.0
 10
4.573217794985536
 20
4.977911512045224
 30
0.0
 10
4.552519149363551
 20
4.953035372343375
 30
0.0
 10
4.529098689256883
 20
4.92807159529665
 30
0.0
 10
4.50262291824818
 20
4.9040896786064
 30
0.0
 10
4.474563941040427
 20
4.88411531140888
 30
0.0
 10
4.446613379186057
 20
4.869734672580676
 30
0.0
 10
4.41980743371829
 20
4.861147712229428
 30
0.0
 10
4.392542854069251
 20
4.858190783588989
 30
0.0
 10
4.36727714025992
 20
4.861420123774284
 30
0.0
 10
4.344350792710779
 20
4.870154847570812
 30
0.0
 10
4.325078486725807
 20
4.882867755491481
 30
0.0
 10
4.308467873251377
 20
4.899475088601803
 30
0.0
 10
4.29495701840103
 20
4.919009695132212
 30
0.0
 10
4.284370150978205
 20
4.941584121474779
 30
0.0
 10
4.276886535632726
 20
4.967034046319618
 30
0.0
 10
4.272910924915503
 20
4.995004500186961
 30
0.0
 10
4.272777926558593
 20
5.022016559560736
 30
0.0
 10
4.275313396389046
 20
5.0466722726365
 30
0.0
 10
4.279464332262074
 20
5.068759381989687
 30
0.0
 10
4.285424524885504
 20
5.090756460892507
 30
0.0
 10
4.295281875559515
 20
5.118822390562401
 30
0.0
 10
4.310808281111718
 20
5.152186983884158
 30
0.0
 10
4.333354862946462
 20
5.189394972060565
 30
0.0
 10
4.359517340091356
 20
5.224043073791264
 30
0.0
 10
4.380874826467319
 20
5.248901000376589
 30
0.0
 10
4.394118958768125
 20
5.261557894528266
 30
0.0
 10
4.39696693147834
 20
5.264279589564329
 30
0.0
  0
SPLINE
  5
E1A
330
1F
100
AcDbEntity
  8
0
  6
Continuous
 62
     7
370
    15
100
AcDbSpline
210
0.0
220
0.0
230
1.0
 70
     8
 71
     3
 72
    12
 73
     8
 74
     0
 42
0.0000000001
 43
0.0000000001
 40
0.0
 40
0.0
 40
0.0
 40
0.0
 40
0.0003212362060742
 40
0.2484356679157084
 40
0.4965770142898397
 40
0.7482817332938385
 40
1.0
 40
1.0
 40
1.0
 40
1.0
 10
4.453965526802003
 20
5.315282559204263
 30
0.0
 10
4.453981443296612
 20
5.315295985713301
 30
0.0
 10
4.466290843341807
 20
5.325679696134443
 30
0.0
 10
4.492684918936653
 20
5.344180915182345
 30
0.0
 10
4.533200980028381
 20
5.370623093162114
 30
0.0
 10
4.575452631134401
 20
5.39464770570596
 30
0.0
 10
4.604655812391296
 20
5.408801298577174
 30
0.0
 10
4.619257795965648
 20
5.415878285457662
 30
0.0
  0
LINE
  5
E1B
330
1F
100
AcDbEntity
  8
0
  6
Continuous
 62
     7
370
    15
100
AcDbLine
 10
4.77429643051238
 20
5.326376386835312
 30
0.0
 11
4.763689328495489
 21
5.3324997364905
 31
0.0
  0
LINE
  5
E1C
330
1F
100
AcDbEntity
  8
0
  6
Continuous
 62
     7
370
    15
100
AcDbLine
 10
5.024521106318978
 20
5.238019259295878
 30
0.0
 11
5.024521106318978
 21
5.372952948876907
 31
0.0
  0
LWPOLYLINE
  5
E1D
330
1F
100
AcDbEntity
  8
0
  6
Continuous
 62
     7
370
    15
100
AcDbPolyline
 90
       62
 70
   128
 43
0.0
 10
5.024521106318978
 20
4.003242960556336
 10
4.998101895985488
 20
3.990606833810169
 10
4.971827143004423
 20
3.979560704282366
 10
4.945761238061802
 20
3.97013164236475
 10
4.919968060026526
 20
3.96234275555393
 10
4.894510819404501
 20
3.95621313182251
 10
4.869451903430688
 20
3.951757792840814
 10
4.844852723178744
 20
3.948987657163765
 10
4.820773563062877
 20
3.947909513473137
 10
4.797273433100798
 20
3.948526003940743
 10
4.774409924299776
 20
3.950835617753369
 10
4.752239067520218
 20
3.954832694815257
 10
4.730815196162662
 20
3.960507439619128
 10
4.710190813014671
 20
3.96784594525171
 10
4.690416461583945
 20
3.976830227474964
 10
4.671540602232996
 20
3.987438268799467
 10
4.653609493418894
 20
3.99964407244197
 10
4.636667078329173
 20
4.013417726034862
 10
4.620754877191687
 20
4.028725474931452
 10
4.605911885522326
 20
4.045529804927372
 10
4.592174478559968
 20
4.063789534195441
 10
4.579576322122864
 20
4.083459914208619
 10
4.568148290104915
 20
4.104492739403784
 10
4.557918388813996
 20
4.12683646531754
 10
4.548911688337827
 20
4.15043633490456
 10
4.541150261105521
 20
4.175234512728907
 10
4.534653127795378
 20
4.201170226699469
 10
4.529436210721543
 20
4.228179917002142
 10
4.525512294813701
 20
4.256197391863816
 10
4.522890996285457
 20
4.285153989766406
 10
4.521578739068212
 20
4.314978747713414
 10
4.521578739068212
 20
4.345598575136639
 10
4.522890996285457
 20
4.376938433016873
 10
4.525512294813701
 20
4.408921517779585
 10
4.529436210721543
 20
4.44146944951497
 10
4.534653127795378
 20
4.47450246406103
 10
4.541150261105521
 20
4.507939608479047
 10
4.548911688337827
 20
4.54169893944231
 10
4.557918388813996
 20
4.57569772405198
 10
4.568148290104915
 20
4.609852642587927
 10
4.579576322122864
 20
4.64407999269766
 10
4.592174478559968
 20
4.678295894522978
 10
4.605911885522326
 20
4.712416496261621
 10
4.620754877191687
 20
4.746358179660163
 10
4.636667078329173
 20
4.78003776493456
 10
4.653609493418894
 20
4.81337271461615
 10
4.671540602232996
 20
4.846281335823553
 10
4.690416461583945
 20
4.878682980464775
 10
4.710190813014671
 20
4.910498242878864
 10
4.730815196162662
 20
4.941649154432806
 10
4.752239067520218
 20
4.972059374596712
 10
4.774409924299776
 20
5.001654378029094
 10
4.797273433100798
 20
5.030361637213701
 10
4.820773563062877
 20
5.058110800200351
 10
4.844852723178743
 20
5.08483386301418
 10
4.869451903430688
 20
5.110465336310781
 10
4.894510819404501
 20
5.134942405868818
 10
4.919968060026526
 20
5.1582050865268
 10
4.945761238061802
 20
5.180196369186777
 10
4.971827143004423
 20
5.200862360524689
 10
4.998101895985488
 20
5.220152415064992
 10
5.024521106318978
 20
5.238019259295878
  0
LINE
  5
E1E
330
1F
100
AcDbEntity
  8
0
  6
Continuous
 62
     7
370
    15
100
AcDbLine
 10
5.024521106318978
 20
3.868309270975309
 30
0.0
 11
5.024521106318978
 21
4.003242960556336
 31
0.0
  0
ARC
  5
E1F
330
1F
100
AcDbEntity
  8
0
  6
Continuous
 62
     7
370
    15
100
AcDbCircle
 10
4.635736429182465
 20
5.346915320875746
 30
0.0
 40
0.0715806553116576
100
AcDbArc
 50
128.6906504990778
 51
147.515107284355
  0
SPLINE
  5
E20
330
1F
100
AcDbEntity
  8
0
  6
Continuous
 62
     7
370
    15
100
AcDbSpline
210
0.0
220
0.0
230
1.0
 70
     8
 71
     3
 72
    13
 73
     9
 74
     0
 42
0.0000000001
 43
0.0000000001
 40
0.0
 40
0.0
 40
0.0
 40
0.0
 40
0.0226817238992106
 40
0.2496730317499139
 40
0.4765847772328672
 40
0.7031743016307574
 40
0.9293399413300187
 40
1.0
 40
1.0
 40
1.0
 40
1.0
 10
5.019262245996079
 20
5.234424132154428
 30
0.0
 10
5.019258200701509
 20
5.234357782321753
 30
0.0
 10
5.019213671415966
 20
5.233627424966485
 30
0.0
 10
5.019698903034571
 20
5.231933230587547
 30
0.0
 10
5.020708333190652
 20
5.229639375389286
 30
0.0
 10
5.022208534641805
 20
5.227571850484141
 30
0.0
 10
5.023556482580135
 20
5.226341099496639
 30
0.0
 10
5.024335628736036
 20
5.225862075134299
 30
0.0
 10
5.024521106318978
 20
5.225748042253275
 30
0.0
  0
LWPOLYLINE
  5
E21
330
1F
100
AcDbEntity
  8
0
  6
Continuous
 62
     7
370
    15
100
AcDbPolyline
 90
       61
 70
   128
 43
0.0
 10
5.024521106318978
 20
5.225748042253275
 10
4.998218653721073
 20
5.207910549642567
 10
4.972064974637182
 20
5.18863537282697
 10
4.946126209077027
 20
5.167971256779527
 10
4.92046795355575
 20
5.145970458960139
 10
4.895155095206977
 20
5.122688617161754
 10
4.870251647689809
 20
5.098184608807994
 10
4.845820589304757
 20
5.072520402058115
 10
4.82192370372798
 20
5.045760899095798
 10
4.798621423766624
 20
5.017973771998082
 10
4.775972678530365
 20
4.989229291599539
 10
4.754034744405636
 20
4.959600149784423
 10
4.732863100209456
 20
4.929161275656255
 10
4.712511286889094
 20
4.897989646049698
 10
4.693030772122446
 20
4.866164090863914
 10
4.674470820161461
 20
4.83376509370974
 10
4.656878367247852
 20
4.800874588374757
 10
4.640297902916071
 20
4.767575751621032
 10
4.624771357483778
 20
4.733952792839509
 10
4.610337996014308
 20
4.700090741092955
 10
4.597034319019305
 20
4.66607523008607
 10
4.584893970152602
 20
4.631992281606509
 10
4.573947651128847
 20
4.597928087984474
 10
4.564223044081945
 20
4.563968794121027
 10
4.555744741559751
 20
4.530200279636353
 10
4.548534184332011
 20
4.496707941688875
 10
4.542609607168817
 20
4.463576479014481
 10
4.537985992726715
 20
4.430889677731986
 10
4.534675033659082
 20
4.398730199456514
 10
4.532685103046595
 20
4.367179372256623
 10
4.532021233222547
 20
4.33631698498385
 10
4.532685103046595
 20
4.306221085494771
 10
4.534675033659082
 20
4.276967783275862
 10
4.537985992726715
 20
4.248631056970316
 10
4.542609607168817
 20
4.221282567293517
 10
4.548534184332011
 20
4.194991475810352
 10
4.555744741559751
 20
4.169824270032599
 10
4.564223044081945
 20
4.145844595278736
 10
4.573947651128847
 20
4.123113093721368
 10
4.584893970152602
 20
4.101687251029296
 10
4.597034319019305
 20
4.081621250992091
 10
4.610337996014308
 20
4.062965838494749
 10
4.624771357483778
 20
4.04576819118902
 10
4.640297902916071
 20
4.030071800185901
 10
4.656878367247852
 20
4.015916360070999
 10
4.674470820161461
 20
4.003337668520954
 10
4.693030772122446
 20
3.992367535774725
 10
4.712511286889094
 20
3.983033704188718
 10
4.732863100209456
 20
3.975359778079166
 10
4.754034744405636
 20
3.969365164029204
 10
4.775972678530365
 20
3.965065021811584
 10
4.798621423766624
 20
3.962470226051138
 10
4.82192370372798
 20
3.961587338723958
 10
4.845820589304757
 20
3.962418592562814
 10
4.870251647689809
 20
3.964961885410806
 10
4.895155095206977
 20
3.969210785537502
 10
4.92046795355575
 20
3.975154547904134
 10
4.946126209077027
 20
3.982778141336716
 10
4.972064974637182
 20
3.992062286538363
 10
4.998218653721073
 20
4.002983504844682
 10
5.024521106318978
 20
4.015514177598941
  0
SPLINE
  5
E22
330
1F
100
AcDbEntity
  8
0
  6
Continuous
 62
     7
370
    15
100
AcDbSpline
210
0.0
220
0.0
230
1.0
 70
     8
 71
     3
 72
    13
 73
     9
 74
     0
 42
0.0000000001
 43
0.0000000001
 40
0.0
 40
0.0
 40
0.0
 40
0.0
 40
0.1267386877152902
 40
0.3295655883983928
 40
0.5323077356368958
 40
0.7347585464822759
 40
0.9368406510861696
 40
1.0
 40
1.0
 40
1.0
 40
1.0
 10
5.019313070407564
 20
4.012971434468889
 30
0.0
 10
5.019272079196118
 20
4.012564776240221
 30
0.0
 10
5.019165487491866
 20
4.011507320456008
 30
0.0
 10
5.019675576079029
 20
4.009440310092294
 30
0.0
 10
5.020714522213928
 20
4.007131000132591
 30
0.0
 10
5.022206693728737
 20
4.005067782421747
 30
0.0
 10
5.02355647471232
 20
4.003836041939296
 30
0.0
 10
5.024335584530458
 20
4.003357024327568
 30
0.0
 10
5.024521106318978
 20
4.003242960556338
 30
0.0
  0
LINE
  5
E23
330
1F
100
AcDbEntity
  8
0
  6
Continuous
 62
     7
370
    15
100
AcDbLine
 10
5.024521106318978
 20
4.015514177598941
 30
0.0
 11
5.024521106318978
 21
4.150577102476987
 31
0.0
  0
LINE
  5
E24
330
1F
100
AcDbEntity
  8
0
  6
Continuous
 62
     7
370
    15
100
AcDbLine
 10
5.024521106318978
 20
5.09068511737523
 30
0.0
 11
5.024521106318978
 21
5.225748042253275
 31
0.0
  0
LWPOLYLINE
  5
E25
330
1F
100
AcDbEntity
  8
0
  6
Continuous
 62
     7
370
    15
100
AcDbPolyline
 90
       53
 70
   128
 43
0.0
 10
5.024521106318978
 20
4.150577102476987
 10
5.001243328536251
 20
4.140064756679661
 10
4.978149033042061
 20
4.13119422150101
 10
4.955314152418617
 20
4.123994662699381
 10
4.932813766308447
 20
4.118489751968537
 10
4.91072185455728
 20
4.114697589106615
 10
4.889111053973014
 20
4.112630642505143
 10
4.868052419500456
 20
4.112295708153753
 10
4.847615190597192
 20
4.113693887295399
 10
4.827866563578616
 20
4.116820582805537
 10
4.808871470680694
 20
4.121665514307183
 10
4.790692366566888
 20
4.128212751972142
 10
4.773389022981174
 20
4.136440768897269
 10
4.757018332222328
 20
4.146322511883578
 10
4.741634120085647
 20
4.157825490385432
 10
4.727286968887142
 20
4.17091188333741
 10
4.714024051152087
 20
4.185538663507578
 10
4.701888974514732
 20
4.2016577389683
 10
4.690921638339165
 20
4.219216111219457
 10
4.681158102532737
 20
4.23815604944416
 10
4.672630468983355
 20
4.258415280324021
 10
4.665366776010506
 20
4.279927192789884
 10
4.659390906177055
 20
4.30262105703481
 10
4.654722507764859
 20
4.326422257069204
 10
4.651376930172496
 20
4.351252536053456
 10
4.649365173447383
 20
4.377030253601503
 10
4.648693852118327
 20
4.403670654209223
 10
4.649365173447383
 20
4.431086145925192
 10
4.651376930172496
 20
4.459186588347467
 10
4.654722507764859
 20
4.48787958899952
 10
4.659390906177055
 20
4.517070807110869
 10
4.665366776010506
 20
4.546664263803547
 10
4.672630468983353
 20
4.576562657664585
 10
4.681158102532737
 20
4.606667684666899
 10
4.690921638339165
 20
4.636880361386717
 10
4.701888974514728
 20
4.667101350454805
 10
4.714024051152085
 20
4.697231287171451
 10
4.727286968887142
 20
4.727171106211317
 10
4.741634120085645
 20
4.756822367343955
 10
4.757018332222328
 20
4.786087579099055
 10
4.773389022981174
 20
4.814870519312233
 10
4.790692366566887
 20
4.843076551497414
 10
4.808871470680692
 20
4.87061293600562
 10
4.827866563578616
 20
4.897389134947054
 10
4.847615190597192
 20
4.923317109873963
 10
4.868052419500456
 20
4.948311611245474
 10
4.88911105397301
 20
4.972290458722699
 10
4.91072185455728
 20
4.995174811372486
 10
4.932813766308443
 20
5.016889426891415
 10
4.955314152418615
 20
5.037362908997735
 10
4.978149033042058
 20
5.056527942177815
 10
5.001243328536249
 20
5.0743215130153
 10
5.024521106318978
 20
5.09068511737523
  0
ARC
  5
E26
330
1F
100
AcDbEntity
  8
0
  6
Continuous
 62
     7
370
    15
100
AcDbCircle
 10
5.474349385290832
 20
4.400456124014556
 30
0.0
 40
1.424712942120603
100
AcDbArc
 50
124.3252604395005
 51
177.3252434319696
  0
SPLINE
  5
E27
330
1F
100
AcDbEntity
  8
0
  6
Continuous
 62
     7
370
    15
100
AcDbSpline
210
0.0
220
0.0
230
1.0
 70
     8
 71
     3
 72
     8
 73
     4
 74
     0
 42
0.0000000001
 43
0.0000000001
 40
0.0
 40
0.0
 40
0.0
 40
0.0
 40
0.0005391456522715
 40
0.0005391456522715
 40
0.0005391456522715
 40
0.0005391456522715
 10
4.681574317443503
 20
5.583195039360491
 30
0.0
 10
4.678038748809377
 20
5.581148411953487
 30
0.0
 10
4.674503214337713
 20
5.579101725422463
 30
0.0
 10
4.670967715725707
 20
5.577054976832584
 30
0.0
  0
LWPOLYLINE
  5
E28
330
1F
100
AcDbEntity
  8
0
  6
Continuous
 62
     7
370
    15
100
AcDbPolyline
 90
       31
 70
   128
 43
0.0
 10
4.387417896469901
 20
5.213441464455982
 10
4.388076728801719
 20
5.228305105577199
 10
4.390046678025466
 20
5.24226035353621
 10
4.39330816590072
 20
5.255168514809135
 10
4.397828778295691
 20
5.266901302290007
 10
4.403563587333426
 20
5.277342110265658
 10
4.410455597905233
 20
5.286387173295693
 10
4.418436314113684
 20
5.293946597480054
 10
4.427426420015606
 20
5.299945253864979
 10
4.437336567899571
 20
5.304323525108301
 10
4.448068266263582
 20
5.307037897983384
 10
4.45951485866788
 20
5.30806139583311
 10
4.471562583734542
 20
5.307383846676025
 10
4.48409170575919
 20
5.305011984300049
 10
4.496977704698196
 20
5.300969381339083
 10
4.510092513704815
 20
5.29529621499757
 10
4.523305791915065
 20
5.288048867751388
 10
4.53648621983377
 20
5.279299366993484
 10
4.549502804446717
 20
5.269134669193269
 10
4.562226181088069
 20
5.257655795684163
 10
4.574529899124545
 20
5.24497682866821
 10
4.586291678678618
 20
5.231223777415882
 10
4.597394625900868
 20
5.216533325929345
 10
4.607728394713598
 20
5.201051474515441
 10
4.617190283479695
 20
5.184932088769041
 10
4.625686255697671
 20
5.168335370387636
 10
4.633131874578641
 20
5.151426265014894
 10
4.639453142217083
 20
5.134372822936748
 10
4.644587235015253
 20
5.11734452892216
 10
4.648483128052333
 20
5.100510617807335
 10
4.650040778565616
 20
5.091669881936855
  0
ARC
  5
E29
330
1F
100
AcDbEntity
  8
0
  6
Continuous
 62
     7
370
    15
100
AcDbCircle
 10
4.650749538013656
 20
5.21572687806031
 30
0.0
 40
0.2633415587283406
100
AcDbArc
 50
180.4972485101663
 51
250.7740653885884
  0
ARC
  5
E2A
330
1F
100
AcDbEntity
  8
0
  6
Continuous
 62
     7
370
    15
100
AcDbCircle
 10
4.620488337923617
 20
5.238976982486967
 30
0.0
 40
0.1710351695329679
100
AcDbArc
 50
33.1480447607063
 51
86.85733177199388
  0
LINE
  5
E2B
330
1F
100
AcDbEntity
  8
0
  6
Continuous
 62
     7
370
    15
100
AcDbLine
 10
4.763689328495489
 20
5.3324997364905
 30
0.0
 11
4.772044865722476
 21
5.321541059115018
 31
0.0
  0
ARC
  5
E2C
330
1F
100
AcDbEntity
  8
0
  6
Continuous
 62
     7
370
    15
100
AcDbCircle
 10
4.635690565310103
 20
5.344211295212952
 30
0.0
 40
0.0658020305274809
100
AcDbArc
 50
95.079231397025
 51
119.7537908224309
  0
LINE
  5
E2D
330
1F
100
AcDbEntity
  8
0
  6
Continuous
 62
     7
370
    15
100
AcDbLine
 10
4.435799208034206
 20
5.185511527795327
 30
0.0
 11
4.477899812988292
 21
5.245413137109682
 31
0.0
  0
LINE
  5
E2E
330
1F
100
AcDbEntity
  8
0
  6
Continuous
 62
     7
370
    15
100
AcDbLine
 10
4.477899812988292
 20
5.077001594658247
 30
0.0
 11
4.435799208034206
 21
5.185511527795327
 31
0.0
  0
LINE
  5
E2F
330
1F
100
AcDbEntity
  8
0
  6
Continuous
 62
     7
370
    15
100
AcDbLine
 10
4.562101022896463
 20
5.028393270835524
 30
0.0
 11
4.477899812988292
 21
5.077001594658247
 31
0.0
  0
LINE
  5
E30
330
1F
100
AcDbEntity
  8
0
  6
Continuous
 62
     7
370
    15
100
AcDbLine
 10
4.604201627850549
 20
5.088294880149881
 30
0.0
 11
4.562101022896463
 21
5.028393270835524
 31
0.0
  0
LINE
  5
E31
330
1F
100
AcDbEntity
  8
0
  6
Continuous
 62
     7
370
    15
100
AcDbLine
 10
4.562101022896463
 20
5.196804813286959
 30
0.0
 11
4.604201627850549
 21
5.088294880149881
 31
0.0
  0
LINE
  5
E32
330
1F
100
AcDbEntity
  8
0
  6
Continuous
 62
     7
370
    15
100
AcDbLine
 10
4.477899812988292
 20
5.245413137109682
 30
0.0
 11
4.562101022896463
 21
5.196804813286959
 31
0.0
  0
SPLINE
  5
E33
330
1F
100
AcDbEntity
  8
0
  6
Continuous
 62
     7
370
    15
100
AcDbSpline
210
0.0
220
0.0
230
1.0
 70
     8
 71
     3
 72
     8
 73
     4
 74
     0
 42
0.0000000001
 43
0.0000000001
 40
0.0
 40
0.0
 40
0.0
 40
0.0
 40
0.000539697846165
 40
0.000539697846165
 40
0.000539697846165
 40
0.000539697846165
 10
5.01391450460118
 20
4.16898836298513
 30
0.0
 10
5.017449883451046
 20
4.162851187199942
 30
0.0
 10
5.020985421403892
 20
4.15671410267044
 30
0.0
 10
5.024521106318978
 20
4.150577102476987
 30
0.0
  0
LWPOLYLINE
  5
E34
330
1F
100
AcDbEntity
  8
0
  6
Continuous
 62
     7
370
    15
100
AcDbPolyline
 90
       27
 70
   128
 43
0.0
 10
5.01391450460118
 20
4.16898836298513
 10
4.991278940318307
 20
4.158821335166997
 10
4.968824228840942
 20
4.150250009992841
 10
4.946623989010115
 20
4.143302488960474
 10
4.924751005369445
 20
4.138001549848489
 10
4.903276989537546
 20
4.134364572038233
 10
4.882272345098064
 20
4.132403479534676
 10
4.861805936778187
 20
4.132124701872994
 10
4.841944864672347
 20
4.133529153039026
 10
4.822754244251369
 20
4.136612228472735
 10
4.804296992878294
 20
4.141363820164473
 10
4.786633623530814
 20
4.147768349794574
 10
4.769822046406591
 20
4.155804819807618
 10
4.753917379061917
 20
4.165446882253911
 10
4.738971765706168
 20
4.176662925172504
 10
4.725034206244551
 20
4.189416176232496
 10
4.712150395629564
 20
4.203664823292889
 10
4.700362574047931
 20
4.219362151485672
 10
4.68970938843412
 20
4.23645669637275
 10
4.68022576576455
 20
4.254892412674543
 10
4.671942798547824
 20
4.274608858017121
 10
4.664887642886453
 20
4.295541391095387
 10
4.659083429444287
 20
4.317621383602691
 10
4.654549187611536
 20
4.340776445231989
 10
4.651299783116002
 20
4.364930661010925
 10
4.649345869285081
 20
4.390004840192668
 10
4.648728733935479
 20
4.409854138673029
  0
LINE
  5
E35
330
1F
100
AcDbEntity
  8
0
  6
Continuous
 62
     7
370
    15
100
AcDbLine
 10
5.01391450460118
 20
4.16898836298513
 30
0.0
 11
4.681574317443505
 21
4.360844269263466
 31
0.0
  0
LWPOLYLINE
  5
E36
330
1F
100
AcDbEntity
  8
0
  6
Continuous
 62
     7
370
    15
100
AcDbPolyline
 90
        3
 70
   128
 43
0.0
 10
4.681574317443505
 20
4.360844269263466
 10
4.658938753160631
 20
4.350677241445334
 10
4.653367862365092
 20
4.348408600432927
  0
LINE
  5
E37
330
1F
100
AcDbEntity
  8
0
  6
Continuous
 62
     7
370
    15
100
AcDbLine
 10
4.566288160636611
 20
5.128027101647166
 30
0.0
 11
4.595279489801329
 21
5.111290763563346
 31
0.0
  0
LINE
  5
E38
330
1F
100
AcDbEntity
  8
0
  6
Continuous
 62
     7
370
    15
100
AcDbLine
 10
4.533109693731743
 20
5.21354115137078
 30
0.0
 11
4.566288160636611
 21
5.128027101647166
 31
0.0
  0
LINE
  5
E39
330
1F
100
AcDbEntity
  8
0
  6
Continuous
 62
     7
370
    15
100
AcDbLine
 10
4.508731447420968
 20
5.227614413408186
 30
0.0
 11
4.435799208034206
 21
5.185511527795327
 31
0.0
  0
LINE
  5
E3A
330
1F
100
AcDbEntity
  8
0
  6
Continuous
 62
     7
370
    15
100
AcDbLine
 10
4.566288160636611
 20
5.128027101647166
 30
0.0
 11
4.477899812988292
 21
5.077001594658247
 31
0.0
  0
LINE
  5
E3B
330
1F
100
AcDbEntity
  8
0
  6
Continuous
 62
     7
370
    15
100
AcDbLine
 10
5.024521106318978
 20
5.154255139539717
 30
0.0
 11
5.079675435251528
 21
5.122415223178633
 31
0.0
  0
LINE
  5
E3C
330
1F
100
AcDbEntity
  8
0
  6
Continuous
 62
     7
370
    15
100
AcDbLine
 10
4.736728646376056
 20
5.614976742669973
 30
0.0
 11
4.736728646376056
 21
5.551355122999407
 31
0.0
  0
SPLINE
  5
E3D
330
1F
100
AcDbEntity
  8
0
  6
Continuous
 62
     7
370
    15
100
AcDbSpline
210
0.0
220
0.0
230
1.0
 70
     8
 71
     3
 72
     8
 73
     4
 74
     0
 42
0.0000000001
 43
0.0000000001
 40
0.0
 40
0.0
 40
0.0
 40
0.0
 40
0.0005391602010996
 40
0.0005391602010996
 40
0.0005391602010996
 40
0.0005391602010996
 10
4.736728646376056
 20
5.614976742669973
 30
0.0
 10
4.740264143430882
 20
5.617023714292914
 30
0.0
 10
4.743799677927556
 20
5.619070621121245
 30
0.0
 10
4.747335248093852
 20
5.621117466219311
 30
0.0
  0
LINE
  5
E3E
330
1F
100
AcDbEntity
  8
0
  6
Continuous
 62
     7
370
    15
100
AcDbLine
 10
5.079675435251528
 20
5.429261559940973
 30
0.0
 11
4.747335248093852
 21
5.621117466219311
 31
0.0
  0
SPLINE
  5
E3F
330
1F
100
AcDbEntity
  8
0
  6
Continuous
 62
     7
370
    15
100
AcDbSpline
210
0.0
220
0.0
230
1.0
 70
     8
 71
     3
 72
     8
 73
     4
 74
     0
 42
0.0000000001
 43
0.0000000001
 40
0.0
 40
0.0
 40
0.0
 40
0.0
 40
0.0005391602010996
 40
0.0005391602010996
 40
0.0005391602010996
 40
0.0005391602010996
 10
5.079675435251528
 20
5.429261559940973
 30
0.0
 10
5.083211005417828
 20
5.423132632418468
 30
0.0
 10
5.0867465399145
 20
5.417003684348969
 30
0.0
 10
5.090282036969329
 20
5.410874714714296
 30
0.0
  0
LINE
  5
E40
330
1F
100
AcDbEntity
  8
0
  6
Continuous
 62
     7
370
    15
100
AcDbLine
 10
5.090282036969329
 20
5.275932017488777
 30
0.0
 11
5.090282036969329
 21
5.410874714714296
 31
0.0
  0
SPLINE
  5
E41
330
1F
100
AcDbEntity
  8
0
  6
Continuous
 62
     7
370
    15
100
AcDbSpline
210
0.0
220
0.0
230
1.0
 70
     8
 71
     3
 72
    14
 73
    10
 74
     0
 42
0.0000000001
 43
0.0000000001
 40
0.0
 40
0.0
 40
0.0
 40
0.0
 40
0.25
 40
0.25
 40
0.5
 40
0.5
 40
0.75
 40
0.75
 40
1.0
 40
1.0
 40
1.0
 40
1.0
 10
5.090282036969329
 20
5.263659781965339
 30
0.0
 10
5.088879296102572
 20
5.264469567030957
 30
0.0
 10
5.087507965533585
 20
5.265928112587506
 30
0.0
 10
5.08555220520334
 20
5.269322457485491
 30
0.0
 10
5.084979648641466
 20
5.271253888911816
 30
0.0
 10
5.084977825885568
 20
5.274453119235056
 30
0.0
 10
5.085538848567599
 20
5.275721104967022
 30
0.0
 10
5.087516066068406
 20
5.276872930640317
 30
0.0
 10
5.088879297502618
 20
5.276741801746165
 30
0.0
 10
5.090282036969329
 20
5.275932017488777
 30
0.0
  0
LINE
  5
E42
330
1F
100
AcDbEntity
  8
0
  6
Continuous
 62
     7
370
    15
100
AcDbLine
 10
5.090282036969329
 20
5.128582132932896
 30
0.0
 11
5.090282036969329
 21
5.263659781965339
 31
0.0
  0
SPLINE
  5
E43
330
1F
100
AcDbEntity
  8
0
  6
Continuous
 62
     7
370
    15
100
AcDbSpline
210
0.0
220
0.0
230
1.0
 70
     8
 71
     3
 72
     8
 73
     4
 74
     0
 42
0.0000000001
 43
0.0000000001
 40
0.0
 40
0.0
 40
0.0
 40
0.0
 40
0.0005397368641287
 40
0.0005397368641287
 40
0.0005397368641287
 40
0.0005397368641287
 10
5.079675435251532
 20
5.122415223178633
 30
0.0
 10
5.083210807216158
 20
5.12447113960853
 30
0.0
 10
5.086746345349602
 20
5.126526768904222
 30
0.0
 10
5.090282036969329
 20
5.128582132932896
 30
0.0
  0
ARC
  5
E44
330
1F
100
AcDbEntity
  8
0
  6
Continuous
 62
     7
370
    15
100
AcDbCircle
 10
4.863442315752941
 20
5.362583008136029
 30
0.0
 40
0.1148001494531484
100
AcDbArc
 50
30.72360858523676
 51
89.28176794746262
  0
LWPOLYLINE
  5
E45
330
1F
100
AcDbEntity
  8
0
  6
Continuous
 62
     7
370
    15
100
AcDbPolyline
 90
       35
 70
   128
 43
0.0
 10
5.079675435251528
 20
5.429261559940973
 10
5.109243658416509
 20
5.443850549691727
 10
5.13868627891369
 20
5.456842924541616
 10
5.167944412353428
 20
5.468212700116623
 10
5.196959543314859
 20
5.477937137194359
 10
5.225673642375047
 20
5.485996787181859
 10
5.254029282166158
 20
5.492375531012195
 10
5.281969752228528
 20
5.497060611382151
 10
5.309439172429948
 20
5.50004265826646
 10
5.336382604724308
 20
5.501315707657582
 10
5.362746163026105
 20
5.500877213493547
 10
5.388477120981052
 20
5.498728052749996
 10
5.413524017417264
 20
5.49487252368628
 10
5.437836759266115
 20
5.48931833724904
 10
5.461366721746921
 20
5.482076601650545
 10
5.484066845615105
 20
5.473161800152597
 10
5.505891731279316
 20
5.462591762100412
 10
5.526797729599307
 20
5.45038762726446
 10
5.546743029182943
 20
5.436573803561518
 10
5.56568774000779
 20
5.42117791823956
 10
5.583593973199993
 20
5.404230762624051
 10
5.600425916810939
 20
5.38576623053618
 10
5.61614990744011
 20
5.365821250506217
 10
5.630734497560911
 20
5.344435711917498
 10
5.64415051841483
 20
5.321652385228826
 10
5.656371138348088
 20
5.297516836434786
 10
5.667371916474181
 20
5.272077335935072
 10
5.677130851554958
 20
5.245384761995087
 10
5.685628426002434
 20
5.21749249899088
 10
5.692847644913433
 20
5.188456330641939
 10
5.698774070058876
 20
5.158334328445361
 10
5.703395848759839
 20
5.127186735534552
 10
5.706703737592565
 20
5.095075846194676
 10
5.708691120875036
 20
5.062065881275913
 10
5.709354023898153
 20
5.028222859753595
  0
SPLINE
  5
E46
330
1F
100
AcDbEntity
  8
0
  6
Continuous
 62
     7
370
    15
100
AcDbSpline
210
0.0
220
0.0
230
1.0
 70
     8
 71
     3
 72
     8
 73
     4
 74
     0
 42
0.0000000001
 43
0.0000000001
 40
0.0
 40
0.0
 40
0.0
 40
0.0
 40
0.0005391602010996
 40
0.0005391602010996
 40
0.0005391602010996
 40
0.0005391602010996
 10
5.090282036969329
 20
3.906313459537432
 30
0.0
 10
5.0867465399145
 20
3.904266487914492
 30
0.0
 10
5.083211005417828
 20
3.902219581086161
 30
0.0
 10
5.079675435251528
 20
3.900172735988094
 30
0.0
  0
LWPOLYLINE
  5
E47
330
1F
100
AcDbEntity
  8
0
  6
Continuous
 62
     7
370
    15
100
AcDbPolyline
 90
       69
 70
   128
 43
0.0
 10
5.090282036969329
 20
3.906313459537432
 10
5.11935984579645
 20
3.925566112201451
 10
5.148313166496066
 20
3.94624489703427
 10
5.177084155399951
 20
3.968308501442367
 10
5.205615333106896
 20
3.991712846205034
 10
5.233849699316508
 20
4.016411173536956
 10
5.261730846705818
 20
4.042354140502073
 10
5.289203073621255
 20
4.069489917592141
 10
5.3162114953608
 20
4.097764292273016
 10
5.34270215382401
 20
4.127120777291803
 10
5.368622125310862
 20
4.157500723528519
 10
5.393919626254058
 20
4.188843437166758
 10
5.418544116673512
 20
4.221086300949322
 10
5.442446401146396
 20
4.254164899276538
 10
5.465578727090987
 20
4.288013146897364
 10
5.487894880167965
 20
4.322563420936145
 10
5.509350276608575
 20
4.357746695991291
 10
5.529902052285207
 20
4.393492682035951
 10
5.5495091483464
 20
4.429729964845185
 10
5.568132393245265
 20
4.466386148669091
 10
5.585734580997371
 20
4.50338800086684
 10
5.602280545511789
 20
4.540661598212681
 10
5.61773723084679
 20
4.578132474581611
 10
5.632073757249834
 20
4.615725769719661
 10
5.645261482849916
 20
4.653366378801583
 10
5.657274060878998
 20
4.690979102477147
 10
5.668087492308256
 20
4.728488797106288
 10
5.677680173793936
 20
4.765820524882943
 10
5.686032940837044
 20
4.80289970354768
 10
5.69312910607068
 20
4.839652255390001
 10
5.698954492598456
 20
4.876004755242639
 10
5.703497462317482
 20
4.911884577172202
 10
5.706748939169223
 20
4.947220039573069
 10
5.70870242727191
 20
4.981940548374705
 10
5.709354023898152
 20
5.015976738076252
 10
5.70870242727191
 20
5.049260610326671
 10
5.706748939169223
 20
5.081725669773536
 10
5.703497462317482
 20
5.113307056909119
 10
5.698954492598456
 20
5.143941677648342
 10
5.693129106070676
 20
5.17356832937971
 10
5.686032940837044
 20
5.20212782323742
 10
5.677680173793936
 20
5.229563102350358
 10
5.668087492308256
 20
5.255819355831748
 10
5.657274060878998
 20
5.280844128281707
 10
5.645261482849916
 20
5.304587424583955
 10
5.632073757249834
 20
5.327001809787311
 10
5.617737230846788
 20
5.348042503872424
 10
5.602280545511789
 20
5.367667471214417
 10
5.585734580997371
 20
5.385837504562706
 10
5.568132393245265
 20
5.402516303370227
 10
5.5495091483464
 20
5.417670546315582
 10
5.529902052285207
 20
5.431269957873201
 10
5.509350276608575
 20
5.44328736879855
 10
5.487894880167965
 20
5.453698770407518
 10
5.465578727090987
 20
5.462483362541581
 10
5.442446401146396
 20
5.469623595122866
 10
5.418544116673512
 20
5.475105203216145
 10
5.393919626254058
 20
5.478917235527671
 10
5.368622125310862
 20
5.481052076283949
 10
5.34270215382401
 20
5.481505460446729
 10
5.3162114953608
 20
5.480276482233787
 10
5.289203073621255
 20
5.477367596928534
 10
5.261730846705818
 20
5.472784615974786
 10
5.233849699316508
 20
5.466536695366514
 10
5.205615333106896
 20
5.458636317355773
 10
5.177084155399951
 20
5.449099265515345
 10
5.148313166496066
 20
5.437944593205916
 10
5.11935984579645
 20
5.425194585510816
 10
5.090282036969329
 20
5.410874714714296
  0
LWPOLYLINE
  5
E48
330
1F
100
AcDbEntity
  8
0
  6
Continuous
 62
     7
370
    15
100
AcDbPolyline
 90
       18
 70
   128
 43
0.0
 10
5.182813135301241
 20
5.649308272096925
 10
5.173551544121641
 20
5.654447668378752
 10
5.151726658457427
 20
5.665017706430937
 10
5.129026534589243
 20
5.673932507928885
 10
5.105496572108437
 20
5.681174243527379
 10
5.081183830259588
 20
5.68672842996462
 10
5.056136933823376
 20
5.690583959028336
 10
5.030405975868429
 20
5.692733119771883
 10
5.004042417566633
 20
5.693171613935922
 10
4.977098985272274
 20
5.6918985645448
 10
4.949629565070853
 20
5.688916517660489
 10
4.921689095008481
 20
5.684231437290533
 10
4.893333455217371
 20
5.677852693460197
 10
4.864619356157183
 20
5.669793043472699
 10
4.835604225195751
 20
5.660068606394961
 10
4.806346091756015
 20
5.648698830819956
 10
4.776903471258833
 20
5.635706455970067
 10
4.747335248093852
 20
5.621117466219311
  0
LINE
  5
E49
330
1F
100
AcDbEntity
  8
0
  6
Continuous
 62
     7
370
    15
100
AcDbLine
 10
5.024521106318978
 20
3.932012652349181
 30
0.0
 11
5.079675435251528
 21
3.900172735988094
 31
0.0
  0
SPLINE
  5
E4A
330
1F
100
AcDbEntity
  8
0
  6
Continuous
 62
     7
370
    15
100
AcDbSpline
210
0.0
220
0.0
230
1.0
 70
     8
 71
     3
 72
    12
 73
     8
 74
     0
 42
0.0000000001
 43
0.0000000001
 40
0.0
 40
0.0
 40
0.0
 40
0.0
 40
0.2499999999999999
 40
0.2499999999999999
 40
0.4999999999999999
 40
0.4999999999999999
 40
1.0
 40
1.0
 40
1.0
 40
1.0
 10
5.369032014655836
 20
5.54077117515192
 30
0.0
 10
5.373554917521932
 20
5.538160158904368
 30
0.0
 10
5.377604328435054
 20
5.535862881928069
 30
0.0
 10
5.38482121695161
 20
5.531839888393205
 30
0.0
 10
5.388005033440188
 20
5.530106192802513
 30
0.0
 10
5.395845816309449
 20
5.525917462906976
 30
0.0
 10
5.398976165602547
 20
5.524369656195357
 30
0.0
 10
5.400215786524926
 20
5.523756367408296
 30
0.0
  0
SPLINE
  5
E4B
330
1F
100
AcDbEntity
  8
0
  6
Continuous
 62
     7
370
    15
100
AcDbSpline
210
0.0
220
0.0
230
1.0
 70
     8
 71
     3
 72
    45
 73
    41
 74
     0
 42
0.0000000001
 43
0.0000000001
 40
0.0
 40
0.0
 40
0.0
 40
0.0
 40
0.0100538854386438
 40
0.0418355396371121
 40
0.0745053377441296
 40
0.111250508832712
 40
0.1486616578424245
 40
0.1779526156033871
 40
0.2074529564524488
 40
0.2375647582251331
 40
0.2678733291544582
 40
0.3076005422321784
 40
0.3479656473196202
 40
0.367248814271665
 40
0.3867444102326693
 40
0.4020469238034687
 40
0.4176844739556304
 40
0.4384645467766252
 40
0.4593588658903708
 40
0.4784652716067994
 40
0.4946788282106812
 40
0.5113248905871456
 40
0.5417618884115116
 40
0.5729309933799424
 40
0.6010354168989684
 40
0.6293492689597175
 40
0.6582380101289156
 40
0.6873008488910428
 40
0.7160446472745609
 40
0.7449783444421158
 40
0.7930755150372658
 40
0.8177837153115977
 40
0.8427429203235984
 40
0.8690494627734061
 40
0.895901668700583
 40
0.9172803671977016
 40
0.939210035570983
 40
0.9566367709923994
 40
0.9745389068120784
 40
1.0
 40
1.0
 40
1.0
 40
1.0
 10
5.400521179163556
 20
5.523592456443815
 30
0.0
 10
5.400640147453046
 20
5.523532257114387
 30
0.0
 10
5.401135190152803
 20
5.523281759786993
 30
0.0
 10
5.397999103910423
 20
5.52465405134084
 30
0.0
 10
5.390647466256554
 20
5.527575619659113
 30
0.0
 10
5.378896009705453
 20
5.53190763866366
 30
0.0
 10
5.364488198030901
 20
5.536777961860691
 30
0.0
 10
5.348945703564933
 20
5.541669561869495
 30
0.0
 10
5.333069246732497
 20
5.546386224261423
 30
0.0
 10
5.31563082459999
 20
5.551306128023812
 30
0.0
 10
5.294801914089392
 20
5.556938811418763
 30
0.0
 10
5.270175770966842
 20
5.563388442544152
 30
0.0
 10
5.24638634070294
 20
5.56962810525661
 30
0.0
 10
5.226597198871823
 20
5.575125924734981
 30
0.0
 10
5.21274073691352
 20
5.579230973272689
 30
0.0
 10
5.199683244887099
 20
5.583468883092093
 30
0.0
 10
5.186421926196462
 20
5.588280772406209
 30
0.0
 10
5.172491625260484
 20
5.594345634636816
 30
0.0
 10
5.160934800044255
 20
5.601274506731382
 30
0.0
 10
5.154446549570204
 20
5.607216546222828
 30
0.0
 10
5.151273464620432
 20
5.612029709415676
 30
0.0
 10
5.149830830590689
 20
5.617123578663294
 30
0.0
 10
5.151211750810743
 20
5.62216273890796
 30
0.0
 10
5.155750078737023
 20
5.626314397846206
 30
0.0
 10
5.162153773175587
 20
5.629001680807675
 30
0.0
 10
5.169856180646398
 20
5.630412709763376
 30
0.0
 10
5.178934649757096
 20
5.630625726275109
 30
0.0
 10
5.189252255887112
 20
5.629598391490146
 30
0.0
 10
5.200715056874653
 20
5.627305204479037
 30
0.0
 10
5.216063020102922
 20
5.622926184602311
 30
0.0
 10
5.232656740999173
 20
5.616591725953101
 30
0.0
 10
5.250321460461959
 20
5.608502530566106
 30
0.0
 10
5.265010060006792
 20
5.601141240774124
 30
0.0
 10
5.281137908481456
 20
5.592456531046096
 30
0.0
 10
5.29750579982236
 20
5.58314816578215
 30
0.0
 10
5.31357110987286
 20
5.573712237659121
 30
0.0
 10
5.327813956671723
 20
5.565206493185369
 30
0.0
 10
5.341155824312407
 20
5.557213020447559
 30
0.0
 10
5.355054949647376
 20
5.548915170395385
 30
0.0
 10
5.363861293850726
 20
5.543783991191384
 30
0.0
 10
5.369032014655836
 20
5.54077117515192
 30
0.0
  0
LINE
  5
E4C
330
1F
100
AcDbEntity
  8
0
  6
Continuous
 62
     7
370
    15
100
AcDbLine
 10
5.090282036969329
 20
3.906313459537432
 30
0.0
 11
5.090282036969329
 21
4.041256156762951
 31
0.0
  0
LWPOLYLINE
  5
E4D
330
1F
100
AcDbEntity
  8
0
  6
Continuous
 62
     7
370
    15
100
AcDbPolyline
 90
       62
 70
   128
 43
0.0
 10
5.090282036969329
 20
5.275932017488777
 10
5.116675145443506
 20
5.288515714127823
 10
5.142922383466085
 20
5.299511449591545
 10
5.168959540389254
 20
5.308892324162091
 10
5.194722919502847
 20
5.316635388680671
 10
5.220149493860519
 20
5.322721700689861
 10
5.245177060467444
 20
5.327136370774002
 10
5.269744392452299
 20
5.329868598984324
 10
5.293791388851312
 20
5.330911701259703
 10
5.317259221637886
 20
5.330263125778387
 10
5.340090479638144
 20
5.327924459200724
 10
5.36222930898033
 20
5.323901422787592
 10
5.383621549734458
 20
5.318203858404025
 10
5.404214868407928
 20
5.310845704442312
 10
5.423958885972993
 20
5.301844961723418
 10
5.442805301112885
 20
5.291223649460192
 10
5.460708008385045
 20
5.279007751390063
 10
5.477623211012442
 20
5.265227152209007
 10
5.493509528027002
 20
5.24991556446232
 10
5.508328095503093
 20
5.233110446070989
 10
5.522042661633324
 20
5.214852908695506
 10
5.534619675414166
 20
5.195187617161222
 10
5.546028368724353
 20
5.174162680191333
 10
5.556240831595326
 20
5.151829532714792
 10
5.565232080489534
 20
5.128242810037065
 10
5.572980119419609
 20
5.103460214181559
 10
5.579465993758839
 20
5.077542372728704
 10
5.584673836611338
 20
5.050552690498001
 10
5.58859090762847
 20
5.022557194435934
 10
5.591207624176538
 20
4.993624372089124
 10
5.592517584779526
 20
4.963825004057957
 10
5.592517584779526
 20
4.933231990840528
 10
5.591207624176538
 20
4.901920174490518
 10
5.58859090762847
 20
4.869966155525286
 10
5.584673836611338
 20
4.837448105532104
 10
5.579465993758839
 20
4.80444557593096
 10
5.572980119419609
 20
4.771039303361769
 10
5.565232080489534
 20
4.737311012172078
 10
5.556240831595326
 20
4.703343214488494
 10
5.546028368724355
 20
4.669219008360869
 10
5.534619675414166
 20
4.635021874473132
 10
5.522042661633324
 20
4.600835471918026
 10
5.508328095503093
 20
4.566743433535409
 10
5.493509528027002
 20
4.532829161314765
 10
5.477623211012442
 20
4.499175622362473
 10
5.460708008385049
 20
4.465865145932955
 10
5.442805301112885
 20
4.432979222020259
 10
5.423958885972993
 20
4.400598302002789
 10
5.404214868407928
 20
4.368801601828865
 10
5.383621549734458
 20
4.337666908224642
 10
5.362229308980332
 20
4.307270388398407
 10
5.340090479638144
 20
4.277686403706868
 10
5.317259221637886
 20
4.2489873277392
 10
5.293791388851314
 20
4.22124336926395
 10
5.269744392452299
 20
4.194522400471896
 10
5.245177060467444
 20
4.16888979093505
 10
5.220149493860519
 20
4.144408247688033
 10
5.194722919502847
 20
4.121137661822997
 10
5.168959540389254
 20
4.099134961973419
 10
5.142922383466085
 20
4.078453975045187
 10
5.116675145443506
 20
4.059145294535673
 10
5.090282036969329
 20
4.041256156762951
  0
SPLINE
  5
E4E
330
1F
100
AcDbEntity
  8
0
  6
Continuous
 62
     7
370
    15
100
AcDbSpline
210
0.0
220
0.0
230
1.0
 70
     8
 71
     3
 72
    14
 73
    10
 74
     0
 42
0.0000000001
 43
0.0000000001
 40
0.0
 40
0.0
 40
0.0
 40
0.0
 40
0.25
 40
0.25
 40
0.5
 40
0.5
 40
0.75
 40
0.75
 40
1.0
 40
1.0
 40
1.0
 40
1.0
 10
5.090282036969329
 20
4.041256156762951
 30
0.0
 10
5.088879296792676
 20
4.042065941430182
 30
0.0
 10
5.087507950538917
 20
4.043524434634448
 30
0.0
 10
5.085552151389444
 20
4.046918762240963
 30
0.0
 10
5.084979611860742
 20
4.048850202770699
 30
0.0
 10
5.084977862484342
 20
4.052049396992837
 30
0.0
 10
5.085538904887338
 20
4.053317350448626
 30
0.0
 10
5.087516084905637
 20
4.054469235990424
 30
0.0
 10
5.088879296078035
 20
4.054338177366172
 30
0.0
 10
5.090282036969329
 20
4.053528392286388
 30
0.0
  0
LWPOLYLINE
  5
E4F
330
1F
100
AcDbEntity
  8
0
  6
Continuous
 62
     7
370
    15
100
AcDbPolyline
 90
       61
 70
   128
 43
0.0
 10
5.090282036969329
 20
4.05352839228639
 10
5.116557900528494
 20
4.071388428193841
 10
5.142683538635866
 20
4.090682361600785
 10
5.168593000299138
 20
4.111361487321595
 10
5.194220880237111
 20
4.133373603421306
 10
5.219502483987373
 20
4.156663142993053
 10
5.244373991219577
 20
4.181171314429954
 10
5.268772616842111
 20
4.206836249837367
 10
5.2926367694954
 20
4.233593161210857
 10
5.315906207031805
 20
4.261374503985617
 10
5.338522188589582
 20
4.290110147544515
 10
5.360427622877049
 20
4.319727552254274
 10
5.381567212292578
 20
4.350151952582967
 10
5.401887592516683
 20
4.38130654583648
 10
5.421337467223722
 20
4.413112686037571
 10
5.439867737573244
 20
4.445490082458068
 10
5.457431626154022
 20
4.478357002303024
 10
5.47398479506794
 20
4.511630477035213
 10
5.489485457855611
 20
4.5452265118191
 10
5.503894484981213
 20
4.579060297555574
 10
5.51717550261023
 20
4.613046424972196
 10
5.529294984430773
 20
4.647099100228501
 10
5.540222336286671
 20
4.681132361492108
 10
5.549929973408696
 20
4.715060295938895
 10
5.558393390048948
 20
4.748797256629465
 10
5.565591221342636
 20
4.782258078714416
 10
5.571505297241076
 20
4.815358294422633
 10
5.576120688379772
 20
4.84801434628989
 10
5.579425743765771
 20
4.880143798089495
 10
5.581412120189176
 20
4.91166554293251
 10
5.582074803284573
 20
4.942500008012212
 10
5.581412120189176
 20
4.972569355475952
 10
5.579425743765771
 20
5.00179767891735
 10
5.576120688379772
 20
5.030111194992759
 10
5.571505297241076
 20
5.05743842967834
 10
5.565591221342636
 20
5.083710398697533
 10
5.558393390048948
 20
5.108860781663464
 10
5.549929973408698
 20
5.132826089496678
 10
5.540222336286671
 20
5.155545824695606
 10
5.529294984430773
 20
5.176962634055122
 10
5.517175502610232
 20
5.19702245344774
 10
5.503894484981213
 20
5.215674644301916
 10
5.489485457855611
 20
5.232872121432956
 10
5.473984795067941
 20
5.248571471903835
 10
5.457431626154022
 20
5.26273306461586
 10
5.439867737573244
 20
5.275321150352571
 10
5.421337467223722
 20
5.286303952024264
 10
5.401887592516683
 20
5.295653744885402
 10
5.38156721229258
 20
5.303346926522353
 10
5.360427622877049
 20
5.309364076434805
 10
5.338522188589585
 20
5.313690005060465
 10
5.315906207031805
 20
5.316313792119244
 10
5.292636769495402
 20
5.317228814180189
 10
5.268772616842111
 20
5.316432761381523
 10
5.24437399121958
 20
5.313927643261608
 10
5.219502483987373
 20
5.309719783686112
 10
5.194220880237111
 20
5.303819804884176
 10
5.168593000299138
 20
5.296242600633894
 10
5.142683538635866
 20
5.287007298664788
 10
5.116557900528494
 20
5.276137212372173
 10
5.090282036969329
 20
5.263659781965339
  0
LINE
  5
E50
330
1F
100
AcDbEntity
  8
0
  6
Continuous
 62
     7
370
    15
100
AcDbLine
 10
5.090282036969329
 20
4.05352839228639
 30
0.0
 11
5.090282036969329
 21
4.188606041318832
 31
0.0
  0
LWPOLYLINE
  5
E51
330
1F
100
AcDbEntity
  8
0
  6
Continuous
 62
     7
370
    15
100
AcDbPolyline
 90
       53
 70
   128
 43
0.0
 10
5.090282036969329
 20
5.128582132932896
 10
5.113528355627137
 20
5.139033983507639
 10
5.136589402868954
 20
5.147846921750282
 10
5.159389531963986
 20
5.154992038740955
 10
5.181853952066449
 20
5.160445896483292
 10
5.203908973550616
 20
5.16419060478765
 10
5.225482249733559
 20
5.166213879955982
 10
5.246503014192626
 20
5.166509085075817
 10
5.266902312899249
 20
5.165075251791211
 10
5.286613230407592
 20
5.16191708347922
 10
5.305571109356051
 20
5.157044939821499
 10
5.323713762561606
 20
5.150474802821634
 10
5.340981677011317
 20
5.142228224379664
 10
5.357318209081755
 20
5.132332255595777
 10
5.372669770346046
 20
5.120819358035086
 10
5.386986003359012
 20
5.107727297244547
 10
5.400219946843767
 20
5.093099018871329
 10
5.412328189737937
 20
5.076982507788997
 10
5.423271013594177
 20
5.059430630693608
 10
5.433012522867858
 20
5.040500962686051
 10
5.441520762664572
 20
5.020255598409509
 10
5.448767823561176
 20
4.998760948361532
 10
5.454729933156581
 20
4.976087521048897
 10
5.459387534051899
 20
4.952309691699854
 10
5.462725348004241
 20
4.927505458292412
 10
5.464732426043646
 20
4.901756185699015
 10
5.465402184388791
 20
4.875146338786837
 10
5.464732426043646
 20
4.84776320534922
 10
5.462725348004241
 20
4.819696609777132
 10
5.459387534051899
 20
4.79103861840986
 10
5.454729933156578
 20
4.761883237531483
 10
5.448767823561176
 20
4.732326105003782
 10
5.441520762664572
 20
4.702464176547113
 10
5.433012522867858
 20
4.672395407698333
 10
5.423271013594177
 20
4.64221843248905
 10
5.412328189737937
 20
4.612032239898212
 10
5.400219946843767
 20
4.581935849140377
 10
5.386986003359012
 20
4.552027984854792
 10
5.372669770346046
 20
4.522406753260776
 10
5.357318209081753
 20
4.493169320341678
 10
5.340981677011317
 20
4.464411593113082
 10
5.323713762561606
 20
4.436227905020786
 10
5.30557110935605
 20
4.408710706500528
 10
5.286613230407592
 20
4.381950261714509
 10
5.266902312899249
 20
4.356034352459518
 10
5.246503014192622
 20
4.331047990217918
 10
5.225482249733559
 20
4.307073137296029
 10
5.203908973550616
 20
4.284188437964681
 10
5.181853952066447
 20
4.262468960483852
 10
5.159389531963986
 20
4.241985950857632
 10
5.136589402868954
 20
4.222806599127254
 10
5.113528355627137
 20
4.204993818968844
 10
5.090282036969329
 20
4.188606041318832
  0
SPLINE
  5
E52
330
1F
100
AcDbEntity
  8
0
  6
Continuous
 62
     7
370
    15
100
AcDbSpline
210
0.0
220
0.0
230
1.0
 70
     8
 71
     3
 72
     8
 73
     4
 74
     0
 42
0.0000000001
 43
0.0000000001
 40
0.0
 40
0.0
 40
0.0
 40
0.0
 40
0.0005397368641287
 40
0.0005397368641287
 40
0.0005397368641287
 40
0.0005397368641287
 10
5.090282036969329
 20
4.188606041318832
 30
0.0
 10
5.086746345349602
 20
4.194743627999089
 30
0.0
 10
5.083210807216158
 20
4.200881302734876
 30
0.0
 10
5.079675435251528
 20
4.207019072750437
 30
0.0
  0
LWPOLYLINE
  5
E53
330
1F
100
AcDbEntity
  8
0
  6
Continuous
 62
     7
370
    15
100
AcDbPolyline
 90
       52
 70
   128
 43
0.0
 10
5.079675435251528
 20
5.122415223178633
 10
5.102721095168471
 20
5.132704193808548
 10
5.12557539394271
 20
5.141336688874382
 10
5.148160622801993
 20
5.14828335632295
 10
5.170399987860719
 20
5.15352057622157
 10
5.192217871233104
 20
5.157030541070115
 10
5.213540088147757
 20
5.158801316349755
 10
5.234294139189385
 20
5.158826881102495
 10
5.254409456809989
 20
5.157107148403527
 10
5.273817645271369
 20
5.153647965656789
 10
5.292452713203074
 20
5.148461094712727
 10
5.310251297985047
 20
5.141564171875867
 10
5.327152881192079
 20
5.132980647938166
 10
5.343099994367442
 20
5.122739708442065
 10
5.358038414426104
 20
5.110876174444326
 10
5.37191734802308
 20
5.097430384118114
 10
5.384689604260033
 20
5.082448055595872
 10
5.396311755142923
 20
5.065980131519344
 10
5.406744283245068
 20
5.048082605825348
 10
5.415951716073607
 20
5.028816333356191
 10
5.423902746682404
 20
5.008246822942146
 10
5.430570340121366
 20
4.986444014659515
 10
5.435931825360192
 20
4.96348204202164
 10
5.439968972374003
 20
4.939438979911495
 10
5.442668054128727
 20
4.914396579112864
 10
5.444019893255534
 20
4.888439988342822
 10
5.444019893255534
 20
4.861657464730603
 10
5.442668054128727
 20
4.834140073727319
 10
5.439968972374003
 20
4.805981379466851
 10
5.435931825360192
 20
4.777277126630796
 10
5.430570340121366
 20
4.748124914899115
 10
5.423902746682404
 20
4.718623867093494
 10
5.415951716073607
 20
4.688874292141701
 10
5.406744283245068
 20
4.658977344009008
 10
5.396311755142923
 20
4.629034677756298
 10
5.384689604260033
 20
4.59914810389438
 10
5.37191734802308
 20
4.569419242209734
 10
5.358038414426104
 20
4.539949176238753
 10
5.343099994367442
 20
4.510838109565337
 10
5.327152881192079
 20
4.482185025110487
 10
5.310251297985047
 20
4.454087348572365
 10
5.292452713203074
 20
4.426640617161211
 10
5.273817645271369
 20
4.399938154755446
 10
5.254409456809989
 20
4.374070754583515
 10
5.234294139189385
 20
4.349126370510404
 10
5.213540088147757
 20
4.32518981797849
 10
5.192217871233104
 20
4.302342485619627
 10
5.170399987860719
 20
4.280662058518981
 10
5.148160622801993
 20
4.260222254071628
 10
5.12557539394271
 20
4.241092571329989
 10
5.102721095168471
 20
4.223338054694425
 10
5.079675435251528
 20
4.207019072750435
  0
LINE
  5
E54
330
1F
100
AcDbEntity
  8
0
  6
Continuous
 62
     7
370
    15
100
AcDbLine
 10
5.079675435251528
 20
4.207019072750435
 30
0.0
 11
4.747335248093852
 21
4.398874979028773
 31
0.0
  0
LWPOLYLINE
  5
E55
330
1F
100
AcDbEntity
  8
0
  6
Continuous
 62
     7
370
    15
100
AcDbPolyline
 90
       30
 70
   128
 43
0.0
 10
4.747335248093852
 20
4.398874979028773
 10
4.770380908010794
 20
4.415193960972763
 10
4.793235206785031
 20
4.432948477608327
 10
4.815820435644317
 20
4.452078160349966
 10
4.838059800703041
 20
4.472517964797319
 10
4.859877684075428
 20
4.494198391897965
 10
4.881199900990081
 20
4.517045724256828
 10
4.901953952031709
 20
4.540982276788742
 10
4.922069269652309
 20
4.565926660861853
 10
4.941477458113691
 20
4.591794061033782
 10
4.960112526045394
 20
4.618496523439548
 10
4.977911110827371
 20
4.645943254850703
 10
4.994812694034401
 20
4.674040931388823
 10
5.010759807209764
 20
4.702694015843675
 10
5.025698227268428
 20
4.731805082517091
 10
5.039577160865404
 20
4.761275148488072
 10
5.052349417102357
 20
4.791004010172716
 10
5.063971567985243
 20
4.820890584034634
 10
5.074404096087391
 20
4.850833250287344
 10
5.08361152891593
 20
4.880730198420039
 10
5.091562559524726
 20
4.910479773371831
 10
5.098230152963688
 20
4.939980821177453
 10
5.103591638202516
 20
4.969133032909132
 10
5.107628785216325
 20
4.997837285745188
 10
5.110327866971051
 20
5.025995980005655
 10
5.111679706097856
 20
5.053513371008939
 10
5.111679706097856
 20
5.080295894621158
 10
5.110327866971051
 20
5.1062524853912
 10
5.107628785216325
 20
5.131294886189831
 10
5.107174783548755
 20
5.134510420518813
  0
SPLINE
  5
E56
330
1F
100
AcDbEntity
  8
0
  6
Continuous
 62
     7
370
    15
100
AcDbSpline
210
0.0
220
0.0
230
1.0
 70
     8
 71
     3
 72
     8
 73
     4
 74
     0
 42
0.0000000001
 43
0.0000000001
 40
0.0
 40
0.0
 40
0.0
 40
0.0
 40
0.0005397368641287
 40
0.0005397368641287
 40
0.0005397368641287
 40
0.0005397368641287
 10
4.747335248093852
 20
4.398874979028773
 30
0.0
 10
4.743799876129225
 20
4.396819062598876
 30
0.0
 10
4.740264337995778
 20
4.394763433303184
 30
0.0
 10
4.736728646376056
 20
4.39270806927451
 30
0.0
  0
ARC
  5
E57
330
1F
100
AcDbEntity
  8
0
  6
Continuous
 62
     7
370
    15
100
AcDbCircle
 10
4.21683042349492
 20
5.122903355419401
 30
0.0
 40
0.8963700787415797
100
AcDbArc
 50
305.4508233294797
 51
356.8126920436639
  0
LINE
  5
E58
330
1F
100
AcDbEntity
  8
0
  6
Continuous
 62
     7
370
    15
100
AcDbLine
 10
4.477899812988292
 20
3.870154274691108
 30
0.0
 11
4.464942163159042
 21
3.903551270247801
 31
0.0
  0
LINE
  5
E59
330
1F
100
AcDbEntity
  8
0
  6
Continuous
 62
     7
370
    15
100
AcDbLine
 10
4.562101022896463
 20
3.821545950868387
 30
0.0
 11
4.477899812988292
 21
3.870154274691108
 31
0.0
  0
LINE
  5
E5A
330
1F
100
AcDbEntity
  8
0
  6
Continuous
 62
     7
370
    15
100
AcDbLine
 10
4.572643917722288
 20
3.836546599139063
 30
0.0
 11
4.562101022896463
 21
3.821545950868387
 31
0.0
  0
LWPOLYLINE
  5
E5B
330
1F
100
AcDbEntity
  8
0
  6
Continuous
 62
     7
370
    15
100
AcDbPolyline
 90
       26
 70
   128
 43
0.0
 10
4.644222299531337
 20
3.804836713606103
 10
4.639453142217083
 20
3.794669085243457
 10
4.633131874578641
 20
3.784914023430266
 10
4.625686255697671
 20
3.776601446635236
 10
4.617190283479693
 20
3.769813968981146
 10
4.607728394713596
 20
3.764619047470324
 10
4.597394625900868
 20
3.761068311566662
 10
4.586291678678614
 20
3.759197050078807
 10
4.574529899124543
 20
3.759023860444127
 10
4.562226181088066
 20
3.76055046389902
 10
4.549502804446715
 20
3.763761688372495
 10
4.536486219833768
 20
3.768625619273029
 10
4.523305791915063
 20
3.775093916670121
 10
4.510092513704814
 20
3.783102295718229
 10
4.496977704698194
 20
3.792571165548457
 10
4.48409170575919
 20
3.80340642027836
 10
4.47156258373454
 20
3.815500374278485
 10
4.459514858667876
 20
3.82873283240054
 10
4.448068266263581
 20
3.84297228453077
 10
4.437336567899571
 20
3.858077212596558
 10
4.427426420015605
 20
3.873897497036608
 10
4.418436314113682
 20
3.890275908756587
 10
4.410455597905231
 20
3.907049671742507
 10
4.403563587333424
 20
3.92405208080188
 10
4.397828778295691
 20
3.941114158354814
 10
4.394962261105478
 20
3.951329872816721
  0
LINE
  5
E5C
330
1F
100
AcDbEntity
  8
0
  6
Continuous
 62
     7
370
    15
100
AcDbLine
 10
4.497703767061061
 20
3.881586854028025
 30
0.0
 11
4.477899812988292
 21
3.870154274691108
 31
0.0
  0
LWPOLYLINE
  5
E5D
330
1F
100
AcDbEntity
  8
0
  6
Continuous
 62
     7
370
    15
100
AcDbPolyline
 90
       15
 70
   128
 43
0.0
 10
4.97804983723031
 20
4.189692594756369
 10
4.975035470898257
 20
4.194976401660367
 10
4.966771221417898
 20
4.207923407602578
 10
4.95769951549685
 20
4.220101823415653
 10
4.947957870949688
 20
4.231327036729862
 10
4.937693961177661
 20
4.241428884753711
 10
4.92706337659046
 20
4.250254233768416
 10
4.916227266014205
 20
4.257669300478982
 10
4.905349893839508
 20
4.263561680032577
 10
4.894596149940758
 20
4.267842049961529
 10
4.884129050113696
 20
4.270445524220887
 10
4.874107264922123
 20
4.271332636794712
 10
4.864682714413902
 20
4.270489939960658
 10
4.85599826516788
 20
4.267930208143731
 10
4.851010420882937
 20
4.265477548917719
  0
LINE
  5
E5E
330
1F
100
AcDbEntity
  8
0
  6
Continuous
 62
     7
370
    15
100
AcDbLine
 10
4.736728646376056
 20
4.39270806927451
 30
0.0
 11
4.736728646376056
 21
4.329004352902382
 31
0.0
  0
TEXT
  5
F06
330
1F
100
AcDbEntity
  8
FORMAT
 62
     7
100
AcDbText
 10
4.507154553008604
 20
1.016436080351994
 30
0.0
 40
0.1
  1
SIDE
 41
0.9
  7
SLDTEXTSTYLE1
100
AcDbText
  0
DIMENSION
  5
F07
330
1F
100
AcDbEntity
  8
DIM
100
AcDbDimension
  2
*D10
 10
1.58668731729945
 20
1.619684399833805
 30
0.0
 11
1.51992661029741
 21
1.431765509169576
 31
0.0
 70
    32
 71
     5
 42
0.3758377813284586
  3
Standard
100
AcDbAlignedDimension
 13
1.80540364175266
 23
1.243846618505346
 33
0.0
 14
1.80540364175266
 24
1.619684399833805
 34
0.0
 50
90.0
100
AcDbRotatedDimension
  0
DIMENSION
  5
F14
330
1F
100
AcDbEntity
  8
DIM
100
AcDbDimension
  2
*D11
 10
1.58668731729945
 20
2.740750410379126
 30
0.0
 11
1.520140750338199
 21
2.180217405106466
 31
0.0
 70
    32
 71
     5
 42
1.12106601054532
  3
Standard
100
AcDbAlignedDimension
 13
1.80540364175266
 23
1.619684399833805
 33
0.0
 14
1.805403641752661
 24
2.740750410379126
 34
0.0
 50
90.0
100
AcDbRotatedDimension
  0
DIMENSION
  5
F21
330
1F
100
AcDbEntity
  8
DIM
100
AcDbDimension
  2
*D12
 10
1.58668731729945
 20
3.116588191707584
 30
0.0
 11
1.51992661029741
 21
2.928669301043355
 31
0.0
 70
    32
 71
     5
 42
0.3758377813284577
  3
Standard
100
AcDbAlignedDimension
 13
1.805403641752661
 23
2.740750410379126
 33
0.0
 14
1.80540364175266
 24
3.116588191707584
 34
0.0
 50
90.0
100
AcDbRotatedDimension
  0
DIMENSION
  5
F64
330
1F
100
AcDbEntity
  8
DIM
100
AcDbDimension
  2
*D13
 10
2.508348956444734
 20
2.919217405106465
 30
0.0
 11
2.441588249442694
 21
2.180217405106465
 31
0.0
 70
    32
 71
     5
 42
1.477999999999999
  3
Standard
100
AcDbAlignedDimension
 13
2.327903641752661
 23
1.441217405106465
 33
0.0
 14
2.265403641752662
 24
2.919217405106465
 34
0.0
 50
90.0
100
AcDbRotatedDimension
  0
DIMENSION
  5
F71
330
1F
100
AcDbEntity
  8
DIM
100
AcDbDimension
  2
*D14
 10
1.58668731729945
 20
4.840880361774656
 30
0.0
 11
1.51992661029741
 21
4.395130361774658
 31
0.0
 70
    32
 71
     5
 42
0.8914999999999956
  3
Standard
100
AcDbAlignedDimension
 13
1.805403641752661
 23
3.94938036177466
 33
0.0
 14
1.790403641752661
 24
4.840880361774656
 34
0.0
 50
90.0
100
AcDbRotatedDimension
  0
DIMENSION
  5
F7E
330
1F
100
AcDbEntity
  8
DIM
100
AcDbDimension
  2
*D15
 10
1.586687317299451
 20
4.933880361774658
 30
0.0
 11
1.58668731729945
 21
4.887380361774657
 31
0.0
 70
   160
 71
     5
 42
0.0930000000000018
  3
Standard
100
AcDbAlignedDimension
 13
1.790403641752661
 23
4.840880361774656
 33
0.0
 14
1.790403641752662
 24
4.933880361774658
 34
0.0
 50
90.0
100
AcDbRotatedDimension
  0
DIMENSION
  5
F90
330
1F
100
AcDbEntity
  8
DIM
100
AcDbDimension
  2
*D16
 10
1.58668731729945
 20
5.824380361774661
 30
0.0
 11
1.51992661029741
 21
5.379130361774659
 31
0.0
 70
    32
 71
     5
 42
0.8905000000000029
  3
Standard
100
AcDbAlignedDimension
 13
1.790403641752662
 23
4.933880361774658
 33
0.0
 14
1.805403641752661
 24
5.824380361774661
 34
0.0
 50
90.0
100
AcDbRotatedDimension
  0
DIMENSION
  5
FE3
330
1F
100
AcDbEntity
  8
DIM
100
AcDbDimension
  2
*D17
 10
2.290403641752661
 20
3.671251696910385
 30
0.0
 11
2.040403641752661
 21
3.738012403912424
 31
0.0
 70
    32
 71
     5
 42
0.4999999999999992
  3
Standard
100
AcDbAlignedDimension
 13
1.790403641752662
 23
3.964380361774661
 33
0.0
 14
2.290403641752661
 24
3.964380361774662
 34
0.0
100
AcDbRotatedDimension
  0
DIMENSION
  5
FF0
330
1F
100
AcDbEntity
  8
DIM
100
AcDbDimension
  2
*D18
 10
2.275403641752662
 20
3.789113557056916
 30
0.0
 11
2.040403641752662
 21
3.855874264058956
 31
0.0
 70
    32
 71
     5
 42
0.4700000000000007
  3
Standard
100
AcDbAlignedDimension
 13
1.805403641752661
 23
3.94938036177466
 33
0.0
 14
2.275403641752662
 24
3.949380361774661
 34
0.0
100
AcDbRotatedDimension
  0
DIMENSION
  5
104C
330
1F
100
AcDbEntity
  8
DIM
100
AcDbDimension
  2
*D19
 10
1.920499165869871
 20
2.775067598782372
 30
0.0
 11
2.487402494050365
 21
3.229429146710878
 31
0.0
 70
   163
 71
     5
 42
0.3750000000000009
  3
Standard
100
AcDbDiametricDimension
 15
2.160308117635452
 25
3.063367211430558
 35
0.0
 40
0.0
1001
ACAD_DSTYLE_DIMRADIAL_EXTENSION
1070
   387
1070
     1
1070
   388
1040
0.0
1070
   390
1040
0.0
1001
ACAD
1000
DSTYLE
1002
{
1070
    73
1070
     1
1070
    74
1070
     1
1002
}
  0
DIMENSION
  5
1058
330
1F
100
AcDbEntity
  8
DIM
100
AcDbDimension
  2
*D20
 10
2.113153232923091
 20
2.817568514386812
 30
0.0
 11
1.628852354581741
 21
3.229429146710877
 31
0.0
 70
   163
 71
     5
 42
0.2500000000000024
  3
Standard
100
AcDbDiametricDimension
 15
1.967654050582231
 25
3.020866295826115
 35
0.0
 40
0.0
1001
ACAD_DSTYLE_DIMRADIAL_EXTENSION
1070
   387
1070
     1
1070
   388
1040
0.0
1070
   390
1040
0.0
1001
ACAD
1000
DSTYLE
1002
{
1070
    73
1070
     1
1070
    74
1070
     1
1002
}
  0
DIMENSION
  5
1064
330
1F
100
AcDbEntity
  8
DIM
100
AcDbDimension
  2
*D21
 10
4.20442628935511
 20
1.865356483227704
 30
0.0
 11
5.941129894742717
 21
2.871979631980476
 31
0.0
 70
   163
 71
     5
 42
1.155
  3
Standard
100
AcDbDiametricDimension
 15
5.172659422177278
 25
2.495078326985225
 35
0.0
 40
0.0
1001
ACAD_DSTYLE_DIMRADIAL_EXTENSION
1070
   387
1070
     1
1070
   388
1040
4.793864374055245
1070
   390
1040
1.489320933124354
1001
ACAD
1000
DSTYLE
1002
{
1070
    73
1070
     1
1070
    74
1070
     1
1002
}
  0
DIMENSION
  5
1070
330
1F
100
AcDbEntity
  8
DIM
100
AcDbDimension
  2
*D22
 10
5.308425629367425
 20
1.744842168106879
 30
0.0
 11
3.514655639123613
 21
2.871979631980477
 31
0.0
 70
   163
 71
     5
 42
1.515
  3
Standard
100
AcDbDiametricDimension
 15
4.068660082164963
 25
2.61559264210605
 35
0.0
 40
0.0
1001
ACAD_DSTYLE_DIMRADIAL_EXTENSION
1070
   387
1070
     1
1070
   388
1040
1.631559784283533
1070
   390
1040
4.651625522896067
1001
ACAD
1000
DSTYLE
1002
{
1070
    73
1070
     1
1070
    74
1070
     1
1002
}
  0
ENDSEC
  0
SECTION
  2
OBJECTS
  0
DICTIONARY
  5
C
330
0
100
AcDbDictionary
281
     1
  3
ACAD_COLOR
350
FC
  3
ACAD_GROUP
350
D
  3
ACAD_LAYOUT
350
1A
  3
ACAD_MATERIAL
350
E7
  3
ACAD_MLEADERSTYLE
350
BB0
  3
ACAD_MLINESTYLE
350
17
  3
ACAD_PLOTSETTINGS
350
19
  3
ACAD_PLOTSTYLENAME
350
E
  3
ACAD_SCALELIST
350
B8E
  3
ACAD_TABLESTYLE
350
FD
  3
ACAD_VISUALSTYLE
350
EB
  3
ACDB_RECOMPOSE_DATA
350
23A2
  3
AcDbVariableDictionary
350
3CB
  0
DICTIONARY
  5
4DC
330
8
100
AcDbDictionary
280
     1
281
     1
  0
DICTIONARY
  5
61E
330
2
100
AcDbDictionary
280
     1
281
     1
  3
ACAD_LAYERFILTERS
360
622
  3
ACAD_LAYERSTATES
360
238A
  3
ACLYDICTIONARY
360
621
  0
DICTIONARY
  5
BB6
330
10
100
AcDbDictionary
280
     1
281
     1
  3
ADSK_XREC_LAYER_RECONCILED
360
BB7
  0
DICTIONARY
  5
BB8
330
44
100
AcDbDictionary
280
     1
281
     1
  3
ADSK_XREC_LAYER_RECONCILED
360
BB9
  0
DICTIONARY
  5
BBA
330
61C
100
AcDbDictionary
280
     1
281
     1
  3
ADSK_XREC_LAYER_RECONCILED
360
BBB
  0
DICTIONARY
  5
40A
330
409
100
AcDbDictionary
280
     1
281
     1
  3
ACAD_SORTENTS
360
40B
  0
DICTIONARY
  5
23D0
330
11D1
100
AcDbDictionary
280
     1
281
     1
  3
ACAD_MTEXT_2008_RT
360
23D1
  0
DICTIONARY
  5
23D2
330
11DA
100
AcDbDictionary
280
     1
281
     1
  3
ACAD_MTEXT_2008_RT
360
23D3
  0
DICTIONARY
  5
23D4
330
11E3
100
AcDbDictionary
280
     1
281
     1
  3
ACAD_MTEXT_2008_RT
360
23D5
  0
DICTIONARY
  5
23D6
330
11EC
100
AcDbDictionary
280
     1
281
     1
  3
ACAD_MTEXT_2008_RT
360
23D7
  0
DICTIONARY
  5
FC
102
{ACAD_REACTORS
330
C
102
}
330
C
100
AcDbDictionary
281
     1
  0
DICTIONARY
  5
D
102
{ACAD_REACTORS
330
C
102
}
330
C
100
AcDbDictionary
281
     1
  0
DICTIONARY
  5
1A
102
{ACAD_REACTORS
330
C
102
}
330
C
100
AcDbDictionary
281
     1
  3
Layout1
350
1E
  3
Layout2
350
26
  3
Model
350
22
  0
DICTIONARY
  5
E7
102
{ACAD_REACTORS
330
C
102
}
330
C
100
AcDbDictionary
281
     1
  3
ByBlock
350
E9
  3
ByLayer
350
E8
  3
Global
350
EA
  0
DICTIONARY
  5
BB0
102
{ACAD_REACTORS
330
C
102
}
330
C
100
AcDbDictionary
281
     1
  3
Standard
350
BB1
  0
DICTIONARY
  5
17
102
{ACAD_REACTORS
330
C
102
}
330
C
100
AcDbDictionary
281
     1
  3
Standard
350
18
  0
DICTIONARY
  5
19
102
{ACAD_REACTORS
330
C
102
}
330
C
100
AcDbDictionary
281
     1
  3
JPG
350
B7B
  3
PDF
350
B72
  0
ACDBDICTIONARYWDFLT
  5
E
102
{ACAD_REACTORS
330
C
102
}
330
C
100
AcDbDictionary
281
     1
  3
Normal
350
F
100
AcDbDictionaryWithDefault
340
F
  0
DICTIONARY
  5
B8E
102
{ACAD_REACTORS
330
C
102
}
330
C
100
AcDbDictionary
281
     1
  3
A0
350
B8F
  3
A1
350
B90
  3
A2
350
B91
  3
A3
350
B92
  3
A4
350
B93
  3
A5
350
B94
  3
A6
350
B95
  3
A7
350
B96
  3
A8
350
B97
  3
A9
350
B98
  3
B0
350
B99
  3
B1
350
B9A
  3
B2
350
B9B
  3
B3
350
B9C
  3
B4
350
B9D
  3
B5
350
B9E
  3
B6
350
B9F
  3
B7
350
BA0
  3
B8
350
BA1
  3
B9
350
BA2
  3
C0
350
BA3
  3
C1
350
BA4
  3
C2
350
BA5
  3
C3
350
BA6
  3
C4
350
BA7
  3
C5
350
BA8
  3
C6
350
BA9
  3
C7
350
BAA
  3
C8
350
BAB
  3
C9
350
BAC
  3
D0
350
BAD
  3
D1
350
BAE
  3
D2
350
BAF
  0
DICTIONARY
  5
FD
102
{ACAD_REACTORS
330
C
102
}
330
C
100
AcDbDictionary
281
     1
  3
Standard
350
FE
  0
DICTIONARY
  5
EB
102
{ACAD_REACTORS
330
C
102
}
330
C
100
AcDbDictionary
281
     1
  3
2dWireframe
350
F1
  3
3D Hidden
350
F3
  3
3dWireframe
350
F2
  3
Basic
350
F0
  3
Brighten
350
F7
  3
ColorChange
350
FB
  3
Conceptual
350
F4
  3
Dim
350
F6
  3
EdgeColorOff
350
B8D
  3
Facepattern
350
FA
  3
Flat
350
EC
  3
FlatWithEdges
350
ED
  3
Gouraud
350
EE
  3
GouraudWithEdges
350
EF
  3
JitterOff
350
B8B
  3
Linepattern
350
F9
  3
OverhangOff
350
B8C
  3
Realistic
350
F5
  3
Thicken
350
F8
  0
XRECORD
  5
23A2
102
{ACAD_REACTORS
330
C
102
}
330
C
100
AcDbXrecord
280
     1
 90
        1
330
FE
  0
DICTIONARY
  5
3CB
102
{ACAD_REACTORS
330
C
102
}
330
C
100
AcDbDictionary
281
     1
  3
CANNOSCALE
350
BFA
  3
CMLEADERSTYLE
350
BF9
  3
CTABLESTYLE
350
3CC
  3
DIMASSOC
350
BFE
  3
INDEXCTL
350
BFC
  3
SORTENTS
350
BFB
  3
XCLIPFRAME
350
23A0
  0
DICTIONARY
  5
622
102
{ACAD_REACTORS
330
61E
102
}
330
61E
100
AcDbDictionary
281
     1
  0
DICTIONARY
  5
238A
102
{ACAD_REACTORS
330
61E
102
}
330
61E
100
AcDbDictionary
281
     1
  0
DICTIONARY
  5
621
102
{ACAD_REACTORS
330
61E
102
}
330
61E
100
AcDbDictionary
281
     1
1001
ACAD
1000
<All
  0
XRECORD
  5
BB7
102
{ACAD_REACTORS
330
BB6
102
}
330
BB6
100
AcDbXrecord
280
     1
290
     1
  0
XRECORD
  5
BB9
102
{ACAD_REACTORS
330
BB8
102
}
330
BB8
100
AcDbXrecord
280
     1
290
     1
  0
XRECORD
  5
BBB
102
{ACAD_REACTORS
330
BBA
102
}
330
BBA
100
AcDbXrecord
280
     1
290
     1
  0
SORTENTSTABLE
  5
40B
102
{ACAD_REACTORS
330
40A
102
}
330
40A
100
AcDbSortentsTable
330
409
331
410
  5
69
331
40E
  5
6B
331
40F
  5
6D
331
40D
  5
6A
  0
XRECORD
  5
23D1
102
{ACAD_REACTORS
330
23D0
102
}
330
23D0
100
AcDbXrecord
280
     1
 40
7350.0
  1
\A1;\U+22050.375
  0
XRECORD
  5
23D3
102
{ACAD_REACTORS
330
23D2
102
}
330
23D2
100
AcDbXrecord
280
     1
 40
7226.0
  1
\A1;\U+22050.250
  0
XRECORD
  5
23D5
102
{ACAD_REACTORS
330
23D4
102
}
330
23D4
100
AcDbXrecord
280
     1
 40
7304.0
  1
\A1;\U+22051.155
  0
XRECORD
  5
23D7
102
{ACAD_REACTORS
330
23D6
102
}
330
23D6
100
AcDbXrecord
280
     1
 40
7300.0
  1
\A1;\U+22051.515
  0
LAYOUT
  5
1E
102
{ACAD_REACTORS
330
1A
102
}
330
1A
100
AcDbPlotSettings
  1

  2
none_device
  4

  6

 40
0.0
 41
0.0
 42
0.0
 43
0.0
 44
0.0
 45
0.0
 46
0.0
 47
0.0
 48
0.0
 49
0.0
140
0.0
141
0.0
142
1.0
143
1.0
 70
   688
 72
     0
 73
     0
 74
     5
  7

 75
    16
147
1.0
 76
     0
 77
     2
 78
   300
148
0.0
149
0.0
100
AcDbLayout
  1
Layout1
 70
     1
 71
     1
 10
0.0
 20
0.0
 11
12.0
 21
9.0
 12
0.0
 22
0.0
 32
0.0
 14
1.000000000000000E+20
 24
1.000000000000000E+20
 34
1.000000000000000E+20
 15
-1.000000000000000E+20
 25
-1.000000000000000E+20
 35
-1.000000000000000E+20
146
0.0
 13
0.0
 23
0.0
 33
0.0
 16
1.0
 26
0.0
 36
0.0
 17
0.0
 27
1.0
 37
0.0
 76
     0
330
1B
  0
LAYOUT
  5
26
102
{ACAD_REACTORS
330
1A
102
}
330
1A
100
AcDbPlotSettings
  1

  2
none_device
  4

  6

 40
0.0
 41
0.0
 42
0.0
 43
0.0
 44
0.0
 45
0.0
 46
0.0
 47
0.0
 48
0.0
 49
0.0
140
0.0
141
0.0
142
1.0
143
1.0
 70
   688
 72
     0
 73
     0
 74
     5
  7

 75
    16
147
1.0
 76
     0
 77
     2
 78
   300
148
0.0
149
0.0
100
AcDbLayout
  1
Layout2
 70
     1
 71
     2
 10
0.0
 20
0.0
 11
0.0
 21
0.0
 12
0.0
 22
0.0
 32
0.0
 14
0.0
 24
0.0
 34
0.0
 15
0.0
 25
0.0
 35
0.0
146
0.0
 13
0.0
 23
0.0
 33
0.0
 16
1.0
 26
0.0
 36
0.0
 17
0.0
 27
1.0
 37
0.0
 76
     0
330
23
  0
LAYOUT
  5
22
102
{ACAD_XDICTIONARY
360
238F
102
}
102
{ACAD_REACTORS
330
1A
102
}
330
1A
100
AcDbPlotSettings
  1

  2
none_device
  4
Letter_(8.50_x_11.00_Inches)
  6

 40
6.349999904632568
 41
6.349999904632568
 42
6.350006103515625
 43
6.350006103515625
 44
215.8999938964844
 45
279.3999938964844
 46
0.0
 47
0.0
 48
0.0
 49
0.0
140
0.0
141
0.0
142
1.0
143
2.383658744906425
 70
 11952
 72
     0
 73
     1
 74
     0
  7

 75
     0
147
0.4195231394329716
 76
     0
 77
     2
 78
   300
148
135.2900774710282
149
-27.52084133435472
100
AcDbLayout
  1
Model
 70
     1
 71
     0
 10
0.0
 20
0.0
 11
16.53543307086614
 21
11.69291338582677
 12
0.0
 22
0.0
 32
0.0
 14
0.0
 24
0.0
 34
0.0
 15
16.53543307086614
 25
11.69291338582677
 35
0.0
146
0.0
 13
0.0
 23
0.0
 33
0.0
 16
1.0
 26
0.0
 36
0.0
 17
0.0
 27
1.0
 37
0.0
 76
     0
330
1F
331
29
1001
ACAD_PSEXT
1000
None
1000
None
1000
Not applicable
1000
The layout will not be plotted unless a new plotter configuration name is selected.
1070
     0
  0
MATERIAL
  5
E9
102
{ACAD_XDICTIONARY
360
23A5
102
}
102
{ACAD_REACTORS
330
E7
102
}
330
E7
100
AcDbMaterial
  1
ByBlock
 73
     1
 78
     1
172
     1
176
     1
270
     1
274
     1
  0
MATERIAL
  5
E8
102
{ACAD_XDICTIONARY
360
23A3
102
}
102
{ACAD_REACTORS
330
E7
102
}
330
E7
100
AcDbMaterial
  1
ByLayer
 73
     1
 78
     1
172
     1
176
     1
270
     1
274
     1
  0
MATERIAL
  5
EA
102
{ACAD_XDICTIONARY
360
23A7
102
}
102
{ACAD_REACTORS
330
E7
102
}
330
E7
100
AcDbMaterial
  1
Global
 73
     1
 78
     1
172
     1
176
     1
270
     1
274
     1
  0
MLEADERSTYLE
  5
BB1
102
{ACAD_REACTORS
330
BB0
102
}
330
BB0
100
AcDbMLeaderStyle
170
     2
171
     1
172
     0
 90
        2
 40
0.0
 41
0.0
173
     1
 91
-1056964608
340
14
 92
       -2
290
     1
 42
0.09
291
     1
 43
0.36
  3
Standard
 44
0.18
300

342
11
174
     1
178
     6
175
     1
176
     0
 93
-1056964608
 45
0.18
292
     0
297
     0
 46
0.18
 94
-1056964608
 47
1.0
 49
1.0
140
1.0
293
     1
141
0.0
294
     1
177
     0
142
1.0
295
     0
296
     0
143
0.125
1001
ACAD_MLEADERVER
1070
     2
  0
MLINESTYLE
  5
18
102
{ACAD_REACTORS
330
17
102
}
330
17
100
AcDbMlineStyle
  2
STANDARD
 70
     0
  3

 62
   256
 51
90.0
 52
90.0
 71
     2
 49
0.5
 62
   256
  6
BYLAYER
 49
-0.5
 62
   256
  6
BYLAYER
  0
PLOTSETTINGS
  5
B7B
102
{ACAD_REACTORS
330
19
102
}
330
19
100
AcDbPlotSettings
  1
JPG
  2
PublishToWeb JPG.pc3
  4
User-1
  6

 40
75.0
 41
75.0
 42
75.000244140625
 43
75.000244140625
 44
2550.0
 45
3300.0
 46
7.281523769336217
 47
0.0
 48
0.0
 49
0.0
140
7.817532181279499
141
5.920072913978676
142
1.0
143
0.0024817564403737
 70
 11956
 72
     2
 73
     1
 74
     4
  7

 75
     0
147
402.9404270829381
 76
     0
 77
     2
 78
   300
148
0.0
149
0.0
1001
ACAD_PSEXT
1000
PublishToWeb JPG.pc3
1000
Independent JPEG Group JFIF (JPEG Compression)
1000
File
1000

1070
     0
  0
PLOTSETTINGS
  5
B72
102
{ACAD_REACTORS
330
19
102
}
330
19
100
AcDbPlotSettings
  1
PDF
  2
DWG To PDF.pc3
  4
ISO_expand_A1_(841.00_x_594.00_MM)
  6

 40
5.793749809265136
 41
10.79374980926513
 42
5.79376220703125
 43
10.79376220703125
 44
841.0
 45
594.0
 46
36.76722948979278
 47
0.0
 48
0.0
 49
0.0
140
7.817532181279499
141
5.920072913978676
142
1.0
143
0.0103423196353243
 70
 11956
 72
     1
 73
     0
 74
     4
  7

 75
     0
147
96.69010775730546
 76
     0
 77
     2
 78
   300
148
0.0
149
0.0
1001
ACAD_PSEXT
1000
DWG To PDF.pc3
1000
PDF
1000
File
1000

1070
     0
  0
ACDBPLACEHOLDER
  5
F
102
{ACAD_REACTORS
330
E
102
}
330
E
  0
SCALE
  5
B8F
102
{ACAD_REACTORS
330
B8E
102
}
330
B8E
100
AcDbScale
 70
     0
300
1:1
140
1.0
141
1.0
290
     1
  0
SCALE
  5
B90
102
{ACAD_REACTORS
330
B8E
102
}
330
B8E
100
AcDbScale
 70
     0
300
1:2
140
1.0
141
2.0
290
     0
  0
SCALE
  5
B91
102
{ACAD_REACTORS
330
B8E
102
}
330
B8E
100
AcDbScale
 70
     0
300
1:4
140
1.0
141
4.0
290
     0
  0
SCALE
  5
B92
102
{ACAD_REACTORS
330
B8E
102
}
330
B8E
100
AcDbScale
 70
     0
300
1:5
140
1.0
141
5.0
290
     0
  0
SCALE
  5
B93
102
{ACAD_REACTORS
330
B8E
102
}
330
B8E
100
AcDbScale
 70
     0
300
1:8
140
1.0
141
8.0
290
     0
  0
SCALE
  5
B94
102
{ACAD_REACTORS
330
B8E
102
}
330
B8E
100
AcDbScale
 70
     0
300
1:10
140
1.0
141
10.0
290
     0
  0
SCALE
  5
B95
102
{ACAD_REACTORS
330
B8E
102
}
330
B8E
100
AcDbScale
 70
     0
300
1:16
140
1.0
141
16.0
290
     0
  0
SCALE
  5
B96
102
{ACAD_REACTORS
330
B8E
102
}
330
B8E
100
AcDbScale
 70
     0
300
1:20
140
1.0
141
20.0
290
     0
  0
SCALE
  5
B97
102
{ACAD_REACTORS
330
B8E
102
}
330
B8E
100
AcDbScale
 70
     0
300
1:30
140
1.0
141
30.0
290
     0
  0
SCALE
  5
B98
102
{ACAD_REACTORS
330
B8E
102
}
330
B8E
100
AcDbScale
 70
     0
300
1:40
140
1.0
141
40.0
290
     0
  0
SCALE
  5
B99
102
{ACAD_REACTORS
330
B8E
102
}
330
B8E
100
AcDbScale
 70
     0
300
1:50
140
1.0
141
50.0
290
     0
  0
SCALE
  5
B9A
102
{ACAD_REACTORS
330
B8E
102
}
330
B8E
100
AcDbScale
 70
     0
300
1:100
140
1.0
141
100.0
290
     0
  0
SCALE
  5
B9B
102
{ACAD_REACTORS
330
B8E
102
}
330
B8E
100
AcDbScale
 70
     0
300
2:1
140
2.0
141
1.0
290
     0
  0
SCALE
  5
B9C
102
{ACAD_REACTORS
330
B8E
102
}
330
B8E
100
AcDbScale
 70
     0
300
4:1
140
4.0
141
1.0
290
     0
  0
SCALE
  5
B9D
102
{ACAD_REACTORS
330
B8E
102
}
330
B8E
100
AcDbScale
 70
     0
300
8:1
140
8.0
141
1.0
290
     0
  0
SCALE
  5
B9E
102
{ACAD_REACTORS
330
B8E
102
}
330
B8E
100
AcDbScale
 70
     0
300
10:1
140
10.0
141
1.0
290
     0
  0
SCALE
  5
B9F
102
{ACAD_REACTORS
330
B8E
102
}
330
B8E
100
AcDbScale
 70
     0
300
100:1
140
100.0
141
1.0
290
     0
  0
SCALE
  5
BA0
102
{ACAD_REACTORS
330
B8E
102
}
330
B8E
100
AcDbScale
 70
     0
300
1/128" = 1'-0"
140
0.0078125
141
12.0
290
     0
  0
SCALE
  5
BA1
102
{ACAD_REACTORS
330
B8E
102
}
330
B8E
100
AcDbScale
 70
     0
300
1/64" = 1'-0"
140
0.015625
141
12.0
290
     0
  0
SCALE
  5
BA2
102
{ACAD_REACTORS
330
B8E
102
}
330
B8E
100
AcDbScale
 70
     0
300
1/32" = 1'-0"
140
0.03125
141
12.0
290
     0
  0
SCALE
  5
BA3
102
{ACAD_REACTORS
330
B8E
102
}
330
B8E
100
AcDbScale
 70
     0
300
1/16" = 1'-0"
140
0.0625
141
12.0
290
     0
  0
SCALE
  5
BA4
102
{ACAD_REACTORS
330
B8E
102
}
330
B8E
100
AcDbScale
 70
     0
300
3/32" = 1'-0"
140
0.09375
141
12.0
290
     0
  0
SCALE
  5
BA5
102
{ACAD_REACTORS
330
B8E
102
}
330
B8E
100
AcDbScale
 70
     0
300
1/8" = 1'-0"
140
0.125
141
12.0
290
     0
  0
SCALE
  5
BA6
102
{ACAD_REACTORS
330
B8E
102
}
330
B8E
100
AcDbScale
 70
     0
300
3/16" = 1'-0"
140
0.1875
141
12.0
290
     0
  0
SCALE
  5
BA7
102
{ACAD_REACTORS
330
B8E
102
}
330
B8E
100
AcDbScale
 70
     0
300
1/4" = 1'-0"
140
0.25
141
12.0
290
     0
  0
SCALE
  5
BA8
102
{ACAD_REACTORS
330
B8E
102
}
330
B8E
100
AcDbScale
 70
     0
300
3/8" = 1'-0"
140
0.375
141
12.0
290
     0
  0
SCALE
  5
BA9
102
{ACAD_REACTORS
330
B8E
102
}
330
B8E
100
AcDbScale
 70
     0
300
1/2" = 1'-0"
140
0.5
141
12.0
290
     0
  0
SCALE
  5
BAA
102
{ACAD_REACTORS
330
B8E
102
}
330
B8E
100
AcDbScale
 70
     0
300
3/4" = 1'-0"
140
0.75
141
12.0
290
     0
  0
SCALE
  5
BAB
102
{ACAD_REACTORS
330
B8E
102
}
330
B8E
100
AcDbScale
 70
     0
300
1" = 1'-0"
140
1.0
141
12.0
290
     0
  0
SCALE
  5
BAC
102
{ACAD_REACTORS
330
B8E
102
}
330
B8E
100
AcDbScale
 70
     0
300
1-1/2" = 1'-0"
140
1.5
141
12.0
290
     0
  0
SCALE
  5
BAD
102
{ACAD_REACTORS
330
B8E
102
}
330
B8E
100
AcDbScale
 70
     0
300
3" = 1'-0"
140
3.0
141
12.0
290
     0
  0
SCALE
  5
BAE
102
{ACAD_REACTORS
330
B8E
102
}
330
B8E
100
AcDbScale
 70
     0
300
6" = 1'-0"
140
6.0
141
12.0
290
     0
  0
SCALE
  5
BAF
102
{ACAD_REACTORS
330
B8E
102
}
330
B8E
100
AcDbScale
 70
     0
300
1'-0" = 1'-0"
140
12.0
141
12.0
290
     0
  0
TABLESTYLE
  5
FE
102
{ACAD_XDICTIONARY
360
BBC
102
}
102
{ACAD_REACTORS
330
FD
102
}
330
FD
100
AcDbTableStyle
  3
Standard
 70
     0
 71
     0
 40
0.06
 41
0.06
280
     0
281
     0
  7
Standard
140
0.18
170
     2
 62
     0
 63
     7
283
     0
274
    -2
284
     1
 64
     0
275
    -2
285
     1
 65
     0
276
    -2
286
     1
 66
     0
277
    -2
287
     1
 67
     0
278
    -2
288
     1
 68
     0
279
    -2
289
     1
 69
     0
  7
Standard
140
0.25
170
     5
 62
     0
 63
     7
283
     0
274
    -2
284
     1
 64
     0
275
    -2
285
     1
 65
     0
276
    -2
286
     1
 66
     0
277
    -2
287
     1
 67
     0
278
    -2
288
     1
 68
     0
279
    -2
289
     1
 69
     0
  7
Standard
140
0.18
170
     5
 62
     0
 63
     7
283
     0
274
    -2
284
     1
 64
     0
275
    -2
285
     1
 65
     0
276
    -2
286
     1
 66
     0
277
    -2
287
     1
 67
     0
278
    -2
288
     1
 68
     0
279
    -2
289
     1
 69
     0
  0
VISUALSTYLE
  5
F1
102
{ACAD_XDICTIONARY
360
23B3
102
}
102
{ACAD_REACTORS
330
EB
102
}
330
EB
100
AcDbVisualStyle
  2
2dWireframe
 70
     4
 71
     0
 72
     2
 73
     0
 90
        0
 40
-0.6
 41
-30.0
 62
     5
 63
     7
 74
     1
 91
        4
 64
     7
 65
   257
 75
     1
175
     1
 42
1.0
 92
        0
 66
   257
 43
1.0
 76
     1
 77
     6
 78
     2
 67
     7
 79
     5
170
     0
171
     0
290
     0
174
     0
 93
        1
 44
0.0
173
     0
291
     0
 45
0.0
1001
ACAD
1000
AcDbSavedByObjectVersion
1070
     0
  0
VISUALSTYLE
  5
F3
102
{ACAD_XDICTIONARY
360
23B7
102
}
102
{ACAD_REACTORS
330
EB
102
}
330
EB
100
AcDbVisualStyle
  2
3D Hidden
 70
     6
 71
     1
 72
     2
 73
     2
 90
        0
 40
-0.6
 41
-30.0
 62
     5
 63
     7
 74
     2
 91
        2
 64
     7
 65
   257
 75
     2
175
     1
 42
40.0
 92
        0
 66
   257
 43
1.0
 76
     1
 77
     6
 78
     2
 67
     7
 79
     3
170
     0
171
     0
290
     0
174
     0
 93
        1
 44
0.0
173
     0
291
     0
 45
0.0
1001
ACAD
1000
AcDbSavedByObjectVersion
1070
     0
  0
VISUALSTYLE
  5
F2
102
{ACAD_XDICTIONARY
360
23B5
102
}
102
{ACAD_REACTORS
330
EB
102
}
330
EB
100
AcDbVisualStyle
  2
3dWireframe
 70
     5
 71
     0
 72
     2
 73
     0
 90
        0
 40
-0.6
 41
-30.0
 62
     5
 63
     7
 74
     1
 91
        4
 64
     7
 65
   257
 75
     1
175
     1
 42
1.0
 92
        0
 66
   257
 43
1.0
 76
     1
 77
     6
 78
     2
 67
     7
 79
     5
170
     0
171
     0
290
     0
174
     0
 93
        1
 44
0.0
173
     0
291
     0
 45
0.0
1001
ACAD
1000
AcDbSavedByObjectVersion
1070
     0
  0
VISUALSTYLE
  5
F0
102
{ACAD_XDICTIONARY
360
23B1
102
}
102
{ACAD_REACTORS
330
EB
102
}
330
EB
100
AcDbVisualStyle
  2
Basic
 70
     7
 71
     1
 72
     0
 73
     1
 90
        0
 40
-0.6
 41
-30.0
 62
     5
 63
     7
 74
     0
 91
        4
 64
     7
 65
   257
 75
     1
175
     1
 42
1.0
 92
        8
 66
     7
 43
1.0
 76
     1
 77
     6
 78
     2
 67
     7
 79
     5
170
     0
171
     0
290
     0
174
     0
 93
        1
 44
0.0
173
     0
291
     1
 45
0.0
1001
ACAD
1000
AcDbSavedByObjectVersion
1070
     0
  0
VISUALSTYLE
  5
F7
102
{ACAD_XDICTIONARY
360
23BF
102
}
102
{ACAD_REACTORS
330
EB
102
}
330
EB
100
AcDbVisualStyle
  2
Brighten
 70
    12
 71
     2
 72
     2
 73
     0
 90
        0
 40
-0.6
 41
-30.0
 62
     5
 63
     7
 74
     1
 91
        4
 64
     7
 65
   257
 75
     1
175
     1
 42
1.0
 92
        8
 66
     7
 43
1.0
 76
     1
 77
     6
 78
     2
 67
     7
 79
     5
170
     0
171
     0
290
     0
174
     0
 93
        1
 44
50.0
173
     0
291
     1
 45
0.0
1001
ACAD
1000
AcDbSavedByObjectVersion
1070
     0
  0
VISUALSTYLE
  5
FB
102
{ACAD_XDICTIONARY
360
23C7
102
}
102
{ACAD_REACTORS
330
EB
102
}
330
EB
100
AcDbVisualStyle
  2
ColorChange
 70
    16
 71
     2
 72
     2
 73
     3
 90
        0
 40
-0.6
 41
-30.0
 62
     5
 63
     8
 74
     1
 91
        4
 64
     7
 65
   257
 75
     1
175
     1
 42
1.0
 92
        8
 66
     8
 43
1.0
 76
     1
 77
     6
 78
     2
 67
     7
 79
     5
170
     0
171
     0
290
     0
174
     0
 93
        1
 44
0.0
173
     0
291
     1
 45
0.0
1001
ACAD
1000
AcDbSavedByObjectVersion
1070
     0
  0
VISUALSTYLE
  5
F4
102
{ACAD_XDICTIONARY
360
23B9
102
}
102
{ACAD_REACTORS
330
EB
102
}
330
EB
100
AcDbVisualStyle
  2
Conceptual
 70
     9
 71
     3
 72
     2
 73
     0
 90
        0
 40
-0.6
 41
-30.0
 62
     5
 63
     7
 74
     2
 91
        2
 64
     7
 65
   257
 75
     1
175
     1
 42
40.0
 92
        8
 66
     7
 43
1.0
 76
     1
 77
     6
 78
     2
 67
     7
 79
     3
170
     0
171
     0
290
     0
174
     0
 93
        1
 44
0.0
173
     0
291
     0
 45
0.0
1001
ACAD
1000
AcDbSavedByObjectVersion
1070
     0
  0
VISUALSTYLE
  5
F6
102
{ACAD_XDICTIONARY
360
23BD
102
}
102
{ACAD_REACTORS
330
EB
102
}
330
EB
100
AcDbVisualStyle
  2
Dim
 70
    11
 71
     2
 72
     2
 73
     0
 90
        0
 40
-0.6
 41
-30.0
 62
     5
 63
     7
 74
     1
 91
        4
 64
     7
 65
   257
 75
     1
175
     1
 42
1.0
 92
        8
 66
     7
 43
1.0
 76
     1
 77
     6
 78
     2
 67
     7
 79
     5
170
     0
171
     0
290
     0
174
     0
 93
        1
 44
-50.0
173
     0
291
     1
 45
0.0
1001
ACAD
1000
AcDbSavedByObjectVersion
1070
     0
  0
VISUALSTYLE
  5
B8D
102
{ACAD_XDICTIONARY
360
23CE
102
}
102
{ACAD_REACTORS
330
EB
102
}
330
EB
100
AcDbVisualStyle
  2
EdgeColorOff
 70
    22
 71
     2
 72
     2
 73
     0
 90
        0
 40
-0.6
 41
-30.0
 62
     5
 63
     7
 74
     1
 91
        4
 64
     7
 65
   257
 75
     1
175
     1
 42
1.0
 92
        8
 66
     7
 43
1.0
 76
     1
 77
     6
 78
     2
 67
     7
 79
     5
170
     0
171
     0
290
     0
174
     0
 93
        1
 44
0.0
173
     0
291
     1
 45
0.0
1001
ACAD
1000
AcDbSavedByObjectVersion
1070
     0
  0
VISUALSTYLE
  5
FA
102
{ACAD_XDICTIONARY
360
23C5
102
}
102
{ACAD_REACTORS
330
EB
102
}
330
EB
100
AcDbVisualStyle
  2
Facepattern
 70
    15
 71
     2
 72
     2
 73
     0
 90
        0
 40
-0.6
 41
-30.0
 62
     5
 63
     7
 74
     1
 91
        4
 64
     7
 65
   257
 75
     1
175
     1
 42
1.0
 92
        8
 66
     7
 43
1.0
 76
     1
 77
     6
 78
     2
 67
     7
 79
     5
170
     0
171
     0
290
     0
174
     0
 93
        1
 44
0.0
173
     0
291
     1
 45
0.0
1001
ACAD
1000
AcDbSavedByObjectVersion
1070
     0
  0
VISUALSTYLE
  5
EC
102
{ACAD_XDICTIONARY
360
23A9
102
}
102
{ACAD_REACTORS
330
EB
102
}
330
EB
100
AcDbVisualStyle
  2
Flat
 70
     0
 71
     2
 72
     1
 73
     1
 90
        2
 40
-0.6
 41
30.0
 62
     5
 63
     7
 74
     0
 91
        4
 64
     7
 65
   257
 75
     1
175
     1
 42
1.0
 92
        8
 66
     7
 43
1.0
 76
     1
 77
     6
 78
     2
 67
     7
 79
     5
170
     0
171
     0
290
     0
174
     0
 93
       13
 44
0.0
173
     0
291
     1
 45
0.0
1001
ACAD
1000
AcDbSavedByObjectVersion
1070
     0
  0
VISUALSTYLE
  5
ED
102
{ACAD_XDICTIONARY
360
23AB
102
}
102
{ACAD_REACTORS
330
EB
102
}
330
EB
100
AcDbVisualStyle
  2
FlatWithEdges
 70
     1
 71
     2
 72
     1
 73
     1
 90
        2
 40
-0.6
 41
30.0
 62
     5
 63
     7
 74
     1
 91
        4
 64
     7
 65
   257
 75
     1
175
     1
 42
1.0
 92
        0
 66
   257
 43
1.0
 76
     1
 77
     6
 78
     2
 67
     7
 79
     5
170
     0
171
     0
290
     0
174
     0
 93
       13
 44
0.0
173
     0
291
     1
 45
0.0
1001
ACAD
1000
AcDbSavedByObjectVersion
1070
     0
  0
VISUALSTYLE
  5
EE
102
{ACAD_XDICTIONARY
360
23AD
102
}
102
{ACAD_REACTORS
330
EB
102
}
330
EB
100
AcDbVisualStyle
  2
Gouraud
 70
     2
 71
     2
 72
     2
 73
     1
 90
        2
 40
-0.6
 41
30.0
 62
     5
 63
     7
 74
     0
 91
        4
 64
     7
 65
   257
 75
     1
175
     1
 42
1.0
 92
        0
 66
     7
 43
1.0
 76
     1
 77
     6
 78
     2
 67
     7
 79
     5
170
     0
171
     0
290
     0
174
     0
 93
       13
 44
0.0
173
     0
291
     1
 45
0.0
1001
ACAD
1000
AcDbSavedByObjectVersion
1070
     0
  0
VISUALSTYLE
  5
EF
102
{ACAD_XDICTIONARY
360
23AF
102
}
102
{ACAD_REACTORS
330
EB
102
}
330
EB
100
AcDbVisualStyle
  2
GouraudWithEdges
 70
     3
 71
     2
 72
     2
 73
     1
 90
        2
 40
-0.6
 41
30.0
 62
     5
 63
     7
 74
     1
 91
        4
 64
     7
 65
   257
 75
     1
175
     1
 42
1.0
 92
        0
 66
   257
 43
1.0
 76
     1
 77
     6
 78
     2
 67
     7
 79
     5
170
     0
171
     0
290
     0
174
     0
 93
       13
 44
0.0
173
     0
291
     1
 45
0.0
1001
ACAD
1000
AcDbSavedByObjectVersion
1070
     0
  0
VISUALSTYLE
  5
B8B
102
{ACAD_XDICTIONARY
360
23CA
102
}
102
{ACAD_REACTORS
330
EB
102
}
330
EB
100
AcDbVisualStyle
  2
JitterOff
 70
    20
 71
     2
 72
     2
 73
     0
 90
        0
 40
-0.6
 41
-30.0
 62
     5
 63
     7
 74
     1
 91
        4
 64
     7
 65
   257
 75
     1
175
     1
 42
1.0
 92
       10
 66
     7
 43
1.0
 76
     1
 77
     6
 78
     2
 67
     7
 79
     5
170
     0
171
     0
290
     0
174
     0
 93
        1
 44
0.0
173
     0
291
     1
 45
0.0
1001
ACAD
1000
AcDbSavedByObjectVersion
1070
     0
  0
VISUALSTYLE
  5
F9
102
{ACAD_XDICTIONARY
360
23C3
102
}
102
{ACAD_REACTORS
330
EB
102
}
330
EB
100
AcDbVisualStyle
  2
Linepattern
 70
    14
 71
     2
 72
     2
 73
     0
 90
        0
 40
-0.6
 41
-30.0
 62
     5
 63
     7
 74
     1
 91
        4
 64
     7
 65
   257
 75
     7
175
     7
 42
1.0
 92
        8
 66
     7
 43
1.0
 76
     1
 77
     6
 78
     2
 67
     7
 79
     5
170
     0
171
     0
290
     0
174
     0
 93
        1
 44
0.0
173
     0
291
     1
 45
0.0
1001
ACAD
1000
AcDbSavedByObjectVersion
1070
     0
  0
VISUALSTYLE
  5
B8C
102
{ACAD_XDICTIONARY
360
23CC
102
}
102
{ACAD_REACTORS
330
EB
102
}
330
EB
100
AcDbVisualStyle
  2
OverhangOff
 70
    21
 71
     2
 72
     2
 73
     0
 90
        0
 40
-0.6
 41
-30.0
 62
     5
 63
     7
 74
     1
 91
        4
 64
     7
 65
   257
 75
     1
175
     1
 42
1.0
 92
        9
 66
     7
 43
1.0
 76
     1
 77
     6
 78
     2
 67
     7
 79
     5
170
     0
171
     0
290
     0
174
     0
 93
        1
 44
0.0
173
     0
291
     1
 45
0.0
1001
ACAD
1000
AcDbSavedByObjectVersion
1070
     0
  0
VISUALSTYLE
  5
F5
102
{ACAD_XDICTIONARY
360
23BB
102
}
102
{ACAD_REACTORS
330
EB
102
}
330
EB
100
AcDbVisualStyle
  2
Realistic
 70
     8
 71
     2
 72
     2
 73
     0
 90
        0
 40
-0.6
 41
-30.0
 62
     5
 63
     7
 74
     1
 91
        0
 64
     7
 65
   257
 75
     1
175
     1
 42
1.0
 92
        8
 66
     8
 43
1.0
 76
     1
 77
     6
 78
     2
 67
     7
 79
     5
170
     0
171
     0
290
     0
174
     0
 93
       13
 44
0.0
173
     0
291
     0
 45
0.0
1001
ACAD
1000
AcDbSavedByObjectVersion
1070
     0
  0
VISUALSTYLE
  5
F8
102
{ACAD_XDICTIONARY
360
23C1
102
}
102
{ACAD_REACTORS
330
EB
102
}
330
EB
100
AcDbVisualStyle
  2
Thicken
 70
    13
 71
     2
 72
     2
 73
     0
 90
        0
 40
-0.6
 41
-30.0
 62
     5
 63
     7
 74
     1
 91
        4
 64
     7
 65
   257
 75
     1
175
     1
 42
1.0
 92
       12
 66
     7
 43
1.0
 76
     1
 77
     6
 78
     2
 67
     7
 79
     5
170
     0
171
     0
290
     0
174
     0
 93
        1
 44
0.0
173
     0
291
     1
 45
0.0
1001
ACAD
1000
AcDbSavedByObjectVersion
1070
     0
  0
DICTIONARYVAR
  5
BFA
102
{ACAD_REACTORS
330
3CB
102
}
330
3CB
100
DictionaryVariables
280
     0
  1
1:1
  0
DICTIONARYVAR
  5
BF9
102
{ACAD_REACTORS
330
3CB
102
}
330
3CB
100
DictionaryVariables
280
     0
  1
STANDARD
  0
DICTIONARYVAR
  5
3CC
102
{ACAD_REACTORS
330
3CB
102
}
330
3CB
100
DictionaryVariables
280
     0
  1
STANDARD
  0
DICTIONARYVAR
  5
BFE
102
{ACAD_REACTORS
330
3CB
102
}
330
3CB
100
DictionaryVariables
280
     0
  1
1
  0
DICTIONARYVAR
  5
BFC
102
{ACAD_REACTORS
330
3CB
102
}
330
3CB
100
DictionaryVariables
280
     0
  1
0
  0
DICTIONARYVAR
  5
BFB
102
{ACAD_REACTORS
330
3CB
102
}
330
3CB
100
DictionaryVariables
280
     0
  1
127
  0
DICTIONARYVAR
  5
23A0
102
{ACAD_REACTORS
330
3CB
102
}
330
3CB
100
DictionaryVariables
280
     0
  1
2
  0
DICTIONARY
  5
238F
330
22
100
AcDbDictionary
280
     1
281
     1
  3
ADSK_XREC_LAYOUTTHUMBNAIL
360
2390
  0
DICTIONARY
  5
23A5
330
E9
100
AcDbDictionary
280
     1
281
     1
  3
ACAD_XREC_ROUNDTRIP
360
23A6
  0
DICTIONARY
  5
23A3
330
E8
100
AcDbDictionary
280
     1
281
     1
  3
ACAD_XREC_ROUNDTRIP
360
23A4
  0
DICTIONARY
  5
23A7
330
EA
100
AcDbDictionary
280
     1
281
     1
  3
ACAD_XREC_ROUNDTRIP
360
23A8
  0
DICTIONARY
  5
BBC
330
FE
100
AcDbDictionary
280
     1
281
     1
  3
ACAD_ROUNDTRIP_2008_TABLESTYLE_CELLSTYLEMAP
360
23A1
  3
ACAD_XREC_ROUNDTRIP
360
23C9
  0
DICTIONARY
  5
23B3
330
F1
100
AcDbDictionary
280
     1
281
     1
  3
ACAD_XREC_ROUNDTRIP
360
23B4
  0
DICTIONARY
  5
23B7
330
F3
100
AcDbDictionary
280
     1
281
     1
  3
ACAD_XREC_ROUNDTRIP
360
23B8
  0
DICTIONARY
  5
23B5
330
F2
100
AcDbDictionary
280
     1
281
     1
  3
ACAD_XREC_ROUNDTRIP
360
23B6
  0
DICTIONARY
  5
23B1
330
F0
100
AcDbDictionary
280
     1
281
     1
  3
ACAD_XREC_ROUNDTRIP
360
23B2
  0
DICTIONARY
  5
23BF
330
F7
100
AcDbDictionary
280
     1
281
     1
  3
ACAD_XREC_ROUNDTRIP
360
23C0
  0
DICTIONARY
  5
23C7
330
FB
100
AcDbDictionary
280
     1
281
     1
  3
ACAD_XREC_ROUNDTRIP
360
23C8
  0
DICTIONARY
  5
23B9
330
F4
100
AcDbDictionary
280
     1
281
     1
  3
ACAD_XREC_ROUNDTRIP
360
23BA
  0
DICTIONARY
  5
23BD
330
F6
100
AcDbDictionary
280
     1
281
     1
  3
ACAD_XREC_ROUNDTRIP
360
23BE
  0
DICTIONARY
  5
23CE
330
B8D
100
AcDbDictionary
280
     1
281
     1
  3
ACAD_XREC_ROUNDTRIP
360
23CF
  0
DICTIONARY
  5
23C5
330
FA
100
AcDbDictionary
280
     1
281
     1
  3
ACAD_XREC_ROUNDTRIP
360
23C6
  0
DICTIONARY
  5
23A9
330
EC
100
AcDbDictionary
280
     1
281
     1
  3
ACAD_XREC_ROUNDTRIP
360
23AA
  0
DICTIONARY
  5
23AB
330
ED
100
AcDbDictionary
280
     1
281
     1
  3
ACAD_XREC_ROUNDTRIP
360
23AC
  0
DICTIONARY
  5
23AD
330
EE
100
AcDbDictionary
280
     1
281
     1
  3
ACAD_XREC_ROUNDTRIP
360
23AE
  0
DICTIONARY
  5
23AF
330
EF
100
AcDbDictionary
280
     1
281
     1
  3
ACAD_XREC_ROUNDTRIP
360
23B0
  0
DICTIONARY
  5
23CA
330
B8B
100
AcDbDictionary
280
     1
281
     1
  3
ACAD_XREC_ROUNDTRIP
360
23CB
  0
DICTIONARY
  5
23C3
330
F9
100
AcDbDictionary
280
     1
281
     1
  3
ACAD_XREC_ROUNDTRIP
360
23C4
  0
DICTIONARY
  5
23CC
330
B8C
100
AcDbDictionary
280
     1
281
     1
  3
ACAD_XREC_ROUNDTRIP
360
23CD
  0
DICTIONARY
  5
23BB
330
F5
100
AcDbDictionary
280
     1
281
     1
  3
ACAD_XREC_ROUNDTRIP
360
23BC
  0
DICTIONARY
  5
23C1
330
F8
100
AcDbDictionary
280
     1
281
     1
  3
ACAD_XREC_ROUNDTRIP
360
23C2
  0
XRECORD
  5
2390
102
{ACAD_REACTORS
330
238F
102
}
330
238F
100
AcDbXrecord
280
     1
310
280000000001000063000000010008000000000000630000000000000000000000010000000000008080800000000000FFFFFF000000000000000000000000000000000000000000000000000000000000000000330000006600000099000000CC000000FF00000000330000333300006633000099330000CC330000FF3300
310
0000660000336600006666000099660000CC660000FF66000000990000339900006699000099990000CC990000FF99000000CC000033CC000066CC000099CC0000CCCC0000FFCC000000FF000033FF000066FF000099FF0000CCFF0000FFFF000000003300330033006600330099003300CC003300FF003300003333003333
310
33006633330099333300CC333300FF33330000663300336633006666330099663300CC663300FF66330000993300339933006699330099993300CC993300FF99330000CC330033CC330066CC330099CC3300CCCC3300FFCC330000FF330033FF330066FF330099FF3300CCFF3300FFFF330000006600330066006600660099
310
006600CC006600FF00660000336600333366006633660099336600CC336600FF33660000666600336666006666660099666600CC666600FF66660000996600339966006699660099996600CC996600FF99660000CC660033CC660066CC660099CC6600CCCC6600FFCC660000FF660033FF660066FF660099FF6600CCFF6600
310
FFFF660000009900330099006600990099009900CC009900FF00990000339900333399006633990099339900CC339900FF33990000669900336699006666990099669900CC669900FF66990000999900339999006699990099999900CC999900FF99990000CC990033CC990066CC990099CC9900CCCC9900FFCC990000FF99
310
0033FF990066FF990099FF9900CCFF9900FFFF99000000CC003300CC006600CC009900CC00CC00CC00FF00CC000033CC003333CC006633CC009933CC00CC33CC00FF33CC000066CC003366CC006666CC009966CC00CC66CC00FF66CC000099CC003399CC006699CC009999CC00CC99CC00FF99CC0000CCCC0033CCCC0066CC
310
CC0099CCCC00CCCCCC00FFCCCC0000FFCC0033FFCC0066FFCC0099FFCC00CCFFCC00FFFFCC000000FF003300FF006600FF009900FF00CC00FF00FF00FF000033FF003333FF006633FF009933FF00CC33FF00FF33FF000066FF003366FF006666FF009966FF00CC66FF00FF66FF000099FF003399FF006699FF009999FF00CC
310
99FF00FF99FF0000CCFF0033CCFF0066CCFF0099CCFF00CCCCFF00FFCCFF0000FFFF0033FFFF0066FFFF0099FFFF00CCFFFF00FFFFFF00000000000D0D0D001A1A1A00282828003535350043434300505050005D5D5D006B6B6B00787878008686860093939300A1A1A100AEAEAE00BBBBBB00C9C9C900D6D6D600E4E4E400
310
F1F1F100FFFFFF0000000000000000000000000000000000000000000000000000000000000000000000000000000000ECECECECECECECECECECECECECECECECECECECECECECECECECECECECECECECECECECECECECECECECECECECECECECECECECECECECECECECECECECECECECECECECECECECECECECECECECECECECECECEC
310
ECECECECECECECECECECECECECECECECECECECECECECECECECECECECECECECECECECECECECECECECECECECECECECECECECECECECECECECECECECECECECECECECECECECECECECECECECECECECECECECECECECECECECECECECECECECECECECECECECECECECECECECECECECECECECECECECECECECECECECECECECECECECECECEC
310
ECECECECECECECECECECECECECECECECECECECECECECECECECECECECECECECECECECECECECECECECECECECECECECECECECECECECECECECECECECECECECECECECECECECECECECECECECECECECECECECECECECECECECECECECECECECECECECECECECECECECECECECECECECECECECECECECECF5F5F5F5F5F5F5F5F5F5F5F5F5F5
310
F5F5F5F5F5F5F5F5F5F5F5F5F5F5F5F5F5F5F5F5F5F5F5F5F5F5F5F5F5F5F5F5F5F5F5F5F5F5F5F5F5F5F5F5F5F5F5F5F5F5F5F5F5F5F5F5F5F5F5F5F5F5F5F5F5F5F5F5F5F5F5F5F5F5F5F5F5F5F5F5F5F5F5F5F5F5F5F5F5F5F5F5F5F5F5F5F5F5F5F5F5F5F5F5F5F5F5F5F5F5F5F5F5F5F5F5ECECECECECECECECECECEC
310
ECECECECECECECECECECECECECECECECECECECECECECECECECECECECECECECECECECECECECECECECECECECECECECECECECECECECECECECECECECECECECECECECECECECECECECECECECECECECECECECECECECECECECECECECECECECECECECECECECECECECECECECECECECECECECECECECECECECF5ECECECECECECECECECECEC
310
ECECECECECECECECECECECECECECECECECECECECECECECECECECECECECECECECECECECECECECECF5ECECECF5F5F5F5F5F5F5F5F5F5F5F5F5ECECECECECECECF5ECF5F5F5F5F5F5F5F5F5ECECECECECECECECECECECECECECECECF5ECF5F5F5F5F5F5F5F5F5F5F5F5F51B1B1B1B1B1B1B1B1B1B1BECF5ECECECECECECECECEC
310
ECECECECECECECECECECECECECECECECECECECECECECECECECECECECECECECECECECECECECECECECECECECECECECECECECECECECECECECECECECECECECECECECECECECECECECECECECECECECECECECECECECECECECECECECECECECECECECECECECECECECECECECECECECECECECECECECECECECECECF5ECECECECECECECECEC
310
ECECECECECECECECECECECECECECECECECECECECECECECECECECECECECECECECECECECECECECECECECF5ECECECF5F5F5F5F5F5F5F5F5F5F5F5F5ECECECECECECECF5F5F5F5F5F5F5F5F5F5F5F5F5F5F5F5F5F5F5F5F5F5F5F5F5F5ECF5ECF5F5F5F5F5F5F5F5F5F5F5F5F51B1B1B1B1B1B1B1B1B1B1BECF5ECECECECECECEC
310
ECECECECECECECECECECECECECECECECECECECECECECECECECECECECECECECECECECECECECECECECECECECECECECECECECECECECECECECECECECECECECECECECECECECECECECECECECECECECECECECECECECECECECECECECECECECECECECECECECECECECECECECECECECECECECECECECECECECECECECECF5ECECECECECECEC
310
ECECECECECECECECECECECECECECECECECECECECECECECECECECECECECECECECECECECECECECECECECECECF5ECECECF5F5F5F5F5F5F5F5F5F5F5F5F5ECECECECECECECF5ECECECECECECECECECECECECECECECECECECECECECECECECECECF5ECF5F5F5F5F5F5F5F5F5F5F5F5F51B1B1B1B1B1B1B1B1B1B1BECF5ECECECECEC
310
ECECECECECECECECECECECECECECECECECECECECECECECECECECECECECECECECECECECECECECECECECECECECECECECECECECECECECECECECECECECECECECECECECECECECECECECECECECECECECECECECECECECECECECECECECECECECECECECECECECECECECECECECECECECECECECECECECECECECECECECECECF5ECECECECEC
310
ECECECECECECECECECECECECECECECECECECECECECECECECECECECECECECECECECECECECECECECECECECECECECF5ECECECECECECECECECECECECECECECECECECECECECECECF5ECF5F5F5F5F5F5F5F5F5F5F5F5F5F5ECECECECECECECECECECECF5F5F5F5F5F5F5F5F5F5F5F5F5F5F5F5F5F5F5F5F5F5F51BF5F5F5F5ECECEC
310
ECECECECECECECECECECECECECECECECECECECECECECECECECECECECECECECECECECECECECECECECECECECECECECECECECECECECECECECECECECECECECECECECECECECECECECECECECECECECECECECECECECECECECECECECECECECECECECECECECECECECECECECECECECECECECECECECECECECECECECECECECECECF5ECECEC
310
ECF5F5F5F5F5F5F5F5F5F5F5F5F5F5F5F5F5F5F5F5F5F5F5F5F5F5F5F5F5F5F5ECECECECECECECECECECECECECECECF5F5F5F5F5F5F5ECECECECECECECECECECECECECECECECECF5F5F5F5F5F5F5F5F5F5F5F5F5F5F5F5ECECECECECECECECECECECF5ECECECECECECECECECECECECECECECECECECECECECECECECECECF5EC
310
ECECECECECECECECECECECECECECECECECECECECECECECECECECECECECECECECECECECECECECECECECECECECECECECECECECECECECECECECECECECECECECECECECECECECECECECECECECECECECECECECECECECECECECECECECECECECECECECECECECECECECECECECECECECECECECECECECECECECECECECECECECECECECF5EC
310
ECECECF5F5F5F5F5F5F5F5F5F5F5F5F5F5F5F5F5F5F5F5F5F5F5F5F5F5F5F5F5F5F5ECECECECECECECECECECECECECECECF5F5F5F5F5F5F5ECECECECECECECECECECECECECECECECECF5ECECECECECECECECECECECECECECECECECECECECECECECECECECF5EC15151515151515151515151515151515ECECECECECECECECEC
310
F5ECECECECECECECECECECECECECECECECECECECECECECECECECECECECECECECECECECECECECECECECECECECECECECECECECECECECECECECECECECECECECECECECECECECECECECECECECECECECECECECECECECECECECECECECECECECECECECECECECECECECECECECECECECECECECECECECECECECECECECECECECECECECECEC
310
F5ECECECECF5F5F5F5F5F5F5F5F5F5F5F5F5F5F5F5F5F5F5F5F5F5F5F5F5F5F5F5F5F5F5ECECECECECECECECECECECECECECECF5F5F5F5F5F5F5F5F5F5F5F5F5F5F5F5F5F5F5F5F5F5F5F5F5F5F5F5F5F5F5F5F5F5F5F5F5F5F5F5F5F5F5F5F5F5F5F5F5F5F5F5F5F5F5F5F5F5F5F5F5F5F5F5F5F5F5F5F5F5F5F5F5F5F5F5
310
F5F5F5ECECECECECECECECECECECECECECECECECECECECECECECECECECECECECECECECECECECECECECECECECECECECECECECECECECECECECECECECECECECECECECECECECECECECECECECECECECECECECECECECECECECECECECECECECECECECECECECECECECECECECECECECECECECECECECECECECECECECECECECECECECECEC
310
ECECF5ECECECECF5F5F5F5F5F5F5F5F5F5F5F5F5F5F5F5F5F5F5F5F5F5F5F5F5F5F5F5F5F5F5F5F5F5F5F5F5F5F5F5F5F5F5ECECECF5ECECECECECECECECECECECECECECECECECECECECECECECF5ECECECECECECECECECECECECECECECECECECECECECECECECECECECECECECECECECECF5ECECECF5ECECECECECECECECECEC
310
ECECECECF5ECECECECECECECECECECECECECECECECECECECECECECECECECECECECECECECECECECECECECECECECECECECECECECECECECECECECECECECECECECECECECECECECECECECECECECECECECECECECECECECECECECECECECECECECECECECECECECECECECECECECECECECECECECECECECECECECECECECECECECECECECEC
310
ECECECECF5ECECECECF5F5F5F5F5F5F5F5F5F5F5F5F5F5F5F5F5F5F5F5F5F5F5F5F5F5F5F5F5F5F5F5F5F5F5F5F5F5F5F5F5F5F5ECECECF5ECECECF5F5F5F5F5F5F5F5F5F5F5F5ECECECECECECECECF5ECECECECECF5F5F5F5F5F5F5F5F5F5ECECECECECECECECECECECECECECECECECECECF5ECF5F5F5F5F5ECECECECECEC
310
ECF5F5F5ECECF5ECECECECECECECECECECECECECECECECECECECECECECECECECECECECECECECECECECECECECECECECECECECECECECECECECECECECECECECECECECECECECECECECECECECECECECECECECECECECECECECECECECECECECECECECECECECECECECECECECECECECECECECECECECECECECECECECECECECECECECECEC
310
ECECECECECECF5ECECECECECECECECECECECECECECECECECECECECECECECECECECECECECECECECECECECECECECECECECECECECECECECECECECF5ECECECF5F5F5F5F5F5F5F5F5F5F5F5ECECECECECECECECF5ECECECECECF5F5F5F5F5F5F5F5F5F5ECECECECECECECECECECECECECECECECECECECF5ECF5F5F5F5F5F5ECECF5
310
F5F5F5ECECF5ECECF5ECECECECECECECECECECECECECECECECECECECECECECECECECECECECECECECECECECECECECECECECECECECECECECECECECECECECECECECECECECECECECECECECECECECECECECECECECECECECECECECECECECECECECECECECECECECECECECECECECECECECECECECECECECECECECECECECECECECECECEC
310
ECECECECECECECECF5ECF5F5F5F5F5F5F5F5ECECECECECECECECECECECECECECECECECECECECECECECECECECECECECECECECECECECECECECECECECF5ECECECF5F5F5F5F5F5F5F5F5F5F5F5ECECECECECECECECF5ECECECECECF5F5F5F5F5F5F5F5F5F5ECECECECECECECECECECECECECECECECECECECF5F5F5F5F5F5F5F5EC
310
F5F5F5F5F5F5F5F5ECECF5ECECECECECECECECECECECECECECECECECECECECECECECECECECECECECECECECECECECECECECECECECECECECECECECECECECECECECECECECECECECECECECECECECECECECECECECECECECECECECECECECECECECECECECECECECECECECECECECECECECECECECECECECECECECECECECECECECECECEC
310
ECECECECECECECECECECF5ECF5F5F5F5F5F5F5F5ECECECECECECECECECECECECECECECECECECECECECECECECECECECECECECECECECECECECECECECECECF5F5F5F5F5ECECECECECECECECECECECECECECECECECECECF5F5F5F5F5F5F5F5ECECECECECECECECECECECECECECECECECECECECECECECECECECECF5ECF5F5F5F5F5
310
F5ECECF5F5ECECECECF5ECECF5ECECECECECECECECECECECECECECECECECECECECECECECECECECECECECECECECECECECECECECECECECECECECECECECECECECECECECECECECECECECECECECECECECECECECECECECECECECECECECECECECECECECECECECECECECECECECECECECECECECECECECECECECECECECECECECECECECEC
310
ECECECECECECECECECECECECF5ECECECECECECECECECECECECECECECECECECECECECECECECECECECECECECECECECECECECECECECECECECECECECECECECECECF5F5F5F5F5ECECECECECECECECECECECECECECECECECECECF5F5F5F5F5F5F5F5ECECECECECECECECECECECECECECECECECECECECECECECECECECECF5ECF5F5F5
310
F5F5ECECECECECF5F5F5ECF5ECECF5ECECECECECECECECECECECECECECECECECECECECECECECECECECECECECECECECECECECECECECECECECECECECECECECECECECECECECECECECECECECECECECECECECECECECECECECECECECECECECECECECECECECECECECECECECECECECECECECECECECECECECECECECECECECECECECECEC
310
ECECECECECECECECECECECECECECF5ECECECECECECECECECECECECECECECECECECECECECECECECECECECECECECECECECECECECECECECECECECECECECECECECECECF5ECECECECECECECECECECECECECECECECECECECECECECECF5F5F5F5F5F5F5F5ECECECECECECECECECECECECECECECECECECECECECECECECECECECF5ECEC
310
ECF5F5ECECECECECECECECECF5F5ECECF5ECECECECECECECECECECECECECECECECECECECECECECECECECECECECECECECECECECECECECECECECECECECECECECECECECECECECECECECECECECECECECECECECECECECECECECECECECECECECECECECECECECECECECECECECECECECECECECECECECECECECECECECECECECECECECEC
310
ECECECECECECECECECECECECECECECECF5F5F5F5F5F5F5F5F5F5F5F5F5F5F5F5F5F5F5F5F5F5F5F5F5F5F5F5F5F5F5F5F5F5F5F5F5F5F5F5F5F5F5F5F5F5F5F5F5F5F5F5F5F5F5F5F5F5F5F5F5F5F5F5F5F5F5F5F5F5F5F5F5F5F5F5F5F5F5F5F5F5F5F5F5F5F5F5F5F5F5F5F5F5F5F5F5F5F5F5F5F5F5F5F5F5F5F5F5F5F5
310
F5F5F5F5F5F5F5F5F5F5F5F5F5F5F5F5F5F5F5ECECECECECECECECECECECECECECECECECECECECECECECECECECECECECECECECECECECECECECECECECECECECECECECECECECECECECECECECECECECECECECECECECECECECECECECECECECECECECECECECECECECECECECECECECECECECECECECECECECECECECECECECECECECEC
310
ECECECECECECECECECECECECECECECECECECF5ECECECECECECECECECECECECECECECECECECECECECECECECECECECECECECF5F5F5F5F5F5F5ECECECECECECECECECECECECECECECECECECECECECECECECECECECECECECECECECECECECF5F5F5F5ECECECECECECECECECECECECECECECECECECECECECECECECECECECECECECEC
310
ECECECECECECECECECECECECECECECECECECECECF5ECECECECECECECECECECECECECECECECECECECECECECECECECECECECECECECECECECECECECECECECECECECECECECECECECECECECECECECECECECECECECECECECECECECECECECECECECECECECECECECECECECECECECECECECECECECECECECECECECECECECECECECECECEC
310
ECECECECECECECECECECECECECECECECECECECECF5ECECECECECECECECECECECECECECECECECECECECECECECECECECECECECECF5F5F5F5F5F5F5ECECECECECECECECECECECECECECECECECECECECECECECECECECECECECECECECECECECECF5F5F5F5ECECECECECECECECECECECECECECECECECECECECECECECECECECECECEC
310
ECECECECECECECECECECECECECECECECECECECECECECF5ECECECECECECECECECECECECECECECECECECECECECECECECECECECECECECECECECECECECECECECECECECECECECECECECECECECECECECECECECECECECECECECECECECECECECECECECECECECECECECECECECECECECECECECECECECECECECECECECECECECECECECECEC
310
ECECECECECECECECECECECECECECECECECECECECECECF5ECECECECECECECECECECECECECECECECECECECECECECECECECECECECECECECECECF5ECECECECECECECECECECECECECECECECECECECECECECECECECECECECECECECECECECECECECECECECECECECECECECECECECECECECECECECECECECECECECECECECECECECECECEC
310
ECECECECECECECECECECECECECECECECECECECECECECECECF5ECECECECECECECECECECECECECECECECECECECECECECECECECECECECECECECECECECECECECECECECECECECECECECECECECECECECECECECECECECECECECECECECECECECECECECECECECECECECECECECECECECECECECECECECECECECECECECECECECECECECECEC
310
ECECECECECECECECECECECECECECECECECECECECECECECECF5ECECECECECECECECECECECECECECECECECECECECECECECECECECECECECECECECECF5ECECECECECECECECECECECECECECECECECECECECECECECECECECECECECECECECECECECECECECECECECECECECECECECECECECECECECECECECECECECECECECECECECECECEC
310
ECECECECECECECECECECECECECECECECECECECECECECECECECECF5ECECECECECECECECECECECECECECECECECECECECECECECECECECECECECECECECECECECECECECECECECECECECECECECECECECECECECECECECECECECECECECECECECECECECECECECECECECECECECECECECECECECECECECECECECECECECECECECECECECECEC
310
ECECECECECECECECECECECECECECECECECECECECECECECECECECF5ECECECECECECECECECECECECECECECECECECECECECECEFEFEFEFEFEFEFEFF5F5F5F5F5F5F5F5ECECECECECECECECECECECECECECECECECECECECECECECECECECECECECECF5F5F5F5F5F5F5F5F5F5F5F5F5ECECECECECECECECECECECECECECECECECECEC
310
ECECECECECECECECECECECECECECECECECECECECECECECECECECECECF5ECECECECECECECECECECECECECECECECECECECECECECECECECECECECECECECECECECECECECECECECECECECECECECECECECECECECECECECECECECECECECECECECECECECECECECECECECECECECECECECECECECECECECECECECECECECECECECECECECEC
310
ECECECECECECECECECECECECECECECECECECECECECECECECECECECECF5ECECECECECECECECECECECECECECECECECECECECECECEFEFEFEFEFECECF5F5F5F5F5F5F5ECF5ECECECECECECECECECECECECECECECECECECECECECECECECECECECECECECF5F5F5F5F5F5ECECF5F5ECECF5F5F5F5ECECECECECECECECECECECECECEC
310
ECECECECECECECECECECECECECECECECECECECECECECECECECECECECECECF5ECECECECECECECECECECECECECECECECECECECECECECECECECECECECECECECECECECECECECECECECECECECECECECECECECECECECECECECECECECECECECECECECECECECECECECECECECECECECECECECECECECECECECECECECECECECECECECECEC
310
ECECECECECECECECECECECECECECECECECECECECECECECECECECECECECECF5ECECECECECECECECECECECECECECECECECECECECECECEFEFEFEFECECECF5F5F5F5F5F5F5F5F5ECECECECECECECECECECECECECECECECECECECECECECECECECECECECECECF5F5F5ECF5ECECECF5F5ECECECF5ECF5F5ECECECECECECECECECECEC
310
ECECECECECECECECECECECECECECECECECECECECECECECECECECECECECECECECF5ECECECECECECECECECECECECECECECECECECECECECECECECECECECECECECECECECECECECECECECECECECECECECECECECECECECECECECECECECECECECECECECECECECECECECECECECECECECECECECECECECECECECECECECECECECECECECEC
310
ECECECECECECECECECECECECECECECECECECECECECECECECECECECECECECECECF5ECECECECECECECECECECECECECECECECECECECECECECEFEFEFEFECECF5F5F5F5F5F5F5F5F5F5EFEFEFEFECECECECECECECECECECECECECECECECECECECECECECECECECF5F5F5F5ECF5F5F5F5F5F5F5F5F5F5ECECECF5F5ECECECECECECEC
310
ECECECECECECECECECECECECECECECECECECECECECECECECECECECECECECECECECECF5ECECECECECECECECECECECECECECECECECECECECECECECECECECECECECECECECECECECECECECECECECECECECECECECECECECECECECECECECECECECECECECECECECECECECECECECECECECECECECECECECECECECECECECECECECECECEC
310
ECECECECECECECECECECECECECECECECECECECECECECECECECECECECECECECECECECF5ECECECECECECECECECECECECECECECECECECECECECECEFEFEFEFECECECF5F5F5F5F5F5F5F5F5ECECEFEFECECECECECECECECECECECECECECECECECECECECECECECECF5F5F5ECF5F5F5F5ECECF5F5ECECF5F5F5ECECECF5F5ECECECEC
310
ECECECECECECECECECECECECECECECECECECECECECECECECECECECECECECECECECECECECF5ECECECECECECECECECECECECECECECECECECECECECECECECECECECECECECECECECECECECECECECECECECECECECECECECECECECECECECECECECECECECECECECECECECECECECECECECECECECECECECECECECECECECECECECECECEC
310
ECECECECECECECECECECECECECECECECECECECECECECECECECECECECECECECECECECECECF5ECECECECECECECECECECECECECECECECECECECECECECEFECECEFEFECECF5F5F5F5F5F5F5F5F5ECECEFECECECECECECECECECECECECECECECECECECECECECECECECF5ECECF5F5F5F5F5ECECECF5F5ECECECF5F5F5F5F5F5F5F5EC
310
ECECECECECECECECECECECECECECECECECECECECECECECECECECECECECECECECECECECECECECF5ECECECECECECECECECECECECECECECECECECECECECECECECECECECECECECECECECECECECECECECECECECECECECECECECECECECECECECECECECECECECECECECECECECECECECECECECECECECECECECECECECECECECECECECEC
310
ECECECECECECECECECECECECECECECECECECECECECECECECECECECECECECECECECECECECECECF5ECECECECECECECECECECECECECECECECECECECECECECEFECECEFEFEFEFEFF5F5F5F5F5F5F5F5ECECEFECECECECECECECECECECECECECECECECECECECECECECECF5F5F5F5F5F5F5F5F5F5F5F5F5F5F5F5F5ECECECF5F5ECEC
310
F5F5ECECECECECECECECECECECECECECECECECECECECECECECECECECECECECECECECECECECECECECF5ECECECECECECECECECECECECECECECECECECECECECECECECECECECECECECECECECECECECECECECECECECECECECECECECECECECECECECECECECECECECECECECECECECECECECECECECECECECECECECECECECECECECECEC
310
ECECECECECECECECECECECECECECECECECECECECECECECECECECECECECECECECECECECECECECECECF5ECECECECECECECECECECECECECECECECECECECECECECEFECECEFEFECECF5ECECECF5ECECECF5ECECEFECECECECECECECECECECECECECECECECECECECECECECF5F5ECECF5F5ECECF5F5F5ECECECECECECF5F5ECECECF5
310
F5EFEFF5F5ECECECECECECECECECECECECECECECECECECECECECECECECECECECECECECECECECECECECECF5ECECECECECECECECECECECECECECECECECECECECECECECECECECECECECECECECECECECECECECECECECECECECECECECECECECECECECECECECECECECECECECECECECECECECECECECECECECECECECECECECECECECEC
310
ECECECECECECECECECECECECECECECECECECECECECECECECECECECECECECECECECECECECECECECECECECF5ECECECECECECECECECECECECECECECECECECECECECECEFECECEFECECECF5ECECECF5ECECECF5ECECEFECECECECECECECECECECECECECECECECECECECECECECF5ECECF5F5ECECF5F5ECECECECECECECECECECF5F5
310
ECECF5EFEFECF5ECECECECECECECECECECECECECECECECECECECECECECECECECECECECECECECECECECECECECF5ECECECECECECECECECECECECECECECECECECECECECECECECECECECECECECECECECECECECECECECECECECECECECECECECECECECECECECECECECECECECECECECECECECECECECECECECECECECECECECECECECEC
310
ECECECECECECECECECECECECECECECECECECECECECECECECECECECECECECECECECECECECECECECECECECECECF5ECECECECECECECECECECECECECECECECECECECECECECEFECECEFECECECF5ECECECECECECECF5ECECEFECECECECECECECECECECECECECECECECECECECECECF5F5ECF5EFEFEFF5F5ECECECECECECECECECECEC
310
ECF5F5EFEFF5ECECF5ECECECECECECECECECECECECECECECECECECECECECECECECECECECECECECECECECECECECECF5ECECECECECECECECECECECECECECECECECECECECECECECECECECECECECECECECECECECECECECECECECECECECECECECECECECECECECECECECECECECECECECECECECECECECECECECECECECECECECECECEC
310
ECECECECECECECECECECECECECECECECECECECECECECECECECECECECECECECECECECECECECECECECECECECECECECF5ECECECECECECECECECECECECECECECECECECECECECECEFECECEFECECECF5ECECECECECECECF5ECECEFECECECECECECECECECECECECECECECECECECECECECF5ECECF5F5EFEFF5ECECECECECECECECECEC
310
ECECECECEFECECF5F5ECF5F5ECECECECECECECECECECECECECECECECECECECECECECECECECECECECECECECECECECECECF5ECECECECECECECECECECECECECECECECECECECECECECECECECECECECECECECECECECECECECECECECECECECECECECECECECECECECECECECECECECECECECECECECECECECECECECECECECECECECECEC
310
ECECECECECECECECECECECECECECECECECECECECECECECECECECECECECECECECECECECECECECECECECECECECECECECECF5ECECECECECECECECECECECECECECECECECECECECECECEFECECEFECECECF5ECECECECECECECF5ECECEFECECECECECECECECECECECECECECECECECECECECF5F5ECECF5ECECF5EFEFECECECECECECEC
310
ECECECECEFEFF5F5ECECF5ECECF5ECECECECECECECECECECECECECECECECECECECECECECECECECECECECECECECECECECECECF5ECECECECECECECECECECECECECECECECECECECECECECECECECECECECECECECECECECECECECECECECECECECECECECECECECECECECECECECECECECECECECECECECECECECECECECECECECECECEC
310
ECECECECECECECECECECECECECECECECECECECECECECECECECECECECECECECECECECECECECECECECECECECECECECECECECECF5ECECECECECECECECECECECECECECECECECECECECECECEFECECEFECECECF5ECECECECECECECF5ECECEFECECECECECECECECECECECECECECECECECECECECF5F5ECF5F5ECF5F5ECECEFECECECEC
310
ECECECECECEFECECECF5ECECF5ECECF5ECECECECECECECECECECECECECECECECECECECECECECECECECECECECECECECECECECECECF5ECECECECECECECECECECECECECECECECECECECECECECECECECECECECECECECECECECECECECECECECECECECECECECECECECECECECECECECECECECECECECECECECECECECECECECECECECEC
310
ECECECECECECECECECECECECECECECECECECECECECECECECECECECECECECECECECECECECECECECECECECECECECECECECECECECECF5ECECECECECECECECECECECECECECECECECECECECEFEFEFEFEFEFECECECF5ECECECECECECECF5EFEFEFECECECECECECECECECECECECECECECECECECECECF5ECECF5ECECF5ECECECECEFEF
310
ECECECECECEFEFECECECECF5F5ECF5F5ECF5F5ECECECECECECECECECECECECECECECECECECECECECECECECECECECECECECECECECECECF5ECECECECECECECECECECECECECECECECECECECECECECECECECECECECECECECECECECECECECECECECECECECECECECECECECECECECECECECECECECECECECECECECECECECECECECECEC
310
ECECECECECECECECECECECECECECECECECECECECECECECECECECECECECECECECECECECECECECECECECECECECECECECECECECECECECECF5ECECECECECECECECECECECECECECECECECECECECEFEFEFEFEFEFECECECF5ECECECECECECECF5EFEFEFECECECECECECECECECECECECECECECECECECECECF5ECECF5ECECF5ECECECEC
310
ECECEFEFECECEFECECECECECECF5F5ECF5F5ECF5F5ECECECECECECECECECECECECECECECECECECECECECECECECECECECECECECECECECECECF5ECECECECECECECECECECECECECECECECECECECECECECECECECECECECECECECECECECECECECECECECECECECECECECECECECECECECECECECECECECECECECECECECECECECECECEC
310
ECECECECECECECECECECECECECECECECECECECECECECECECECECECECECECECECECECECECECECECECECECECECECECECECECECECECECECECECF5ECECECECECECECECECECECECECECECECECECECECEFEFEFEFEFEFECECECF5ECECECECECECECF5EFEFEFECECECECECECECECECECECECECECECECECECECECF5ECECF5ECECF5ECEC
310
ECECECECECECEFEFECECECECECECECECF5ECECF5ECF5F5ECECECECECECECECECECECECECECECECECECECECECECECECECECECECECECECECECECECF5ECECECECECECECECECECECECECECECECECECECECECECECECECECECECECECECECECECECECECECECECECECECECECECECECECECECECECECECECECECECECECECECECECECECEC
310
ECECECECECECECECECECECECECECECECECECECECECECECECECECECECECECECECECECECECECECECECECECECECECECECECECECECECECECECECECECF5ECECECECECECECECECECECECECECECECECECECECEFEFEFEFEFEFECECECF5ECECECECECECECF5EFEFEFECECECECECECECECECECECECECECECECECECECECF5ECECF5ECECF5
310
ECECECECECECECEFECEFEFECECECECECECF5F5ECECF5ECF5F5ECECECECECECECECECECECECECECECECECECECECECECECECECECECECECECECECECECECF5ECECECECECECECECECECECECECECECECECECECECECECECECECECECECECECECECECECECECECECECECECECECECECECECECECECECECECECECECECECECECECECECECECEC
310
ECECECECECECECECECECECECECECECECECECECECECECECECECECECECECECECECECECECECECECECECECECECECECECECECECECECECECECECECECECECECF5ECECECECECECECECECECECECECECECECECECECECECECEFECECEFECECECF5ECECECECECECECF5ECECEFECECECECECECECECECECECECECECECECECECECECF5ECECF5EC
310
ECF5ECECECECECEFEFECECECECEFECECECECECF5F5ECF5F5ECF5F5ECECECECECECECECECECECECECECECECECECECECECECECECECECECECECECECECECECECF5ECECECECECECECECECECECECECECECECECECECECECECECECECECECECECECECECECECECECECECECECECECECECECECECECECECECECECECECECECECECECECECECEC
310
ECECECECECECECECECECECECECECECECECECECECECECECECECECECECECECECECECECECECECECECECECECECECECECECECECECECECECECECECECECECECECECF5ECECECECECECECECECECECECECECECECECECECECECECEFECECEFECECECF5ECECECECECECECF5ECECEFECECECECECECECECECECECECECECECECECECECECF5ECEC
310
F5ECECF5F5ECECECEFECECECECECECECEFEFECECECF5ECECF5ECECF5F5ECECECECECECECECECECECECECECECECECECECECECECECECECECECECECECECECECECECF5ECECECECECECECECECECECECECECECECECECECECECECECECECECECECECECECECECECECECECECECECECECECECECECECECECECECECECECECECECECECECECEC
310
ECECECECECECECECECECECECECECECECECECECECECECECECECECECECECECECECECECECECECECECECECECECECECECECECECECECECECECECECECECECECECECECECF5ECECECECECECECECECECECECECECECECECECECECECECEFECECEFECECECF5ECECECECECECECF5ECECEFECECECECECECECECECECECECECECECECECECECECF5
310
F5ECF5F5ECECF5ECEFEFECECECECECECECECECECEFEFECF5ECECF5ECECF5ECECECECECECECECECECECECECECECECECECECECECECECECECECECECECECECECECECECECF5ECECECECECECECECECECECECECECECECECECECECECECECECECECECECECECECECECECECECECECECECECECECECECECECECECECECECECECECECECECECEC
310
ECECECECECECECECECECECECECECECECECECECECECECECECECECECECECECECECECECECECECECECECECECECECECECECECECECECECECECECECECECECECECECECECECECF5ECECECECECECECECECECECECECECECECECECECECECECEFECECEFECECECF5ECECECECECECECF5ECECEFECECECECECECECECECECECECECECECECECECEC
310
ECECF5ECECF5ECECF5EFECECECECECECECECECECECECECECEFF5ECF5F5ECECF5ECECECECECECECECECECECECECECECECECECECECECECECECECECECECECECECECECECECECF5ECECECECECECECECECECECECECECECECECECECECECECECECECECECECECECECECECECECECECECECECECECECECECECECECECECECECECECECECECEC
310
ECECECECECECECECECECECECECECECECECECECECECECECECECECECECECECECECECECECECECECECECECECECECECECECECECECECECECECECECECECECECECECECECECECECECF5ECECECECECECECECECECECECECECECECECECECECECECEFECECEFECECECF5ECECECECECECECF5ECECEFECECECECECECECECECECECECECECECECEC
310
ECECECECF5ECECF5F5EFEFF5F5ECECECECECECECECECECECECF5F5EFECF5ECECF5F5ECECECECECECECECECECECECECECECECECECECECECECECECECECECECECECECECECECECECF5ECECECECECECECECECECECECECECECECECECECECECECECECECECECECECECECECECECECECECECECECECECECECECECECECECECECECECECECEC
310
ECECECECECECECECECECECECECECECECECECECECECECECECECECECECECECECECECECECECECECECECECECECECECECECECECECECECECECECECECECECECECECECECECECECECECECF5ECECECECECECECECECECECECECECECECECECECECECECEFECECEFECECECF5ECECECECECECECF5ECECEFECECECECECECECECECECECECECECEC
310
ECECECECECECF5F5ECECEFECECF5F5ECECECECECECECECECECECF5F5ECECEFEFECECF5ECECECECECECECECECECECECECECECECECECECECECECECECECECECECECECECECECECECECECF5ECECECECECECECECECECECECECECECECECECECECECECECECECECECECECECECECECECECECECECECECECECECECECECECECECECECECECEC
310
ECECECECECECECECECECECECECECECECECECECECECECECECECECECECECECECECECECECECECECECECECECECECECECECECECECECECECECECECECECECECECECECECECECECECECECECECF5ECECECECECECECECECECECECECECECECECECECECECECEFECECEFEFECECEFECECECECECECECF5ECECEFECECECECECECECECECECECECEC
310
ECECECECECECECECECF5ECEFECF5ECECF5F5F5ECECECECECECECECF5F5ECECF5F5ECEFF5F5ECECECECECECECECECECECECECECECECECECECECECECECECECECECECECECECECECECECECECF5ECECECECECECECECECECECECECECECECECECECECECECECECECECECECECECECECECECECECECECECECECECECECECECECECECECECEC
310
ECECECECECECECECECECECECECECECECECECECECECECECECECECECECECECECECECECECECECECECECECECECECECECECECECECECECECECECECECECECECECECECECECECECECECECECECECECF5ECECECECECECECECECECECECECECECECECECECECECECEFECECEFEFEFEFEFEFF5F5F5F5EFF5F5ECECEFECECECECECECECECECECEC
310
ECECECECECECECECECECECECEFF5F5F5F5F5F5F5F5F5F5F5F5F5F5F5F5F5ECECF5F5ECECF5EFEFECECECECECECECECECECECECECECECECECECECECECECECECECECECECECECECECECECECECECF5ECECECECECECECECECECECECECECECECECECECECECECECECECECECECECECECECECECECECECECECECECECECECECECECECECEC
310
ECECECECECECECECECECECECECECECECECECECECECECECECECECECECECECECECECECECECECECECECECECECECECECECECECECECECECECECECECECECECECECECECECECECECECECECECECECECECF5ECECECECECECECECECECECECECECECECECECECECECECEFECECEFEFECECF5F5EFF5F5F5EFECF5ECECEFECECECECECECECECEC
310
ECECECECECECECECECECECECEFEFF5F5ECECF5F5ECECF5ECECF5F5F5F5ECECF5ECF5F5F5ECECF5F5ECEFECECECECECECECECECECECECECECECECECECECECECECECECECECECECECECECECECECECECF5ECECECECECECECECECECECECECECECECECECECECECECECECECECECECECECECECECECECECECECECECECECECECECECECEC
310
ECECECECECECECECECECECECECECECECECECECECECECECECECECECECECECECECECECECECECECECECECECECECECECECECECECECECECECECECECECECECECECECECECECECECECECECECECECECECECECF5ECECECECECECECECECECECECECECECECECECECECECECEFEFEFEFEFECECF5F5F5EFF5EFF5F5F5ECECEFEFECECECECECEC
310
ECECECECECECECECECECECECECEFECECECF5F5ECF5F5F5F5F5ECECECF5F5ECECECF5F5F5F5F5F5F5F5ECECECEFEFECECECECECECECECECECECECECECECECECECECECECECECECECECECECECECECECECECF5ECECECECECECECECECECECECECECECECECECECECECECECECECECECECECECECECECECECECECECECECECECECECECEC
310
ECECECECECECECECECECECECECECECECECECECECECECECECECECECECECECECECECECECECECECECECECECECECECECECECECECECECECECECECECECECECECECECECECECECECECECECECECECECECECECECECF5ECECECECECECECECECECECECECECECECECECECECECECEFEFEFEFECECECF5F5F5F5EFF5F5EFEFEFEFEFEFECECECEC
310
ECECECECECECECECEFEFEFEFEFEFEFECECECECECF5F5F5F5F5F5F5F5F5F5F5F5F5F5F5F5ECECECF5F5ECECECECECECECEFEFEFEFEFEFEFECECECECECECECECECECECECECECECECECECECECECECECECECECECF5ECECECECECECECECECECECECECECECECECECECECECECECECECECECECECECECECECECECECECECECECECECECEC
310
ECECECECECECECECECECECECECECECECECECECECECECECECECECECECECECECECECECECECECECECECECECECECECECECECECECECECECECECECECECECECECECECECECECECECECECECECECECECECECECECECECECF5ECECECECECECECECECECECECECECECECECECECECECECEFEFEFEFECECECF5F5F5F5EFF5F5F5F5ECECECECECEC
310
ECECECECECECECECECECEFEFEFEFEFEFECECECECECECECECF5F5F5ECF5ECECF5F5F5F5ECECF5ECECF5F5ECECECECECECECECEFEFEFEFEFEFECECECECECECECECECECECECECECECECECECECECECECECECECECECECF5ECECECECECECECECECECECECECECECECECECECECECECECECECECECECECECECECECECECECECECECECECEC
310
ECECECECECECECECECECECECECECECECECECECECECECECECECECECECECECECECECECECECECECECECECECECECECECECECECECECECECECECECECECECECECECECECECECECECECECECECECECECECECECECECECECECECF5ECECECECECECECECECECECECECECECECECECECECECECEFECECEFEFECECF5F5F5EFF5EFF5F5F5ECECECEC
310
ECECECECECECECECECECECECECECECECECECECECECECECECECECF5F5F5F5F5ECECECF5F5ECECECF5F5F5ECECECECECECECECECECECECECECECECECECECECECECECECECECECECECECECECECECECECECECECECECECECECF5ECECECECECECECECECECECECECECECECECECECECECECECECECECECECECECECECECECECECECECECEC
310
ECECECECECECECECECECECECECECECECECECECECECECECECECECECECECECECECECECECECECECECECECECECECECECECECECECECECECECECECECECECECECECECECECECECECECECECECECECECECECECECECECECECECECECF5ECECECECECECECECECECECECECECECECECECECECECECEFECECEFEFECECF5F5EFF5F5F5EFEFF5ECEC
310
ECECECECECECECECECECECECECECECECECECECECECECECECECECECECF5F5F5F5F5F5F5F5F5F5F5F5F5F5F5ECECECECECECECECECECECECECECECECECECECECECECECECECECECECECECECECECECECECECECECECECECECECECF5ECECECECECECECECECECECECECECECECECECECECECECECECECECECECECECECECECECECECECEC
310
ECECECECECECECECECECECECECECECECECECECECECECECECECECECECECECECECECECECECECECECECECECECECECECECECECECECECECECECECECECECECECECECECECECECECECECECECECECECECECECECECECECECECECECECECF5ECECECECECECECECECECECECECECECECECECECECECECEFEFEFEFEFEFEFEFEFF5F5F5F5EFEFF5
310
ECECECECECECECECECECECECECECECECECECECECECECECECECECECECECECECECECECECECECECF5F5ECECECECECECECECECECECECECECECECECECECECECECECECECECECECECECECECECECECECECECECECECECECECECECECECECECF5ECECECECECECECECECECECECECECECECECECECECECECECECECECECECECECECECECECECEC
310
ECECECECECECECECECECECECECECECECECECECECECECECECECECECECECECECECECECECECECECECECECECECECECECECECECECECECECECECECECECECECECECECECECECECECECECECECECECECECECECECECECECECECECECECECECECF5ECECECECECECECECECECECECECECECECECECECECECECECEFEFEFEFEFEFEFECECECECECEC
310
ECEFEFEFEFEFEFEFECECECECECECECECECECECECECECECECECECECECECECECECECECECECECECECECECECECECECECECECECECECECECECECECECECECECECECECECECECECECECECECECECECECECECECECECECECECECECECECECECECECECF5ECECECECECECECECECECECECECECECECECECECECECECECECECECECECECECECECECEC
310
ECECECECECECECECECECECECECECECECECECECECECECECECECECECECECECECECECECECECECECECECECECECECECECECECECECECECECECECECECECECECECECECECECECECECECECECECECECECECECECECECECECECECECECECECECECECECF5ECECECECECECECECECECECECECECECECECECECECECECECEFEFEFEFEFEFECECECECEC
310
ECECECEFEFEFEFEFEFECECECECECECECECECECECECECECECECECECECECECECECECECECECECECECECECECECECECECECECECECECECECECECECECECECECECECECECECECECECECECECECECECECECECECECECECECECECECECECECECECECECECECF5ECECECECECECECECECECECECECECECECECECECECECECECECECECECECECECECEC
310
ECECECECECECECECECECECECECECECECECECECECECECECECECECECECECECECECECECECECECECECECECECECECECECECECECECECECECECECECECECECECECECECECECECECECECECECECECECECECECECECECECECECECECECECECECECECECECECF5ECECECECECECECECECECECECECECECECECECECECECECECEFEFEFEFEFEFECECEC
310
ECECECECECEFEFEFEFEFEFECECECECECECECECECECECECECECECECECECECECECECECECECECECECECECECECECECECECECECECECECECECECECECECECECECECECECECECECECECECECECECECECECECECECECECECECECECECECECECECECECECECECECF5ECECECECECECECECECECECECECECECECECECECECECECECECECECECECECEC
310
ECECECECECECECECECECECECECECECECECECECECECECECECECECECECECECECECECECECECECECECECECECECECECECECECECECECECECECECECECECECECECECECECECECECECECECECECECECECECECECECECECECECECECECECECECECECECECECECECF5ECECECECECECECECECECECECECECECECECECECECECECECECECECECECECEC
310
ECECECECECECECECECECECECECECECECECECECECECECECECECECECECECECECECECECECECECECECECECECECECECECECECECECECECECECECECECECECECECECECECECECECECECECECECECECECECECECECECECECECECECECECECECECECECECECECECECECF5ECECECECECECECECECECECECECECECECECECECECECECECECECECECEC
310
ECECECECECECECECECECECECECECECECECECECECECECECECECECECECECECECECECECECECECECECECECECECECECECECECECECECECECECECECECECECECECECECECECECECECECECECECECECECECECECECECECECECECECECECECECECECECECECECECECECF5ECECECECECECECECECECECECECECECECECECECECECECECECECECECEC
310
ECECF5F5F5F5ECECECECECECECECECECECECECECECECECECECECECECECECECECECECECECECECECECECECECECECECECECECECECECECECECECECECECECECECECECECECECECECECECECECECECECECECECECECECECECECECECECECECECECECECECECECECECECF5ECECECECECECECECECECECECECECECECECECECECECECECECECEC
310
ECECECECECECECECECECECECECECECECECECECECECECECECECECECECECECECECECECECECECECECECECECECECECECECECECECECECECECECECECECECECECECECECECECECECECECECECECECECECECECECECECECECECECECECECECECECECECECECECECECECECF5ECECECECECECECECECECECECECECECECECECECECECECECECECEC
310
ECECECECF5F5F5F5ECECECECECECECECECECECECECECECECECECECECECECECECECECECECECECECECECECECECECECECECECECECECECECECECECECECECECECECECECECECECECECECECECECECECECECECECECECECECECECECECECECECECECECECECECECECECECECF5ECECECECECECECECECECECECECECECECECECECECECECECEC
310
ECECECECECECECECECECECECECECECECECECECECECECECECECECECECECECECECECECECECECECECECECECECECECECECECECECECECECECECECECECECECECECECECECECECECECECECECECECECECECECECECECECECECECECECECECECECECECECECECECECECECECECF5ECECECECECECECECECECECECECECECECECECECECECECECEC
310
ECECECECECECF5F5F5F5ECECECECECECECECECECECECECECECECECECECECECECECECECECECECECECECECECECECECECECECECECECECECECECECECECECECECECECECECECECECECECECECECECECECECECECECECECECECECECECECECECECECECECECECECECECECECECECF5ECECECECECECECECECECECECECECECECECECECECECEC
310
ECECECECECECECECECECECECECECECECECECECECECECECECECECECECECECECECECECECECECECECECECECECECECECECECECECECECECECECECECECECECECECECECECECECECECECECECECECECECECECECECECECECECECECECECECECECECECECECECECECECECECECECECF5ECECECECECECECECECECECECECECECECECECECECECEC
310
ECECECECECECECEFEFECECECECECEFEFECECECECECECECECECECECECECECECECECECECECECECECECECECECECECECECECECECECECECECECECECECECECECECECECECECECECECECECECECECECECECECECECECECECECECECECECECECECECECECECECECECECECECECECECECECF5ECECECECECECECECECECECECECECECECECECECEC
310
ECECECECECECECECECECECECECECECECECECECECECECECECECECECECECECECECECECECECECECECECECECECECECECECECECECECECECECECECECECECECECECECECECECECECECECECECECECECECECECECECECECECECECECECECECECECECECECECECECECECECECECECECECECF5ECECECECECECECECECECECECECECECECECECECEC
310
ECECECECECECECECECEFEFEFEFEFEFEFEFEFECECECECECECECECECECECECECECECECECECECECECECECECECECECECECECECECECECECECECECECECECECECECECECECECECECECECECECECECECECECECECECECECECECECECECECECECECECECECECECECECECECECECECECECECECECF5ECECECECECECECECECECECECECECECECECEC
310
ECECECECECECECECECECECECECECECECECECECECECECECECECECECECECECECECECECECECECECECECECECECECECECECECECECECECECECECECECECECECECECECECECECECECECECECECECECECECECECECECECECECECECECECECECECECECECECECECECECECECECECECECECECECECF5ECECECECECECECECECECECECECECECECECEC
310
ECECECECECECECECECECECEFEFEFEFEFEFECEFEFECECECECECECECECECECECECECECECECECECECECECECECECECECECECECECECECECECECF5F5F5ECECECECECECECECECECECECECECECECECECECECECECECECECECECECECECECECECECECECECECECECECECECECECECECECECECECECF5ECECECECECECECECECECECECECECECEC
310
ECECECECECECECECECECECECECECECECECECECECECECECECECECECECECECECECECECECECECECECECECECECECECECECECECECECECECECECECECECECECECECECECECECECECECECECECECECECECECECECECECECECECECECECECECECECECECECECECECECECECECECECECECECECECECECF5ECECECECECECECECECECECECECECECEC
310
ECECECECECECECECECECECECECEFEFEFEFEFEFEFEFEFECECECECECECECECECECECECECECECECECECECECECECECECECECECECECECECECECECF5F5F5F5F5F5F5F5F5F5ECECECECECECECECECECECECECECECECECECECECECECECECECECECECECECECECECECECECECECECECECECECECECECF5ECECECECECECECECECECECECECEC
310
ECECECECECECECECECECECECECECECECECECECECECECECECECECECECECECECECECECECECECECECECECECECECECECECECECECECECECECECECECECECECECECECECECECECECECECECECECECECECECECECECECECECECECECECECECECECECECECECECECECECECECECECECECECECECECECECECF5ECECECECECECECECECECECECECEC
310
ECECECECECECECECECECECECECECECEFECEFEFEFEFECECEFECECECECECECECECECECECECECECECECECECECECECECECECECECECECECECECECECECF5F5F5F5ECECECECECF5F5F5ECECECECECECECECECECECECECECECECECECECECECECECECECECECECECECECECECECECECECECECECECECECECF5ECECECECECECECECECECECEC
310
ECECECECECECECECECECECECECECECECECECECECECECECECECECECECECECECECECECECECECECECECECECECECECECECECECECECECECECECECECECECECECECECECECECECECECECECECECECECECECECECECECECECECECECECECECECECECECECECECECECECECECECECECECECECECECECECECECECF5ECECECECECECECECECECECEC
310
ECECECECECECECECECECECECECEFEFEFEFEFF5F5F5F5F5F5F5EFECECECECECECECECECECECECECECECECECECECECECECECECECECECECECECECECECF5F5F5ECECECF5F5F5F5ECF5F5F5ECECECECECECECECECECECECECECECECECECECECECECECECECECECECECECECECECECECECECECECECECECECF5ECECECECECECECECECEC
310
ECECECECECECECECECECECECECECECECECECECECECECECECECECECECECECECECECECECECECECECECECECECECECECECECECECECECECECECECECECECECECECECECECECECECECECECECECECECECECECECECECECECECECECECECECECECECECECECECECECECECECECECECECECECECECECECECECECECECF5ECECECECECECECECECEC
310
ECECECECECECECECECECECECECECECEFEFECECF5ECECECECECECECF5ECECECECECECECECECECECECECECECECECECECECECECECECECECECECECECECF5F5F5F5F5ECF5F5F5ECECF5F5F5F5ECF5ECECECECECECECECECECECECECECECECECECECECECECECECECECECECECECECECECECECECECECECECECECF5ECECECECECECECEC
310
ECECECECECECECECECECECECECECECECECECECECECECECECECECECECECECECECECECECECECECECECECECECECECECECECECECECECECECECECECECECECECECECECECECECECECECECECECECECECECECECECECECECECECECECECECECECECECECECECECECECECECECECECECECECECECECECECECECECECECECF5ECECECECECECECEC
310
ECECECECECECECECECECECECECECECECECEFECECECF5ECECECECECECECF5ECECECECECECECECECECECECECECECECECECECECECECECECECECECECECECF5F5ECECF5ECECF5ECECECECECECF5F5F5ECF5ECECECECECECECECECECECECECECECECECECECECECECECECECECECECECECECECECECECECECECECECECF5ECECECECECEC
310
ECECECECECECECECECECECECECECECECECECECECECECECECECECECECECECECECECECECECECECECECECECECECECECECECECECECECECECECECECECECECECECECECECECECECECECECECECECECECECECECECECECECECECECECECECECECECECECECECECECECECECECECECECECECECECECECECECECECECECECECECF5ECECECECECEC
310
ECECECECECECECECECECECECECECECECECECECEFECECECF5ECF5F5F5F5F5ECF5ECECECECECECECECECECECECECECECECECECECECECECECECECECECECECF5F5ECECF5F5ECF5F5ECF5F5F5F5F5F5F5F5F5ECF5ECECECECECECECECECECECECECECECECECECECECECECECECECECECECECECECECECECECECECECECECF5ECECECEC
310
ECECECECECECECECECECECECECECECECECECECECECECECECECECECECECECECECECECECECECECECECECECECECECECECECECECECECECECECECECECECECECECECECECECECECECECECECECECECECECECECECECECECECECECECECECECECECECECECECECECECECECECECECECECECECECECECECECECECECECECECECECECF5ECECECEC
310
ECECECECECECECECECECECECECECECECECECECECECEFECECECF5F5F5ECECECF5F5F5ECECECECECECECECECECECECECECECECECECECECECECECECECECECECECF5ECECECF5F5ECF5ECECF5F5ECECF5F5F5ECF5F5F5F5ECECECECECECECECECECECECECECECECECECECECECECECECECECECECECECECECECECECECECECECF5ECEC
310
ECECECECECECECECECECECECECECECECECECECECECECECECECECECECECECECECECECECECECECECECECECECECECECECECECECECECECECECECECECECECECECECECECECECECECECECECECECECECECECECECECECECECECECECECECECECECECECECECECECECECECECECECECECECECECECECECECECECECECECECECECECECECF5ECEC
310
ECECECECECECECECECECECECECECECECECECECECECEFEFEFECECECF5F5ECECECECECF5F5ECECECECECECECECECECECECECECECECECECECECECECECECECECECECF5ECECECECF5F5ECF5ECF5F5ECF5F5F5F5F5F5ECF5F5F5F5ECECECECECECECECECECECECECECECECECECECECECECECECECECECECECECECECECECECECECECF5
310
ECECECECECECECECECECECECECECECECECECECECECECECECECECECECECECECECECECECECECECECECECECECECECECECECECECECECECECECECECECECECECECECECECECECECECECECECECECECECECECECECECECECECECECECECECECECECECECECECECECECECECECECECECECECECECECECECECECECECECECECECECECECECECECF5
310
ECECECECECECECECECECECECECECECECECECECECECECECEFEFEFECECECF5F5F5F5F5F5F5F5F5ECECECECECECECECECECECECECECECECECECECECECECECECECECECECF5ECECECECF5F5ECF5ECF5F5F5F5F5ECECECF5F5ECF5ECF5ECECECECECECECECECECECECECECECECECECECECECECECECECECECECECECECECECECECECEC
310
ECF5ECECECECECECECECECECECECECECECECECECECECECECECECECECECECECECECECECECECECECECECECECECECECECECECECECECECECECECECECECECECECECECECECECECECECECECECECECECECECECECECECECECECECECECECECECECECECECECECECECECECECECECECECECECECECECECECECECECECECECECECECECECECECEC
310
ECF5ECECECECECECECECECECECECECECECECECECECECECECECEFEFEFECECECF5F5F5F5F5F5F5F5F5ECECECECECECECECECECECECECECECECECECECECECECECECECECECECF5ECECECECF5F5ECF5ECF5F5F5F5ECECECECECF5F5ECF5ECF5ECECECECECECECECECECECECECECECECECECECECECECECECECECECECECECECECECEC
310
ECECECF5ECECECECECECECECECECECECECECECECECECECECECECECECECECECECECECECECECECECECECECECECECECECECECECECECECECECECECECECECECECECECECECECECECECECECECECECECECECECECECECECECECECECECECECECECECECECECECECECECECECECECECECECECECECECECECECECECECECECECECECECECECECEC
310
ECECECF5ECECECECECECECECECECECECECECECECECECECECECECECEFEFEFECECECF5F5F5F5ECF5F5F5F5ECECECECECECECECECECECECECECECECECECECECECECECECECECECECF5ECECECECF5F5ECF5ECF5F5F5ECECECECECECECF5F5F5F5F5ECECECECECECECECECECECECECECECECECECECECECECECECECECECECECECECEC
310
ECECECECECF5ECECECECECECECECECECECECECECECECECECECECECECECECECECECECECECECECECECECECECECECECECECECECECECECECECECECECECECECECECECECECECECECECECECECECECECECECECECECECECECECECECECECECECECECECECECECECECECECECECECECECECECECECECECECECECECECECECECECECECECECECEC
310
ECECECECECF5ECECECECECECECECECECECECECECECECECECECECECECECECECEFECECECF5F5F5F5F5F5F5F5F5ECECECECECECECECECECECECECECECECECECECECECECECECECECECECF5ECECECECECF5ECF5ECF5ECECF5ECECECECECECECF5ECF5ECF5ECECECECECECECECECECECECECECECECECECECECECECECECECECECECEC
310
ECECECECECECECF5ECECECECECECECECECECECECECECECECECECECECECECECECECECECECECECECECECECECECECECECECECECECECECECECECECECECECECECECECECECECECECECECECECECECECECECECECECECECECECECECECECECECECECECECECECECECECECECECECECECECECECECECECECECECECECECECECECECECECECECEC
310
ECECECECECECECF5ECECECECECECECECECECECECECECECECECECECECECECECECECEFECECECF5F5ECECECECF5F5F5ECECECECECECECECECECECECECECECECECECECECECECECECECECECECF5ECECECECECF5ECF5ECF5ECECECF5ECECECECECECF5F5F5F5F5F5ECECECECECECECECECECECECECECECECECECECECECECECECECEC
310
ECECECECECECECECECF5ECECECECECECECECECECECECECECECECECECECECECECECECECECECECECECECECECECECECECECECECECECECECECECECECECECECECECECECECECECECECECECECECECECECECECECECECECECECECECECECECECECECECECECECECECECECECECECECECECECECECECECECECECECECECECECECECECECECECEC
310
ECECECECECECECECECF5ECECECECECECECECECECECECECECECECECECECECECECECECECEFECECECF5F5F5F5F5F5F5F5F5ECECECECECECECECECECECECECECECECECECECECECECECECECECECECF5ECECECECECF5F5F5F5F5ECECECF5F5ECECECECECECF5ECF5ECF5ECECECECECECECECECECECECECECECECECECECECECECECEC
310
ECECECECECECECECECECECF5ECECECECECECECECECECECECECECECECECECECECECECECECECECECECECECECECECECECECECECECECECECECECECECECECECECECECECECECECECECECECECECECECECECECECECECECECECECECECECECECECECECECECECECECECECECECECECECECECECECECECECECECECECECECECECECECECECECEC
310
ECECECECECECECECECECECF5ECECECECECECECECECECECECECECECECECECECECECECECECECEFECECECF5ECECECECECECECF5ECECECECECECECECECECECECECECECECECECECECECECECECECECECECF5ECECECECECECF5ECF5ECF5ECECECF5F5ECECECECECF5F5F5ECF5ECECECECECECECECECECECECECECECECECECECECECEC
310
ECECECECECECECECECECECECECF5ECECECECECECECECECECECECECECECECECECECECECECECECECECECECECECECECECECECECECECECECECECECECECECECECECECECECECECECECECECECECECECECECECECECECECECECECECECECECECECECECECECECECECECECECECECECECECECECECECECECECECECECECECECECECECECECECEC
310
ECECECECECECECECECECECECECF5ECECECECECECECECECECECECECECECECECECECECECECECECECEFECECECF5ECECECECECECECF5ECECECECECECECECECECECECECECECECECECECECECECECECECECECECF5F5ECECECECECF5ECF5ECF5ECECECECF5ECECECECECF5F5F5F5F5ECECECECECECECECECECECECECECECECECECECEC
310
ECECECECECECECECECECECECECECECF5ECECECECECECECECECECECECECECECECECECECECECECECECECECECECECECECECECECECECECECECECECECECECECECECECECECECECECECECECECECECECECECECECECECECECECECECECECECECECECECECECECECECECECECECECECECECECECECECECECECECECECECECECECECECECECECEC
310
ECECECECECECECECECECECECECECECF5ECECECECECECECECECECECECECECECECECECECECECECECEFEFEFEFECECF5ECECECECECECECF5ECECECECECECECECECECECECECECECECECECECECECECECECECECECECECF5ECECECECECF5F5F5F5F5F5ECECECF5ECECECECECECF5ECF5ECF5ECECECECECECECECECECECECECECECECEC
310
ECECECECECECECECECECECECECECECECECF5ECECECECECECECECECECECECECECECECECECECECECECECECECECECECECECECECECECECECECECECECECECECECECECECECECECECECECECECECECECECECECECECECECECECECECECECECECECECECECECECECECECECECECECECECECECECECECECECECECECECECECECECECECECECECEC
310
ECECECECECECECECECECECECECECECECECF5ECECECECECECECECECECECECECECECECECECECECECECECEFEFEFEFEFEFEFF5F5F5F5F5F5F5F5ECECECECECECECECECECECECECECECECECECECECECECECECECECECECECF5ECECF5F5F5F5F5F5F5ECF5ECECECECF5ECECECECECF5ECF5ECF5ECECECECECECECECECECECECECECEC
310
ECECECECECECECECECECECECECECECECECECECF5ECECECECECECECECECECECECECECECECECECECECECECECECECECECECECECECECECECECECECECECECECECECECECECECECECECECECECECECECECECECECECECECECECECECECECECECECECECECECECECECECECECECECECECECECECECECECECECECECECECECECECECECECECECEC
310
ECECECECECECECECECECECECECECECECECECECF5ECECECECECECECECECECECECECECECECECECECECECECECEFEFEFEFEFEFEFF5F5F5F5F5F5F5F5ECECECECECECECECECECECECECECECECECECECECECECECECECECECECECF5F5ECF5ECECF5F5F5ECF5ECF5ECECECF5ECECECECECF5ECF5ECF5ECECECECECECECECECECECECEC
310
ECECECECECECECECECECECECECECECECECECECECECF5ECECECECECECECECECECECECECECECECECECECECECECECECECECECECECECECECECECECECECECECECECECECECECECECECECECECECECECECECECECECECECECECECECECECECECECECECECECECECECECECECECECECECECECECECECECECECECECECECECECECECECECECECEC
310
ECECECECECECECECECECECECECECECECECECECECECF5ECECECECECECECECECECECECECECECECECECECECECECECEFEFEFEFECECF5ECECECECECECECF5ECECECECECECECECECECECECECECECECECECECECECECECECECECECECECECF5F5F5ECECF5F5F5F5F5F5F5F5ECECF5ECECECECF5F5ECF5ECF5ECECECECECECECECECECEC
310
ECECECECECECECECECECECECECECECECECECECECECECECF5ECECECECECECECECECECECECECECECECECECECECECECECECECECECECECECECECECECECECECECECECECECECECECECECECECECECECECECECECECECECECECECECECECECECECECECECECECECECECECECECECECECECECECECECECECECECECECECECECECECECECECECEC
310
ECECECECECECECECECECECECECECECECECECECECECECECF5ECECECECECECECECECECECECECECECECECECECECECECECECECEFECECECF5ECECECECECECECF5ECECECECECECECECECECECECECECECECECECECECECECECECECECECECECECF5F5F5ECF5F5F5F5F5ECF5F5F5F5ECF5ECECECECF5F5ECF5ECF5ECECECECECECECECEC
310
ECECECECECECECECECECECECECECECECECECECECECECECECECF5ECECECECECECECECECECECECECECECECECECECECECECECECECECECECECECECECECECECECECECECECECECECECECECECECECECECECECECECECECECECECECECECECECECECECECECECECECECECECECECECECECECECECECECECECECECECECECECECECECECECECEC
310
ECECECECECECECECECECECECECECECECECECECECECECECECECF5ECECECECECECECECECECECECECECECECECECECECECECECECECEFECECECF5ECECECECECECECF5ECECECECECECECECECECECECECECECECECECECECECECECECECECECECECECECF5F5ECF5F5F5F5F5F5ECF5F5F5F5F5ECECECF5F5ECECF5ECF5ECECECECECECEC
310
ECECECECECECECECECECECECECECECECECECECECECECECECECECECF5ECECECECECECECECECECECECECECECECECECECECECECECECECECECECECECECECECECECECECECECECECECECECECECECECECECECECECECECECECECECECECECECECECECECECECECECECECECECECECECECECECECECECECECECECECECECECECECECECECECEC
310
ECECECECECECECECECECECECECECECECECECECECECECECECECECECF5ECECECECECECECECECECECECECECECECECECECECECECECECECEFECECECF5ECF5F5F5F5F5ECF5ECECECECECECECECECECECECECECECECECECECECECECECECECECECECECECECECF5F5F5ECF5F5F5F5F5ECF5F5F5F5F5F5F5F5ECECF5F5ECF5ECECECECEC
310
ECECECECECECECECECECECECECECECECECECECECECECECECECECECECECF5ECECECECECECECECECECECECECECECECECECECECECECECECECECECECECECECECECECECECECECECECECECECECECECECECECECECECECECECECECECECECECECECECECECECECECECECECECECECECECECECECECECECECECECECECECECECECECECECECEC
310
ECECECECECECECECECECECECECECECECECECECECECECECECECECECECECF5ECECECECECECECECECECECECECECECECECECECECECECECECECEFECECECF5ECF5ECECECF5ECF5ECECECECECECECECECECECECECECECECECECECECECECECECECECECECECECECECF5F5ECF5F5F5ECF5F5F5ECF5F5F5ECECECECECF5F5ECECF5ECECEC
310
ECECECECECECECECECECECECECECECECECECECECECECECECECECECECECECECF5ECECECECECECECECECECECECECECECECECECECECECECECECECECECECECECECECECECECECECECECECECECECECECECECECECECECECECECECECECECECECECECECECECECECECECECECECECECECECECECECECECECECECECECECECECECECECECECEC
310
ECECECECECECECECECECECECECECECECECECECECECECECECECECECECECECECF5ECECECECECECECECECECECECECECECECECECECECECECECEFEFEFECECECF5ECF5F5F5ECF5ECF5ECECECECECECECECECECECECECECECECECECECECECECECECECECECECECECECECECF5F5F5F5ECECF5ECF5F5ECF5F5F5F5ECF5F5F5ECECF5ECEC
310
ECECECECECECECECECECECECECECECECECECECECECECECECECECECECECECECECECF5ECECECECECECECECECECECECECECECECECECECECECECECECECECECECECECECECECECECECECECECECECECECECECECECECECECECECECECECECECECECECECECECECECECECECECECECECECECECECECECECECECECECECECECECECECECECECEC
310
ECECECECECECECECECECECECECECECECECECECECECECECECECECECECECECECECECF5ECECECECECECECECECECECECECECECECECECECECECECECEFEFEFECECECF5ECF5F5ECF5F5ECF5ECECECECECECECECECECECECECECECECECECECECECECECECECECECECECECECECECF5F5F5F5ECECF5F5ECF5F5F5F5ECF5F5F5F5ECECF5F5
310
ECECECECECECECECECECECECECECECECECECECECECECECECECECECECECECECECECECECF5ECECECECECECECECECECECECECECECECECECECECECECECECECECECECECECECECECECECECECECECECECECECECECECECECECECECECECECECECECECECECECECECECECECECECECECECECECECECECECECECECECECECECECECECECECECEC
310
ECECECECECECECECECECECECECECECECECECECECECECECECECECECECECECECECECECECF5ECECECECECECECECECECECECECECECECECECECECECECECEFEFEFECECECF5ECF5ECECF5F5ECF5ECECECECECECECECECECECECECECECECECECECECECECECECECECECECECECECECECECF5F5F5F5F5F5ECECECF5F5F5ECECECECECECF5
310
F5ECECECECECECECECECECECECECECECECECECECECECECECECECECECECECECECECECECECECF5ECECECECECECECECECECECECECECECECECECECECECECECECECECECECECECECECECECECECECECECECECECECECECECECECECECECECECECECECECECECECECECECECECECECECECECECECECECECECECECECECECECECECECECECECEC
310
ECECECECECECECECECECECECECECECECECECECECECECECECECECECECECECECECECECECECECF5ECECECECECECECECECECECECECECECECECECECECECECECEFEFEFECECECF5F5F5F5F5F5F5F5F5ECECECECECECECECECECECECECECECECECECECECECECECECECECECECECECECECECECECF5F5ECECECECF5F5F5F5F5F5F5F5F5F5
310
F5F5ECECECECECECECECECECECECECECECECECECECECECECECECECECECECECECECECECECECECECF5ECECECECECECECECECECECECECECECECECECECECECECECECECECECECECECECECECECECECECECECECECECECECECECECECECECECECECECECECECECECECECECECECECECECECECECECECECECECECECECECECECECECECECECEC
310
ECECECECECECECECECECECECECECECECECECECECECECECECECECECECECECECECECECECECECECECF5ECECECECECECECECECECECECECECECECECECECECECECECECECEFECECECF5ECF5F5ECF5ECECF5ECECECECECECECECECECECECECECECECECECECECECECECECECECECECECECECECECECECECF5F5ECF5F5F5F5ECECECECECF5
310
F5F5F5ECECECECECECECECECECECECECECECECECECECECECECECECECECECECECECECECECECECECECECF5ECECECECECECECECECECECECECECECECECECECECECECECECECECECECECECECECECECECECECECECECECECECECECECECECECECECECECECECECECECECECECECECECECECECECECECECECECECECECECECECECECECECECEC
310
ECECECECECECECECECECECECECECECECECECECECECECECECECECECECECECECECECECECECECECECECECF5ECECECECECECECECECECECECECECECECECECECECECECECECECEFECECECF5ECECF5F5F5ECECF5ECECECECECECECECECECECECECECECECECECECECECECECECECECECECECECECECECECECECECECF5F5F5F5ECECECECF5
310
F5F5F5ECECECECECECECECECECECECECECECECECECECECECECECECECECECECECECECECECECECECECECECECF5ECECECECECECECECECECECECECECECECECECECECECECECECECECECECECECECECECECECECECECECECECECECECECECECECECECECECECECECECECECECECECECECECECECECECECECECECECECECECECECECECECECEC
310
ECECECECECECECECECECECECECECECECECECECECECECECECECECECECECECECECECECECECECECECECECECECF5ECECECECECECECECECECECECECECECECECECECECECECECECECEFECECECF5ECECECECECECECF5ECECECECECECECECECECECECECECECECECECECECECECECECECECECECECECECECECECECECECECECF5F5F5F5ECEC
310
F5F5F5ECECECECECECECECECECECECECECECECECECECECECECECECECECECECECECECECECECECECECECECECECECF5ECECECECECECECECECECECECECECECECECECECECECECECECECECECECECECECECECECECECECECECECECECECECECECECECECECECECECECECECECECECECECECECECECECECECECECECECECECECECECECECECEC
310
ECECECECECECECECECECECECECECECECECECECECECECECECECECECECECECECECECECECECECECECECECECECECECF5ECECECECECECECECECECECECECECECECECECECECECECECECECEFECECECF5ECECECECECECECF5ECECECECECECECECECECECECECECECECECECECECECECECECECECECECECECECECECECECECECECECECECECF5
310
F5F5F5ECECECECECECECECECECECECECECECECECECECECECECECECECF5F5F5F5F5F5F5F5F5F5F5F5F5F5F5F5F5F5F5F5ECECECECECECECECECECECECECECECECECECECECECECECECECECECECECECECECECECECECECECECECECECECECECECECECECECECECECECECECECECECECECECECECECECECECECECECECECECECECECECEC
310
ECECECECECECECECECECECECECECECECECECECECECECECECECECECECECECECECECECECECECECECECECECECECECECECF5ECECECECECECECECECECECECECECECECECECECECECECECECECEFEFECECF5ECECECECECECECF5ECECECECECECECECECECECECECECECECECECECECECECECECECECECECECECECECECECECECECECECECEC
310
ECECECECECECECECECECECECECECECECECECECECECECECECECECECECECECF5ECF5F5F5F5F5F5F5F5F5F5F5F5F5ECECECECF5ECECECECECECECECECECECECECECECECECECECECECECECECECECECECECECECECECECECECECECECECECECECECECECECECECECECECECECECECECECECECECECECECECECECECECECECECECECECECEC
310
ECECECECECECECECECECECECECECECECECECECECECECECECECECECECECECECECECECECECECECECECECECECECECECECECECF5ECECECECECECECECECECECECECECECECECECECECECECECECECEFEFEFEFEFF5F5F5F5F5F5F5F5ECECECECECECECECECECECECECECECECECECECECECECECECECECECECECECECECECECECECECECEC
310
ECECECECECECECECECECECECECECECECECECECECECECECECECECECECECECECECF5ECF5F5F5F5F5F5F5F5F5F5F5F5F5ECECECECF5ECECECECECECECECECECECECECECECECECECECECECECECECECECECECECECECECECECECECECECECECECECECECECECECECECECECECECECECECECECECECECECECECECECECECECECECECECECEC
310
ECECECECECECECECECECECECECECECECECECECECECECECECECECECECECECECECECECECECECECECECECECECECECECECECECECECF5F5F5F5F5F5F5F5F5F5F5F5F5F5F5F5F5F5F5F5F5F5F5F5F5F5F5F5F5F5F5F5F5F5F5F5F5F5F5F5F5F5F5F5F5F5F5F5F5F5F5F5F5F5F5F5F5F5F5F5F5F5F5F5F5F5F5F5F5F5F5F5F5F5F5F5
310
F5F5F5F5F5F5F5F5F5F5F5F5F5F5F5F5F5F5F5F5F5F5F5F5F5F5F5F5F5F5F5F5F5F5F5F5F5F5F5F5F5F5F5F5F5F5F5F5F5F5F5F5F5F5ECECECECECECECECECECECECECECECECECECECECECECECECECECECECECECECECECECECECECECECECECECECECECECECECECECECECECECECECECECECECECECECECECECECECECECECECEC
310
ECECECECECECECECECECECECECECECECECECECECECECECECECECECECECECECECECECECECECECECECECECECECECECECECECECECECECECECECECECECECECECECECECECECECECECECECECECECECECECECECECECECECECECECECECECECECECECECECECECECECECECECECECECECECECECECECECECECECECECECECECECECECECECEC
310
ECECECECECECECECECECECECECECECECECECECECECECECECECECECECECECECECECECECECECECECECECECECECECECECECECECECECECECECECECECECECECECECECECECECECECECECECECECECECECECECECECECECECECECECECECECECECECECECECECECECECECECECECECECECECECECECECECECECECECECEC
  0
XRECORD
  5
23A6
102
{ACAD_REACTORS
330
23A5
102
}
330
23A5
100
AcDbXrecord
280
     1
102
MATERIAL
148
0.0
149
0.0
149
0.0
 93
        0
 94
       63
282
     0
 72
     1
 77
     1
171
     1
175
     1
179
     1
273
     0
  0
XRECORD
  5
23A4
102
{ACAD_REACTORS
330
23A3
102
}
330
23A3
100
AcDbXrecord
280
     1
102
MATERIAL
148
0.0
149
0.0
149
0.0
 93
        0
 94
       63
282
     0
 72
     1
 77
     1
171
     1
175
     1
179
     1
273
     0
  0
XRECORD
  5
23A8
102
{ACAD_REACTORS
330
23A7
102
}
330
23A7
100
AcDbXrecord
280
     1
102
MATERIAL
148
0.0
149
0.0
149
0.0
 93
        0
 94
       63
282
     0
 72
     1
 77
     1
171
     1
175
     1
179
     1
273
     0
  0
CELLSTYLEMAP
  5
23A1
102
{ACAD_REACTORS
330
BBC
102
}
330
BBC
100
AcDbCellStyleMap
 90
        3
300
CELLSTYLE
  1
TABLEFORMAT_BEGIN
 90
        5
170
     1
 91
        0
 92
    32768
 62
   257
 93
        1
300
CONTENTFORMAT
  1
CONTENTFORMAT_BEGIN
 90
        0
 91
        0
 92
      512
 93
        0
300

 40
0.0
140
1.0
 94
        5
 62
     0
340
11
144
0.25
309
CONTENTFORMAT_END
171
     0
 94
        6
 95
        1
302
GRIDFORMAT
  1
GRIDFORMAT_BEGIN
 90
        0
 91
        1
 62
     0
 92
       -2
340
0
 93
        0
 40
0.045
309
GRIDFORMAT_END
 95
        2
302
GRIDFORMAT
  1
GRIDFORMAT_BEGIN
 90
        0
 91
        1
 62
     0
 92
       -2
340
0
 93
        0
 40
0.045
309
GRIDFORMAT_END
 95
        4
302
GRIDFORMAT
  1
GRIDFORMAT_BEGIN
 90
        0
 91
        1
 62
     0
 92
       -2
340
0
 93
        0
 40
0.045
309
GRIDFORMAT_END
 95
        8
302
GRIDFORMAT
  1
GRIDFORMAT_BEGIN
 90
        0
 91
        1
 62
     0
 92
       -2
340
0
 93
        0
 40
0.045
309
GRIDFORMAT_END
 95
       16
302
GRIDFORMAT
  1
GRIDFORMAT_BEGIN
 90
        0
 91
        1
 62
     0
 92
       -2
340
0
 93
        0
 40
0.045
309
GRIDFORMAT_END
 95
       32
302
GRIDFORMAT
  1
GRIDFORMAT_BEGIN
 90
        0
 91
        1
 62
     0
 92
       -2
340
0
 93
        0
 40
0.045
309
GRIDFORMAT_END
309
TABLEFORMAT_END
  1
CELLSTYLE_BEGIN
 90
        1
 91
        1
300
_TITLE
309
CELLSTYLE_END
300
CELLSTYLE
  1
TABLEFORMAT_BEGIN
 90
        5
170
     1
 91
        0
 92
        0
 62
   257
 93
        1
300
CONTENTFORMAT
  1
CONTENTFORMAT_BEGIN
 90
        0
 91
        0
 92
      512
 93
        0
300

 40
0.0
140
1.0
 94
        5
 62
     0
340
11
144
0.18
309
CONTENTFORMAT_END
171
     0
 94
        6
 95
        1
302
GRIDFORMAT
  1
GRIDFORMAT_BEGIN
 90
        0
 91
        1
 62
     0
 92
       -2
340
0
 93
        0
 40
0.045
309
GRIDFORMAT_END
 95
        2
302
GRIDFORMAT
  1
GRIDFORMAT_BEGIN
 90
        0
 91
        1
 62
     0
 92
       -2
340
0
 93
        0
 40
0.045
309
GRIDFORMAT_END
 95
        4
302
GRIDFORMAT
  1
GRIDFORMAT_BEGIN
 90
        0
 91
        1
 62
     0
 92
       -2
340
0
 93
        0
 40
0.045
309
GRIDFORMAT_END
 95
        8
302
GRIDFORMAT
  1
GRIDFORMAT_BEGIN
 90
        0
 91
        1
 62
     0
 92
       -2
340
0
 93
        0
 40
0.045
309
GRIDFORMAT_END
 95
       16
302
GRIDFORMAT
  1
GRIDFORMAT_BEGIN
 90
        0
 91
        1
 62
     0
 92
       -2
340
0
 93
        0
 40
0.045
309
GRIDFORMAT_END
 95
       32
302
GRIDFORMAT
  1
GRIDFORMAT_BEGIN
 90
        0
 91
        1
 62
     0
 92
       -2
340
0
 93
        0
 40
0.045
309
GRIDFORMAT_END
309
TABLEFORMAT_END
  1
CELLSTYLE_BEGIN
 90
        2
 91
        1
300
_HEADER
309
CELLSTYLE_END
300
CELLSTYLE
  1
TABLEFORMAT_BEGIN
 90
        5
170
     1
 91
        0
 92
        0
 62
   257
 93
        1
300
CONTENTFORMAT
  1
CONTENTFORMAT_BEGIN
 90
        0
 91
        0
 92
      512
 93
        0
300

 40
0.0
140
1.0
 94
        2
 62
     0
340
11
144
0.18
309
CONTENTFORMAT_END
171
     0
 94
        6
 95
        1
302
GRIDFORMAT
  1
GRIDFORMAT_BEGIN
 90
        0
 91
        1
 62
     0
 92
       -2
340
0
 93
        0
 40
0.045
309
GRIDFORMAT_END
 95
        2
302
GRIDFORMAT
  1
GRIDFORMAT_BEGIN
 90
        0
 91
        1
 62
     0
 92
       -2
340
0
 93
        0
 40
0.045
309
GRIDFORMAT_END
 95
        4
302
GRIDFORMAT
  1
GRIDFORMAT_BEGIN
 90
        0
 91
        1
 62
     0
 92
       -2
340
0
 93
        0
 40
0.045
309
GRIDFORMAT_END
 95
        8
302
GRIDFORMAT
  1
GRIDFORMAT_BEGIN
 90
        0
 91
        1
 62
     0
 92
       -2
340
0
 93
        0
 40
0.045
309
GRIDFORMAT_END
 95
       16
302
GRIDFORMAT
  1
GRIDFORMAT_BEGIN
 90
        0
 91
        1
 62
     0
 92
       -2
340
0
 93
        0
 40
0.045
309
GRIDFORMAT_END
 95
       32
302
GRIDFORMAT
  1
GRIDFORMAT_BEGIN
 90
        0
 91
        1
 62
     0
 92
       -2
340
0
 93
        0
 40
0.045
309
GRIDFORMAT_END
309
TABLEFORMAT_END
  1
CELLSTYLE_BEGIN
 90
        3
 91
        2
300
_DATA
309
CELLSTYLE_END
  0
XRECORD
  5
23C9
102
{ACAD_REACTORS
330
BBC
102
}
330
BBC
100
AcDbXrecord
280
     1
102
ACAD_ROUNDTRIP_PRE2007_TABLESTYLE
 90
      512
 91
        0
  1

 92
      512
 93
        0
  2

 94
      512
 95
        0
  3

  0
XRECORD
  5
23B4
102
{ACAD_REACTORS
330
23B3
102
}
330
23B3
100
AcDbXrecord
280
     1
102
RTVSPropertyOp0
 70
     1
102
RTVSPropertyOp1
 70
     1
102
RTVSPropertyOp2
 70
     1
102
RTVSPropertyOp3
 70
     1
102
RTVSPropertyOp4
 70
     1
102
RTVSPropertyOp5
 70
     1
102
RTVSPropertyOp6
 70
     1
102
RTVSPropertyOp7
 70
     1
102
RTVSPropertyOp8
 70
     1
102
RTVSPropertyOp9
 70
     1
102
RTVSPropertyOp10
 70
     1
102
RTVSPropertyOp11
 70
     1
102
RTVSPropertyOp12
 70
     1
102
RTVSPropertyOp13
 70
     1
102
RTVSPropertyOp14
 70
     1
102
RTVSPropertyOp15
 70
     1
102
RTVSPropertyOp16
 70
     1
102
RTVSPropertyOp17
 70
     1
102
RTVSPropertyOp18
 70
     1
102
RTVSPropertyOp19
 70
     1
102
RTVSPropertyOp20
 70
     1
102
RTVSPropertyOp21
 70
     1
102
RTVSPropertyOp22
 70
     1
102
RTVSPropertyOp23
 70
     1
102
RTVSPropertyOp24
 70
     1
102
RTVSPropertyOp25
 70
     1
102
RTVSPropertyOp26
 70
     1
102
RTVSPropertyOp27
 70
     1
  0
XRECORD
  5
23B8
102
{ACAD_REACTORS
330
23B7
102
}
330
23B7
100
AcDbXrecord
280
     1
102
RTVSPropertyOp0
 70
     1
102
RTVSPropertyOp1
 70
     1
102
RTVSPropertyOp2
 70
     1
102
RTVSPropertyOp3
 70
     1
102
RTVSPropertyOp4
 70
     1
102
RTVSPropertyOp5
 70
     1
102
RTVSPropertyOp6
 70
     1
102
RTVSPropertyOp7
 70
     1
102
RTVSPropertyOp8
 70
     1
102
RTVSPropertyOp9
 70
     1
102
RTVSPropertyOp10
 70
     1
102
RTVSPropertyOp11
 70
     1
102
RTVSPropertyOp12
 70
     1
102
RTVSPropertyOp13
 70
     1
102
RTVSPropertyOp14
 70
     1
102
RTVSPropertyOp15
 70
     1
102
RTVSPropertyOp16
 70
     1
102
RTVSPropertyOp17
 70
     1
102
RTVSPropertyOp18
 70
     1
102
RTVSPropertyOp19
 70
     1
102
RTVSPropertyOp20
 70
     1
102
RTVSPropertyOp21
 70
     1
102
RTVSPropertyOp22
 70
     1
102
RTVSPropertyOp23
 70
     1
102
RTVSPropertyOp24
 70
     1
102
RTVSPropertyOp25
 70
     1
102
RTVSPropertyOp26
 70
     1
102
RTVSPropertyOp27
 70
     1
  0
XRECORD
  5
23B6
102
{ACAD_REACTORS
330
23B5
102
}
330
23B5
100
AcDbXrecord
280
     1
102
RTVSPropertyOp0
 70
     1
102
RTVSPropertyOp1
 70
     1
102
RTVSPropertyOp2
 70
     1
102
RTVSPropertyOp3
 70
     1
102
RTVSPropertyOp4
 70
     1
102
RTVSPropertyOp5
 70
     1
102
RTVSPropertyOp6
 70
     1
102
RTVSPropertyOp7
 70
     1
102
RTVSPropertyOp8
 70
     1
102
RTVSPropertyOp9
 70
     1
102
RTVSPropertyOp10
 70
     1
102
RTVSPropertyOp11
 70
     1
102
RTVSPropertyOp12
 70
     1
102
RTVSPropertyOp13
 70
     1
102
RTVSPropertyOp14
 70
     1
102
RTVSPropertyOp15
 70
     1
102
RTVSPropertyOp16
 70
     1
102
RTVSPropertyOp17
 70
     1
102
RTVSPropertyOp18
 70
     1
102
RTVSPropertyOp19
 70
     1
102
RTVSPropertyOp20
 70
     1
102
RTVSPropertyOp21
 70
     1
102
RTVSPropertyOp22
 70
     1
102
RTVSPropertyOp23
 70
     1
102
RTVSPropertyOp24
 70
     1
102
RTVSPropertyOp25
 70
     1
102
RTVSPropertyOp26
 70
     1
102
RTVSPropertyOp27
 70
     1
  0
XRECORD
  5
23B2
102
{ACAD_REACTORS
330
23B1
102
}
330
23B1
100
AcDbXrecord
280
     1
102
RTVSPropertyOp0
 70
     1
102
RTVSPropertyOp1
 70
     1
102
RTVSPropertyOp2
 70
     1
102
RTVSPropertyOp3
 70
     1
102
RTVSPropertyOp4
 70
     1
102
RTVSPropertyOp5
 70
     1
102
RTVSPropertyOp6
 70
     1
102
RTVSPropertyOp7
 70
     1
102
RTVSPropertyOp8
 70
     1
102
RTVSPropertyOp9
 70
     1
102
RTVSPropertyOp10
 70
     1
102
RTVSPropertyOp11
 70
     1
102
RTVSPropertyOp12
 70
     1
102
RTVSPropertyOp13
 70
     1
102
RTVSPropertyOp14
 70
     1
102
RTVSPropertyOp15
 70
     1
102
RTVSPropertyOp16
 70
     1
102
RTVSPropertyOp17
 70
     1
102
RTVSPropertyOp18
 70
     1
102
RTVSPropertyOp19
 70
     1
102
RTVSPropertyOp20
 70
     1
102
RTVSPropertyOp21
 70
     1
102
RTVSPropertyOp22
 70
     1
102
RTVSPropertyOp23
 70
     1
102
RTVSPropertyOp24
 70
     1
102
RTVSPropertyOp25
 70
     1
102
RTVSPropertyOp26
 70
     1
102
RTVSPropertyOp27
 70
     1
  0
XRECORD
  5
23C0
102
{ACAD_REACTORS
330
23BF
102
}
330
23BF
100
AcDbXrecord
280
     1
102
RTVSPropertyOp0
 70
     1
102
RTVSPropertyOp1
 70
     1
102
RTVSPropertyOp2
 70
     1
102
RTVSPropertyOp3
 70
     1
102
RTVSPropertyOp4
 70
     1
102
RTVSPropertyOp5
 70
     1
102
RTVSPropertyOp6
 70
     1
102
RTVSPropertyOp7
 70
     1
102
RTVSPropertyOp8
 70
     1
102
RTVSPropertyOp9
 70
     1
102
RTVSPropertyOp10
 70
     1
102
RTVSPropertyOp11
 70
     1
102
RTVSPropertyOp12
 70
     1
102
RTVSPropertyOp13
 70
     1
102
RTVSPropertyOp14
 70
     1
102
RTVSPropertyOp15
 70
     1
102
RTVSPropertyOp16
 70
     1
102
RTVSPropertyOp17
 70
     1
102
RTVSPropertyOp18
 70
     1
102
RTVSPropertyOp19
 70
     1
102
RTVSPropertyOp20
 70
     1
102
RTVSPropertyOp21
 70
     1
102
RTVSPropertyOp22
 70
     1
102
RTVSPropertyOp23
 70
     1
102
RTVSPropertyOp24
 70
     1
102
RTVSPropertyOp25
 70
     1
102
RTVSPropertyOp26
 70
     1
102
RTVSPropertyOp27
 70
     1
  0
XRECORD
  5
23C8
102
{ACAD_REACTORS
330
23C7
102
}
330
23C7
100
AcDbXrecord
280
     1
102
RTVSPropertyOp0
 70
     1
102
RTVSPropertyOp1
 70
     1
102
RTVSPropertyOp2
 70
     1
102
RTVSPropertyOp3
 70
     1
102
RTVSPropertyOp4
 70
     1
102
RTVSPropertyOp5
 70
     1
102
RTVSPropertyOp6
 70
     1
102
RTVSPropertyOp7
 70
     1
102
RTVSPropertyOp8
 70
     1
102
RTVSPropertyOp9
 70
     1
102
RTVSPropertyOp10
 70
     1
102
RTVSPropertyOp11
 70
     1
102
RTVSPropertyOp12
 70
     1
102
RTVSPropertyOp13
 70
     1
102
RTVSPropertyOp14
 70
     1
102
RTVSPropertyOp15
 70
     1
102
RTVSPropertyOp16
 70
     1
102
RTVSPropertyOp17
 70
     1
102
RTVSPropertyOp18
 70
     1
102
RTVSPropertyOp19
 70
     1
102
RTVSPropertyOp20
 70
     1
102
RTVSPropertyOp21
 70
     1
102
RTVSPropertyOp22
 70
     1
102
RTVSPropertyOp23
 70
     1
102
RTVSPropertyOp24
 70
     1
102
RTVSPropertyOp25
 70
     1
102
RTVSPropertyOp26
 70
     1
102
RTVSPropertyOp27
 70
     1
  0
XRECORD
  5
23BA
102
{ACAD_REACTORS
330
23B9
102
}
330
23B9
100
AcDbXrecord
280
     1
102
RTVSPropertyOp0
 70
     1
102
RTVSPropertyOp1
 70
     1
102
RTVSPropertyOp2
 70
     1
102
RTVSPropertyOp3
 70
     1
102
RTVSPropertyOp4
 70
     1
102
RTVSPropertyOp5
 70
     1
102
RTVSPropertyOp6
 70
     1
102
RTVSPropertyOp7
 70
     1
102
RTVSPropertyOp8
 70
     1
102
RTVSPropertyOp9
 70
     1
102
RTVSPropertyOp10
 70
     1
102
RTVSPropertyOp11
 70
     1
102
RTVSPropertyOp12
 70
     1
102
RTVSPropertyOp13
 70
     1
102
RTVSPropertyOp14
 70
     1
102
RTVSPropertyOp15
 70
     1
102
RTVSPropertyOp16
 70
     1
102
RTVSPropertyOp17
 70
     1
102
RTVSPropertyOp18
 70
     1
102
RTVSPropertyOp19
 70
     1
102
RTVSPropertyOp20
 70
     1
102
RTVSPropertyOp21
 70
     1
102
RTVSPropertyOp22
 70
     1
102
RTVSPropertyOp23
 70
     1
102
RTVSPropertyOp24
 70
     1
102
RTVSPropertyOp25
 70
     1
102
RTVSPropertyOp26
 70
     1
102
RTVSPropertyOp27
 70
     1
  0
XRECORD
  5
23BE
102
{ACAD_REACTORS
330
23BD
102
}
330
23BD
100
AcDbXrecord
280
     1
102
RTVSPropertyOp0
 70
     1
102
RTVSPropertyOp1
 70
     1
102
RTVSPropertyOp2
 70
     1
102
RTVSPropertyOp3
 70
     1
102
RTVSPropertyOp4
 70
     1
102
RTVSPropertyOp5
 70
     1
102
RTVSPropertyOp6
 70
     1
102
RTVSPropertyOp7
 70
     1
102
RTVSPropertyOp8
 70
     1
102
RTVSPropertyOp9
 70
     1
102
RTVSPropertyOp10
 70
     1
102
RTVSPropertyOp11
 70
     1
102
RTVSPropertyOp12
 70
     1
102
RTVSPropertyOp13
 70
     1
102
RTVSPropertyOp14
 70
     1
102
RTVSPropertyOp15
 70
     1
102
RTVSPropertyOp16
 70
     1
102
RTVSPropertyOp17
 70
     1
102
RTVSPropertyOp18
 70
     1
102
RTVSPropertyOp19
 70
     1
102
RTVSPropertyOp20
 70
     1
102
RTVSPropertyOp21
 70
     1
102
RTVSPropertyOp22
 70
     1
102
RTVSPropertyOp23
 70
     1
102
RTVSPropertyOp24
 70
     1
102
RTVSPropertyOp25
 70
     1
102
RTVSPropertyOp26
 70
     1
102
RTVSPropertyOp27
 70
     1
  0
XRECORD
  5
23CF
102
{ACAD_REACTORS
330
23CE
102
}
330
23CE
100
AcDbXrecord
280
     1
102
RTVSPropertyOp0
 70
     0
102
RTVSPropertyOp1
 70
     0
102
RTVSPropertyOp2
 70
     0
102
RTVSPropertyOp3
 70
     0
102
RTVSPropertyOp4
 70
     0
102
RTVSPropertyOp5
 70
     0
102
RTVSPropertyOp6
 70
     0
102
RTVSPropertyOp7
 70
     0
102
RTVSPropertyOp8
 70
     0
102
RTVSPropertyOp9
 70
     0
102
RTVSPropertyOp10
 70
     0
102
RTVSPropertyOp11
 70
     0
102
RTVSPropertyOp12
 70
     0
102
RTVSPropertyOp13
 70
     0
102
RTVSPropertyOp14
 70
     2
102
RTVSPropertyOp15
 70
     0
102
RTVSPropertyOp16
 70
     0
102
RTVSPropertyOp17
 70
     0
102
RTVSPropertyOp18
 70
     0
102
RTVSPropertyOp19
 70
     0
102
RTVSPropertyOp20
 70
     0
102
RTVSPropertyOp21
 70
     0
102
RTVSPropertyOp22
 70
     0
102
RTVSPropertyOp23
 70
     0
102
RTVSPropertyOp24
 70
     0
102
RTVSPropertyOp25
 70
     0
102
RTVSPropertyOp26
 70
     0
102
RTVSPropertyOp27
 70
     0
  0
XRECORD
  5
23C6
102
{ACAD_REACTORS
330
23C5
102
}
330
23C5
100
AcDbXrecord
280
     1
102
RTVSPropertyOp0
 70
     1
102
RTVSPropertyOp1
 70
     1
102
RTVSPropertyOp2
 70
     1
102
RTVSPropertyOp3
 70
     1
102
RTVSPropertyOp4
 70
     1
102
RTVSPropertyOp5
 70
     1
102
RTVSPropertyOp6
 70
     1
102
RTVSPropertyOp7
 70
     1
102
RTVSPropertyOp8
 70
     1
102
RTVSPropertyOp9
 70
     1
102
RTVSPropertyOp10
 70
     1
102
RTVSPropertyOp11
 70
     1
102
RTVSPropertyOp12
 70
     1
102
RTVSPropertyOp13
 70
     1
102
RTVSPropertyOp14
 70
     1
102
RTVSPropertyOp15
 70
     1
102
RTVSPropertyOp16
 70
     1
102
RTVSPropertyOp17
 70
     1
102
RTVSPropertyOp18
 70
     1
102
RTVSPropertyOp19
 70
     1
102
RTVSPropertyOp20
 70
     1
102
RTVSPropertyOp21
 70
     1
102
RTVSPropertyOp22
 70
     1
102
RTVSPropertyOp23
 70
     1
102
RTVSPropertyOp24
 70
     1
102
RTVSPropertyOp25
 70
     1
102
RTVSPropertyOp26
 70
     1
102
RTVSPropertyOp27
 70
     1
  0
XRECORD
  5
23AA
102
{ACAD_REACTORS
330
23A9
102
}
330
23A9
100
AcDbXrecord
280
     1
102
RTVSPropertyOp0
 70
     1
102
RTVSPropertyOp1
 70
     1
102
RTVSPropertyOp2
 70
     1
102
RTVSPropertyOp3
 70
     1
102
RTVSPropertyOp4
 70
     1
102
RTVSPropertyOp5
 70
     1
102
RTVSPropertyOp6
 70
     1
102
RTVSPropertyOp7
 70
     1
102
RTVSPropertyOp8
 70
     1
102
RTVSPropertyOp9
 70
     1
102
RTVSPropertyOp10
 70
     1
102
RTVSPropertyOp11
 70
     1
102
RTVSPropertyOp12
 70
     1
102
RTVSPropertyOp13
 70
     1
102
RTVSPropertyOp14
 70
     1
102
RTVSPropertyOp15
 70
     1
102
RTVSPropertyOp16
 70
     1
102
RTVSPropertyOp17
 70
     1
102
RTVSPropertyOp18
 70
     1
102
RTVSPropertyOp19
 70
     1
102
RTVSPropertyOp20
 70
     1
102
RTVSPropertyOp21
 70
     1
102
RTVSPropertyOp22
 70
     1
102
RTVSPropertyOp23
 70
     1
102
RTVSPropertyOp24
 70
     1
102
RTVSPropertyOp25
 70
     1
102
RTVSPropertyOp26
 70
     1
102
RTVSPropertyOp27
 70
     1
  0
XRECORD
  5
23AC
102
{ACAD_REACTORS
330
23AB
102
}
330
23AB
100
AcDbXrecord
280
     1
102
RTVSPropertyOp0
 70
     1
102
RTVSPropertyOp1
 70
     1
102
RTVSPropertyOp2
 70
     1
102
RTVSPropertyOp3
 70
     1
102
RTVSPropertyOp4
 70
     1
102
RTVSPropertyOp5
 70
     1
102
RTVSPropertyOp6
 70
     1
102
RTVSPropertyOp7
 70
     1
102
RTVSPropertyOp8
 70
     1
102
RTVSPropertyOp9
 70
     1
102
RTVSPropertyOp10
 70
     1
102
RTVSPropertyOp11
 70
     1
102
RTVSPropertyOp12
 70
     1
102
RTVSPropertyOp13
 70
     1
102
RTVSPropertyOp14
 70
     1
102
RTVSPropertyOp15
 70
     1
102
RTVSPropertyOp16
 70
     1
102
RTVSPropertyOp17
 70
     1
102
RTVSPropertyOp18
 70
     1
102
RTVSPropertyOp19
 70
     1
102
RTVSPropertyOp20
 70
     1
102
RTVSPropertyOp21
 70
     1
102
RTVSPropertyOp22
 70
     1
102
RTVSPropertyOp23
 70
     1
102
RTVSPropertyOp24
 70
     1
102
RTVSPropertyOp25
 70
     1
102
RTVSPropertyOp26
 70
     1
102
RTVSPropertyOp27
 70
     1
  0
XRECORD
  5
23AE
102
{ACAD_REACTORS
330
23AD
102
}
330
23AD
100
AcDbXrecord
280
     1
102
RTVSPropertyOp0
 70
     1
102
RTVSPropertyOp1
 70
     1
102
RTVSPropertyOp2
 70
     1
102
RTVSPropertyOp3
 70
     1
102
RTVSPropertyOp4
 70
     1
102
RTVSPropertyOp5
 70
     1
102
RTVSPropertyOp6
 70
     1
102
RTVSPropertyOp7
 70
     1
102
RTVSPropertyOp8
 70
     1
102
RTVSPropertyOp9
 70
     1
102
RTVSPropertyOp10
 70
     1
102
RTVSPropertyOp11
 70
     1
102
RTVSPropertyOp12
 70
     1
102
RTVSPropertyOp13
 70
     1
102
RTVSPropertyOp14
 70
     1
102
RTVSPropertyOp15
 70
     1
102
RTVSPropertyOp16
 70
     1
102
RTVSPropertyOp17
 70
     1
102
RTVSPropertyOp18
 70
     1
102
RTVSPropertyOp19
 70
     1
102
RTVSPropertyOp20
 70
     1
102
RTVSPropertyOp21
 70
     1
102
RTVSPropertyOp22
 70
     1
102
RTVSPropertyOp23
 70
     1
102
RTVSPropertyOp24
 70
     1
102
RTVSPropertyOp25
 70
     1
102
RTVSPropertyOp26
 70
     1
102
RTVSPropertyOp27
 70
     1
  0
XRECORD
  5
23B0
102
{ACAD_REACTORS
330
23AF
102
}
330
23AF
100
AcDbXrecord
280
     1
102
RTVSPropertyOp0
 70
     1
102
RTVSPropertyOp1
 70
     1
102
RTVSPropertyOp2
 70
     1
102
RTVSPropertyOp3
 70
     1
102
RTVSPropertyOp4
 70
     1
102
RTVSPropertyOp5
 70
     1
102
RTVSPropertyOp6
 70
     1
102
RTVSPropertyOp7
 70
     1
102
RTVSPropertyOp8
 70
     1
102
RTVSPropertyOp9
 70
     1
102
RTVSPropertyOp10
 70
     1
102
RTVSPropertyOp11
 70
     1
102
RTVSPropertyOp12
 70
     1
102
RTVSPropertyOp13
 70
     1
102
RTVSPropertyOp14
 70
     1
102
RTVSPropertyOp15
 70
     1
102
RTVSPropertyOp16
 70
     1
102
RTVSPropertyOp17
 70
     1
102
RTVSPropertyOp18
 70
     1
102
RTVSPropertyOp19
 70
     1
102
RTVSPropertyOp20
 70
     1
102
RTVSPropertyOp21
 70
     1
102
RTVSPropertyOp22
 70
     1
102
RTVSPropertyOp23
 70
     1
102
RTVSPropertyOp24
 70
     1
102
RTVSPropertyOp25
 70
     1
102
RTVSPropertyOp26
 70
     1
102
RTVSPropertyOp27
 70
     1
  0
XRECORD
  5
23CB
102
{ACAD_REACTORS
330
23CA
102
}
330
23CA
100
AcDbXrecord
280
     1
102
RTVSPropertyOp0
 70
     0
102
RTVSPropertyOp1
 70
     0
102
RTVSPropertyOp2
 70
     0
102
RTVSPropertyOp3
 70
     0
102
RTVSPropertyOp4
 70
     0
102
RTVSPropertyOp5
 70
     0
102
RTVSPropertyOp6
 70
     0
102
RTVSPropertyOp7
 70
     0
102
RTVSPropertyOp8
 70
     0
102
RTVSPropertyOp9
 70
     0
102
RTVSPropertyOp10
 70
     0
102
RTVSPropertyOp11
 70
     0
102
RTVSPropertyOp12
 70
     0
102
RTVSPropertyOp13
 70
     0
102
RTVSPropertyOp14
 70
     2
102
RTVSPropertyOp15
 70
     0
102
RTVSPropertyOp16
 70
     0
102
RTVSPropertyOp17
 70
     0
102
RTVSPropertyOp18
 70
     0
102
RTVSPropertyOp19
 70
     0
102
RTVSPropertyOp20
 70
     0
102
RTVSPropertyOp21
 70
     0
102
RTVSPropertyOp22
 70
     0
102
RTVSPropertyOp23
 70
     0
102
RTVSPropertyOp24
 70
     0
102
RTVSPropertyOp25
 70
     0
102
RTVSPropertyOp26
 70
     0
102
RTVSPropertyOp27
 70
     0
  0
XRECORD
  5
23C4
102
{ACAD_REACTORS
330
23C3
102
}
330
23C3
100
AcDbXrecord
280
     1
102
RTVSPropertyOp0
 70
     1
102
RTVSPropertyOp1
 70
     1
102
RTVSPropertyOp2
 70
     1
102
RTVSPropertyOp3
 70
     1
102
RTVSPropertyOp4
 70
     1
102
RTVSPropertyOp5
 70
     1
102
RTVSPropertyOp6
 70
     1
102
RTVSPropertyOp7
 70
     1
102
RTVSPropertyOp8
 70
     1
102
RTVSPropertyOp9
 70
     1
102
RTVSPropertyOp10
 70
     1
102
RTVSPropertyOp11
 70
     1
102
RTVSPropertyOp12
 70
     1
102
RTVSPropertyOp13
 70
     1
102
RTVSPropertyOp14
 70
     1
102
RTVSPropertyOp15
 70
     1
102
RTVSPropertyOp16
 70
     1
102
RTVSPropertyOp17
 70
     1
102
RTVSPropertyOp18
 70
     1
102
RTVSPropertyOp19
 70
     1
102
RTVSPropertyOp20
 70
     1
102
RTVSPropertyOp21
 70
     1
102
RTVSPropertyOp22
 70
     1
102
RTVSPropertyOp23
 70
     1
102
RTVSPropertyOp24
 70
     1
102
RTVSPropertyOp25
 70
     1
102
RTVSPropertyOp26
 70
     1
102
RTVSPropertyOp27
 70
     1
  0
XRECORD
  5
23CD
102
{ACAD_REACTORS
330
23CC
102
}
330
23CC
100
AcDbXrecord
280
     1
102
RTVSPropertyOp0
 70
     0
102
RTVSPropertyOp1
 70
     0
102
RTVSPropertyOp2
 70
     0
102
RTVSPropertyOp3
 70
     0
102
RTVSPropertyOp4
 70
     0
102
RTVSPropertyOp5
 70
     0
102
RTVSPropertyOp6
 70
     0
102
RTVSPropertyOp7
 70
     0
102
RTVSPropertyOp8
 70
     0
102
RTVSPropertyOp9
 70
     0
102
RTVSPropertyOp10
 70
     0
102
RTVSPropertyOp11
 70
     0
102
RTVSPropertyOp12
 70
     0
102
RTVSPropertyOp13
 70
     0
102
RTVSPropertyOp14
 70
     2
102
RTVSPropertyOp15
 70
     0
102
RTVSPropertyOp16
 70
     0
102
RTVSPropertyOp17
 70
     0
102
RTVSPropertyOp18
 70
     0
102
RTVSPropertyOp19
 70
     0
102
RTVSPropertyOp20
 70
     0
102
RTVSPropertyOp21
 70
     0
102
RTVSPropertyOp22
 70
     0
102
RTVSPropertyOp23
 70
     0
102
RTVSPropertyOp24
 70
     0
102
RTVSPropertyOp25
 70
     0
102
RTVSPropertyOp26
 70
     0
102
RTVSPropertyOp27
 70
     0
  0
XRECORD
  5
23BC
102
{ACAD_REACTORS
330
23BB
102
}
330
23BB
100
AcDbXrecord
280
     1
102
RTVSPropertyOp0
 70
     1
102
RTVSPropertyOp1
 70
     1
102
RTVSPropertyOp2
 70
     1
102
RTVSPropertyOp3
 70
     1
102
RTVSPropertyOp4
 70
     1
102
RTVSPropertyOp5
 70
     1
102
RTVSPropertyOp6
 70
     1
102
RTVSPropertyOp7
 70
     1
102
RTVSPropertyOp8
 70
     1
102
RTVSPropertyOp9
 70
     1
102
RTVSPropertyOp10
 70
     1
102
RTVSPropertyOp11
 70
     1
102
RTVSPropertyOp12
 70
     1
102
RTVSPropertyOp13
 70
     1
102
RTVSPropertyOp14
 70
     1
102
RTVSPropertyOp15
 70
     1
102
RTVSPropertyOp16
 70
     1
102
RTVSPropertyOp17
 70
     1
102
RTVSPropertyOp18
 70
     1
102
RTVSPropertyOp19
 70
     1
102
RTVSPropertyOp20
 70
     1
102
RTVSPropertyOp21
 70
     1
102
RTVSPropertyOp22
 70
     1
102
RTVSPropertyOp23
 70
     1
102
RTVSPropertyOp24
 70
     1
102
RTVSPropertyOp25
 70
     1
102
RTVSPropertyOp26
 70
     1
102
RTVSPropertyOp27
 70
     1
  0
XRECORD
  5
23C2
102
{ACAD_REACTORS
330
23C1
102
}
330
23C1
100
AcDbXrecord
280
     1
102
RTVSPropertyOp0
 70
     1
102
RTVSPropertyOp1
 70
     1
102
RTVSPropertyOp2
 70
     1
102
RTVSPropertyOp3
 70
     1
102
RTVSPropertyOp4
 70
     1
102
RTVSPropertyOp5
 70
     1
102
RTVSPropertyOp6
 70
     1
102
RTVSPropertyOp7
 70
     1
102
RTVSPropertyOp8
 70
     1
102
RTVSPropertyOp9
 70
     1
102
RTVSPropertyOp10
 70
     1
102
RTVSPropertyOp11
 70
     1
102
RTVSPropertyOp12
 70
     1
102
RTVSPropertyOp13
 70
     1
102
RTVSPropertyOp14
 70
     1
102
RTVSPropertyOp15
 70
     1
102
RTVSPropertyOp16
 70
     1
102
RTVSPropertyOp17
 70
     1
102
RTVSPropertyOp18
 70
     1
102
RTVSPropertyOp19
 70
     1
102
RTVSPropertyOp20
 70
     1
102
RTVSPropertyOp21
 70
     1
102
RTVSPropertyOp22
 70
     1
102
RTVSPropertyOp23
 70
     1
102
RTVSPropertyOp24
 70
     1
102
RTVSPropertyOp25
 70
     1
102
RTVSPropertyOp26
 70
     1
102
RTVSPropertyOp27
 70
     1
  0
ENDSEC
  0
EOF
