  0
SECTION
  2
HEADER
  9
$ACADVER
  1
AC1021
  9
$ACADMAINTVER
 70
     1
  9
$DWGCODEPAGE
  3
ANSI_1252
  9
$AUTHOR
  1
‘Created by Cad / Cam Services, Inc. for Amazon Services LLC on November, 2012’
  9
$LASTSAVEDBY
  1
AE-23
  9
$INSBASE
 10
0.0
 20
0.0
 30
0.0
  9
$EXTMIN
 10
0.0
 20
0.0
 30
0.0
  9
$EXTMAX
 10
9.381038617535399
 20
7.104087496774412
 30
0.0
  9
$LIMMIN
 10
0.0
 20
0.0
  9
$LIMMAX
 10
16.53543307086614
 20
11.69291338582677
  9
$ORTHOMODE
 70
     1
  9
$REGENMODE
 70
     1
  9
$FILLMODE
 70
     1
  9
$QTEXTMODE
 70
     0
  9
$MIRRTEXT
 70
     1
  9
$LTSCALE
 40
1.0
  9
$ATTMODE
 70
     1
  9
$TEXTSIZE
 40
0.2
  9
$TRACEWID
 40
0.05
  9
$TEXTSTYLE
  7
SLDTEXTSTYLE0
  9
$CLAYER
  8
DIM
  9
$CELTYPE
  6
ByLayer
  9
$CECOLOR
 62
   256
  9
$CELTSCALE
 40
1.0
  9
$DISPSILH
 70
     0
  9
$DIMSCALE
 40
1.0
  9
$DIMASZ
 40
0.11
  9
$DIMEXO
 40
0.06
  9
$DIMDLI
 40
0.38
  9
$DIMRND
 40
0.0
  9
$DIMDLE
 40
0.0
  9
$DIMEXE
 40
0.05
  9
$DIMTP
 40
0.0
  9
$DIMTM
 40
0.0
  9
$DIMTXT
 40
0.11
  9
$DIMCEN
 40
0.09
  9
$DIMTSZ
 40
0.0
  9
$DIMTOL
 70
     0
  9
$DIMLIM
 70
     0
  9
$DIMTIH
 70
     0
  9
$DIMTOH
 70
     0
  9
$DIMSE1
 70
     0
  9
$DIMSE2
 70
     0
  9
$DIMTAD
 70
     1
  9
$DIMZIN
 70
     0
  9
$DIMBLK
  1

  9
$DIMASO
 70
     1
  9
$DIMSHO
 70
     1
  9
$DIMPOST
  1

  9
$DIMAPOST
  1

  9
$DIMALT
 70
     0
  9
$DIMALTD
 70
     2
  9
$DIMALTF
 40
25.4
  9
$DIMLFAC
 40
1.0
  9
$DIMTOFL
 70
     1
  9
$DIMTVP
 40
0.0
  9
$DIMTIX
 70
     0
  9
$DIMSOXD
 70
     0
  9
$DIMSAH
 70
     0
  9
$DIMBLK1
  1

  9
$DIMBLK2
  1

  9
$DIMSTYLE
  2
Standard
  9
$DIMCLRD
 70
     0
  9
$DIMCLRE
 70
     0
  9
$DIMCLRT
 70
     0
  9
$DIMTFAC
 40
1.0
  9
$DIMGAP
 40
0.04
  9
$DIMJUST
 70
     0
  9
$DIMSD1
 70
     0
  9
$DIMSD2
 70
     0
  9
$DIMTOLJ
 70
     1
  9
$DIMTZIN
 70
     0
  9
$DIMALTZ
 70
     0
  9
$DIMALTTZ
 70
     0
  9
$DIMUPT
 70
     0
  9
$DIMDEC
 70
     2
  9
$DIMTDEC
 70
     2
  9
$DIMALTU
 70
     2
  9
$DIMALTTD
 70
     2
  9
$DIMTXSTY
  7
Standard
  9
$DIMAUNIT
 70
     0
  9
$DIMADEC
 70
     0
  9
$DIMALTRND
 40
0.0
  9
$DIMAZIN
 70
     0
  9
$DIMDSEP
 70
    46
  9
$DIMATFIT
 70
     3
  9
$DIMFRAC
 70
     0
  9
$DIMLDRBLK
  1

  9
$DIMLUNIT
 70
     2
  9
$DIMLWD
 70
    -2
  9
$DIMLWE
 70
    -2
  9
$DIMTMOVE
 70
     0
  9
$DIMFXL
 40
1.0
  9
$DIMFXLON
 70
     0
  9
$DIMJOGANG
 40
0.7853981633974483
  9
$DIMTFILL
 70
     0
  9
$DIMTFILLCLR
 70
     0
  9
$DIMARCSYM
 70
     0
  9
$DIMLTYPE
  6

  9
$DIMLTEX1
  6

  9
$DIMLTEX2
  6

  9
$LUNITS
 70
     2
  9
$LUPREC
 70
     2
  9
$SKETCHINC
 40
0.1
  9
$FILLETRAD
 40
0.5
  9
$AUNITS
 70
     0
  9
$AUPREC
 70
     2
  9
$MENU
  1
.
  9
$ELEVATION
 40
0.0
  9
$PELEVATION
 40
0.0
  9
$THICKNESS
 40
0.0
  9
$LIMCHECK
 70
     0
  9
$CHAMFERA
 40
0.5
  9
$CHAMFERB
 40
0.5
  9
$CHAMFERC
 40
1.0
  9
$CHAMFERD
 40
0.0
  9
$SKPOLY
 70
     0
  9
$TDCREATE
 40
2456632.630380857
  9
$TDUCREATE
 40
2456632.401214190
  9
$TDUPDATE
 40
2456632.731859988
  9
$TDUUPDATE
 40
2456632.502693322
  9
$TDINDWG
 40
0.0029902662
  9
$TDUSRTIMER
 40
0.0029902662
  9
$USRTIMER
 70
     1
  9
$ANGBASE
 50
0.0
  9
$ANGDIR
 70
     0
  9
$PDMODE
 70
     0
  9
$PDSIZE
 40
-1.0
  9
$PLINEWID
 40
0.0
  9
$SPLFRAME
 70
     0
  9
$SPLINETYPE
 70
     6
  9
$SPLINESEGS
 70
     8
  9
$HANDSEED
  5
150E
  9
$SURFTAB1
 70
     6
  9
$SURFTAB2
 70
     6
  9
$SURFTYPE
 70
     6
  9
$SURFU
 70
     6
  9
$SURFV
 70
     6
  9
$UCSBASE
  2

  9
$UCSNAME
  2

  9
$UCSORG
 10
0.0
 20
0.0
 30
0.0
  9
$UCSXDIR
 10
1.0
 20
0.0
 30
0.0
  9
$UCSYDIR
 10
0.0
 20
1.0
 30
0.0
  9
$UCSORTHOREF
  2

  9
$UCSORTHOVIEW
 70
     0
  9
$UCSORGTOP
 10
0.0
 20
0.0
 30
0.0
  9
$UCSORGBOTTOM
 10
0.0
 20
0.0
 30
0.0
  9
$UCSORGLEFT
 10
0.0
 20
0.0
 30
0.0
  9
$UCSORGRIGHT
 10
0.0
 20
0.0
 30
0.0
  9
$UCSORGFRONT
 10
0.0
 20
0.0
 30
0.0
  9
$UCSORGBACK
 10
0.0
 20
0.0
 30
0.0
  9
$PUCSBASE
  2

  9
$PUCSNAME
  2

  9
$PUCSORG
 10
0.0
 20
0.0
 30
0.0
  9
$PUCSXDIR
 10
1.0
 20
0.0
 30
0.0
  9
$PUCSYDIR
 10
0.0
 20
1.0
 30
0.0
  9
$PUCSORTHOREF
  2

  9
$PUCSORTHOVIEW
 70
     0
  9
$PUCSORGTOP
 10
0.0
 20
0.0
 30
0.0
  9
$PUCSORGBOTTOM
 10
0.0
 20
0.0
 30
0.0
  9
$PUCSORGLEFT
 10
0.0
 20
0.0
 30
0.0
  9
$PUCSORGRIGHT
 10
0.0
 20
0.0
 30
0.0
  9
$PUCSORGFRONT
 10
0.0
 20
0.0
 30
0.0
  9
$PUCSORGBACK
 10
0.0
 20
0.0
 30
0.0
  9
$USERI1
 70
     0
  9
$USERI2
 70
     0
  9
$USERI3
 70
     0
  9
$USERI4
 70
     0
  9
$USERI5
 70
     0
  9
$USERR1
 40
0.0
  9
$USERR2
 40
0.0
  9
$USERR3
 40
0.0
  9
$USERR4
 40
0.0
  9
$USERR5
 40
0.0
  9
$WORLDVIEW
 70
     1
  9
$SHADEDGE
 70
     3
  9
$SHADEDIF
 70
    70
  9
$TILEMODE
 70
     1
  9
$MAXACTVP
 70
    64
  9
$PINSBASE
 10
0.0
 20
0.0
 30
0.0
  9
$PLIMCHECK
 70
     0
  9
$PEXTMIN
 10
1.000000000000000E+20
 20
1.000000000000000E+20
 30
1.000000000000000E+20
  9
$PEXTMAX
 10
-1.000000000000000E+20
 20
-1.000000000000000E+20
 30
-1.000000000000000E+20
  9
$PLIMMIN
 10
0.0
 20
0.0
  9
$PLIMMAX
 10
12.0
 20
9.0
  9
$UNITMODE
 70
     0
  9
$VISRETAIN
 70
     1
  9
$PLINEGEN
 70
     0
  9
$PSLTSCALE
 70
     1
  9
$TREEDEPTH
 70
  3020
  9
$CMLSTYLE
  2
Standard
  9
$CMLJUST
 70
     0
  9
$CMLSCALE
 40
1.0
  9
$PROXYGRAPHICS
 70
     1
  9
$MEASUREMENT
 70
     0
  9
$CELWEIGHT
370
    -1
  9
$ENDCAPS
280
     0
  9
$JOINSTYLE
280
     0
  9
$LWDISPLAY
290
     1
  9
$INSUNITS
 70
     1
  9
$HYPERLINKBASE
  1

  9
$STYLESHEET
  1

  9
$XEDIT
290
     1
  9
$CEPSNTYPE
380
     0
  9
$PSTYLEMODE
290
     1
  9
$FINGERPRINTGUID
  2
{80442D2B-7337-4B41-A061-3E2827695821}
  9
$VERSIONGUID
  2
{8E757C9C-10DD-411D-9865-8BD6AAEC5FCC}
  9
$EXTNAMES
290
     1
  9
$PSVPSCALE
 40
0.0
  9
$OLESTARTUP
290
     0
  9
$SORTENTS
280
   127
  9
$INDEXCTL
280
     0
  9
$HIDETEXT
280
     0
  9
$XCLIPFRAME
290
     0
  9
$HALOGAP
280
     0
  9
$OBSCOLOR
 70
   257
  9
$OBSLTYPE
280
     0
  9
$INTERSECTIONDISPLAY
280
     0
  9
$INTERSECTIONCOLOR
 70
   257
  9
$DIMASSOC
280
     1
  9
$PROJECTNAME
  1

  9
$CAMERADISPLAY
290
     0
  9
$LENSLENGTH
 40
50.0
  9
$CAMERAHEIGHT
 40
0.0
  9
$STEPSPERSEC
 40
2.0
  9
$STEPSIZE
 40
6.0
  9
$3DDWFPREC
 40
2.0
  9
$PSOLWIDTH
 40
0.25
  9
$PSOLHEIGHT
 40
4.0
  9
$LOFTANG1
 40
1.570796326794896
  9
$LOFTANG2
 40
1.570796326794896
  9
$LOFTMAG1
 40
0.0
  9
$LOFTMAG2
 40
0.0
  9
$LOFTPARAM
 70
     7
  9
$LOFTNORMALS
280
     1
  9
$LATITUDE
 40
37.795
  9
$LONGITUDE
 40
-122.394
  9
$NORTHDIRECTION
 40
0.0
  9
$TIMEZONE
 70
 -8000
  9
$LIGHTGLYPHDISPLAY
280
     1
  9
$TILEMODELIGHTSYNCH
280
     1
  9
$CMATERIAL
347
E8
  9
$SOLIDHIST
280
     1
  9
$SHOWHIST
280
     1
  9
$DWFFRAME
280
     2
  9
$DGNFRAME
280
     0
  9
$REALWORLDSCALE
290
     1
  9
$INTERFERECOLOR
 62
     1
  9
$INTERFEREOBJVS
345
F5
  9
$INTERFEREVPVS
346
F2
  9
$CSHADOW
280
     0
  9
$SHADOWPLANELOCATION
 40
0.0
  0
ENDSEC
  0
SECTION
  2
CLASSES
  0
CLASS
  1
ACDBDICTIONARYWDFLT
  2
AcDbDictionaryWithDefault
  3
ObjectDBX Classes
 90
        0
 91
        1
280
     0
281
     0
  0
CLASS
  1
VISUALSTYLE
  2
AcDbVisualStyle
  3
ObjectDBX Classes
 90
     4095
 91
       16
280
     0
281
     0
  0
CLASS
  1
MATERIAL
  2
AcDbMaterial
  3
ObjectDBX Classes
 90
     1024
 91
        3
280
     0
281
     0
  0
CLASS
  1
TABLESTYLE
  2
AcDbTableStyle
  3
ObjectDBX Classes
 90
     4095
 91
        1
280
     0
281
     0
  0
CLASS
  1
DICTIONARYVAR
  2
AcDbDictionaryVar
  3
ObjectDBX Classes
 90
        0
 91
        1
280
     0
281
     0
  0
CLASS
  1
SORTENTSTABLE
  2
AcDbSortentsTable
  3
ObjectDBX Classes
 90
        0
 91
        1
280
     0
281
     0
  0
CLASS
  1
PLOTSETTINGS
  2
AcDbPlotSettings
  3
ObjectDBX Classes
 90
        0
 91
        2
280
     0
281
     0
  0
ENDSEC
  0
SECTION
  2
TABLES
  0
TABLE
  2
VPORT
  5
8
102
{ACAD_XDICTIONARY
360
4DC
102
}
330
0
100
AcDbSymbolTable
 70
     1
  0
VPORT
  5
29
330
8
100
AcDbSymbolTableRecord
100
AcDbViewportTableRecord
  2
*Active
 70
     0
 10
0.0
 20
0.0
 11
1.0
 21
1.0
 12
4.712472486409693
 22
3.551731090438776
 13
0.0
 23
0.0
 14
0.5
 24
0.5
 15
0.5
 25
0.5
 16
0.0
 26
0.0
 36
1.0
 17
0.0
 27
0.0
 37
0.0
 40
7.175937988378644
 41
1.834170854271356
 42
50.0
 43
0.0
 44
0.0
 50
0.0
 51
0.0
 71
     0
 72
  2000
 73
     1
 74
     3
 75
     0
 76
     0
 77
     0
 78
     0
281
     0
 65
     1
110
0.0
120
0.0
130
0.0
111
1.0
121
0.0
131
0.0
112
0.0
122
1.0
132
0.0
 79
     0
146
0.0
348
F1
 60
     3
 61
     5
292
     1
282
     1
141
0.0
142
0.0
 63
   250
421
  3355443
  0
ENDTAB
  0
TABLE
  2
LTYPE
  5
5
330
0
100
AcDbSymbolTable
 70
     2
  0
LTYPE
  5
14
330
5
100
AcDbSymbolTableRecord
100
AcDbLinetypeTableRecord
  2
ByBlock
 70
     0
  3

 72
    65
 73
     0
 40
0.0
  0
LTYPE
  5
15
330
5
100
AcDbSymbolTableRecord
100
AcDbLinetypeTableRecord
  2
ByLayer
 70
     0
  3

 72
    65
 73
     0
 40
0.0
  0
LTYPE
  5
16
330
5
100
AcDbSymbolTableRecord
100
AcDbLinetypeTableRecord
  2
Continuous
 70
     0
  3
Solid line
 72
    65
 73
     0
 40
0.0
  0
LTYPE
  5
F7C
330
5
100
AcDbSymbolTableRecord
100
AcDbLinetypeTableRecord
  2
HIDDEN
 70
     0
  3
Hidden __ __ __ __ __ __ __ __ __ __ __ __ __ __
 72
    65
 73
     2
 40
0.075
 49
0.05
 74
     0
 49
-0.025
 74
     0
  0
ENDTAB
  0
TABLE
  2
LAYER
  5
2
102
{ACAD_XDICTIONARY
360
61E
102
}
330
0
100
AcDbSymbolTable
 70
     4
  0
LAYER
  5
10
330
2
100
AcDbSymbolTableRecord
100
AcDbLayerTableRecord
  2
0
 70
     0
 62
     7
  6
Continuous
370
    -3
390
F
347
EA
  0
LAYER
  5
44
330
2
100
AcDbSymbolTableRecord
100
AcDbLayerTableRecord
  2
FORMAT
 70
     0
 62
     7
  6
Continuous
370
    -3
390
F
347
EA
  0
LAYER
  5
125
330
2
100
AcDbSymbolTableRecord
100
AcDbLayerTableRecord
  2
Defpoints
 70
     0
 62
     7
  6
Continuous
290
     0
370
    -3
390
F
347
EA
  0
LAYER
  5
61C
330
2
100
AcDbSymbolTableRecord
100
AcDbLayerTableRecord
  2
DIM
 70
     0
 62
     8
  6
Continuous
370
    -3
390
F
347
EA
1001
AcAecLayerStandard
1000

1000

  0
ENDTAB
  0
TABLE
  2
STYLE
  5
3
330
0
100
AcDbSymbolTable
 70
     5
  0
STYLE
  5
11
330
3
100
AcDbSymbolTableRecord
100
AcDbTextStyleTableRecord
  2
Standard
 70
     0
 40
0.0
 41
1.0
 50
0.0
 71
     0
 42
0.2
  3
GOTHIC.TTF
  4

1001
ACAD
1000
Century Gothic
1071
       34
  0
STYLE
  5
66
330
3
100
AcDbSymbolTableRecord
100
AcDbTextStyleTableRecord
  2
SLDTEXTSTYLE0
 70
     0
 40
0.0
 41
0.75
 50
0.0
 71
     0
 42
0.2
  3
GOTHIC.TTF
  4

1001
ACAD
1000
Century Gothic
1071
       34
  0
STYLE
  5
6A
330
3
100
AcDbSymbolTableRecord
100
AcDbTextStyleTableRecord
  2
SLDTEXTSTYLE1
 70
     0
 40
0.0
 41
0.6875
 50
0.0
 71
     0
 42
0.2
  3
GOTHIC.TTF
  4

1001
ACAD
1000
Century Gothic
1071
       34
  0
STYLE
  5
412
330
3
100
AcDbSymbolTableRecord
100
AcDbTextStyleTableRecord
  2
style2
 70
     0
 40
0.0
 41
1.0
 50
0.0
 71
     0
 42
0.2
  3

  4

1001
ACAD
1000
Euphemia
1071
       34
  0
STYLE
  5
B37
330
3
100
AcDbSymbolTableRecord
100
AcDbTextStyleTableRecord
  2
style1
 70
     0
 40
0.0
 41
1.0
 50
0.0
 71
     0
 42
0.2
  3

  4

1001
ACAD
1000
@MS PGothic
1071
    32802
  0
ENDTAB
  0
TABLE
  2
VIEW
  5
6
330
0
100
AcDbSymbolTable
 70
     0
  0
ENDTAB
  0
TABLE
  2
UCS
  5
7
330
0
100
AcDbSymbolTable
 70
     0
  0
ENDTAB
  0
TABLE
  2
APPID
  5
9
330
0
100
AcDbSymbolTable
 70
     5
  0
APPID
  5
12
330
9
100
AcDbSymbolTableRecord
100
AcDbRegAppTableRecord
  2
ACAD
 70
     0
  0
APPID
  5
3B8
330
9
100
AcDbSymbolTableRecord
100
AcDbRegAppTableRecord
  2
ACAD_EXEMPT_FROM_CAD_STANDARDS
 70
     0
  0
APPID
  5
413
330
9
100
AcDbSymbolTableRecord
100
AcDbRegAppTableRecord
  2
ACAD_PSEXT
 70
     0
  0
APPID
  5
61D
330
9
100
AcDbSymbolTableRecord
100
AcDbRegAppTableRecord
  2
AcAecLayerStandard
 70
     0
  0
APPID
  5
B19
330
9
100
AcDbSymbolTableRecord
100
AcDbRegAppTableRecord
  2
PE_URL
 70
     0
  0
ENDTAB
  0
TABLE
  2
DIMSTYLE
  5
A
330
0
100
AcDbSymbolTable
 70
     1
100
AcDbDimStyleTable
 71
     1
340
27
  0
DIMSTYLE
105
27
102
{ACAD_REACTORS
330
1475
330
1484
330
1491
330
149E
330
14AB
330
14B9
102
}
330
A
100
AcDbSymbolTableRecord
100
AcDbDimStyleTableRecord
  2
Standard
 70
     0
 41
0.11
 42
0.06
 44
0.05
 73
     0
 74
     0
 77
     1
140
0.11
147
0.04
172
     1
271
     2
272
     2
340
11
  0
ENDTAB
  0
TABLE
  2
BLOCK_RECORD
  5
1
330
0
100
AcDbSymbolTable
 70
    13
  0
BLOCK_RECORD
  5
1F
330
1
100
AcDbSymbolTableRecord
100
AcDbBlockTableRecord
  2
*Model_Space
340
22
 70
     0
280
     1
281
     0
  0
BLOCK_RECORD
  5
1B
330
1
100
AcDbSymbolTableRecord
100
AcDbBlockTableRecord
  2
*Paper_Space
340
1E
 70
     0
280
     1
281
     0
  0
BLOCK_RECORD
  5
23
330
1
100
AcDbSymbolTableRecord
100
AcDbBlockTableRecord
  2
*Paper_Space0
340
26
 70
     0
280
     1
281
     0
  0
BLOCK_RECORD
  5
3F9
330
1
100
AcDbSymbolTableRecord
100
AcDbBlockTableRecord
  2
Block3
340
0
102
{BLKREFS
331
407
102
}
 70
     0
280
     1
281
     0
  0
BLOCK_RECORD
  5
405
330
1
100
AcDbSymbolTableRecord
100
AcDbBlockTableRecord
  2
Block2
340
0
102
{BLKREFS
331
44A
102
}
 70
     0
280
     1
281
     0
  0
BLOCK_RECORD
  5
409
102
{ACAD_XDICTIONARY
360
40A
102
}
330
1
100
AcDbSymbolTableRecord
100
AcDbBlockTableRecord
  2
amazon
340
0
310
2800000020000000200000000100080000000000000400000000000000000000000000000000000000000000000080000080000000808000800000008000800080800000C0C0C000C0DCC000F0CAA6000020400000206000002080000020A0000020C0000020E00000400000004020000040400000406000004080000040A0
310
000040C0000040E00000600000006020000060400000606000006080000060A0000060C0000060E00000800000008020000080400000806000008080000080A0000080C0000080E00000A0000000A0200000A0400000A0600000A0800000A0A00000A0C00000A0E00000C0000000C0200000C0400000C0600000C0800000C0
310
A00000C0C00000C0E00000E0000000E0200000E0400000E0600000E0800000E0A00000E0C00000E0E00040000000400020004000400040006000400080004000A0004000C0004000E00040200000402020004020400040206000402080004020A0004020C0004020E000404000004040200040404000404060004040800040
310
40A0004040C0004040E00040600000406020004060400040606000406080004060A0004060C0004060E00040800000408020004080400040806000408080004080A0004080C0004080E00040A0000040A0200040A0400040A0600040A0800040A0A00040A0C00040A0E00040C0000040C0200040C0400040C0600040C08000
310
40C0A00040C0C00040C0E00040E0000040E0200040E0400040E0600040E0800040E0A00040E0C00040E0E00080000000800020008000400080006000800080008000A0008000C0008000E00080200000802020008020400080206000802080008020A0008020C0008020E00080400000804020008040400080406000804080
310
008040A0008040C0008040E00080600000806020008060400080606000806080008060A0008060C0008060E00080800000808020008080400080806000808080008080A0008080C0008080E00080A0000080A0200080A0400080A0600080A0800080A0A00080A0C00080A0E00080C0000080C0200080C0400080C0600080C0
310
800080C0A00080C0C00080C0E00080E0000080E0200080E0400080E0600080E0800080E0A00080E0C00080E0E000C0000000C0002000C0004000C0006000C0008000C000A000C000C000C000E000C0200000C0202000C0204000C0206000C0208000C020A000C020C000C020E000C0400000C0402000C0404000C0406000C0
310
408000C040A000C040C000C040E000C0600000C0602000C0604000C0606000C0608000C060A000C060C000C060E000C0800000C0802000C0804000C0806000C0808000C080A000C080C000C080E000C0A00000C0A02000C0A04000C0A06000C0A08000C0A0A000C0A0C000C0A0E000C0C00000C0C02000C0C04000C0C06000
310
C0C08000C0C0A000F0FBFF00A4A0A000808080000000FF0000FF000000FFFF00FF000000FF00FF00FFFF0000FFFFFF0000000000000000000000000000000000000000000000000000000000000000000000000000000000000000000000000000000000000000000000000000000000000000000000000000000000000000
310
00000000000000000000000000000000000000000000000000000000000000000000000000000000000000000000000000000000000000000000000000000000000000000000000000000000000000000000000000000000000000000000000000000000000000000000000000000000000000000000000000000000000000
310
00000000000000000000000000000000000000000000000000000000000000000000000000000000000000000000000000000000000000000000000000000000000000000000000000000000000000000000000000000000000000000000000000000000000000000000000000000000000000000000000000000000000000
310
0000000000000000000000000000000000000000000000000000000000000000000000000000000000000000000000000000000000000000000000000000000000000000000000000000000000000000000000000000000000FFFFFFFFFF00000000000000000000000000000000000000000000000000FFFFFFFFFFFFFFFF
310
00000000000000000000FC00FC0000FCFC00000000FFFFFFFFFFFFFFFFFFFFFFFFFFFFFFFFFCFCFCFCFCFCFCFCFCFCFCFCFC00000000FFFFFFFFFFFFFFFFFFFFFFFFFFFFFFFCFCFC00FCFCFCFC00FCFCFCFC00000000FFFFFFFFFFFFFFFFFFFFFFFFFFFFFFFCFCFC00FCFCFCFCFCFCFCFCFC00000000000000000000000000
310
00000000000000000000000000000000FC0000000000000000000000000000000000000000000000000000000000000000000000000000000000000000000000000000000000000000000000000000000000000000000000000000000000000000000000000000000000000000000000000000000000000000000000000000
310
00000000000000000000000000000000000000000000000000000000000000000000000000000000000000000000000000000000000000000000000000000000000000000000000000000000000000000000000000000000000000000000000000000000000000000000000000000000000000000000000000000000000000
310
00000000000000000000000000000000000000000000000000000000000000000000000000000000000000000000000000000000000000000000000000000000000000000000000000000000000000000000000000000000000000000000000000000000000000000000000000000000000000000000000000000000000000
310
0000000000000000000000000000000000000000000000000000000000000000000000000000000000000000000000000000000000000000
 70
     1
280
     1
281
     0
  0
BLOCK_RECORD
  5
B30
330
1
100
AcDbSymbolTableRecord
100
AcDbBlockTableRecord
  2
amazon block
340
0
310
2800000020000000200000000100080000000000000400000000000000000000000000000000000000000000000080000080000000808000800000008000800080800000C0C0C000C0DCC000F0CAA6000020400000206000002080000020A0000020C0000020E00000400000004020000040400000406000004080000040A0
310
000040C0000040E00000600000006020000060400000606000006080000060A0000060C0000060E00000800000008020000080400000806000008080000080A0000080C0000080E00000A0000000A0200000A0400000A0600000A0800000A0A00000A0C00000A0E00000C0000000C0200000C0400000C0600000C0800000C0
310
A00000C0C00000C0E00000E0000000E0200000E0400000E0600000E0800000E0A00000E0C00000E0E00040000000400020004000400040006000400080004000A0004000C0004000E00040200000402020004020400040206000402080004020A0004020C0004020E000404000004040200040404000404060004040800040
310
40A0004040C0004040E00040600000406020004060400040606000406080004060A0004060C0004060E00040800000408020004080400040806000408080004080A0004080C0004080E00040A0000040A0200040A0400040A0600040A0800040A0A00040A0C00040A0E00040C0000040C0200040C0400040C0600040C08000
310
40C0A00040C0C00040C0E00040E0000040E0200040E0400040E0600040E0800040E0A00040E0C00040E0E00080000000800020008000400080006000800080008000A0008000C0008000E00080200000802020008020400080206000802080008020A0008020C0008020E00080400000804020008040400080406000804080
310
008040A0008040C0008040E00080600000806020008060400080606000806080008060A0008060C0008060E00080800000808020008080400080806000808080008080A0008080C0008080E00080A0000080A0200080A0400080A0600080A0800080A0A00080A0C00080A0E00080C0000080C0200080C0400080C0600080C0
310
800080C0A00080C0C00080C0E00080E0000080E0200080E0400080E0600080E0800080E0A00080E0C00080E0E000C0000000C0002000C0004000C0006000C0008000C000A000C000C000C000E000C0200000C0202000C0204000C0206000C0208000C020A000C020C000C020E000C0400000C0402000C0404000C0406000C0
310
408000C040A000C040C000C040E000C0600000C0602000C0604000C0606000C0608000C060A000C060C000C060E000C0800000C0802000C0804000C0806000C0808000C080A000C080C000C080E000C0A00000C0A02000C0A04000C0A06000C0A08000C0A0A000C0A0C000C0A0E000C0C00000C0C02000C0C04000C0C06000
310
C0C08000C0C0A000F0FBFF00A4A0A000808080000000FF0000FF000000FFFF00FF000000FF00FF00FFFF0000FFFFFF0000000000000000000000000000000000000000000000000000000000000000000000000000000000000000000000000000000000000000000000000000000000000000000000000000000000000000
310
00000000000000000000000000000000000000000000000000000000000000000000000000000000000000000000000000000000000000000000000000000000000000000000000000000000000000000000000000000000000000000000000000000000000000000000000000000000000000000000000000000000000000
310
00000000000000000000000000000000000000000000000000000000000000000000000000000000000000000000000000000000000000000000000000000000000000000000000000000000000000000000000000000000000000000000000000000000000000000000000000000000000000000000000000000000000000
310
0000000000000000000000000000000000000000000000000000000000000000000000000000000000000000000000000000000000000000000000000000000000000000000000000000000000000000000000000000000000FFFFFFFFFF00000000000000000000000000000000000000000000000000FFFFFFFFFFFFFFFF
310
00000000000000000000E000E0E000E0E0E0000000FFFFFFFFFFFFFFFFFFFFFFFFFFFFFFFFE0E0E0E0E0E0E0E0E0E0E0E0E000000000FFFFFFFFFFFFFFFFFFFFFFFFFFFFFFE0E0E0E0E0E0E0E0E0E0E0E0E000000000FFFFFFFFFFFFFFFFFFFFFFFFFFFFFFE0E0E0E0E0E0E0E0E0E0E0E0E0E0000000000000000000000000
310
00000000000000000000000000000000E00000000000000000000000000000000000000000000000000000000000000000000000000000000000000000000000000000000000000000000000000000000000000000000000000000000000000000000000000000000000000000000000000000000000000000000000000000
310
00000000000000000000000000000000000000000000000000000000000000000000000000000000000000000000000000000000000000000000000000000000000000000000000000000000000000000000000000000000000000000000000000000000000000000000000000000000000000000000000000000000000000
310
00000000000000000000000000000000000000000000000000000000000000000000000000000000000000000000000000000000000000000000000000000000000000000000000000000000000000000000000000000000000000000000000000000000000000000000000000000000000000000000000000000000000000
310
0000000000000000000000000000000000000000000000000000000000000000000000000000000000000000000000000000000000000000
102
{BLKREFS
331
B40
102
}
 70
     1
280
     1
281
     0
  0
BLOCK_RECORD
  5
F66
330
1
100
AcDbSymbolTableRecord
100
AcDbBlockTableRecord
  2
SW_CENTERMARKSYMBOL_0
340
0
102
{BLKREFS
331
11EA
102
}
 70
     0
280
     1
281
     0
  0
BLOCK_RECORD
  5
F71
330
1
100
AcDbSymbolTableRecord
100
AcDbBlockTableRecord
  2
SW_CENTERMARKSYMBOL_1
340
0
102
{BLKREFS
331
11EB
102
}
 70
     0
280
     1
281
     0
  0
BLOCK_RECORD
  5
1476
330
1
100
AcDbSymbolTableRecord
100
AcDbBlockTableRecord
  2
*D7
340
0
 70
     0
280
     1
281
     0
  0
BLOCK_RECORD
  5
1485
330
1
100
AcDbSymbolTableRecord
100
AcDbBlockTableRecord
  2
*D8
340
0
 70
     0
280
     1
281
     0
  0
BLOCK_RECORD
  5
1492
330
1
100
AcDbSymbolTableRecord
100
AcDbBlockTableRecord
  2
*D9
340
0
 70
     0
280
     1
281
     0
  0
BLOCK_RECORD
  5
149F
330
1
100
AcDbSymbolTableRecord
100
AcDbBlockTableRecord
  2
*D10
340
0
 70
     0
280
     1
281
     0
  0
BLOCK_RECORD
  5
14AC
330
1
100
AcDbSymbolTableRecord
100
AcDbBlockTableRecord
  2
*D11
340
0
 70
     0
280
     1
281
     0
  0
BLOCK_RECORD
  5
14BA
330
1
100
AcDbSymbolTableRecord
100
AcDbBlockTableRecord
  2
*D12
340
0
 70
     0
280
     1
281
     0
  0
ENDTAB
  0
ENDSEC
  0
SECTION
  2
BLOCKS
  0
BLOCK
  5
20
330
1F
100
AcDbEntity
  8
0
100
AcDbBlockBegin
  2
*Model_Space
 70
     0
 10
0.0
 20
0.0
 30
0.0
  3
*Model_Space
  1

  0
ENDBLK
  5
21
330
1F
100
AcDbEntity
  8
0
100
AcDbBlockEnd
  0
BLOCK
  5
1C
330
1B
100
AcDbEntity
 67
     1
  8
0
100
AcDbBlockBegin
  2
*Paper_Space
 70
     0
 10
0.0
 20
0.0
 30
0.0
  3
*Paper_Space
  1

  0
ENDBLK
  5
1D
330
1B
100
AcDbEntity
 67
     1
  8
0
100
AcDbBlockEnd
  0
BLOCK
  5
24
330
23
100
AcDbEntity
 67
     1
  8
0
100
AcDbBlockBegin
  2
*Paper_Space0
 70
     0
 10
0.0
 20
0.0
 30
0.0
  3
*Paper_Space0
  1

  0
ENDBLK
  5
25
330
23
100
AcDbEntity
 67
     1
  8
0
100
AcDbBlockEnd
  0
BLOCK
  5
3FA
330
3F9
100
AcDbEntity
  8
0
100
AcDbBlockBegin
  2
Block3
 70
     0
 10
0.0
 20
0.0
 30
0.0
  3
Block3
  1

  0
CIRCLE
  5
3FB
330
3F9
100
AcDbEntity
  8
FORMAT
 62
     7
370
    15
100
AcDbCircle
 10
9.623096090023436
 20
2.115622186524885
 30
0.0
 40
0.0998031496062924
  0
CIRCLE
  5
3FC
330
3F9
100
AcDbEntity
  8
FORMAT
 62
     7
370
    15
100
AcDbCircle
 10
9.623096090023436
 20
2.115622186524885
 30
0.0
 40
0.1996062992125948
  0
LINE
  5
3FD
330
3F9
100
AcDbEntity
  8
FORMAT
 62
     7
370
    15
100
AcDbLine
 10
10.05890680910872
 20
2.020396293772344
 30
0.0
 11
10.05890680910872
 21
2.210848079277426
 31
0.0
  0
LINE
  5
3FE
330
3F9
100
AcDbEntity
  8
FORMAT
 62
     7
370
    15
100
AcDbLine
 10
10.05890680910872
 20
2.210848079277426
 30
0.0
 11
10.55986477488565
 21
2.315228485737483
 31
0.0
  0
LINE
  5
3FF
330
3F9
100
AcDbEntity
  8
FORMAT
 62
     7
370
    15
100
AcDbLine
 10
10.55986477488565
 20
2.315228485737483
 30
0.0
 11
10.55986477488565
 21
1.916015887312285
 31
0.0
  0
LINE
  5
400
330
3F9
100
AcDbEntity
  8
FORMAT
 62
     7
370
    15
100
AcDbLine
 10
10.55986477488565
 20
1.916015887312285
 30
0.0
 11
10.05890680910872
 21
2.020396293772344
 31
0.0
  0
LINE
  5
401
330
3F9
100
AcDbEntity
  8
FORMAT
 62
     7
370
    15
100
AcDbLine
 10
9.987169396213419
 20
2.115622186524885
 30
0.0
 11
10.59626953693931
 21
2.115622186524885
 31
0.0
  0
LINE
  5
402
330
3F9
100
AcDbEntity
  8
FORMAT
 62
     7
370
    15
100
AcDbLine
 10
9.368122674365656
 20
2.115622186524885
 30
0.0
 11
9.87806950568121
 21
2.115622186524885
 31
0.0
  0
LINE
  5
403
330
3F9
100
AcDbEntity
  8
FORMAT
 62
     7
370
    15
100
AcDbLine
 10
9.623096090023436
 20
1.872691387914879
 30
0.0
 11
9.623096090023436
 21
2.382638219230431
 31
0.0
  0
ENDBLK
  5
404
330
3F9
100
AcDbEntity
  8
0
100
AcDbBlockEnd
  0
BLOCK
  5
406
330
405
100
AcDbEntity
  8
0
100
AcDbBlockBegin
  2
Block2
 70
     0
 10
0.0
 20
0.0
 30
0.0
  3
Block2
  1

  0
INSERT
  5
407
330
405
100
AcDbEntity
  8
0
  6
Continuous
 62
     7
100
AcDbBlockReference
  2
Block3
 10
-0.0282699124868556
 20
0.0201145539810274
 30
0.0
  0
ENDBLK
  5
408
330
405
100
AcDbEntity
  8
0
100
AcDbBlockEnd
  0
BLOCK
  5
40C
330
409
100
AcDbEntity
  8
0
100
AcDbBlockBegin
  2
amazon
 70
     0
 10
0.0
 20
0.0
 30
0.0
  3
amazon
  1

  0
HATCH
  5
40D
330
409
100
AcDbEntity
  8
0
100
AcDbHatch
 10
0.0
 20
0.0
 30
0.0
210
0.0
220
0.0
230
0.9999999999999998
  2
SOLID
 70
     1
 71
     0
 91
        1
 92
        5
 93
        1
 72
     4
 94
        3
 73
     0
 74
     0
 95
       18
 96
       14
 40
0.0
 40
0.0
 40
0.0
 40
0.0
 40
0.0596755466403443
 40
0.1035834707990989
 40
0.1695571134872838
 40
0.2000964637947284
 40
0.2237461165360023
 40
0.2565225897680324
 40
0.2756876256135649
 40
0.3018435697278741
 40
0.3302551352352805
 40
0.3457181605243852
 40
0.3618589112597388
 40
0.3618589112597388
 40
0.3618589112597388
 40
0.3618589112597388
 10
0.9280407135556529
 20
0.3678371450737368
 10
1.014164084729102
 20
0.3851494268204694
 10
1.144945011486449
 20
0.4024842103214663
 10
1.481904894757406
 20
0.3990648758382389
 10
1.309526957346704
 20
0.1657833910269666
 10
1.071996456892463
 20
0.0025828528301117
 10
1.213429780952147
 20
0.147260900816045
 10
1.269689397936616
 20
0.2055836989094448
 10
1.328770741103362
 20
0.3426132943554165
 10
1.182110533057802
 20
0.3629915346337151
 10
1.077363991359149
 20
0.3586993230536737
 10
1.01802908590988
 20
0.3618658313307459
 10
0.904746484263093
 20
0.3631546035627498
 10
0.9280407135556529
 20
0.3678371450737368
 97
        0
 75
     0
 76
     1
 47
0.0083360314226261
 98
        1
 10
1.350036184717041
 20
0.3275823953230534
450
        0
451
        0
460
0.0
461
0.0
452
        1
462
1.0
453
        2
463
0.0
 63
     5
421
      255
463
1.0
 63
     7
421
 16777215
470
LINEAR
1001
ACAD
1010
0.0
1020
0.0
1030
0.0
  0
HATCH
  5
40E
330
409
100
AcDbEntity
  8
0
100
AcDbHatch
 10
0.0
 20
0.0
 30
0.0
210
0.0
220
0.0
230
0.9999999999999998
  2
SOLID
 70
     1
 71
     0
 91
        9
 92
        7
 72
     1
 73
     1
 93
       20
 10
-1.397399278738596
 20
0.888299103756417
 42
0.0
 10
-1.517557092146972
 20
0.8521069912840207
 42
0.0
 10
-1.634457615432786
 20
0.8260486703038981
 42
0.113500075695427
 10
-1.796297882939342
 20
0.77249506361993
 42
0.335029435887297
 10
-1.882119182302076
 20
0.5660893728218724
 42
0.2523749963765925
 10
-1.737967057103837
 20
0.4398788302234422
 42
0.1008759599722844
 10
-1.585598263595066
 20
0.4319165654795154
 42
0.1558313267708922
 10
-1.397230403062579
 20
0.516966153393244
 42
0.0
 10
-1.397399278738596
 20
0.5017673425512395
 42
0.1600174655974661
 10
-1.372064800007926
 20
0.4395169090987201
 42
0.0
 10
-1.217886400875514
 20
0.4395169090987201
 42
-0.1096578030042886
 10
-1.250459302100694
 20
0.4735374948229208
 42
-0.1371553684281488
 10
-1.269279200586318
 20
0.540854824021424
 42
0.0
 10
-1.269279200586318
 20
0.9244912162288137
 42
0.267077244638994
 10
-1.391608540743007
 20
1.084460353356798
 42
0.1085027846705916
 10
-1.618171164820246
 20
1.110518674336923
 42
0.3343505200399534
 10
-1.854867580389672
 20
0.9063951599926172
 42
0.0
 10
-1.71371834174733
 20
0.9063951599926172
 42
-0.2815324590939715
 10
-1.623703637535193
 20
0.9970774848409384
 42
-0.1775171235246243
 10
-1.454582816445004
 20
0.984570122933
 42
-0.2483479329952881
 97
        0
 92
       22
 72
     1
 73
     1
 93
        8
 10
-1.397399278738596
 20
0.7768273973414295
 42
0.0
 10
-1.397399278738596
 20
0.658841110681435
 42
-0.2004737922071577
 10
-1.563882996111615
 20
0.5415786662708722
 42
-0.1115040980661369
 10
-1.686936178517754
 20
0.5404929028967014
 42
-0.2738586692622027
 10
-1.742672031725241
 20
0.6002098884761536
 42
-0.289643054085014
 10
-1.707203761502306
 20
0.6928616964054842
 42
-0.1190249358109779
 10
-1.625409587314685
 20
0.7261584398800891
 42
-0.0006545690929014
 10
-1.500908720409647
 20
0.7514929186107651
 42
0.031014715336947
 97
        0
 92
        7
 72
     1
 73
     1
 93
       27
 10
-1.062984159493659
 20
0.4395169090987201
 42
0.0
 10
-0.9348640813413879
 20
0.4395169090987201
 42
0.0
 10
-0.9348640813413879
 20
0.8535546757829193
 42
-0.1716644096531924
 10
-0.8769567013855592
 20
0.9534449062067299
 42
-0.1448545784781812
 10
-0.7799618399595332
 20
0.9997708101713946
 42
-0.1340090766267909
 10
-0.6862242686560336
 20
0.9885512553049524
 42
-0.2563461470910333
 10
-0.6192688605821033
 20
0.8998805797475881
 42
0.0
 10
-0.6192688605821033
 20
0.4395169090987201
 42
0.0
 10
-0.4904249401803611
 20
0.4395169090987201
 42
0.0
 10
-0.4904249401803753
 20
0.8641979875178154
 42
-0.1830801363087423
 10
-0.4212980053581035
 20
0.9621310132001053
 42
-0.1206854715101709
 10
-0.3311796453018374
 20
0.9975992834230517
 42
-0.2157527517618656
 10
-0.216674861049178
 20
0.9774303127070119
 42
-0.2679983488848178
 10
-0.1748297194210906
 20
0.9063951599927708
 42
0.0
 10
-0.1748297194210977
 20
0.4395169090987201
 42
0.0
 10
-0.0467096412688122
 20
0.4395169090987201
 42
0.0
 10
-0.0467096412688122
 20
0.9063951599926172
 42
0.0
 10
-0.0467096412688122
 20
0.9360726922199805
 42
0.2784603970195297
 10
-0.1675912969266093
 20
1.094594144849069
 42
0.1495326253440701
 10
-0.3521710705358245
 20
1.102556409592997
 42
0.1796241607690637
 10
-0.5034541006704388
 20
0.9896370186791244
 42
0.1190036376854939
 10
-0.5809052213613626
 20
1.073602719615081
 42
0.1510696384071214
 10
-0.753179676729971
 20
1.112690201085266
 42
0.122416550902687
 10
-0.8494506959065404
 20
1.081564984359008
 42
0.0903817772246913
 10
-0.9348640813413879
 20
1.001218494670287
 42
0.0
 10
-0.9348640813413879
 20
1.101108725094101
 42
0.0
 10
-1.062984159493659
 20
1.101108725094101
 42
0.0
 97
        0
 92
        7
 72
     1
 73
     1
 93
       20
 10
0.1120662149268909
 20
0.5660893728218764
 42
0.2523749963765703
 10
0.256218340125109
 20
0.4398788302234467
 42
0.100875959972303
 10
0.4085871336339224
 20
0.4319165654795159
 42
0.1558313267708855
 10
0.5969549941663886
 20
0.516966153393244
 42
0.0
 10
0.5967861184903711
 20
0.5017673425512395
 42
0.1600174655974661
 10
0.6221205972210555
 20
0.4395169090987201
 42
0.0
 10
0.7762989963534466
 20
0.4395169090987201
 42
-0.1096578030036369
 10
0.7437260951284089
 20
0.4735374948226645
 42
-0.1371553684287215
 10
0.7249061966426496
 20
0.540854824021424
 42
0.0
 10
0.7249061966426496
 20
0.9244912162288137
 42
0.2670772446390557
 10
0.6025768564859249
 20
1.084460353356814
 42
0.1085027846705556
 10
0.3760142324087567
 20
1.110518674336923
 42
0.3343505200399825
 10
0.1393178168393021
 20
0.9063951599926172
 42
0.0
 10
0.2804670554816368
 20
0.9063951599926172
 42
-0.2815324590939487
 10
0.370481759693746
 20
0.9970774848409313
 42
-0.1775171235246857
 10
0.539602580783992
 20
0.9845701229329858
 42
-0.2483479329952225
 10
0.5967861184903711
 20
0.888299103756417
 42
0.0
 10
0.4766283050820306
 20
0.8521069912840264
 42
0.0
 10
0.359727781796181
 20
0.8260486703038981
 42
0.113500075695427
 10
0.1978875142896257
 20
0.77249506361993
 42
0.335029435887291
 97
        0
 92
       22
 72
     1
 73
     1
 93
        8
 10
0.2869816357266757
 20
0.6928616964054842
 42
-0.1190249358109779
 10
0.3687758099142826
 20
0.7261584398800891
 42
-0.0006545690929014
 10
0.4932766768193205
 20
0.7514929186107651
 42
0.0310147153369478
 10
0.5967861184903711
 20
0.7768273973414419
 42
0.0
 10
0.5967861184903711
 20
0.658841110681435
 42
-0.2004737922071577
 10
0.430302401117352
 20
0.5415786662708722
 42
-0.1115040980661369
 10
0.3072492187112061
 20
0.5404929028967014
 42
-0.2738586692622027
 10
0.251513365503726
 20
0.6002098884761536
 42
-0.289643054085014
 97
        0
 92
        7
 72
     1
 73
     1
 93
       10
 10
1.490731296558529
 20
0.9717250567569255
 42
0.0
 10
1.490731296558529
 20
1.101108725094102
 42
0.0
 10
0.9246866574902696
 20
1.101108725094102
 42
0.0
 10
0.9246866574902767
 20
0.9648744605637409
 42
0.0
 10
1.298313112053691
 20
0.9648744605637409
 42
0.0
 10
0.8993521787595994
 20
0.5408548240214275
 42
0.0
 10
0.8993521787595994
 20
0.4395169090987241
 42
-0.1473109550280885
 10
1.52402804003313
 20
0.4395169090987184
 42
0.0
 10
1.52402804003313
 20
0.581774738538516
 42
0.0747823019347494
 10
1.16328520907988
 20
0.6214717791056393
 42
0.0
 97
        0
 92
        7
 72
     1
 73
     1
 93
        2
 10
1.658662698430447
 20
0.7829800564617493
 42
1.0
 10
2.353551257900427
 20
0.7829800564617493
 42
1.0
 97
        0
 92
       22
 72
     1
 73
     1
 93
        2
 10
2.212041370259932
 20
0.7829800564617493
 42
-1.0
 10
1.800172586070949
 20
0.7829800564617493
 42
-1.0
 97
        0
 92
        7
 72
     1
 73
     1
 93
       15
 10
2.520758817522896
 20
0.4395169090987201
 42
0.0
 10
2.649602737924617
 20
0.4395169090987201
 42
0.0
 10
2.649602737924617
 20
0.7753797128425455
 42
-0.1884880930389393
 10
2.726330016366098
 20
0.9404157457166672
 42
-0.0825504763720134
 10
2.808124190553712
 20
1.002666179169187
 42
-0.1879859195515259
 10
2.9333488997082
 20
1.010628443913113
 42
-0.3400688989443128
 10
3.022381496390295
 20
0.8948632846375158
 42
0.0
 10
3.022381496390295
 20
0.4395169090987201
 42
0.0
 10
3.151225416792009
 20
0.4395169090987201
 42
0.0
 10
3.151225416792023
 20
0.9382442189683235
 42
0.3709832727766776
 10
2.952118968473769
 20
1.109868265359158
 42
0.160618198198489
 10
2.773379762580219
 20
1.083012668857902
 42
0.0920112842116662
 10
2.649602737924617
 20
0.9831224384341012
 42
0.0
 10
2.649602737924631
 20
1.101108725094101
 42
0.0
 10
2.520758817522896
 20
1.1011087250941
 42
0.0
 97
        0
 75
     0
 76
     1
 47
0.0079344138681199
 98
        9
 10
-1.376638647914745
 20
0.8943652481782571
 10
-1.376638647914745
 20
0.8943652481782571
 10
-1.008011843667617
 20
0.7810537369378041
 10
0.2295103337683244
 20
0.706616395506853
 10
0.2295103337683244
 20
0.706616395506853
 10
1.173803717490862
 20
0.7215039733471374
 10
1.736822720547962
 20
0.9152585806937842
 10
1.736822720547962
 20
0.9152585806937842
 10
2.581717008623201
 20
0.8854836988984509
450
        0
451
        0
460
0.0
461
0.0
452
        1
462
1.0
453
        2
463
0.0
 63
     5
421
      255
463
1.0
 63
     7
421
 16777215
470
LINEAR
1001
ACAD
1010
0.0
1020
0.0
1030
0.0
  0
TEXT
  5
40F
330
409
100
AcDbEntity
  8
0
 62
   150
100
AcDbText
 10
3.411151618523078
 20
0.4239129498757777
 30
0.0
 40
1.05
  1
supply
 41
1.08
  7
style2
100
AcDbText
  0
HATCH
  5
410
330
409
100
AcDbEntity
  8
0
100
AcDbHatch
 10
0.0
 20
0.0
 30
0.0
210
0.0
220
0.0
230
0.9999999999999998
  2
SOLID
 70
     1
 71
     0
 91
        1
 92
        7
 72
     1
 73
     1
 93
        2
 10
-1.177902949885989
 20
0.4051926481048067
 42
0.3081272588713221
 10
1.212164975232198
 20
0.2933070771634125
 42
-0.177724595219735
 97
        0
 75
     0
 76
     1
 47
0.0009928164167271
 98
        1
 10
0.1755697210077258
 20
0.0593374821502257
450
        0
451
        0
460
0.0
461
0.0
452
        1
462
1.0
453
        2
463
0.0
 63
     5
421
      255
463
1.0
 63
     7
421
 16777215
470
LINEAR
1001
ACAD
1010
0.0
1020
0.0
1030
0.0
  0
ENDBLK
  5
411
330
409
100
AcDbEntity
  8
0
100
AcDbBlockEnd
  0
BLOCK
  5
B31
330
B30
100
AcDbEntity
  8
0
100
AcDbBlockBegin
  2
amazon block
 70
     0
 10
0.0
 20
0.0
 30
0.0
  3
amazon block
  1

  0
HATCH
  5
B32
330
B30
100
AcDbEntity
  8
0
100
AcDbHatch
 10
0.0
 20
0.0
 30
0.0
210
0.0
220
0.0
230
1.0
  2
SOLID
 70
     1
 71
     0
 91
        1
 92
        7
 72
     1
 73
     1
 93
        2
 10
0.1428560650202613
 20
0.0268249692297831
 42
0.3005568377796329
 10
0.6100026189360293
 20
0.0009915743964171
 42
-0.1486648242730099
 97
        0
 75
     0
 76
     1
 47
0.0083360314226261
 98
        1
 10
0.3681872109149253
 20
-0.0332769951503647
450
        0
451
        0
460
0.0
461
0.0
452
        1
462
1.0
453
        2
463
0.0
 63
     5
421
      255
463
1.0
 63
     7
421
 16777215
470
LINEAR
1001
ACAD
1010
0.0
1020
0.0
1030
0.0
  0
HATCH
  5
B33
330
B30
100
AcDbEntity
  8
0
100
AcDbHatch
 10
0.0
 20
0.0
 30
0.0
210
0.0
220
0.0
230
1.0
  2
SOLID
 70
     1
 71
     0
 91
        1
 92
        5
 93
        1
 72
     4
 94
        3
 73
     0
 74
     0
 95
       18
 96
       14
 40
0.0
 40
0.0
 40
0.0
 40
0.0
 40
0.3060284443094571
 40
0.531197286149225
 40
0.8695236589091486
 40
1.026135711767838
 40
1.14741598223591
 40
1.315500460348882
 40
1.413679231894078
 40
1.543957423309552
 40
1.719337158993241
 40
1.76919128251474
 40
1.852441399548553
 40
1.852441399548553
 40
1.852441399548553
 40
1.852441399548553
 10
0.5476248318910955
 20
0.0189472839500944
 10
0.5671265702171127
 20
0.0228674694218305
 10
0.5967407336623403
 20
0.0267937023518194
 10
0.6730410215606746
 20
0.0260155775369224
 10
0.6340109953118472
 20
-0.0267925718215847
 10
0.5802183818763105
 20
-0.0637796196110996
 10
0.6122605658026537
 20
-0.030937261100445
 10
0.624929189918916
 20
-0.0180757154749651
 10
0.6383573330340191
 20
0.013562833138125
 10
0.6020518241954172
 20
0.0146147000415664
 10
0.5794789444548947
 20
0.0158864032827642
 10
0.5641956865595646
 20
0.0167018526831093
 10
0.5423196975867733
 20
0.017880860532975
 10
0.5476248318910955
 20
0.0189472839500944
 97
        0
 75
     0
 76
     1
 47
0.0083360314226261
 98
        1
 10
0.644363460657651
 20
0.0075847933888076
450
        0
451
        0
460
0.0
461
0.0
452
        1
462
1.0
453
        2
463
0.0
 63
     5
421
      255
463
1.0
 63
     7
421
 16777215
470
LINEAR
1001
ACAD
1010
0.0
1020
0.0
1030
0.0
  0
HATCH
  5
B34
330
B30
100
AcDbEntity
  8
0
100
AcDbHatch
 10
0.0
 20
0.0
 30
0.0
210
0.0
220
0.0
230
1.0
  2
SOLID
 70
     1
 71
     0
 91
        9
 92
        7
 72
     1
 73
     1
 93
       20
 10
0.1000542808940033
 20
0.1169245515333142
 42
0.0
 10
0.076623507279372
 20
0.1098670896011966
 42
0.0
 10
0.0538279052386379
 20
0.1047857170100728
 42
0.113500075695427
 10
0.0222690530748579
 20
0.0943427637066989
 42
0.335029435887297
 10
0.0055338996991239
 20
0.0540936540010777
 42
0.2523749963765925
 10
0.0336435641127828
 20
0.0294825981943836
 42
0.1008759599722844
 10
0.0633554788469937
 20
0.0279299565693179
 42
0.1558313267708922
 10
0.1000872116508269
 20
0.0445146262124951
 42
0.0
 10
0.1000542808940033
 20
0.0415508580983044
 42
0.1600174655974661
 10
0.1049945042464841
 20
0.029412023575063
 42
0.0
 10
0.1350592920773046
 20
0.029412023575063
 42
-0.1096578030042886
 10
0.128707576338396
 20
0.0360460377912819
 42
-0.1371553684281488
 10
0.125037696133699
 20
0.0491729169849902
 42
0.0
 10
0.125037696133699
 20
0.1239820134654312
 42
0.267077244638994
 10
0.1011834748031433
 20
0.1551759952053882
 42
0.1085027846705916
 10
0.0570037631080815
 20
0.1602573677965124
 42
0.3343505200399534
 10
0.0108479620720452
 20
0.1204532824993727
 42
0.0
 10
0.0383720636073015
 20
0.1204532824993727
 42
-0.2815324590939715
 10
0.0559249309286685
 20
0.1381363358447958
 42
-0.1775171235246243
 10
0.0889034910412541
 20
0.1356974002727478
 42
-0.2483479329952881
 97
        0
 92
       22
 72
     1
 73
     1
 93
        8
 10
0.1000542808940033
 20
0.0951875687823911
 42
0.0
 10
0.1000542808940033
 20
0.0721802428836922
 42
-0.2004737922071577
 10
0.0675899560062661
 20
0.0493140662236327
 42
-0.1115040980661369
 10
0.0435945854370701
 20
0.0491023423656691
 42
-0.2738586692622027
 10
0.0327260940616085
 20
0.0607471545536624
 42
-0.289643054085014
 10
0.0396424067550818
 20
0.0788142570998818
 42
-0.1190249358109779
 10
0.0555922707216681
 20
0.0853071220774298
 42
-0.0006545690929014
 10
0.0798699397681482
 20
0.090247345429912
 42
0.031014715336947
 97
        0
 92
        7
 72
     1
 73
     1
 93
       27
 10
0.1652652291467689
 20
0.029412023575063
 42
0.0
 10
0.190248644386461
 20
0.029412023575063
 42
0.0
 10
0.190248644386461
 20
0.1101493880784821
 42
-0.1716644096531924
 10
0.201540583477847
 20
0.1296279830111251
 42
-0.1448545784781812
 10
0.2204545814559218
 20
0.1386615342842345
 42
-0.1340090766267909
 10
0.2387334078601029
 20
0.1364737210852782
 42
-0.2563461470910333
 10
0.251789712434519
 20
0.1191829393515924
 42
0.0
 10
0.251789712434519
 20
0.029412023575063
 42
0.0
 10
0.2769142769128621
 20
0.029412023575063
 42
0.0
 10
0.2769142769128585
 20
0.1122248338667866
 42
-0.1830801363087423
 10
0.290394029203199
 20
0.1313217738748333
 42
-0.1206854715101709
 10
0.3079671094141716
 20
0.1382380865683075
 42
-0.2157527517618656
 10
0.3302955423434426
 20
0.1343051372786799
 42
-0.2679983488848178
 10
0.33845534496092
 20
0.1204532824994029
 42
0.0
 10
0.3384553449609164
 20
0.029412023575063
 42
0.0
 10
0.3634387602006122
 20
0.029412023575063
 42
0.0
 10
0.3634387602006122
 20
0.1204532824993727
 42
0.0
 10
0.3634387602006122
 20
0.1262404012837086
 42
0.2784603970195297
 10
0.3398668373473406
 20
0.1571520845463814
 42
0.1495326253440701
 10
0.3038737814935466
 20
0.1587047261714471
 42
0.1796241607690637
 10
0.2743735906172944
 20
0.1366854449432417
 42
0.1190036376854939
 10
0.259270622082564
 20
0.1530587566257537
 42
0.1510696384071214
 10
0.2256771032856868
 20
0.1606808155124395
 42
0.122416550902687
 10
0.2069042545462558
 20
0.154611398250819
 42
0.0903817772246913
 10
0.190248644386461
 20
0.1389438327615187
 42
0.0
 10
0.190248644386461
 20
0.1584224276941626
 42
0.0
 10
0.1652652291467689
 20
0.1584224276941626
 42
0.0
 97
        0
 92
        7
 72
     1
 73
     1
 93
       20
 10
0.394400052158776
 20
0.0540936540010786
 42
0.2523749963765703
 10
0.4225097165724279
 20
0.0294825981943845
 42
0.100875959972303
 10
0.4522216313066459
 20
0.0279299565693183
 42
0.1558313267708855
 10
0.4889533641104756
 20
0.0445146262124951
 42
0.0
 10
0.4889204333536519
 20
0.0415508580983044
 42
0.1600174655974661
 10
0.4938606567061364
 20
0.029412023575063
 42
0.0
 10
0.5239254445369533
 20
0.029412023575063
 42
-0.1096578030036369
 10
0.5175737287980695
 20
0.0360460377912322
 42
-0.1371553684287215
 10
0.5139038485933476
 20
0.0491729169849902
 42
0.0
 10
0.5139038485933476
 20
0.1239820134654312
 42
0.2670772446390557
 10
0.4900496272627848
 20
0.1551759952053913
 42
0.1085027846705556
 10
0.4458699155677373
 20
0.1602573677965129
 42
0.3343505200399825
 10
0.3997141145316938
 20
0.1204532824993727
 42
0.0
 10
0.4272382160669502
 20
0.1204532824993727
 42
-0.2815324590939487
 10
0.44479108338831
 20
0.138136335844794
 42
-0.1775171235246857
 10
0.4777696435009098
 20
0.1356974002727447
 42
-0.2483479329952225
 10
0.4889204333536519
 20
0.1169245515333142
 42
0.0
 10
0.4654896597390277
 20
0.1098670896011979
 42
0.0
 10
0.4426940576982866
 20
0.1047857170100728
 42
0.113500075695427
 10
0.4111352055345066
 20
0.0943427637066989
 42
0.335029435887291
 97
        0
 92
       22
 72
     1
 73
     1
 93
        8
 10
0.428508559214734
 20
0.0788142570998818
 42
-0.1190249358109779
 10
0.4444584231813167
 20
0.0853071220774298
 42
-0.0006545690929014
 10
0.4687360922277968
 20
0.090247345429912
 42
0.0310147153369478
 10
0.4889204333536519
 20
0.0951875687823938
 42
0.0
 10
0.4889204333536519
 20
0.0721802428836922
 42
-0.2004737922071577
 10
0.4564561084659147
 20
0.0493140662236327
 42
-0.1115040980661369
 10
0.4324607378967152
 20
0.0491023423656691
 42
-0.2738586692622027
 10
0.4215922465212572
 20
0.0607471545536624
 42
-0.289643054085014
 97
        0
 92
        7
 72
     1
 73
     1
 93
       10
 10
0.663239743076943
 20
0.1331926123684131
 42
0.0
 10
0.663239743076943
 20
0.1584224276941626
 42
0.0
 10
0.5528610384586337
 20
0.1584224276941626
 42
0.0
 10
0.5528610384586337
 20
0.131856746110742
 42
0.0
 10
0.6257181970985002
 20
0.131856746110742
 42
0.0
 10
0.5479208151061528
 20
0.0491729169849911
 42
0.0
 10
0.5479208151061528
 20
0.0294120235750635
 42
-0.1473109550280885
 10
0.6697326080544919
 20
0.0294120235750626
 42
0.0
 10
0.6697326080544919
 20
0.0571523003158232
 42
0.0747823019347494
 10
0.5993877560186079
 20
0.0648932232264121
 42
0.0
 97
        0
 92
        7
 72
     1
 73
     1
 93
        2
 10
0.6959863664419679
 20
0.0963873373108535
 42
1.0
 10
0.8314896355386132
 20
0.0963873373108535
 42
1.0
 97
        0
 92
       22
 72
     1
 73
     1
 93
        2
 10
0.8038952074487184
 20
0.0963873373108535
 42
-1.0
 10
0.7235807945318662
 20
0.0963873373108535
 42
-1.0
 97
        0
 92
        7
 72
     1
 73
     1
 93
       15
 10
0.8640951096649978
 20
0.029412023575063
 42
0.0
 10
0.8892196741433302
 20
0.029412023575063
 42
0.0
 10
0.8892196741433302
 20
0.0949052703051088
 42
-0.1884880930389393
 10
0.9041814934394203
 20
0.1270872967155627
 42
-0.0825504763720134
 10
0.9201313574060066
 20
0.1392261312388041
 42
-0.1879859195515259
 10
0.9445501756911305
 20
0.1407787728638694
 42
-0.3400688989443128
 10
0.9619115320441373
 20
0.1182045668051281
 42
0.0
 10
0.9619115320441373
 20
0.029412023575063
 42
0.0
 10
0.9870360965224733
 20
0.029412023575063
 42
0.0
 10
0.9870360965224769
 20
0.1266638489996357
 42
0.3709832727766776
 10
0.9482103391004166
 20
0.1601305380458484
 42
0.160618198198489
 10
0.9133561939511736
 20
0.1548936967281036
 42
0.0920112842116662
 10
0.8892196741433302
 20
0.1354151017954623
 42
0.0
 10
0.8892196741433338
 20
0.1584224276941626
 42
0.0
 10
0.8640951096649978
 20
0.1584224276941621
 42
0.0
 97
        0
 75
     0
 76
     1
 47
0.0079344138681199
 98
        9
 10
0.1041026039046571
 20
0.1181074496955725
 10
0.1041026039046571
 20
0.1181074496955725
 10
0.175984830732844
 20
0.0960117050036842
 10
0.4173016553328531
 20
0.0814964234246487
 10
0.4173016553328531
 20
0.0814964234246487
 10
0.6014388651587482
 20
0.0843995011035044
 10
0.7112275707548826
 20
0.1221816495361003
 10
0.7112275707548826
 20
0.1221816495361003
 10
0.8759819569295572
 20
0.1163755475860104
450
        0
451
        0
460
0.0
461
0.0
452
        1
462
1.0
453
        2
463
0.0
 63
     5
421
      255
463
1.0
 63
     7
421
 16777215
470
LINEAR
1001
ACAD
1010
0.0
1020
0.0
1030
0.0
  0
HATCH
  5
B35
330
B30
100
AcDbEntity
  8
0
 62
   150
100
AcDbHatch
 10
0.0
 20
0.0
 30
0.0
210
0.0
220
0.0
230
1.0
  2
SOLID
 70
     1
 71
     0
 91
        8
 92
        7
 72
     1
 73
     1
 93
       22
 10
1.131716859301388
 20
0.0982802106585603
 42
0.0484183422992068
 10
1.088571435005292
 20
0.1135920246412381
 42
-0.1024497749852004
 10
1.063583383368957
 20
0.125237861247649
 42
-0.5197370575112227
 10
1.065952625421378
 20
0.1500864950045506
 42
-0.1784163181567931
 10
1.097462280584622
 20
0.1562497626075707
 42
-0.1611556671223822
 10
1.130948711999153
 20
0.1417059730721331
 42
0.0
 10
1.143877562730139
 20
0.1560685971400009
 42
0.0879608039459819
 10
1.125754289819187
 20
0.1671964668262178
 42
0.096844267443967
 10
1.086490181797579
 20
0.1727441735534061
 42
0.1289645081611661
 10
1.053342092127955
 20
0.1633533786648891
 42
0.2520599057044872
 10
1.037629278411372
 20
0.1399706628121899
 42
0.2998873610886212
 10
1.050463850241648
 20
0.1096908005921695
 42
0.087968247036807
 10
1.088782354168369
 20
0.0932096049078468
 42
-0.0908267507933147
 10
1.119928772767817
 20
0.0811747820304691
 42
-0.4466858316882535
 10
1.125453128485816
 20
0.0540976492614389
 42
-0.2058443735084833
 10
1.094059901125532
 20
0.0433269295271455
 42
-0.2322683613354944
 10
1.04833474053288
 20
0.0635860005622337
 42
0.0
 10
1.033442870302863
 20
0.0487121861500608
 42
0.0897498636939959
 10
1.054992265021407
 20
0.0336893058402592
 42
0.1162784600455089
 10
1.100093060274716
 20
0.0271838680846326
 42
0.1305494116801128
 10
1.134902795650507
 20
0.0379471166909786
 42
0.2700443324603339
 10
1.150563716135536
 20
0.0687356163070478
 42
0.2747552069495999
 97
        0
 92
        7
 72
     1
 73
     1
 93
       17
 10
1.204964925758659
 20
0.0711619205531866
 42
0.0
 10
1.204964925758659
 20
0.1705032481376225
 42
0.0
 10
1.182530424786222
 20
0.1705032481376221
 42
0.0
 10
1.182530424786222
 20
0.068114123580882
 42
0.231056446390574
 10
1.200275679141658
 20
0.0337787716591849
 42
0.1033983125445035
 10
1.222016181175408
 20
0.0271400549874108
 42
0.1113661879093152
 10
1.256252700835137
 20
0.0321455417860066
 42
0.060456799039856
 10
1.280359576718197
 20
0.0437750658039402
 42
0.0
 10
1.282436740080608
 20
0.0292528824702614
 42
0.0
 10
1.305008011852606
 20
0.0292528824702614
 42
0.0
 10
1.303035750365566
 20
0.045573054697837
 42
0.0
 10
1.303035750365566
 20
0.1704535782767582
 42
0.0
 10
1.280726706724607
 20
0.1704535782767582
 42
0.0
 10
1.280726706724607
 20
0.0603385752977079
 42
-0.0926529444633646
 10
1.271406905425951
 20
0.0542136206901671
 42
-0.0664344377826394
 10
1.252018117536273
 20
0.0470706779667407
 42
-0.0713593701437487
 10
1.22596399727168
 20
0.0462232117768133
 42
-0.3666103947779491
 97
        0
 92
        7
 72
     1
 73
     1
 93
       12
 10
1.34888971452673
 20
-0.0300855190343001
 42
0.0
 10
1.37158389411627
 20
-0.0300855190342997
 42
0.0
 10
1.37158389411627
 20
0.0381322242109672
 42
0.2065475696655794
 10
1.43316687203049
 20
0.0295489681525751
 42
0.2194428372319613
 10
1.471434120104095
 20
0.0681246169490031
 42
0.1323036971285341
 10
1.475462458348772
 20
0.1210354643912233
 42
0.1641390880683366
 10
1.453695611337639
 20
0.1611617476764042
 42
0.205639974219759
 10
1.404711616991345
 20
0.1717914749112652
 42
0.0657328919071964
 10
1.371062306057382
 20
0.1603071107053626
 42
0.0
 10
1.369185970032088
 20
0.1704922854774775
 42
0.0
 10
1.347893491957236
 20
0.1704922854774775
 42
0.0
 10
1.348889714526734
 20
0.1571025974974671
 42
0.0
 97
        0
 92
       22
 72
     1
 73
     1
 93
        8
 10
1.37158389411627
 20
0.1447873628418232
 42
-0.1242339830404592
 10
1.408127279067805
 20
0.1549128436768488
 42
-0.229840994742505
 10
1.439329608924591
 20
0.143501077402358
 42
-0.1934262502536381
 10
1.452032531529923
 20
0.1169919663469652
 42
-0.1013985410677669
 10
1.45007247035501
 20
0.0757878280977211
 42
-0.2083357761076617
 10
1.426144858393048
 20
0.0470888301796872
 42
-0.1496858148879605
 10
1.383365488627418
 20
0.0497243925890185
 42
-0.0899155484976542
 10
1.37158389411627
 20
0.0564933659367366
 42
0.0
 97
        0
 92
        7
 72
     1
 73
     1
 93
       12
 10
1.536384209201344
 20
0.0381322242109672
 42
0.2065475696655794
 10
1.597967187115564
 20
0.0295489681525751
 42
0.2194428372319613
 10
1.63623443518917
 20
0.0681246169490031
 42
0.1323036971285341
 10
1.640262773433846
 20
0.1210354643912233
 42
0.1641390880683366
 10
1.618495926422713
 20
0.1611617476764042
 42
0.205639974219759
 10
1.569511932076419
 20
0.1717914749112652
 42
0.0657328919071964
 10
1.535862621142456
 20
0.1603071107053626
 42
0.0
 10
1.533986285117165
 20
0.1704922854774775
 42
0.0
 10
1.51269380704231
 20
0.1704922854774775
 42
0.0
 10
1.513690029611812
 20
0.1571025974974671
 42
0.0
 10
1.513690029611804
 20
-0.0300855190343001
 42
0.0
 10
1.536384209201344
 20
-0.0300855190342997
 42
0.0
 97
        0
 92
       22
 72
     1
 73
     1
 93
        8
 10
1.53638420920134
 20
0.0564933659367348
 42
0.0
 10
1.536384209201344
 20
0.1447873628418232
 42
-0.1242339830404592
 10
1.572927594152879
 20
0.1549128436768488
 42
-0.229840994742505
 10
1.604129924009665
 20
0.143501077402358
 42
-0.1934262502536381
 10
1.616832846614997
 20
0.1169919663469652
 42
-0.1013985410677669
 10
1.614872785440084
 20
0.0757878280977211
 42
-0.2083357761076617
 10
1.590945173478122
 20
0.0470888301796872
 42
-0.1496858148879605
 10
1.548165803712493
 20
0.0497243925890185
 42
-0.0899155484976689
 97
        0
 92
        7
 72
     1
 73
     1
 93
        9
 10
1.700061888317705
 20
0.2342426883985293
 42
0.0
 10
1.677630680467434
 20
0.2342426883985293
 42
0.0
 10
1.67763068046743
 20
0.0525526462764159
 42
0.3003574180393968
 10
1.689763445472692
 20
0.0294232917661481
 42
0.1772930531369512
 10
1.716213749579594
 20
0.0296692382956376
 42
0.0
 10
1.726340843842322
 20
0.0328930300171466
 42
0.0
 10
1.722947015877874
 20
0.0450847282577249
 42
0.0
 10
1.715478639728772
 20
0.0445718860057287
 42
-0.4033750267256485
 10
1.700061888317705
 20
0.0551463102997136
 42
0.0
 97
        0
 92
        7
 72
     1
 73
     1
 93
       13
 10
1.756550300014353
 20
0.1705037737446156
 42
0.0
 10
1.733158403445031
 20
0.1705037737446147
 42
0.0
 10
1.789004390745333
 20
0.0387212794769898
 42
-0.1248046720339364
 10
1.779651976914252
 20
0.0098440558334927
 42
-0.2041270254703542
 10
1.758338890268429
 20
-0.0108879300937863
 42
-0.1582846410265598
 10
1.728104948139659
 20
-0.0088290148710986
 42
0.0
 10
1.723524002749954
 20
-0.0288461752875353
 42
0.0503996825504031
 10
1.752727303871125
 20
-0.0310194851179708
 42
0.1573307408029109
 10
1.778748174224848
 20
-0.02185783610684
 42
0.1379639421479074
 10
1.7998397718477
 20
0.0061205808064937
 42
0.0
 10
1.863932002621172
 20
0.1705037737446151
 42
0.0
 10
1.84037943355916
 20
0.1705037737446147
 42
0.0
 10
1.801429340670335
 20
0.0575527643750102
 42
0.0
 97
        0
 75
     0
 76
     1
 47
0.0008892483299936
 98
        8
 10
1.136466178840407
 20
0.0806040287034282
 10
1.218376325116423
 20
0.039698608137611
 10
1.365280380260387
 20
0.0654868019383397
 10
1.365280380260387
 20
0.0654868019383397
 10
1.532067085388874
 20
0.0510462190903649
 10
1.532067085388874
 20
0.0510462190903649
 10
1.692326025665067
 20
0.0661634458554534
 10
1.78937173321124
 20
0.0643849607353548
450
        0
451
        0
460
0.0
461
0.0
452
        1
462
1.0
453
        2
463
0.0
 63
     5
421
      255
463
1.0
 63
     7
421
 16777215
470
LINEAR
1001
ACAD
1010
0.0
1020
0.0
1030
0.0
  0
ENDBLK
  5
B36
330
B30
100
AcDbEntity
  8
0
100
AcDbBlockEnd
  0
BLOCK
  5
F67
330
F66
100
AcDbEntity
  8
0
100
AcDbBlockBegin
  2
SW_CENTERMARKSYMBOL_0
 70
     0
 10
0.0
 20
0.0
 30
0.0
  3
SW_CENTERMARKSYMBOL_0
  1

  0
LINE
  5
F68
330
F66
100
AcDbEntity
  8
0
  6
Continuous
 62
     0
370
     0
100
AcDbLine
 10
0.0
 20
0.0
 30
0.0
 11
0.0
 21
0.0999999999999995
 31
0.0
  0
LINE
  5
F69
330
F66
100
AcDbEntity
  8
0
  6
Continuous
 62
     0
370
     0
100
AcDbLine
 10
0.0
 20
0.0
 30
0.0
 11
-0.0999999999999995
 21
0.0
 31
0.0
  0
LINE
  5
F6A
330
F66
100
AcDbEntity
  8
0
  6
Continuous
 62
     0
370
     0
100
AcDbLine
 10
0.0
 20
0.0
 30
0.0
 11
0.0
 21
-0.1000000000000038
 31
0.0
  0
LINE
  5
F6B
330
F66
100
AcDbEntity
  8
0
  6
Continuous
 62
     0
370
     0
100
AcDbLine
 10
0.0
 20
0.0
 30
0.0
 11
0.1000000000000038
 21
0.0
 31
0.0
  0
LINE
  5
F6C
330
F66
100
AcDbEntity
  8
0
  6
Continuous
 62
     0
370
     0
100
AcDbLine
 10
0.0
 20
0.199999999999999
 30
0.0
 11
0.0
 21
0.2874999999999996
 31
0.0
  0
LINE
  5
F6D
330
F66
100
AcDbEntity
  8
0
  6
Continuous
 62
     0
370
     0
100
AcDbLine
 10
-0.199999999999999
 20
0.0
 30
0.0
 11
-0.2874999999999996
 21
0.0
 31
0.0
  0
LINE
  5
F6E
330
F66
100
AcDbEntity
  8
0
  6
Continuous
 62
     0
370
     0
100
AcDbLine
 10
0.0
 20
-0.2000000000000033
 30
0.0
 11
0.0
 21
-0.287500000000004
 31
0.0
  0
LINE
  5
F6F
330
F66
100
AcDbEntity
  8
0
  6
Continuous
 62
     0
370
     0
100
AcDbLine
 10
0.2000000000000033
 20
0.0
 30
0.0
 11
0.287500000000004
 21
0.0
 31
0.0
  0
ENDBLK
  5
F70
330
F66
100
AcDbEntity
  8
0
100
AcDbBlockEnd
  0
BLOCK
  5
F72
330
F71
100
AcDbEntity
  8
0
100
AcDbBlockBegin
  2
SW_CENTERMARKSYMBOL_1
 70
     0
 10
0.0
 20
0.0
 30
0.0
  3
SW_CENTERMARKSYMBOL_1
  1

  0
LINE
  5
F73
330
F71
100
AcDbEntity
  8
0
  6
Continuous
 62
     0
370
     0
100
AcDbLine
 10
0.0
 20
0.0
 30
0.0
 11
0.0
 21
0.0999999999999995
 31
0.0
  0
LINE
  5
F74
330
F71
100
AcDbEntity
  8
0
  6
Continuous
 62
     0
370
     0
100
AcDbLine
 10
0.0
 20
0.0
 30
0.0
 11
-0.0999999999999995
 21
0.0
 31
0.0
  0
LINE
  5
F75
330
F71
100
AcDbEntity
  8
0
  6
Continuous
 62
     0
370
     0
100
AcDbLine
 10
0.0
 20
0.0
 30
0.0
 11
0.0
 21
-0.0999999999999995
 31
0.0
  0
LINE
  5
F76
330
F71
100
AcDbEntity
  8
0
  6
Continuous
 62
     0
370
     0
100
AcDbLine
 10
0.0
 20
0.0
 30
0.0
 11
0.1000000000000038
 21
0.0
 31
0.0
  0
LINE
  5
F77
330
F71
100
AcDbEntity
  8
0
  6
Continuous
 62
     0
370
     0
100
AcDbLine
 10
0.0
 20
0.199999999999999
 30
0.0
 11
0.0
 21
0.2874999999999996
 31
0.0
  0
LINE
  5
F78
330
F71
100
AcDbEntity
  8
0
  6
Continuous
 62
     0
370
     0
100
AcDbLine
 10
-0.199999999999999
 20
0.0
 30
0.0
 11
-0.2874999999999996
 21
0.0
 31
0.0
  0
LINE
  5
F79
330
F71
100
AcDbEntity
  8
0
  6
Continuous
 62
     0
370
     0
100
AcDbLine
 10
0.0
 20
-0.199999999999999
 30
0.0
 11
0.0
 21
-0.2874999999999996
 31
0.0
  0
LINE
  5
F7A
330
F71
100
AcDbEntity
  8
0
  6
Continuous
 62
     0
370
     0
100
AcDbLine
 10
0.2000000000000033
 20
0.0
 30
0.0
 11
0.287500000000004
 21
0.0
 31
0.0
  0
ENDBLK
  5
F7B
330
F71
100
AcDbEntity
  8
0
100
AcDbBlockEnd
  0
BLOCK
  5
1482
330
1476
100
AcDbEntity
  8
0
100
AcDbBlockBegin
  2
*D7
 70
     1
 10
0.0
 20
0.0
 30
0.0
  3
*D7
  1

  0
LINE
  5
1477
330
1476
100
AcDbEntity
  8
DIM
 62
     0
370
    -2
100
AcDbLine
 10
5.269569014673428
 20
1.566057003410623
 30
0.0
 11
4.847041653408969
 21
1.566057003410623
 31
0.0
  0
LINE
  5
1478
330
1476
100
AcDbEntity
  8
DIM
 62
     0
370
    -2
100
AcDbLine
 10
5.289569014673424
 20
1.736057003410623
 30
0.0
 11
4.847041653408969
 21
1.736057003410623
 31
0.0
  0
LINE
  5
1479
330
1476
100
AcDbEntity
  8
DIM
 62
     0
370
    -2
100
AcDbLine
 10
4.897041653408969
 20
1.456057003410623
 30
0.0
 11
4.897041653408969
 21
1.346057003410623
 31
0.0
  0
LINE
  5
147A
330
1476
100
AcDbEntity
  8
DIM
 62
     0
370
    -2
100
AcDbLine
 10
4.897041653408969
 20
1.846057003410623
 30
0.0
 11
4.89704165340897
 21
2.324105949705661
 31
0.0
  0
LINE
  5
147B
330
1476
100
AcDbEntity
  8
DIM
 62
     0
370
    -2
100
AcDbLine
 10
4.897041653408969
 20
1.566057003410623
 30
0.0
 11
4.897041653408969
 21
1.736057003410623
 31
0.0
  0
SOLID
  5
147C
330
1476
100
AcDbEntity
  8
DIM
 62
     0
100
AcDbTrace
 10
4.878708320075635
 20
1.456057003410623
 30
0.0
 11
4.915374986742302
 21
1.456057003410623
 31
0.0
 12
4.897041653408969
 22
1.566057003410623
 32
0.0
 13
4.897041653408969
 23
1.566057003410623
 33
0.0
  0
SOLID
  5
147D
330
1476
100
AcDbEntity
  8
DIM
 62
     0
100
AcDbTrace
 10
4.878708320075635
 20
1.846057003410623
 30
0.0
 11
4.915374986742302
 21
1.846057003410623
 31
0.0
 12
4.897041653408969
 22
1.736057003410623
 32
0.0
 13
4.897041653408969
 23
1.736057003410623
 33
0.0
  0
MTEXT
  5
147E
330
1476
100
AcDbEntity
  8
DIM
 62
     0
100
AcDbMText
 10
4.79927482812005
 20
2.140081476558143
 30
0.0
 40
0.11
 41
0.0
 46
0.0
 71
     5
 72
     1
  1
\A1;0.17
 11
0.0000000000000001
 21
1.0
 31
0.0
 73
     1
 44
1.0
  0
POINT
  5
147F
330
1476
100
AcDbEntity
  8
Defpoints
 62
     0
100
AcDbPoint
 10
5.329569014673428
 20
1.566057003410623
 30
0.0
  0
POINT
  5
1480
330
1476
100
AcDbEntity
  8
Defpoints
 62
     0
100
AcDbPoint
 10
5.349569014673424
 20
1.736057003410623
 30
0.0
  0
POINT
  5
1481
330
1476
100
AcDbEntity
  8
Defpoints
 62
     0
100
AcDbPoint
 10
4.897041653408969
 20
1.736057003410623
 30
0.0
  0
ENDBLK
  5
1483
330
1476
100
AcDbEntity
  8
0
100
AcDbBlockEnd
  0
BLOCK
  5
148F
330
1485
100
AcDbEntity
  8
0
100
AcDbBlockBegin
  2
*D8
 70
     1
 10
0.0
 20
0.0
 30
0.0
  3
*D8
  1

  0
LINE
  5
1486
330
1485
100
AcDbEntity
  8
DIM
 62
     0
370
    -2
100
AcDbLine
 10
0.7345309455176109
 20
1.565902657728322
 30
0.0
 11
0.3131401106641083
 21
1.565902657728322
 31
0.0
  0
LINE
  5
1487
330
1485
100
AcDbEntity
  8
DIM
 62
     0
370
    -2
100
AcDbLine
 10
0.7345309455176108
 20
2.845902657728323
 30
0.0
 11
0.3131401106641086
 21
2.845902657728323
 31
0.0
  0
LINE
  5
1488
330
1485
100
AcDbEntity
  8
DIM
 62
     0
370
    -2
100
AcDbLine
 10
0.3631401106641084
 20
1.675902657728323
 30
0.0
 11
0.3631401106641086
 21
2.735902657728324
 31
0.0
  0
SOLID
  5
1489
330
1485
100
AcDbEntity
  8
DIM
 62
     0
100
AcDbTrace
 10
0.3448067773307751
 20
1.675902657728323
 30
0.0
 11
0.3814734439974417
 21
1.675902657728323
 31
0.0
 12
0.3631401106641083
 22
1.565902657728322
 32
0.0
 13
0.3631401106641083
 23
1.565902657728322
 33
0.0
  0
SOLID
  5
148A
330
1485
100
AcDbEntity
  8
DIM
 62
     0
100
AcDbTrace
 10
0.3448067773307753
 20
2.735902657728324
 30
0.0
 11
0.3814734439974419
 21
2.735902657728324
 31
0.0
 12
0.3631401106641086
 22
2.845902657728323
 32
0.0
 13
0.3631401106641086
 23
2.845902657728323
 33
0.0
  0
MTEXT
  5
148B
330
1485
100
AcDbEntity
  8
DIM
 62
     0
100
AcDbMText
 10
0.265373285375189
 20
2.205902657728323
 30
0.0
 40
0.11
 41
0.0
 46
0.0
 71
     5
 72
     1
  1
\A1;1.28
 11
0.0000000000000001
 21
1.0
 31
0.0
 73
     1
 44
1.0
  0
POINT
  5
148C
330
1485
100
AcDbEntity
  8
Defpoints
 62
     0
100
AcDbPoint
 10
0.7945309455176109
 20
1.565902657728322
 30
0.0
  0
POINT
  5
148D
330
1485
100
AcDbEntity
  8
Defpoints
 62
     0
100
AcDbPoint
 10
0.7945309455176109
 20
2.845902657728323
 30
0.0
  0
POINT
  5
148E
330
1485
100
AcDbEntity
  8
Defpoints
 62
     0
100
AcDbPoint
 10
0.3631401106641086
 20
2.845902657728323
 30
0.0
  0
ENDBLK
  5
1490
330
1485
100
AcDbEntity
  8
0
100
AcDbBlockEnd
  0
BLOCK
  5
149C
330
1492
100
AcDbEntity
  8
0
100
AcDbBlockBegin
  2
*D9
 70
     1
 10
0.0
 20
0.0
 30
0.0
  3
*D9
  1

  0
LINE
  5
1493
330
1492
100
AcDbEntity
  8
DIM
 62
     0
370
    -2
100
AcDbLine
 10
0.7745309455176113
 20
2.885902657728324
 30
0.0
 11
0.7745309455176114
 21
3.830091407358737
 31
0.0
  0
LINE
  5
1494
330
1492
100
AcDbEntity
  8
DIM
 62
     0
370
    -2
100
AcDbLine
 10
4.554530945517612
 20
2.818402657728321
 30
0.0
 11
4.554530945517612
 21
3.830091407358737
 31
0.0
  0
LINE
  5
1495
330
1492
100
AcDbEntity
  8
DIM
 62
     0
370
    -2
100
AcDbLine
 10
0.8845309455176113
 20
3.780091407358737
 30
0.0
 11
4.444530945517612
 21
3.780091407358737
 31
0.0
  0
SOLID
  5
1496
330
1492
100
AcDbEntity
  8
DIM
 62
     0
100
AcDbTrace
 10
0.8845309455176113
 20
3.798424740692071
 30
0.0
 11
0.8845309455176113
 21
3.761758074025403
 31
0.0
 12
0.7745309455176114
 22
3.780091407358737
 32
0.0
 13
0.7745309455176114
 23
3.780091407358737
 33
0.0
  0
SOLID
  5
1497
330
1492
100
AcDbEntity
  8
DIM
 62
     0
100
AcDbTrace
 10
4.444530945517612
 20
3.798424740692071
 30
0.0
 11
4.444530945517612
 21
3.761758074025403
 31
0.0
 12
4.554530945517612
 22
3.780091407358737
 32
0.0
 13
4.554530945517612
 23
3.780091407358737
 33
0.0
  0
MTEXT
  5
1498
330
1492
100
AcDbEntity
  8
DIM
 62
     0
100
AcDbMText
 10
2.664530945517611
 20
3.877858232647656
 30
0.0
 40
0.11
 41
0.0
 46
0.0
 71
     5
 72
     1
  1
\A1;3.78
 73
     1
 44
1.0
  0
POINT
  5
1499
330
1492
100
AcDbEntity
  8
Defpoints
 62
     0
100
AcDbPoint
 10
0.7745309455176113
 20
2.825902657728324
 30
0.0
  0
POINT
  5
149A
330
1492
100
AcDbEntity
  8
Defpoints
 62
     0
100
AcDbPoint
 10
4.554530945517612
 20
2.758402657728321
 30
0.0
  0
POINT
  5
149B
330
1492
100
AcDbEntity
  8
Defpoints
 62
     0
100
AcDbPoint
 10
4.554530945517612
 20
3.780091407358737
 30
0.0
  0
ENDBLK
  5
149D
330
1492
100
AcDbEntity
  8
0
100
AcDbBlockEnd
  0
BLOCK
  5
14A9
330
149F
100
AcDbEntity
  8
0
100
AcDbBlockBegin
  2
*D10
 70
     1
 10
0.0
 20
0.0
 30
0.0
  3
*D10
  1

  0
LINE
  5
14A0
330
149F
100
AcDbEntity
  8
DIM
 62
     0
370
    -2
100
AcDbLine
 10
7.669569014673424
 20
2.731057003410622
 30
0.0
 11
7.669569014673424
 21
3.292292459782584
 31
0.0
  0
LINE
  5
14A1
330
149F
100
AcDbEntity
  8
DIM
 62
     0
370
    -2
100
AcDbLine
 10
9.109569014673429
 20
2.731057003410624
 30
0.0
 11
9.109569014673429
 21
3.292292459782584
 31
0.0
  0
LINE
  5
14A2
330
149F
100
AcDbEntity
  8
DIM
 62
     0
370
    -2
100
AcDbLine
 10
7.779569014673424
 20
3.242292459782584
 30
0.0
 11
8.999569014673429
 21
3.242292459782584
 31
0.0
  0
SOLID
  5
14A3
330
149F
100
AcDbEntity
  8
DIM
 62
     0
100
AcDbTrace
 10
7.779569014673424
 20
3.260625793115917
 30
0.0
 11
7.779569014673424
 21
3.22395912644925
 31
0.0
 12
7.669569014673424
 22
3.242292459782584
 32
0.0
 13
7.669569014673424
 23
3.242292459782584
 33
0.0
  0
SOLID
  5
14A4
330
149F
100
AcDbEntity
  8
DIM
 62
     0
100
AcDbTrace
 10
8.999569014673429
 20
3.260625793115917
 30
0.0
 11
8.999569014673429
 21
3.22395912644925
 31
0.0
 12
9.109569014673429
 22
3.242292459782584
 32
0.0
 13
9.109569014673429
 23
3.242292459782584
 33
0.0
  0
MTEXT
  5
14A5
330
149F
100
AcDbEntity
  8
DIM
 62
     0
100
AcDbMText
 10
8.389569014673426
 20
3.339722779293121
 30
0.0
 40
0.11
 41
0.0
 46
0.0
 71
     5
 72
     1
  1
\A1;1.44
 73
     1
 44
1.0
  0
POINT
  5
14A6
330
149F
100
AcDbEntity
  8
Defpoints
 62
     0
100
AcDbPoint
 10
7.669569014673424
 20
2.671057003410622
 30
0.0
  0
POINT
  5
14A7
330
149F
100
AcDbEntity
  8
Defpoints
 62
     0
100
AcDbPoint
 10
9.109569014673429
 20
2.671057003410624
 30
0.0
  0
POINT
  5
14A8
330
149F
100
AcDbEntity
  8
Defpoints
 62
     0
100
AcDbPoint
 10
9.109569014673429
 20
3.242292459782584
 30
0.0
  0
ENDBLK
  5
14AA
330
149F
100
AcDbEntity
  8
0
100
AcDbBlockEnd
  0
BLOCK
  5
14B6
330
14AC
100
AcDbEntity
  8
0
100
AcDbBlockBegin
  2
*D11
 70
     1
 10
0.0
 20
0.0
 30
0.0
  3
*D11
  1

  0
LINE
  5
14AD
330
14AC
100
AcDbEntity
  8
DIM
 62
     0
370
    -2
100
AcDbLine
 10
1.368575803879327
 20
2.265902657728323
 30
0.0
 11
1.368575803879327
 21
3.37237648587059
 31
0.0
  0
LINE
  5
14AE
330
14AC
100
AcDbEntity
  8
DIM
 62
     0
370
    -2
100
AcDbLine
 10
2.368575803879327
 20
2.265902657728323
 30
0.0
 11
2.368575803879327
 21
3.37237648587059
 31
0.0
  0
LINE
  5
14AF
330
14AC
100
AcDbEntity
  8
DIM
 62
     0
370
    -2
100
AcDbLine
 10
1.478575803879327
 20
3.32237648587059
 30
0.0
 11
2.258575803879327
 21
3.32237648587059
 31
0.0
  0
SOLID
  5
14B0
330
14AC
100
AcDbEntity
  8
DIM
 62
     0
100
AcDbTrace
 10
1.478575803879327
 20
3.340709819203923
 30
0.0
 11
1.478575803879327
 21
3.304043152537256
 31
0.0
 12
1.368575803879327
 22
3.32237648587059
 32
0.0
 13
1.368575803879327
 23
3.32237648587059
 33
0.0
  0
SOLID
  5
14B1
330
14AC
100
AcDbEntity
  8
DIM
 62
     0
100
AcDbTrace
 10
2.258575803879327
 20
3.340709819203923
 30
0.0
 11
2.258575803879327
 21
3.304043152537256
 31
0.0
 12
2.368575803879327
 22
3.32237648587059
 32
0.0
 13
2.368575803879327
 23
3.32237648587059
 33
0.0
  0
MTEXT
  5
14B2
330
14AC
100
AcDbEntity
  8
DIM
 62
     0
100
AcDbMText
 10
1.868575803879327
 20
3.420143311159509
 30
0.0
 40
0.11
 41
0.0
 46
0.0
 71
     5
 72
     1
  1
\A1;1.00
 73
     1
 44
1.0
  0
POINT
  5
14B3
330
14AC
100
AcDbEntity
  8
Defpoints
 62
     0
100
AcDbPoint
 10
1.368575803879327
 20
2.205902657728323
 30
0.0
  0
POINT
  5
14B4
330
14AC
100
AcDbEntity
  8
Defpoints
 62
     0
100
AcDbPoint
 10
2.368575803879327
 20
2.205902657728323
 30
0.0
  0
POINT
  5
14B5
330
14AC
100
AcDbEntity
  8
Defpoints
 62
     0
100
AcDbPoint
 10
2.368575803879327
 20
3.32237648587059
 30
0.0
  0
ENDBLK
  5
14B7
330
14AC
100
AcDbEntity
  8
0
100
AcDbBlockEnd
  0
BLOCK
  5
14C3
330
14BA
100
AcDbEntity
  8
0
100
AcDbBlockBegin
  2
*D12
 70
     1
 10
0.0
 20
0.0
 30
0.0
  3
*D12
  1

  0
LINE
  5
14BB
330
14BA
100
AcDbEntity
  8
DIM
 62
     0
370
    -2
100
AcDbLine
 10
2.972870481026977
 20
3.390565069763443
 30
0.0
 11
2.503758556743883
 21
2.470915625954331
 31
0.0
  0
LINE
  5
14BC
330
14BA
100
AcDbEntity
  8
DIM
 62
     0
370
    -2
100
AcDbLine
 10
2.233393051014763
 20
1.940889689502315
 30
0.0
 11
2.183409512140472
 21
1.842901701250681
 31
0.0
  0
MTEXT
  5
14BD
330
14BA
100
AcDbEntity
  8
DIM
 62
     0
100
AcDbMText
 10
2.774256715107539
 20
3.219600256494265
 30
0.0
 40
0.11
 41
0.0
 46
0.0
 71
     5
 72
     1
  1
\A1;∅0.38
 11
0.4543958079481003
 21
0.8907998931966668
 31
0.0
 73
     1
 44
1.0
  0
LINE
  5
14BE
330
14BA
100
AcDbEntity
  8
DIM
 62
     0
370
    -2
100
AcDbLine
 10
2.283376589889054
 20
2.038877677753948
 30
0.0
 11
2.453775017869592
 21
2.372927637702698
 31
0.0
  0
SOLID
  5
14BF
330
14BA
100
AcDbEntity
  8
DIM
 62
     0
100
AcDbTrace
 10
2.217061719639491
 20
1.949220279314696
 30
0.0
 11
2.249724382390036
 21
1.932559099689933
 31
0.0
 12
2.283376589889054
 22
2.038877677753948
 32
0.0
 13
2.283376589889054
 23
2.038877677753948
 33
0.0
  0
SOLID
  5
14C0
330
14BA
100
AcDbEntity
  8
DIM
 62
     0
100
AcDbTrace
 10
2.487427225368611
 20
2.479246215766713
 30
0.0
 11
2.520089888119156
 21
2.462585036141949
 31
0.0
 12
2.453775017869592
 22
2.372927637702698
 32
0.0
 13
2.453775017869592
 23
2.372927637702698
 33
0.0
  0
POINT
  5
14C1
330
14BA
100
AcDbEntity
  8
Defpoints
 62
     0
100
AcDbPoint
 10
2.453775017869592
 20
2.372927637702698
 30
0.0
  0
POINT
  5
14C2
330
14BA
100
AcDbEntity
  8
Defpoints
 62
     0
100
AcDbPoint
 10
2.283376589889054
 20
2.038877677753948
 30
0.0
  0
ENDBLK
  5
14C4
330
14BA
100
AcDbEntity
  8
0
100
AcDbBlockEnd
  0
ENDSEC
  0
SECTION
  2
ENTITIES
  0
LWPOLYLINE
  5
43D
330
1F
100
AcDbEntity
  8
FORMAT
370
    15
100
AcDbPolyline
 90
        4
 70
     1
 43
0.0
 10
0.0
 20
0.0
 10
9.381038617535399
 20
0.0
 10
9.381038617535399
 20
7.104087496774412
 10
0.0
 20
7.104087496774412
  0
LINE
  5
43E
330
1F
100
AcDbEntity
  8
FORMAT
370
    15
100
AcDbLine
 10
3.698569162021793
 20
1.104087496774412
 30
0.0
 11
9.381038617535399
 21
1.104087496774412
 31
0.0
  0
LINE
  5
43F
330
1F
100
AcDbEntity
  8
FORMAT
370
    15
100
AcDbLine
 10
0.0
 20
1.104087496774412
 30
0.0
 11
3.698569162021793
 21
1.104087496774412
 31
0.0
  0
LINE
  5
440
330
1F
100
AcDbEntity
  8
FORMAT
370
    15
100
AcDbLine
 10
5.441647061007687
 20
0.5789788300668672
 30
0.0
 11
3.698569162021793
 21
0.5789788300668672
 31
0.0
  0
LINE
  5
441
330
1F
100
AcDbEntity
  8
FORMAT
370
    15
100
AcDbLine
 10
5.441647061007687
 20
1.104087496774412
 30
0.0
 11
5.441647061007687
 21
0.0
 31
0.0
  0
LINE
  5
442
330
1F
100
AcDbEntity
  8
FORMAT
370
    15
100
AcDbLine
 10
7.99453590033147
 20
1.104087496774412
 30
0.0
 11
7.99453590033147
 21
0.5789788300668672
 31
0.0
  0
LINE
  5
443
330
1F
100
AcDbEntity
  8
FORMAT
370
    15
100
AcDbLine
 10
9.381038617535399
 20
0.3451769791110058
 30
0.0
 11
7.444010493745353
 21
0.3451769791110058
 31
0.0
  0
LINE
  5
444
330
1F
100
AcDbEntity
  8
FORMAT
370
    15
100
AcDbLine
 10
7.444010493745353
 20
0.0
 30
0.0
 11
7.444010493745353
 21
0.5789788300668672
 31
0.0
  0
LINE
  5
445
330
1F
100
AcDbEntity
  8
FORMAT
370
    15
100
AcDbLine
 10
7.977780725416645
 20
7.104087496774412
 30
0.0
 11
7.977780725416645
 21
6.856215558697557
 31
0.0
  0
LINE
  5
446
330
1F
100
AcDbEntity
  8
FORMAT
370
    15
100
AcDbLine
 10
9.381038617535399
 20
0.5789788300668672
 30
0.0
 11
5.441647061007687
 21
0.5789788300668672
 31
0.0
  0
LINE
  5
447
330
1F
100
AcDbEntity
  8
FORMAT
370
    15
100
AcDbLine
 10
7.977780725416645
 20
6.856215558697557
 30
0.0
 11
9.381038617535399
 21
6.856215558697557
 31
0.0
  0
LINE
  5
448
330
1F
100
AcDbEntity
  8
FORMAT
370
    15
100
AcDbLine
 10
3.698569162021793
 20
1.104087496774412
 30
0.0
 11
3.698569162021793
 21
0.0
 31
0.0
  0
MTEXT
  5
449
330
1F
100
AcDbEntity
  8
0
  6
Continuous
 62
   160
370
     0
100
AcDbMText
 10
7.547000430711857
 20
0.5409788978465674
 30
0.0
 40
0.0758983706920351
 41
0.0
 46
0.0
 71
     1
 72
     1
  1
http://www.amazonsupply.com
  7
SLDTEXTSTYLE0
 73
     1
 44
1.0
1001
PE_URL
1000
http://www.amazonsupply.com/
1002
{
1000
http://www.amazonsupply.com/
1002
{
1071
        1
1002
}
1002
}
  0
INSERT
  5
44A
330
1F
100
AcDbEntity
  8
0
  6
Continuous
 62
     7
100
AcDbBlockReference
  2
Block2
 10
-0.416175357471737
 20
-1.101935360725215
 30
0.0
 41
0.9107804483044464
 42
0.910780448304408
 43
0.910780448304412
  0
TEXT
  5
44B
330
1F
100
AcDbEntity
  8
FORMAT
 62
     7
100
AcDbText
 10
5.477261110439672
 20
0.9710198227057805
 30
0.0
 40
0.0910780448304412
  1
MATERIAL :
 41
0.9
  7
SLDTEXTSTYLE1
100
AcDbText
  0
TEXT
  5
44C
330
1F
100
AcDbEntity
  8
FORMAT
 62
     7
100
AcDbText
 10
4.009500908813244
 20
0.7198279027632798
 30
0.0
 40
0.1138475560380515
  1
B00B5NMRG6 
 41
0.9
  7
SLDTEXTSTYLE1
100
AcDbText
  0
TEXT
  5
44D
330
1F
100
AcDbEntity
  8
FORMAT
 62
     7
100
AcDbText
 10
8.186322083335317
 20
6.913201757160623
 30
0.0
 40
0.1138475560380515
  1
B00B5NMRG6 
  7
SLDTEXTSTYLE1
100
AcDbText
  0
TEXT
  5
44E
330
1F
100
AcDbEntity
  8
FORMAT
 62
     7
100
AcDbText
 10
4.010631812975129
 20
0.168763571618708
 30
0.0
 40
0.1138475560380515
  1
Panduit
 41
0.9
  7
SLDTEXTSTYLE1
100
AcDbText
  0
TEXT
  5
44F
330
1F
100
AcDbEntity
  8
FORMAT
 62
     0
100
AcDbText
 10
5.733493204641144
 20
0.7468552838853508
 30
0.0
 40
0.1138475560380526
  1
Copper
 41
0.9
  7
SLDTEXTSTYLE1
100
AcDbText
  0
TEXT
  5
450
330
1F
100
AcDbEntity
  8
FORMAT
 62
     7
100
AcDbText
 10
0.0938119322366964
 20
0.8553997876380417
 30
0.0
 40
0.0910780448304412
  1
ITEM NAME:
 41
0.9
  7
SLDTEXTSTYLE1
100
AcDbText
  0
TEXT
  5
451
330
1F
100
AcDbEntity
  8
FORMAT
 62
     7
100
AcDbText
 10
3.769855872773106
 20
0.9274692197482155
 30
0.0
 40
0.0910780448304412
  1
ASIN :
 41
0.9
  7
SLDTEXTSTYLE1
100
AcDbText
  0
TEXT
  5
453
330
1F
100
AcDbEntity
  8
FORMAT
 62
     0
100
AcDbText
 10
5.512042647401633
 20
0.42599084115521
 30
0.0
 40
0.0569237780190263
  1
# UNLESS OTHERWISE SPECIFIED
 41
0.95
  7
SLDTEXTSTYLE1
100
AcDbText
  0
TEXT
  5
454
330
1F
100
AcDbEntity
  8
FORMAT
 62
     0
100
AcDbText
 10
5.597573429431908
 20
0.3399884594961716
 30
0.0
 40
0.0569237780190263
  1
DIMENSIONS ARE IN INCHES
 41
0.95
  7
SLDTEXTSTYLE1
100
AcDbText
  0
TEXT
  5
455
330
1F
100
AcDbEntity
  8
FORMAT
 62
     0
100
AcDbText
 10
5.512042647401633
 20
0.1725519590946959
 30
0.0
 40
0.0569237780190263
  1
# INFORMATION IN THIS DRAWING IS PROVIDED FOR
 41
0.95
  7
SLDTEXTSTYLE1
100
AcDbText
  0
TEXT
  5
456
330
1F
100
AcDbEntity
  8
FORMAT
 62
     0
100
AcDbText
 10
5.597341245429112
 20
0.0865495774356578
 30
0.0
 40
0.0569237780190263
  1
REFERENCE ONLY
 41
0.95
  7
SLDTEXTSTYLE1
100
AcDbText
  0
TEXT
  5
457
330
1F
100
AcDbEntity
  8
FORMAT
 62
     7
100
AcDbText
 10
3.749010087018693
 20
0.3929091886226284
 30
0.0
 40
0.0910780448304412
  1
BRAND :
 41
0.9
  7
SLDTEXTSTYLE1
100
AcDbText
  0
MTEXT
  5
50B
330
1F
100
AcDbEntity
  8
FORMAT
 62
     7
100
AcDbMText
 10
0.0947380628503355
 20
0.7592645906486779
 30
0.0
 40
0.1138475560380515
 41
3.453861446814284
 46
0.0
 71
     1
 72
     1
  3
{\fCalibri|b0|i0|c0|p34;\H0.9167x;\C256;Panduit LCD350-38D-X Code Conductor Lug, Two Hole, Standard Barrel With Window, 350kcmil Copper Conductor Size, Red Color Code, 3/8" Stud Hole Size, 1.00" Stud Hole Spacing, 1-1/2" Wire Strip Length, 0.17" Tong
  1
ue Thickness, 1.28" Tongue Width, 1.44" Neck Length, 3.78" Overall Length}
  7
SLDTEXTSTYLE1
 73
     1
 44
1.0
  0
INSERT
  5
B40
330
1F
100
AcDbEntity
  8
0
100
AcDbBlockReference
  2
amazon block
 10
7.544371459535696
 20
0.0943637939766174
 30
0.0
 41
0.9260764467046868
 42
0.9260764467046866
 43
0.9260764467046868
  0
LINE
  5
1120
330
1F
100
AcDbEntity
  8
0
  6
Continuous
 62
     7
370
    15
100
AcDbLine
 10
7.519569014673425
 20
1.566057003410623
 30
0.0
 11
7.669569014673431
 21
1.566057003410623
 31
0.0
  0
LINE
  5
1121
330
1F
100
AcDbEntity
  8
0
  6
Continuous
 62
     7
370
    15
100
AcDbLine
 10
7.561476873817252
 20
1.997282658740472
 30
0.0
 11
7.523590343585848
 21
1.76112328696473
 31
0.0
  0
ARC
  5
1122
330
1F
100
AcDbEntity
  8
0
  6
Continuous
 62
     7
370
    15
100
AcDbCircle
 10
7.493998253240572
 20
1.766057003410622
 30
0.0
 40
0.0300000000000014
100
AcDbArc
 50
269.9982626202247
 51
350.535961903604
  0
LINE
  5
1123
330
1F
100
AcDbEntity
  8
0
  6
Continuous
 62
     7
370
    15
100
AcDbLine
 10
9.109569014673429
 20
2.671057003410624
 30
0.0
 11
7.669569014673424
 21
2.671057003410622
 31
0.0
  0
LINE
  5
1124
330
1F
100
AcDbEntity
  8
0
  6
Continuous
 62
     7
370
    15
100
AcDbLine
 10
7.669569014673431
 20
1.566057003410623
 30
0.0
 11
9.109569014673429
 21
1.566057003410623
 31
0.0
  0
SPLINE
  5
1125
330
1F
100
AcDbEntity
  8
0
  6
Continuous
 62
     7
370
    15
100
AcDbSpline
210
0.0
220
0.0
230
1.0
 70
     8
 71
     3
 72
    16
 73
    12
 74
     0
 42
0.0000000001
 43
0.0000000001
 40
0.0
 40
0.0
 40
0.0
 40
0.0
 40
0.0011304383295686
 40
0.1231267799540782
 40
0.2468569191996385
 40
0.3720278967643172
 40
0.4982610696592774
 40
0.6251243471055076
 40
0.7521400169153467
 40
0.8788020718076756
 40
1.0
 40
1.0
 40
1.0
 40
1.0
 10
7.668916254732334
 20
2.420031420606127
 30
0.0
 10
7.668895000940946
 20
2.419928324122935
 30
0.0
 10
7.666580048566327
 20
2.408699106510585
 30
0.0
 10
7.661430847311248
 20
2.386457158666962
 30
0.0
 10
7.653558847758144
 20
2.353401413198907
 30
0.0
 10
7.645262989966742
 20
2.320646493177841
 30
0.0
 10
7.636797191657525
 20
2.288407416490153
 30
0.0
 10
7.628306110729671
 20
2.256949830194894
 30
0.0
 10
7.619991837329269
 20
2.226576359837789
 30
0.0
 10
7.612069010363786
 20
2.197748831555944
 30
0.0
 10
7.607240814554263
 20
2.179845198538167
 30
0.0
 10
7.604879935957644
 20
2.171090726751854
 30
0.0
  0
SPLINE
  5
1126
330
1F
100
AcDbEntity
  8
0
  6
Continuous
 62
     7
370
    15
100
AcDbSpline
210
0.0
220
0.0
230
1.0
 70
     8
 71
     3
 72
    13
 73
     9
 74
     0
 42
0.0000000001
 43
0.0000000001
 40
0.0
 40
0.0
 40
0.0
 40
0.0
 40
0.0742568817581636
 40
0.2794324427405075
 40
0.487731404419097
 40
0.7000436339062152
 40
0.9144105037982875
 40
1.0
 40
1.0
 40
1.0
 40
1.0
 10
7.669378937724491
 20
2.419875453082562
 30
0.0
 10
7.668551585332
 20
2.415883650213045
 30
0.0
 10
7.665438215977307
 20
2.400862291917929
 30
0.0
 10
7.659224586525578
 20
2.375066218357247
 30
0.0
 10
7.651098482517301
 20
2.342394991538277
 30
0.0
 10
7.642633051318764
 20
2.310018332211212
 30
0.0
 10
7.635750422752497
 20
2.284366626923535
 30
0.0
 10
7.631808738785519
 20
2.269962055873264
 30
0.0
 10
7.63068401938278
 20
2.265851858129339
 30
0.0
  0
LINE
  5
1127
330
1F
100
AcDbEntity
  8
0
  6
Continuous
 62
     7
370
    15
100
AcDbLine
 10
7.669569014673431
 20
2.045816830572244
 30
0.0
 11
7.519569014673425
 21
1.566057003410623
 31
0.0
  0
LINE
  5
1128
330
1F
100
AcDbEntity
  8
0
  6
Continuous
 62
     7
370
    15
100
AcDbLine
 10
7.519569014673425
 20
1.736057003410623
 30
0.0
 11
7.519569014673425
 21
1.566057003410623
 31
0.0
  0
LINE
  5
1129
330
1F
100
AcDbEntity
  8
0
  6
Continuous
 62
     7
370
    15
100
AcDbLine
 10
7.519569014673425
 20
1.736057003410623
 30
0.0
 11
7.519569014673425
 21
1.741834662665914
 31
0.0
  0
SPLINE
  5
112A
330
1F
100
AcDbEntity
  8
0
  6
Continuous
 62
     7
370
    15
100
AcDbSpline
210
0.0
220
0.0
230
1.0
 70
     8
 71
     3
 72
     8
 73
     4
 74
     0
 42
0.0000000001
 43
0.0000000001
 40
0.0
 40
0.0
 40
0.0
 40
0.0
 40
1.0
 40
1.0
 40
1.0
 40
1.0
 10
7.525390513713784
 20
1.753724871606035
 30
0.0
 10
7.523969126809593
 20
1.749411055473146
 30
0.0
 10
7.521884978960027
 20
1.745541590101996
 30
0.0
 10
7.519569014673418
 20
1.741834662665919
 30
0.0
  0
LINE
  5
112B
330
1F
100
AcDbEntity
  8
0
  6
Continuous
 62
     7
370
    15
100
AcDbLine
 10
7.525390513713784
 20
1.753724871606035
 30
0.0
 11
7.669569014673431
 21
2.191297176248999
 31
0.0
  0
SPLINE
  5
112C
330
1F
100
AcDbEntity
  8
0
  6
Continuous
 62
     7
370
    15
100
AcDbSpline
210
0.0
220
0.0
230
1.0
 70
     8
 71
     3
 72
    10
 73
     6
 74
     0
 42
0.0000000001
 43
0.0000000001
 40
0.0
 40
0.0
 40
0.0
 40
0.0
 40
0.5
 40
0.5
 40
1.0
 40
1.0
 40
1.0
 40
1.0
 10
7.669569014673431
 20
2.04581692373785
 30
0.0
 10
7.669569014603421
 20
2.069978386057012
 30
0.0
 10
7.669541391171325
 20
2.094326510475589
 30
0.0
 10
7.669524756026238
 20
2.143067282419039
 30
0.0
 10
7.669524875898691
 20
2.167346954225704
 30
0.0
 10
7.669569207412788
 20
2.191507155675873
 30
0.0
  0
SPLINE
  5
112D
330
1F
100
AcDbEntity
  8
0
  6
Continuous
 62
     7
370
    15
100
AcDbSpline
210
0.0
220
0.0
230
1.0
 70
     8
 71
     3
 72
    10
 73
     6
 74
     0
 42
0.0000000001
 43
0.0000000001
 40
0.0
 40
0.0
 40
0.0
 40
0.0
 40
0.5
 40
0.5
 40
1.0
 40
1.0
 40
1.0
 40
1.0
 10
7.519569014673418
 20
1.741834662665919
 30
0.0
 10
7.514976888355928
 20
1.735419428140124
 30
0.0
 10
7.508774446114681
 20
1.730468119764232
 30
0.0
 10
7.495349650590103
 20
1.722414244827364
 30
0.0
 10
7.488076786693586
 20
1.719234177637906
 30
0.0
 10
7.480963920990223
 20
1.716057003410622
 30
0.0
  0
SPLINE
  5
112E
330
1F
100
AcDbEntity
  8
0
  6
Continuous
 62
     7
370
    15
100
AcDbSpline
210
0.0
220
0.0
230
1.0
 70
     8
 71
     3
 72
    12
 73
     8
 74
     0
 42
0.0000000001
 43
0.0000000001
 40
0.0
 40
0.0
 40
0.0
 40
0.0
 40
0.5000000000000018
 40
0.5000000000000018
 40
0.7500000000000009
 40
0.7500000000000009
 40
1.0
 40
1.0
 40
1.0
 40
1.0
 10
7.48096392099023
 20
1.716057003410636
 30
0.0
 10
7.484914374481316
 20
1.720712934706121
 30
0.0
 10
7.488969716203971
 20
1.725330969929233
 30
0.0
 10
7.493873115494626
 20
1.731100601739985
 30
0.0
 10
7.495307757487491
 20
1.732832729549885
 30
0.0
 10
7.497252947437164
 20
1.735313052599213
 30
0.0
 10
7.497757133554028
 20
1.736057003410623
 30
0.0
 10
7.497658731396843
 20
1.736057003410623
 30
0.0
  0
ARC
  5
112F
330
1F
100
AcDbEntity
  8
0
  6
Continuous
 62
     7
370
    15
100
AcDbCircle
 10
7.497658689707609
 20
1.766052496173738
 30
0.0
 40
0.0299954927631457
100
AcDbArc
 50
270.0000796325356
 51
294.5529014511755
  0
SPLINE
  5
1130
330
1F
100
AcDbEntity
  8
0
  6
Continuous
 62
     7
370
    15
100
AcDbSpline
210
0.0
220
0.0
230
1.0
 70
     8
 71
     3
 72
     8
 73
     4
 74
     0
 42
0.0000000001
 43
0.0000000001
 40
0.0
 40
0.0
 40
0.0
 40
0.0
 40
1.0
 40
1.0
 40
1.0
 40
1.0
 10
7.526217394816821
 20
1.756877192468687
 30
0.0
 10
7.526260411603264
 20
1.756780321479279
 30
0.0
 10
7.52597957147476
 20
1.755681785685821
 30
0.0
 10
7.525390513713784
 20
1.753724871606035
 30
0.0
  0
LINE
  5
1131
330
1F
100
AcDbEntity
  8
0
  6
Continuous
 62
     7
370
    15
100
AcDbLine
 10
7.669569014673431
 20
2.04581692373785
 30
0.0
 11
7.669569014673431
 21
1.566057003410623
 31
0.0
  0
LINE
  5
1132
330
1F
100
AcDbEntity
  8
0
  6
Continuous
 62
     7
370
    15
100
AcDbLine
 10
5.349569014673424
 20
1.716057003410622
 30
0.0
 11
5.349569014673424
 21
1.566057003410623
 31
0.0
  0
LINE
  5
1133
330
1F
100
AcDbEntity
  8
0
  6
Continuous
 62
     7
370
    15
100
AcDbLine
 10
7.48096392099023
 20
1.716057003410622
 30
0.0
 11
5.349569014673424
 21
1.716057003410622
 31
0.0
  0
LINE
  5
1134
330
1F
100
AcDbEntity
  8
0
  6
Continuous
 62
     7
370
    15
100
AcDbLine
 10
5.349569014673424
 20
1.566057003410623
 30
0.0
 11
7.519569014673425
 21
1.566057003410623
 31
0.0
  0
LINE
  5
1135
330
1F
100
AcDbEntity
  8
0
  6
Continuous
 62
     7
370
    15
100
AcDbLine
 10
5.349569014673424
 20
1.736057003410623
 30
0.0
 11
5.349569014673424
 21
1.716057003410622
 31
0.0
  0
LINE
  5
1136
330
1F
100
AcDbEntity
  8
0
  6
Continuous
 62
     7
370
    15
100
AcDbLine
 10
5.349569014673424
 20
1.736057003410623
 30
0.0
 11
7.497658731396843
 21
1.736057003410623
 31
0.0
  0
LINE
  5
1137
330
1F
100
AcDbEntity
  8
0
  6
Continuous
 62
     7
370
    15
100
AcDbLine
 10
5.349569014673424
 20
1.716057003410622
 30
0.0
 11
5.329569014673428
 21
1.716057003410622
 31
0.0
  0
ARC
  5
1138
330
1F
100
AcDbEntity
  8
0
  6
Continuous
 62
     7
370
    15
100
AcDbCircle
 10
5.349569014673424
 20
1.716057003410622
 30
0.0
 40
0.0200000000000014
100
AcDbArc
 50
90.0
 51
180.0
  0
LINE
  5
1139
330
1F
100
AcDbEntity
  8
0
  6
Continuous
 62
     7
370
    15
100
AcDbLine
 10
5.329569014673428
 20
1.566057003410623
 30
0.0
 11
5.329569014673428
 21
1.716057003410622
 31
0.0
  0
LINE
  5
113A
330
1F
100
AcDbEntity
  8
0
  6
Continuous
 62
     7
370
    15
100
AcDbLine
 10
5.349569014673424
 20
1.566057003410623
 30
0.0
 11
5.329569014673428
 21
1.566057003410623
 31
0.0
  0
SPLINE
  5
113B
330
1F
100
AcDbEntity
  8
0
  6
Continuous
 62
     7
370
    15
100
AcDbSpline
210
0.0
220
0.0
230
1.0
 70
     8
 71
     3
 72
    18
 73
    14
 74
     0
 42
0.0000000001
 43
0.0000000001
 40
0.0
 40
0.0
 40
0.0
 40
0.0
 40
0.0895673390065247
 40
0.1853366243793664
 40
0.281790353590433
 40
0.3804523869666152
 40
0.4798985284393364
 40
0.5718807848509399
 40
0.6652142121084976
 40
0.7592386579909507
 40
0.8546882848899841
 40
0.9445532987423838
 40
1.0
 40
1.0
 40
1.0
 40
1.0
 10
7.604595667514242
 20
2.169278844939915
 30
0.0
 10
7.602098759270678
 20
2.159970277708429
 30
0.0
 10
7.596932048387213
 20
2.140708586475577
 30
0.0
 10
7.58997625794122
 20
2.114111127201871
 30
0.0
 10
7.583505254900341
 20
2.088869586837027
 30
0.0
 10
7.577796602762514
 20
2.066055818528226
 30
0.0
 10
7.573012852846719
 20
2.046485216479595
 30
0.0
 10
7.569122529229741
 20
2.030221991759344
 30
0.0
 10
7.566069925253525
 20
2.017211947118129
 30
0.0
 10
7.563740745094744
 20
2.007127788988503
 30
0.0
 10
7.562235507367969
 20
2.000523953782526
 30
0.0
 10
7.561472552058202
 20
1.99715362249096
 30
0.0
 10
7.561493033898795
 20
1.997244236696197
 30
0.0
 10
7.561500849170226
 20
1.997278812427159
 30
0.0
  0
SPLINE
  5
113C
330
1F
100
AcDbEntity
  8
0
  6
Continuous
 62
     7
370
    15
100
AcDbSpline
210
0.0
220
0.0
230
1.0
 70
     8
 71
     3
 72
     9
 73
     5
 74
     0
 42
0.0000000001
 43
0.0000000001
 40
0.0
 40
0.0
 40
0.0
 40
0.0
 40
0.4861416311300292
 40
1.0
 40
1.0
 40
1.0
 40
1.0
 10
7.598968139043169
 20
2.148220905849223
 30
0.0
 10
7.599579676499498
 20
2.150543336723899
 30
0.0
 10
7.60083761743105
 20
2.155320608872502
 30
0.0
 10
7.602266364988967
 20
2.160606893516426
 30
0.0
 10
7.6030005388786
 20
2.163323295120935
 30
0.0
  0
SPLINE
  5
113D
330
1F
100
AcDbEntity
  8
0
  6
Continuous
 62
     7
370
    15
100
AcDbSpline
210
0.0
220
0.0
230
1.0
 70
    24
 71
     3
 72
    10
 73
     6
 74
     0
 42
0.0000000001
 43
0.0000000001
 40
0.0
 40
0.0
 40
0.0
 40
0.0
 40
0.5
 40
0.5
 40
1.0
 40
1.0
 40
1.0
 40
1.0
 10
7.669569014673431
 20
2.415472560371739
 30
0.0
 10
7.669569014673424
 20
2.381697383085221
 30
0.0
 10
7.669569014673424
 20
2.345574018553204
 30
0.0
 10
7.669569014673431
 20
2.270327210755576
 30
0.0
 10
7.669569014673431
 20
2.231206565987875
 30
0.0
 10
7.669569014673431
 20
2.191507201986874
 30
0.0
  0
LINE
  5
113E
330
1F
100
AcDbEntity
  8
0
  6
Continuous
 62
     7
370
    15
100
AcDbLine
 10
9.109569014673429
 20
1.566057003410623
 30
0.0
 11
9.109569014673429
 21
2.671057003410624
 31
0.0
  0
SPLINE
  5
113F
330
1F
100
AcDbEntity
  8
0
  6
Continuous
 62
     7
370
    15
100
AcDbSpline
210
0.0
220
0.0
230
1.0
 70
    24
 71
     3
 72
     9
 73
     5
 74
     0
 42
0.0000000001
 43
0.0000000001
 40
0.0
 40
0.0
 40
0.0
 40
0.0
 40
0.5
 40
1.0
 40
1.0
 40
1.0
 40
1.0
 10
7.669569014673431
 20
2.454723822089091
 30
0.0
 10
7.669569014673431
 20
2.448385323605403
 30
0.0
 10
7.669569014673431
 20
2.435497534271032
 30
0.0
 10
7.669569014673431
 20
2.422212397166243
 30
0.0
 10
7.669569014673431
 20
2.415476736925775
 30
0.0
  0
SPLINE
  5
1140
330
1F
100
AcDbEntity
  8
0
  6
Continuous
 62
     7
370
    15
100
AcDbSpline
210
0.0
220
0.0
230
1.0
 70
    24
 71
     3
 72
    10
 73
     6
 74
     0
 42
0.0000000001
 43
0.0000000001
 40
0.0
 40
0.0
 40
0.0
 40
0.0
 40
0.5
 40
0.5
 40
1.0
 40
1.0
 40
1.0
 40
1.0
 10
7.669569014673424
 20
2.657965686074987
 30
0.0
 10
7.669569014673424
 20
2.644045523271834
 30
0.0
 10
7.669569014673424
 20
2.619050622571132
 30
0.0
 10
7.669569014673431
 20
2.549905938809178
 30
0.0
 10
7.669569014673431
 20
2.505773208972517
 30
0.0
 10
7.669569014673431
 20
2.454723822087524
 30
0.0
  0
SPLINE
  5
1141
330
1F
100
AcDbEntity
  8
0
  6
Continuous
 62
     7
370
    15
100
AcDbSpline
210
0.0
220
0.0
230
1.0
 70
    24
 71
     3
 72
    10
 73
     6
 74
     0
 42
0.0000000001
 43
0.0000000001
 40
0.0
 40
0.0
 40
0.0
 40
0.0
 40
0.5
 40
0.5
 40
1.0
 40
1.0
 40
1.0
 40
1.0
 10
7.669569014673431
 20
2.671056983526536
 30
0.0
 10
7.669569014673431
 20
2.671051601448025
 30
0.0
 10
7.669569014673431
 20
2.669952554284806
 30
0.0
 10
7.669569014673431
 20
2.665580147023119
 30
0.0
 10
7.669569014673424
 20
2.662306797178178
 30
0.0
 10
7.669569014673424
 20
2.657965686074987
 30
0.0
  0
ARC
  5
1142
330
1F
100
AcDbEntity
  8
0
  6
Continuous
 62
     8
370
    15
100
AcDbCircle
 10
7.497656940758393
 20
1.766055603835962
 30
0.0
 40
0.0299990461723459
100
AcDbArc
 50
294.5534734125964
 51
342.1842650697097
  0
SPLINE
  5
1143
330
1F
100
AcDbEntity
  8
0
  6
Continuous
 62
     8
370
    15
100
AcDbSpline
210
0.0
220
0.0
230
1.0
 70
     8
 71
     3
 72
    10
 73
     6
 74
     0
 42
0.0000000001
 43
0.0000000001
 40
0.0
 40
0.0
 40
0.0
 40
0.0
 40
0.1259701814195079
 40
0.5629719195727814
 40
1.0
 40
1.0
 40
1.0
 40
1.0
 10
7.523770504799596
 20
1.761094384096221
 30
0.0
 10
7.523723218355204
 20
1.761159252413444
 30
0.0
 10
7.523511891038939
 20
1.761449154679642
 30
0.0
 10
7.524360519254347
 20
1.760425973285627
 30
0.0
 10
7.525598423859651
 20
1.758060143175484
 30
0.0
 10
7.526217394816821
 20
1.756877192468687
 30
0.0
  0
SPLINE
  5
1144
330
1F
100
AcDbEntity
  8
0
  6
Continuous
 62
     8
370
    15
100
AcDbSpline
210
0.0
220
0.0
230
1.0
 70
     8
 71
     3
 72
    15
 73
    11
 74
     0
 42
0.0000000001
 43
0.0000000001
 40
0.0
 40
0.0
 40
0.0
 40
0.0
 40
0.1334389685679686
 40
0.2685940319490209
 40
0.404564640939244
 40
0.542182796075594
 40
0.6875655949001113
 40
0.8339044280875315
 40
0.9833219607406526
 40
1.0
 40
1.0
 40
1.0
 40
1.0
 10
7.669569014673431
 20
2.415472560671924
 30
0.0
 10
7.666791451090563
 20
2.403481068890403
 30
0.0
 10
7.661200603006808
 20
2.379343868481504
 30
0.0
 10
7.652079791011775
 20
2.343803412607515
 30
0.0
 10
7.642724672768427
 20
2.308680234059613
 30
0.0
 10
7.633167959112956
 20
2.273699021420217
 30
0.0
 10
7.623611237195905
 20
2.239016625956516
 30
0.0
 10
7.614304552714781
 20
2.205108738771979
 30
0.0
 10
7.607929374624408
 20
2.18176376008253
 30
0.0
 10
7.604899867325723
 20
2.170418089842737
 30
0.0
 10
7.604595667514242
 20
2.169278844939915
 30
0.0
  0
LINE
  5
1145
330
1F
100
AcDbEntity
  8
0
  6
HIDDEN
 62
     7
370
     0
100
AcDbLine
 10
7.561470853335936
 20
1.997146394466112
 30
0.0
 11
7.561643310250314
 21
1.997907099785424
 31
0.0
  0
LINE
  5
1146
330
1F
100
AcDbEntity
  8
0
  6
HIDDEN
 62
     7
370
     0
100
AcDbLine
 10
8.917069014673426
 20
1.758557003410622
 30
0.0
 11
8.917069014673426
 21
2.478557003410621
 31
0.0
  0
SPLINE
  5
1147
330
1F
100
AcDbEntity
  8
0
  6
HIDDEN
 62
     7
370
     0
100
AcDbSpline
210
0.0
220
0.0
230
1.0
 70
    11
 71
     3
 72
    48
 73
    44
 74
     0
 42
0.0000000001
 43
0.0000000001
 40
0.0
 40
0.0
 40
0.0
 40
0.0
 40
0.0625000000000002
 40
0.0625000000000002
 40
0.1250000000000004
 40
0.1250000000000004
 40
0.1562500000000005
 40
0.1562500000000005
 40
0.1875000000000006
 40
0.1875000000000006
 40
0.2500000000000008
 40
0.2500000000000008
 40
0.2812500000000009
 40
0.2812500000000009
 40
0.3125000000000009
 40
0.3125000000000009
 40
0.3750000000000009
 40
0.3750000000000009
 40
0.406250000000001
 40
0.406250000000001
 40
0.437500000000001
 40
0.437500000000001
 40
0.5000000000000009
 40
0.5000000000000009
 40
0.5312500000000009
 40
0.5312500000000009
 40
0.5625000000000009
 40
0.5625000000000009
 40
0.6250000000000009
 40
0.6250000000000009
 40
0.6562500000000009
 40
0.6562500000000009
 40
0.6875000000000009
 40
0.6875000000000009
 40
0.7500000000000008
 40
0.7500000000000008
 40
0.8125000000000007
 40
0.8125000000000007
 40
0.8750000000000003
 40
0.8750000000000003
 40
0.9375000000000001
 40
0.9375000000000001
 40
1.0
 40
1.0
 40
1.0
 40
1.0
 10
7.669569014673424
 20
2.329073267459518
 30
0.0
 10
7.663464585106243
 20
2.306899743802789
 30
0.0
 10
7.65728671806568
 20
2.285237874723854
 30
0.0
 10
7.645415303316159
 20
2.243790295287862
 30
0.0
 10
7.639708378025243
 20
2.223966744281895
 30
0.0
 10
7.631613914791305
 20
2.195562656792626
 30
0.0
 10
7.628992441522758
 20
2.186317881003494
 30
0.0
 10
7.623915790891128
 20
2.168287794791446
 30
0.0
 10
7.621457136045119
 20
2.159489526794963
 30
0.0
 10
7.614464311711369
 20
2.134250608145023
 30
0.0
 10
7.610268278260331
 20
2.118802782984033
 30
0.0
 10
7.604646738104651
 20
2.097707432776823
 30
0.0
 10
7.60288517026515
 20
2.091023332900244
 30
0.0
 10
7.599584016051696
 20
2.078372609812953
 30
0.0
 10
7.598040516876213
 20
2.072390363837294
 30
0.0
 10
7.593813832893228
 20
2.055853960548679
 30
0.0
 10
7.591504690278288
 20
2.046597383038756
 30
0.0
 10
7.588732034062022
 20
2.035341557652326
 30
0.0
 10
7.587923458197753
 20
2.032029857119978
 30
0.0
 10
7.586534168905021
 20
2.026308922430159
 30
0.0
 10
7.585952328459331
 20
2.023894346261796
 30
0.0
 10
7.584573192714469
 20
2.01814872175548
 30
0.0
 10
7.584124748706184
 20
2.016257579648197
 30
0.0
 10
7.584126979332662
 20
2.016266922452414
 30
0.0
 10
7.584241335878832
 20
2.016746725202175
 30
0.0
 10
7.584702053270692
 20
2.018677676657107
 30
0.0
 10
7.58505110650859
 20
2.020140044393173
 30
0.0
 10
7.586442236274702
 20
2.025934765822784
 30
0.0
 10
7.58782287626418
 20
2.031651418975233
 30
0.0
 10
7.59059625764662
 20
2.042909191051501
 30
0.0
 10
7.591638616897061
 20
2.047111161995152
 30
0.0
 10
7.593973226824747
 20
2.056423938535639
 30
0.0
 10
7.595272016468417
 20
2.061560403441122
 30
0.0
 10
7.599521065777945
 20
2.078179804002687
 30
0.0
 10
7.602799309355216
 20
2.09077568585921
 30
0.0
 10
7.610276711867651
 20
2.118833526060599
 30
0.0
 10
7.61447639106527
 20
2.134295907090383
 30
0.0
 10
7.623856282879447
 20
2.168146954588902
 30
0.0
 10
7.628929961274447
 20
2.186144451957456
 30
0.0
 10
7.639693482911095
 20
2.223914483883744
 30
0.0
 10
7.645396974443347
 20
2.24372639891275
 30
0.0
 10
7.657291577201252
 20
2.285254743283203
 30
0.0
 10
7.663465074565149
 20
2.306901521696792
 30
0.0
 10
7.669569014673424
 20
2.329073267459518
 30
0.0
  0
SPLINE
  5
1148
330
1F
100
AcDbEntity
  8
0
  6
HIDDEN
 62
     7
370
     0
100
AcDbSpline
210
0.0
220
0.0
230
1.0
 70
    24
 71
     3
 72
    11
 73
     7
 74
     0
 42
0.0000000001
 43
0.0000000001
 40
0.0
 40
0.0
 40
0.0
 40
0.0
 40
0.0046966293604756
 40
0.5799255101725028
 40
0.975698498188928
 40
0.9999999999999998
 40
0.9999999999999998
 40
0.9999999999999998
 40
0.9999999999999998
 10
7.669569014673431
 20
2.418158501111077
 30
0.0
 10
7.669569014673431
 20
2.41816356851422
 30
0.0
 10
7.669569014673403
 20
2.418789276043373
 30
0.0
 10
7.669569014673431
 20
2.4194294726188
 30
0.0
 10
7.669569014673424
 20
2.419995185389103
 30
0.0
 10
7.669569014673431
 20
2.419903073068661
 30
0.0
 10
7.669569014673431
 20
2.419897744328697
 30
0.0
  0
LINE
  5
1149
330
1F
100
AcDbEntity
  8
0
  6
HIDDEN
 62
     7
370
     0
100
AcDbLine
 10
7.669569014673431
 20
2.191140258952678
 30
0.0
 11
7.669569014673431
 21
2.193461364760798
 31
0.0
  0
LINE
  5
114A
330
1F
100
AcDbEntity
  8
0
  6
HIDDEN
 62
     7
370
     0
100
AcDbLine
 10
5.429569014673422
 20
1.735057003410622
 30
0.0
 11
5.429569014673422
 21
1.736057003410623
 31
0.0
  0
LINE
  5
114B
330
1F
100
AcDbEntity
  8
0
  6
HIDDEN
 62
     7
370
     0
100
AcDbLine
 10
5.429569014673422
 20
1.735057003410622
 30
0.0
 11
5.387902348006758
 21
1.735057003410622
 31
0.0
  0
LINE
  5
114C
330
1F
100
AcDbEntity
  8
0
  6
HIDDEN
 62
     7
370
     0
100
AcDbLine
 10
5.387902348006758
 20
1.735057003410622
 30
0.0
 11
5.387902348006758
 21
1.736057003410623
 31
0.0
  0
LINE
  5
114D
330
1F
100
AcDbEntity
  8
0
  6
HIDDEN
 62
     7
370
     0
100
AcDbLine
 10
5.410338245442655
 20
1.735057003410622
 30
0.0
 11
5.410338245442655
 21
1.736057003410623
 31
0.0
  0
LINE
  5
114E
330
1F
100
AcDbEntity
  8
0
  6
HIDDEN
 62
     7
370
     0
100
AcDbLine
 10
5.406064741169156
 20
1.735057003410584
 30
0.0
 11
5.406064741169156
 21
1.736057003410623
 31
0.0
  0
LINE
  5
114F
330
1F
100
AcDbEntity
  8
0
  6
HIDDEN
 62
     7
370
     0
100
AcDbLine
 10
5.392175852280264
 20
1.735057003410622
 30
0.0
 11
5.392175852280264
 21
1.736057003410614
 31
0.0
  0
LINE
  5
1150
330
1F
100
AcDbEntity
  8
0
  6
HIDDEN
 62
     7
370
     0
100
AcDbLine
 10
5.406156554737531
 20
1.735057003410622
 30
0.0
 11
5.406156554737531
 21
1.736057003410623
 31
0.0
  0
LINE
  5
1151
330
1F
100
AcDbEntity
  8
0
  6
HIDDEN
 62
     7
370
     0
100
AcDbLine
 10
5.409653817023855
 20
1.735057003410622
 30
0.0
 11
5.409653817023855
 21
1.736057003410623
 31
0.0
  0
LINE
  5
1152
330
1F
100
AcDbEntity
  8
0
  6
HIDDEN
 62
     7
370
     0
100
AcDbLine
 10
5.388528349609327
 20
1.735057003410622
 30
0.0
 11
5.388528349609327
 21
1.736057003410623
 31
0.0
  0
LINE
  5
1153
330
1F
100
AcDbEntity
  8
0
  6
HIDDEN
 62
     7
370
     0
100
AcDbLine
 10
5.399095256660611
 20
1.735057003410622
 30
0.0
 11
5.399095256660611
 21
1.736057003410623
 31
0.0
  0
LINE
  5
1154
330
1F
100
AcDbEntity
  8
0
  6
HIDDEN
 62
     7
370
     0
100
AcDbLine
 10
5.399078563284536
 20
1.735057003410622
 30
0.0
 11
5.399078563284536
 21
1.736057003410623
 31
0.0
  0
LINE
  5
1155
330
1F
100
AcDbEntity
  8
0
  6
HIDDEN
 62
     7
370
     0
100
AcDbLine
 10
5.416214313818723
 20
1.735057003410622
 30
0.0
 11
5.416214313818723
 21
1.736057003410623
 31
0.0
  0
LINE
  5
1156
330
1F
100
AcDbEntity
  8
0
  6
HIDDEN
 62
     7
370
     0
100
AcDbLine
 10
5.411940809545217
 20
1.735057003410622
 30
0.0
 11
5.411940809545217
 21
1.736057003410623
 31
0.0
  0
LINE
  5
1157
330
1F
100
AcDbEntity
  8
0
  6
HIDDEN
 62
     7
370
     0
100
AcDbLine
 10
5.420696485293081
 20
1.735057003410622
 30
0.0
 11
5.420696485293081
 21
1.736057003410623
 31
0.0
  0
LINE
  5
1158
330
1F
100
AcDbEntity
  8
0
  6
HIDDEN
 62
     7
370
     0
100
AcDbLine
 10
5.425295510399923
 20
1.735057003410622
 30
0.0
 11
5.425295510399923
 21
1.73605700341052
 31
0.0
  0
LINE
  5
1159
330
1F
100
AcDbEntity
  8
0
  6
HIDDEN
 62
     7
370
     0
100
AcDbLine
 10
5.424235481019582
 20
1.735057003410622
 30
0.0
 11
5.424235481019582
 21
1.736057003410623
 31
0.0
  0
LINE
  5
115A
330
1F
100
AcDbEntity
  8
0
  6
HIDDEN
 62
     7
370
     0
100
AcDbLine
 10
5.430637390741804
 20
1.735057003410622
 30
0.0
 11
5.430637390741804
 21
1.736057003410623
 31
0.0
  0
SPLINE
  5
115B
330
1F
100
AcDbEntity
  8
0
  6
HIDDEN
 62
     7
370
     0
100
AcDbSpline
210
0.0
220
0.0
230
1.0
 70
     8
 71
     3
 72
    12
 73
     8
 74
     0
 42
0.0000000001
 43
0.0000000001
 40
0.0
 40
0.0
 40
0.0
 40
0.0
 40
0.2500000000000046
 40
0.2500000000000046
 40
0.5000000000000093
 40
0.5000000000000093
 40
1.0
 40
1.0
 40
1.0
 40
1.0
 10
7.497658731396843
 20
1.736057003410623
 30
0.0
 10
7.497757129879591
 20
1.736057003410623
 30
0.0
 10
7.497254452117385
 20
1.735315085471585
 30
0.0
 10
7.495309971877855
 20
1.732835439104345
 30
0.0
 10
7.493875350168114
 20
1.731103263782019
 30
0.0
 10
7.488971498262461
 20
1.725333001683639
 30
0.0
 10
7.484915213945559
 20
1.720713924083124
 30
0.0
 10
7.480963920990223
 20
1.716057003410622
 30
0.0
  0
LINE
  5
115C
330
1F
100
AcDbEntity
  8
0
  6
HIDDEN
 62
     7
370
     0
100
AcDbLine
 10
5.349569014673424
 20
1.716057003410622
 30
0.0
 11
5.349569014673424
 21
1.736057003410623
 31
0.0
  0
LINE
  5
115D
330
1F
100
AcDbEntity
  8
0
  6
HIDDEN
 62
     7
370
     0
100
AcDbLine
 10
5.349569014673424
 20
1.716057003410622
 30
0.0
 11
7.480963920990223
 21
1.716057003410622
 31
0.0
  0
LINE
  5
115E
330
1F
100
AcDbEntity
  8
0
  6
HIDDEN
 62
     7
370
     0
100
AcDbLine
 10
5.349569014673424
 20
1.716057003410622
 30
0.0
 11
5.329569014673428
 21
1.716057003410622
 31
0.0
  0
LINE
  5
115F
330
1F
100
AcDbEntity
  8
0
  6
HIDDEN
 62
     7
370
     0
100
AcDbLine
 10
5.349569014673424
 20
1.566057003410623
 30
0.0
 11
5.349569014673424
 21
1.716057003410622
 31
0.0
  0
LINE
  5
1160
330
1F
100
AcDbEntity
  8
0
  6
HIDDEN
 62
     7
370
     0
100
AcDbLine
 10
9.109569014673429
 20
2.671057003410624
 30
0.0
 11
8.917069014673426
 21
2.478557003410621
 31
0.0
  0
LINE
  5
1161
330
1F
100
AcDbEntity
  8
0
  6
HIDDEN
 62
     7
370
     0
100
AcDbLine
 10
8.917069014673426
 20
1.758557003410622
 30
0.0
 11
9.109569014673429
 21
1.566057003410623
 31
0.0
  0
SPLINE
  5
1162
330
1F
100
AcDbEntity
  8
0
  6
HIDDEN
 62
     7
370
     0
100
AcDbSpline
210
0.0
220
0.0
230
1.0
 70
     8
 71
     3
 72
    13
 73
     9
 74
     0
 42
0.0000000001
 43
0.0000000001
 40
0.0
 40
0.0
 40
0.0
 40
0.0
 40
0.0225995760373298
 40
0.1571362430358458
 40
0.3596472422210747
 40
0.5463645254842711
 40
0.7697397982861578
 40
0.9999999999999998
 40
0.9999999999999998
 40
0.9999999999999998
 40
0.9999999999999998
 10
7.562140525162025
 20
2.000014028568646
 30
0.0
 10
7.562198568136604
 20
2.000203663346823
 30
0.0
 10
7.562602144510986
 20
2.001522205630207
 30
0.0
 10
7.564073003377
 20
2.004921616150404
 30
0.0
 10
7.567080143905119
 20
2.009074272550309
 30
0.0
 10
7.571741463680492
 20
2.01296177858914
 30
0.0
 10
7.577520034360208
 20
2.015750072665278
 30
0.0
 10
7.581993262117347
 20
2.016084103147067
 30
0.0
 10
7.584263821594138
 20
2.016253653216312
 30
0.0
  0
LINE
  5
1163
330
1F
100
AcDbEntity
  8
0
  6
HIDDEN
 62
     7
370
     0
100
AcDbLine
 10
7.60725259741017
 20
2.179860086632332
 30
0.0
 11
7.603297980899558
 21
2.165053897944545
 31
0.0
  0
LINE
  5
1164
330
1F
100
AcDbEntity
  8
0
  6
HIDDEN
 62
     7
370
     0
100
AcDbLine
 10
7.584213864703887
 20
2.016263792950541
 30
0.0
 11
7.669569014673431
 21
2.016263792950541
 31
0.0
  0
LINE
  5
1165
330
1F
100
AcDbEntity
  8
0
  6
HIDDEN
 62
     7
370
     0
100
AcDbLine
 10
7.669569014673431
 20
1.758557003410622
 30
0.0
 11
8.917069014673426
 21
1.758557003410622
 31
0.0
  0
LINE
  5
1166
330
1F
100
AcDbEntity
  8
0
  6
HIDDEN
 62
     7
370
     0
100
AcDbLine
 10
8.917069014673426
 20
2.478557003410621
 30
0.0
 11
7.669569014673431
 21
2.478557003410621
 31
0.0
  0
LINE
  5
1167
330
1F
100
AcDbEntity
  8
0
  6
HIDDEN
 62
     7
370
     0
100
AcDbLine
 10
6.736113873035133
 20
1.736057003410623
 30
0.0
 11
6.736113873035133
 21
1.566057003410623
 31
0.0
  0
LINE
  5
1168
330
1F
100
AcDbEntity
  8
0
  6
HIDDEN
 62
     7
370
     0
100
AcDbLine
 10
7.111113873035133
 20
1.566057003410623
 30
0.0
 11
7.111113873035133
 21
1.736057003410623
 31
0.0
  0
LINE
  5
1169
330
1F
100
AcDbEntity
  8
0
  6
HIDDEN
 62
     7
370
     0
100
AcDbLine
 10
5.736113873035133
 20
1.736057003410623
 30
0.0
 11
5.736113873035133
 21
1.566057003410623
 31
0.0
  0
LINE
  5
116A
330
1F
100
AcDbEntity
  8
0
  6
HIDDEN
 62
     7
370
     0
100
AcDbLine
 10
6.111113873035133
 20
1.566057003410623
 30
0.0
 11
6.111113873035133
 21
1.736057003410623
 31
0.0
  0
SPLINE
  5
116B
330
1F
100
AcDbEntity
  8
0
  6
HIDDEN
 62
     7
370
     0
100
AcDbSpline
210
0.0
220
0.0
230
1.0
 70
     8
 71
     3
 72
     9
 73
     5
 74
     0
 42
0.0000000001
 43
0.0000000001
 40
0.0
 40
0.0
 40
0.0
 40
0.0
 40
0.5629662852729113
 40
1.0
 40
1.0
 40
1.0
 40
1.0
 10
7.526217394816821
 20
1.756877192468687
 30
0.0
 10
7.525376297333291
 20
1.758391043839418
 30
0.0
 10
7.523882251409876
 20
1.761080106062744
 30
0.0
 10
7.523804489413667
 20
1.761090041830659
 30
0.0
 10
7.523770504799596
 20
1.761094384096221
 30
0.0
  0
ARC
  5
116C
330
1F
100
AcDbEntity
  8
0
  6
HIDDEN
 62
     7
370
     0
100
AcDbCircle
 10
-0.1707275459378543
 20
4.350482300674187
 30
0.0
 40
8.075550312655899
100
AcDbArc
 50
344.2859119730327
 51
346.1362783427089
  0
ARC
  5
116D
330
1F
100
AcDbEntity
  8
0
  6
HIDDEN
 62
     7
370
     0
100
AcDbCircle
 10
7.497656940758393
 20
1.766055603835955
 30
0.0
 40
0.0299990461723437
100
AcDbArc
 50
294.5534734132884
 51
342.1842650697227
  0
LINE
  5
116E
330
1F
100
AcDbEntity
  8
0
  6
Continuous
 62
     7
370
    15
100
AcDbLine
 10
4.554530945517612
 20
2.758402657728321
 30
0.0
 11
3.114496195666173
 21
2.758402657728321
 31
0.0
  0
LINE
  5
116F
330
1F
100
AcDbEntity
  8
0
  6
Continuous
 62
     7
370
    15
100
AcDbLine
 10
3.114495638690804
 20
1.653402657728324
 30
0.0
 11
4.554530945517612
 21
1.653402657728324
 31
0.0
  0
SPLINE
  5
1170
330
1F
100
AcDbEntity
  8
0
  6
Continuous
 62
     7
370
    15
100
AcDbSpline
210
0.0
220
0.0
230
1.0
 70
     8
 71
     3
 72
    18
 73
    14
 74
     0
 42
0.0000000001
 43
0.0000000001
 40
0.0
 40
0.0
 40
0.0
 40
0.0
 40
0.0361598584619233
 40
0.0817882114273888
 40
0.1235921995585494
 40
0.1790283159846654
 40
0.2518674548914588
 40
0.3448824516632005
 40
0.4560599035939523
 40
0.5816411834735968
 40
0.7178607314755761
 40
0.8610032044414758
 40
1.0
 40
1.0
 40
1.0
 40
1.0
 10
2.964530945517612
 20
1.565902657728322
 30
0.0
 10
2.968436628652995
 20
1.568267519196965
 30
0.0
 10
2.977270701894212
 20
1.573616483435795
 30
0.0
 10
2.988407710416538
 20
1.579971575374003
 30
0.0
 10
2.998741143976566
 20
1.585928782467817
 30
0.0
 10
3.009158123208493
 20
1.591948453733085
 30
0.0
 10
3.020868800760769
 20
1.59877045559196
 30
0.0
 10
3.033929435438082
 20
1.606403191691761
 30
0.0
 10
3.048439048242698
 20
1.614886268949373
 30
0.0
 10
3.064142659625204
 20
1.624054731244594
 30
0.0
 10
3.08073896478869
 20
1.633729443641243
 30
0.0
 10
3.097626827863077
 20
1.643566022742202
 30
0.0
 10
3.108954519240878
 20
1.650171972679785
 30
0.0
 10
3.11453514192706
 20
1.653426414635866
 30
0.0
  0
SPLINE
  5
1171
330
1F
100
AcDbEntity
  8
0
  6
Continuous
 62
     7
370
    15
100
AcDbSpline
210
0.0
220
0.0
230
1.0
 70
     8
 71
     3
 72
    24
 73
    20
 74
     0
 42
0.0000000001
 43
0.0000000001
 40
0.0
 40
0.0
 40
0.0
 40
0.0
 40
0.1042506320467963
 40
0.2098819586585813
 40
0.3183341692983212
 40
0.4310775321939843
 40
0.547824219936982
 40
0.6610541352207442
 40
0.7612901239769525
 40
0.8311840152773468
 40
0.8830876795810318
 40
0.9196957638521688
 40
0.9441330465578388
 40
0.9529879190109799
 40
0.9603425272627566
 40
0.9668349288715022
 40
0.9730468288854222
 40
0.985955885072788
 40
1.0
 40
1.0
 40
1.0
 40
1.0
 10
3.114530945517614
 20
2.758381726289282
 30
0.0
 10
3.109945367791159
 20
2.761057232785184
 30
0.0
 10
3.100713480982285
 20
2.766443680164336
 30
0.0
 10
3.0867682700685
 20
2.77457996186234
 30
0.0
 10
3.072574853660636
 20
2.78286164401172
 30
0.0
 10
3.05808668526231
 20
2.791315702009125
 30
0.0
 10
3.043630718842514
 20
2.799749243828451
 30
0.0
 10
3.029573734972736
 20
2.807949421543263
 30
0.0
 10
3.017082077711084
 20
2.815239840666031
 30
0.0
 10
3.006427473049985
 20
2.821458250857059
 30
0.0
 10
2.997756965335828
 20
2.826508148943382
 30
0.0
 10
2.990415281246242
 20
2.830766929022598
 30
0.0
 10
2.984656709614775
 20
2.834091476131575
 30
0.0
 10
2.980415124474873
 20
2.836535871158634
 30
0.0
 10
2.977729832608162
 20
2.838084530000788
 30
0.0
 10
2.975194326206374
 20
2.839550871333848
 30
0.0
 10
2.97201380698911
 20
2.841401324038518
 30
0.0
 10
2.968365772289395
 20
2.843549222629803
 30
0.0
 10
2.965844611691856
 20
2.845096460143349
 30
0.0
 10
2.964530945517612
 20
2.845902657728323
 30
0.0
  0
LINE
  5
1172
330
1F
100
AcDbEntity
  8
0
  6
Continuous
 62
     7
370
    15
100
AcDbLine
 10
4.554530945517612
 20
1.653402657728324
 30
0.0
 11
4.554530945517612
 21
2.758402657728321
 31
0.0
  0
SPLINE
  5
1173
330
1F
100
AcDbEntity
  8
0
  6
Continuous
 62
     7
370
    15
100
AcDbSpline
210
0.0
220
0.0
230
1.0
 70
     8
 71
     3
 72
     9
 73
     5
 74
     0
 42
0.0000000001
 43
0.0000000001
 40
0.0
 40
0.0
 40
0.0
 40
0.0
 40
0.5166375722406239
 40
0.9999999999999998
 40
0.9999999999999998
 40
0.9999999999999998
 40
0.9999999999999998
 10
3.114530945517614
 20
2.753593383239127
 30
0.0
 10
3.114518199439967
 20
2.755042373359497
 30
0.0
 10
3.114493528222983
 20
2.757847028301814
 30
0.0
 10
3.11449532646402
 20
2.758169395881335
 30
0.0
 10
3.114496195666177
 20
2.758325216257208
 30
0.0
  0
SPLINE
  5
1174
330
1F
100
AcDbEntity
  8
0
  6
Continuous
 62
     7
370
    15
100
AcDbSpline
210
0.0
220
0.0
230
1.0
 70
     8
 71
     3
 72
     9
 73
     5
 74
     0
 42
0.0000000001
 43
0.0000000001
 40
0.0
 40
0.0
 40
0.0
 40
0.0
 40
0.0331949076644502
 40
1.0
 40
1.0
 40
1.0
 40
1.0
 10
3.114495638690804
 20
1.653480098825774
 30
0.0
 10
3.114495171441653
 20
1.653454747076043
 30
0.0
 10
3.114481095512957
 20
1.652691023013701
 30
0.0
 10
3.114506539185139
 20
1.655512273811257
 30
0.0
 10
3.114531138256975
 20
1.658239873449094
 30
0.0
  0
SPLINE
  5
1175
330
1F
100
AcDbEntity
  8
0
  6
Continuous
 62
     7
370
    15
100
AcDbSpline
210
0.0
220
0.0
230
1.0
 70
    24
 71
     3
 72
    10
 73
     6
 74
     0
 42
0.0000000001
 43
0.0000000001
 40
0.0
 40
0.0
 40
0.0
 40
0.0
 40
0.5
 40
0.5
 40
1.0
 40
1.0
 40
1.0
 40
1.0
 10
3.114530945517614
 20
1.73996553532395
 30
0.0
 10
3.114530945517611
 20
1.718442511951742
 30
0.0
 10
3.114530945517611
 20
1.70060717192663
 30
0.0
 10
3.114530945517614
 20
1.673149377777569
 30
0.0
 10
3.114530945517614
 20
1.663527944834211
 30
0.0
 10
3.114530945517614
 20
1.658239879617845
 30
0.0
  0
SPLINE
  5
1176
330
1F
100
AcDbEntity
  8
0
  6
Continuous
 62
     7
370
    15
100
AcDbSpline
210
0.0
220
0.0
230
1.0
 70
    24
 71
     3
 72
     9
 73
     5
 74
     0
 42
0.0000000001
 43
0.0000000001
 40
0.0
 40
0.0
 40
0.0
 40
0.0
 40
0.5
 40
1.0
 40
1.0
 40
1.0
 40
1.0
 10
3.114530945517614
 20
1.767441576194745
 30
0.0
 10
3.114530945517614
 20
1.762581868092471
 30
0.0
 10
3.114530945517614
 20
1.75313738755846
 30
0.0
 10
3.114530945517614
 20
1.744260539666086
 30
0.0
 10
3.114530945517614
 20
1.739968196833562
 30
0.0
  0
SPLINE
  5
1177
330
1F
100
AcDbEntity
  8
0
  6
Continuous
 62
     7
370
    15
100
AcDbSpline
210
0.0
220
0.0
230
1.0
 70
    24
 71
     3
 72
    10
 73
     6
 74
     0
 42
0.0000000001
 43
0.0000000001
 40
0.0
 40
0.0
 40
0.0
 40
0.0
 40
0.5
 40
0.5
 40
1.0
 40
1.0
 40
1.0
 40
1.0
 10
3.114530945517611
 20
2.08634295270069
 30
0.0
 10
3.114530945517611
 20
2.023540383236444
 30
0.0
 10
3.114530945517611
 20
1.963208774732905
 30
0.0
 10
3.114530945517614
 20
1.854715699550332
 30
0.0
 10
3.114530945517614
 20
1.806580990630198
 30
0.0
 10
3.114530945517614
 20
1.76744157619354
 30
0.0
  0
SPLINE
  5
1178
330
1F
100
AcDbEntity
  8
0
  6
Continuous
 62
     7
370
    15
100
AcDbSpline
210
0.0
220
0.0
230
1.0
 70
    24
 71
     3
 72
    10
 73
     6
 74
     0
 42
0.0000000001
 43
0.0000000001
 40
0.0
 40
0.0
 40
0.0
 40
0.0
 40
0.5
 40
0.5
 40
1.0
 40
1.0
 40
1.0
 40
1.0
 10
3.114530945517614
 20
2.205754428460824
 30
0.0
 10
3.114530945517614
 20
2.185693624550005
 30
0.0
 10
3.114530945517614
 20
2.165633161100359
 30
0.0
 10
3.114530945517614
 20
2.125750513435015
 30
0.0
 10
3.114530945517611
 20
2.105928422746231
 30
0.0
 10
3.114530945517611
 20
2.08634295270069
 30
0.0
  0
SPLINE
  5
1179
330
1F
100
AcDbEntity
  8
0
  6
Continuous
 62
     7
370
    15
100
AcDbSpline
210
0.0
220
0.0
230
1.0
 70
    24
 71
     3
 72
    10
 73
     6
 74
     0
 42
0.0000000001
 43
0.0000000001
 40
0.0
 40
0.0
 40
0.0
 40
0.0
 40
0.5
 40
0.5
 40
1.0
 40
1.0
 40
1.0
 40
1.0
 10
3.114530945517614
 20
2.325462362755956
 30
0.0
 10
3.114530945517614
 20
2.305828653702949
 30
0.0
 10
3.114530945517614
 20
2.285957156163934
 30
0.0
 10
3.114530945517614
 20
2.245975103032151
 30
0.0
 10
3.114530945517614
 20
2.225864642126285
 30
0.0
 10
3.114530945517614
 20
2.205754428460824
 30
0.0
  0
SPLINE
  5
117A
330
1F
100
AcDbEntity
  8
0
  6
Continuous
 62
     7
370
    15
100
AcDbSpline
210
0.0
220
0.0
230
1.0
 70
    24
 71
     3
 72
    10
 73
     6
 74
     0
 42
0.0000000001
 43
0.0000000001
 40
0.0
 40
0.0
 40
0.0
 40
0.0
 40
0.5
 40
0.5
 40
1.0
 40
1.0
 40
1.0
 40
1.0
 10
3.114530945517614
 20
2.644363739292966
 30
0.0
 10
3.114530945517614
 20
2.605224324855864
 30
0.0
 10
3.114530945517614
 20
2.557089615932365
 30
0.0
 10
3.114530945517614
 20
2.448596540739071
 30
0.0
 10
3.114530945517614
 20
2.388264932228185
 30
0.0
 10
3.114530945517614
 20
2.325462362755956
 30
0.0
  0
SPLINE
  5
117B
330
1F
100
AcDbEntity
  8
0
  6
Continuous
 62
     7
370
    15
100
AcDbSpline
210
0.0
220
0.0
230
1.0
 70
    24
 71
     3
 72
    11
 73
     7
 74
     0
 42
0.0000000001
 43
0.0000000001
 40
0.0
 40
0.0
 40
0.0
 40
0.0
 40
0.250058537984548
 40
0.4999999999999981
 40
0.7499414620154478
 40
1.0
 40
1.0
 40
1.0
 40
1.0
 10
3.114530945517614
 20
2.644363739265244
 30
0.0
 10
3.114530945517614
 20
2.646774516935415
 30
0.0
 10
3.114530945517614
 20
2.651594943563519
 30
0.0
 10
3.114530945517611
 20
2.658556961544451
 30
0.0
 10
3.114530945517614
 20
2.665336716924141
 30
0.0
 10
3.114530945517614
 20
2.669671754059869
 30
0.0
 10
3.114530945517614
 20
2.671839780156417
 30
0.0
  0
SPLINE
  5
117C
330
1F
100
AcDbEntity
  8
0
  6
Continuous
 62
     7
370
    15
100
AcDbSpline
210
0.0
220
0.0
230
1.0
 70
    24
 71
     3
 72
    10
 73
     6
 74
     0
 42
0.0000000001
 43
0.0000000001
 40
0.0
 40
0.0
 40
0.0
 40
0.0
 40
0.5000000000000001
 40
0.5000000000000001
 40
1.0
 40
1.0
 40
1.0
 40
1.0
 10
3.114530945517614
 20
2.753593377051736
 30
0.0
 10
3.114530945517614
 20
2.748315889551612
 30
0.0
 10
3.114530945517611
 20
2.738697136375211
 30
0.0
 10
3.114530945517611
 20
2.711229571433904
 30
0.0
 10
3.114530945517614
 20
2.693381784817287
 30
0.0
 10
3.114530945517614
 20
2.6718397801327
 30
0.0
  0
SPLINE
  5
117D
330
1F
100
AcDbEntity
  8
0
  6
Continuous
 62
     7
370
    15
100
AcDbSpline
210
0.0
220
0.0
230
1.0
 70
     8
 71
     3
 72
    48
 73
    44
 74
     0
 42
0.0000000001
 43
0.0000000001
 40
0.0
 40
0.0
 40
0.0
 40
0.0
 40
0.0625000000000002
 40
0.0625000000000002
 40
0.1250000000000004
 40
0.1250000000000004
 40
0.1562500000000005
 40
0.1562500000000005
 40
0.1875000000000006
 40
0.1875000000000006
 40
0.2500000000000008
 40
0.2500000000000008
 40
0.2812500000000009
 40
0.2812500000000009
 40
0.3125000000000009
 40
0.3125000000000009
 40
0.3750000000000009
 40
0.3750000000000009
 40
0.406250000000001
 40
0.406250000000001
 40
0.437500000000001
 40
0.437500000000001
 40
0.5000000000000009
 40
0.5000000000000009
 40
0.5312500000000009
 40
0.5312500000000009
 40
0.5625000000000009
 40
0.5625000000000009
 40
0.6250000000000009
 40
0.6250000000000009
 40
0.6562500000000009
 40
0.6562500000000009
 40
0.6875000000000009
 40
0.6875000000000009
 40
0.7500000000000008
 40
0.7500000000000008
 40
0.8125000000000007
 40
0.8125000000000007
 40
0.8750000000000003
 40
0.8750000000000003
 40
0.9375000000000001
 40
0.9375000000000001
 40
1.0
 40
1.0
 40
1.0
 40
1.0
 10
3.114530945517614
 20
2.62597349454646
 30
0.0
 10
3.10842651595043
 20
2.619340973291016
 30
0.0
 10
3.102248648909867
 20
2.61093483997644
 30
0.0
 10
3.090377234160346
 20
2.590978692950955
 30
0.0
 10
3.08467030886943
 20
2.579438855032538
 30
0.0
 10
3.076575845635495
 20
2.55976077891308
 30
0.0
 10
3.073954372366948
 20
2.552804916280013
 30
0.0
 10
3.068877721735315
 20
2.538073256944688
 30
0.0
 10
3.066419066889309
 20
2.530279114687292
 30
0.0
 10
3.059426242555559
 20
2.506049764166139
 30
0.0
 10
3.055230209104522
 20
2.488655998188427
 30
0.0
 10
3.049608668948838
 20
2.460702306725846
 30
0.0
 10
3.04784710110934
 20
2.451072523531188
 30
0.0
 10
3.044545946895887
 20
2.431171516829174
 30
0.0
 10
3.0430024477204
 20
2.420863246925879
 30
0.0
 10
3.038775763737419
 20
2.389502043954305
 30
0.0
 10
3.036466621122478
 20
2.367875545598721
 30
0.0
 10
3.033693964906213
 20
2.334372613353391
 30
0.0
 10
3.03288538904194
 20
2.323026942907915
 30
0.0
 10
3.031496099749212
 20
2.299971532148184
 30
0.0
 10
3.030914259303518
 20
2.288211774668312
 30
0.0
 10
3.029535123558655
 20
2.252975665777896
 30
0.0
 10
3.029086679550371
 20
2.229415359278927
 30
0.0
 10
3.029088910176852
 20
2.193972936259811
 30
0.0
 10
3.029203266723019
 20
2.182141712659735
 30
0.0
 10
3.029663984114883
 20
2.158444452300503
 30
0.0
 10
3.030013037352777
 20
2.146523237062616
 30
0.0
 10
3.031404167118886
 20
2.11127576641601
 30
0.0
 10
3.032784807108367
 20
2.088383158255656
 30
0.0
 10
3.035558188490806
 20
2.054924488951694
 30
0.0
 10
3.036600547741244
 20
2.043919062259075
 30
0.0
 10
3.038935157668937
 20
2.022207312860071
 30
0.0
 10
3.040233947312604
 20
2.011454030077768
 30
0.0
 10
3.044482996622132
 20
1.980018087373824
 30
0.0
 10
3.047761240199406
 20
1.960278801376148
 30
0.0
 10
3.055238642711834
 20
1.92311816887566
 30
0.0
 10
3.059438321909457
 20
1.905697240660082
 30
0.0
 10
3.068818213723638
 20
1.873230025114189
 30
0.0
 10
3.073891892118634
 20
1.85856947189675
 30
0.0
 10
3.084655413755285
 20
1.832402571469312
 30
0.0
 10
3.090358905287537
 20
1.820858910615566
 30
0.0
 10
3.102253508045439
 20
1.800860832009089
 30
0.0
 10
3.108427005409335
 20
1.79246381036383
 30
0.0
 10
3.114530945517611
 20
1.785831820910185
 30
0.0
  0
SPLINE
  5
117E
330
1F
100
AcDbEntity
  8
0
  6
Continuous
 62
     7
370
    15
100
AcDbSpline
210
0.0
220
0.0
230
1.0
 70
     8
 71
     3
 72
    58
 73
    54
 74
     0
 42
0.0000000001
 43
0.0000000001
 40
0.0
 40
0.0
 40
0.0
 40
0.0
 40
0.0625000000000001
 40
0.0625000000000001
 40
0.0937500000000001
 40
0.0937500000000001
 40
0.1250000000000001
 40
0.1250000000000001
 40
0.1875
 40
0.1875
 40
0.21875
 40
0.21875
 40
0.25
 40
0.25
 40
0.3125
 40
0.3125
 40
0.3749999999999999
 40
0.3749999999999999
 40
0.4374999999999999
 40
0.4374999999999999
 40
0.4687499999999999
 40
0.4687499999999999
 40
0.4999999999999998
 40
0.4999999999999998
 40
0.5624999999999997
 40
0.5624999999999997
 40
0.5937499999999996
 40
0.5937499999999996
 40
0.6249999999999996
 40
0.6249999999999996
 40
0.6562499999999995
 40
0.6562499999999995
 40
0.6874999999999995
 40
0.6874999999999995
 40
0.7499999999999995
 40
0.7499999999999995
 40
0.7812499999999995
 40
0.7812499999999995
 40
0.8124999999999996
 40
0.8124999999999996
 40
0.8749999999999996
 40
0.8749999999999996
 40
0.9062499999999996
 40
0.9062499999999996
 40
0.9374999999999998
 40
0.9374999999999998
 40
0.9687499999999998
 40
0.9687499999999998
 40
0.984375
 40
0.984375
 40
0.9921875
 40
0.9921875
 40
1.0
 40
1.0
 40
1.0
 40
1.0
 10
3.114530945517614
 20
1.739965534769858
 30
0.0
 10
3.108159179466952
 20
1.743027248203205
 30
0.0
 10
3.101171904565589
 20
1.748787129795392
 30
0.0
 10
3.090540993817938
 20
1.760997307297913
 30
0.0
 10
3.086968671183146
 20
1.765670563998785
 30
0.0
 10
3.079849518127861
 20
1.776230322218523
 30
0.0
 10
3.076292056797864
 20
1.782141520488664
 30
0.0
 10
3.065926642910756
 20
1.801407897202047
 30
0.0
 10
3.059374688300792
 20
1.81634941112653
 30
0.0
 10
3.050234259506552
 20
1.841941192039811
 30
0.0
 10
3.047300652818901
 20
1.851005301378563
 30
0.0
 10
3.041674218313957
 20
1.870246435140209
 30
0.0
 10
3.038988710153315
 20
1.880410546966515
 30
0.0
 10
3.031457756593344
 20
1.911969547841096
 30
0.0
 10
3.027077744593626
 20
1.934612828676687
 30
0.0
 10
3.019524890555135
 20
1.983162221424137
 30
0.0
 10
3.016337171909778
 20
2.009326319126682
 30
0.0
 10
3.011343846517807
 20
2.062949537348558
 30
0.0
 10
3.009493653965733
 20
2.090585303615466
 30
0.0
 10
3.00762653890257
 20
2.133299606046975
 30
0.0
 10
3.007155894216818
 20
2.147828908907847
 30
0.0
 10
3.006534175631497
 20
2.176793257207496
 30
0.0
 10
3.006380102867709
 20
2.191250818212697
 30
0.0
 10
3.006375467602119
 20
2.234551359492684
 30
0.0
 10
3.006974478823355
 20
2.263322838902784
 30
0.0
 10
3.008837295256252
 20
2.306332044083514
 30
0.0
 10
3.009616752435277
 20
2.320511206703457
 30
0.0
 10
3.011478138972005
 20
2.348271694421196
 30
0.0
 10
3.012562089910293
 20
2.361900265423244
 30
0.0
 10
3.015047090582239
 20
2.38866195548972
 30
0.0
 10
3.016448425218378
 20
2.401795038297915
 30
0.0
 10
3.019587951308601
 20
2.427560667017104
 30
0.0
 10
3.021336725634867
 20
2.44025606994392
 30
0.0
 10
3.027030521905881
 20
2.476954043688234
 30
0.0
 10
3.031420622226836
 20
2.499649944664341
 30
0.0
 10
3.038928346225084
 20
2.531156676631209
 30
0.0
 10
3.041585058749511
 20
2.54123350472507
 30
0.0
 10
3.047214654482225
 20
2.560525762443642
 30
0.0
 10
3.050171248054944
 20
2.569677644442165
 30
0.0
 10
3.059340665467903
 20
2.595380498123727
 30
0.0
 10
3.065899243561023
 20
2.610335945928003
 30
0.0
 10
3.076246586344304
 20
2.629584505485457
 30
0.0
 10
3.079793719351663
 20
2.63548680384757
 30
0.0
 10
3.086932804342474
 20
2.646086905098677
 30
0.0
 10
3.090513666278237
 20
2.650774414470163
 30
0.0
 10
3.097614711193433
 20
2.658934750028421
 30
0.0
 10
3.101135044916439
 20
2.662407878276269
 30
0.0
 10
3.106284187340616
 20
2.666673201067965
 30
0.0
 10
3.107978402379007
 20
2.667937112199712
 30
0.0
 10
3.110473624835659
 20
2.669587579832004
 30
0.0
 10
3.111297665112662
 20
2.670096783877301
 30
0.0
 10
3.112928106721515
 20
2.671031535046903
 30
0.0
 10
3.113744577108068
 20
2.671461922077885
 30
0.0
 10
3.114530945517614
 20
2.671839780686791
 30
0.0
  0
LINE
  5
117F
330
1F
100
AcDbEntity
  8
0
  6
Continuous
 62
     7
370
    15
100
AcDbLine
 10
2.970352444557974
 20
1.569485180560956
 30
0.0
 11
3.114530945517614
 21
1.658211944592299
 31
0.0
  0
SPLINE
  5
1180
330
1F
100
AcDbEntity
  8
0
  6
Continuous
 62
     7
370
    15
100
AcDbSpline
210
0.0
220
0.0
230
1.0
 70
     8
 71
     3
 72
     8
 73
     4
 74
     0
 42
0.0000000001
 43
0.0000000001
 40
0.0
 40
0.0
 40
0.0
 40
0.0
 40
1.0
 40
1.0
 40
1.0
 40
1.0
 10
2.971179325661012
 20
1.586268464692061
 30
0.0
 10
2.97122234244745
 20
1.580479183722445
 30
0.0
 10
2.970941502318947
 20
1.574805082465537
 30
0.0
 10
2.970352444557974
 20
1.569485180560956
 30
0.0
  0
SPLINE
  5
1181
330
1F
100
AcDbEntity
  8
0
  6
Continuous
 62
     7
370
    15
100
AcDbSpline
210
0.0
220
0.0
230
1.0
 70
     8
 71
     3
 72
    14
 73
    10
 74
     0
 42
0.0000000001
 43
0.0000000001
 40
0.0
 40
0.0
 40
0.0
 40
0.0
 40
0.2500000000000001
 40
0.2500000000000001
 40
0.5000000000000001
 40
0.5000000000000001
 40
0.7500000000000001
 40
0.7500000000000001
 40
1.0
 40
1.0
 40
1.0
 40
1.0
 10
2.971179325661012
 20
2.825536850764585
 30
0.0
 10
2.970412047090491
 20
2.722275040785277
 30
0.0
 10
2.969717683335527
 20
2.619005639042384
 30
0.0
 10
2.968813084538229
 20
2.412456004477547
 30
0.0
 10
2.968581412008383
 20
2.309178171741422
 30
0.0
 10
2.968581418973951
 20
2.102622492502018
 30
0.0
 10
2.968813102251196
 20
1.99934444330163
 30
0.0
 10
2.969717688224466
 20
1.79279938335512
 30
0.0
 10
2.97041204151791
 20
1.689531024639759
 30
0.0
 10
2.971179325661012
 20
1.586268464692061
 30
0.0
  0
SPLINE
  5
1182
330
1F
100
AcDbEntity
  8
0
  6
Continuous
 62
     7
370
    15
100
AcDbSpline
210
0.0
220
0.0
230
1.0
 70
     8
 71
     3
 72
     8
 73
     4
 74
     0
 42
0.0000000001
 43
0.0000000001
 40
0.0
 40
0.0
 40
0.0
 40
0.0
 40
1.0
 40
1.0
 40
1.0
 40
1.0
 10
2.970352444557974
 20
2.84232013489569
 30
0.0
 10
2.970949689527913
 20
2.836926292634064
 30
0.0
 10
2.971222271159586
 20
2.831316537678407
 30
0.0
 10
2.971179325661012
 20
2.825536850764585
 30
0.0
  0
LINE
  5
1183
330
1F
100
AcDbEntity
  8
0
  6
Continuous
 62
     7
370
    15
100
AcDbLine
 10
3.114530945517614
 20
2.753593370864344
 30
0.0
 11
2.970352444557974
 21
2.84232013489569
 31
0.0
  0
SPLINE
  5
1184
330
1F
100
AcDbEntity
  8
0
  6
Continuous
 62
     7
370
    15
100
AcDbSpline
210
0.0
220
0.0
230
1.0
 70
     8
 71
     3
 72
     8
 73
     4
 74
     0
 42
0.0000000001
 43
0.0000000001
 40
0.0
 40
0.0
 40
0.0
 40
0.0
 40
1.0
 40
1.0
 40
1.0
 40
1.0
 10
2.970352444557974
 20
1.569485180560956
 30
0.0
 10
2.968931057653783
 20
1.568610465817734
 30
0.0
 10
2.966846909804214
 20
1.567337941693004
 30
0.0
 10
2.964530945517608
 20
1.565902657728319
 30
0.0
  0
SPLINE
  5
1185
330
1F
100
AcDbEntity
  8
0
  6
Continuous
 62
     7
370
    15
100
AcDbSpline
210
0.0
220
0.0
230
1.0
 70
     8
 71
     3
 72
     8
 73
     4
 74
     0
 42
0.0000000001
 43
0.0000000001
 40
0.0
 40
0.0
 40
0.0
 40
0.0
 40
1.0
 40
1.0
 40
1.0
 40
1.0
 10
2.964530945517605
 20
2.845902657728327
 30
0.0
 10
2.966846909804214
 20
2.844467373763645
 30
0.0
 10
2.968931057653783
 20
2.843194849638912
 30
0.0
 10
2.970352444557974
 20
2.84232013489569
 30
0.0
  0
SPLINE
  5
1186
330
1F
100
AcDbEntity
  8
0
  6
Continuous
 62
     7
370
    15
100
AcDbSpline
210
0.0
220
0.0
230
1.0
 70
     8
 71
     3
 72
    10
 73
     6
 74
     0
 42
0.0000000001
 43
0.0000000001
 40
0.0
 40
0.0
 40
0.0
 40
0.0
 40
0.5
 40
0.5
 40
1.0
 40
1.0
 40
1.0
 40
1.0
 10
2.942620662241033
 20
1.585902657728322
 30
0.0
 10
2.939973600825116
 20
1.7925595656693
 30
0.0
 10
2.938960180527793
 20
1.999229263178673
 30
0.0
 10
2.938960171573945
 20
2.412573596475116
 30
0.0
 10
2.939973608297204
 20
2.619246333135752
 30
0.0
 10
2.942620662241033
 20
2.825902657728324
 30
0.0
  0
LINE
  5
1187
330
1F
100
AcDbEntity
  8
0
  6
Continuous
 62
     7
370
    15
100
AcDbLine
 10
2.942620662241033
 20
2.825902657728324
 30
0.0
 11
2.971179325661012
 21
2.825536850764585
 31
0.0
  0
LINE
  5
1188
330
1F
100
AcDbEntity
  8
0
  6
Continuous
 62
     7
370
    15
100
AcDbLine
 10
2.942620662241033
 20
1.585902657728322
 30
0.0
 11
2.971179325661012
 21
1.586268464692061
 31
0.0
  0
SPLINE
  5
1189
330
1F
100
AcDbEntity
  8
0
  6
Continuous
 62
     7
370
    15
100
AcDbSpline
210
0.0
220
0.0
230
1.0
 70
    24
 71
     3
 72
    10
 73
     6
 74
     0
 42
0.0000000001
 43
0.0000000001
 40
0.0
 40
0.0
 40
0.0
 40
0.0
 40
0.5
 40
0.5
 40
1.0
 40
1.0
 40
1.0
 40
1.0
 10
2.964530945517605
 20
1.565902657728322
 30
0.0
 10
2.959938819200115
 20
1.565902657728322
 30
0.0
 10
2.953736376958868
 20
1.565902657728322
 30
0.0
 10
2.940311581434293
 20
1.565902657728322
 30
0.0
 10
2.933038717537776
 20
1.565902657728322
 30
0.0
 10
2.92592585183441
 20
1.565902657728322
 30
0.0
  0
SPLINE
  5
118A
330
1F
100
AcDbEntity
  8
0
  6
Continuous
 62
     7
370
    15
100
AcDbSpline
210
0.0
220
0.0
230
1.0
 70
     8
 71
     3
 72
    12
 73
     8
 74
     0
 42
0.0000000001
 43
0.0000000001
 40
0.0
 40
0.0
 40
0.0
 40
0.0
 40
0.5000000000000018
 40
0.5000000000000018
 40
0.7500000000000009
 40
0.7500000000000009
 40
1.0
 40
1.0
 40
1.0
 40
1.0
 10
2.925925851834417
 20
1.565902657728322
 30
0.0
 10
2.929876305325503
 20
1.565902657728326
 30
0.0
 10
2.933931647048162
 20
1.56746448869093
 30
0.0
 10
2.938835046338816
 20
1.572479421068877
 30
0.0
 10
2.940269688331678
 20
1.574645164195441
 30
0.0
 10
2.942214878281355
 20
1.579790316295689
 30
0.0
 10
2.942719064398215
 20
1.582829742923301
 30
0.0
 10
2.942620662241033
 20
1.585902657728322
 30
0.0
  0
SPLINE
  5
118B
330
1F
100
AcDbEntity
  8
0
  6
Continuous
 62
     7
370
    15
100
AcDbSpline
210
0.0
220
0.0
230
1.0
 70
     8
 71
     3
 72
    12
 73
     8
 74
     0
 42
0.0000000001
 43
0.0000000001
 40
0.0
 40
0.0
 40
0.0
 40
0.0
 40
0.2500000000000046
 40
0.2500000000000046
 40
0.5000000000000093
 40
0.5000000000000093
 40
1.0
 40
1.0
 40
1.0
 40
1.0
 10
2.942620662241033
 20
2.825902657728324
 30
0.0
 10
2.942719060723781
 20
2.828975457787784
 30
0.0
 10
2.942216382961575
 20
2.832008983831762
 30
0.0
 10
2.940271902722045
 20
2.837156325522418
 30
0.0
 10
2.9388372810123
 20
2.839323031615453
 30
0.0
 10
2.933933429106652
 20
2.8443401576069
 30
0.0
 10
2.929877144789745
 20
2.845902657728323
 30
0.0
 10
2.92592585183441
 20
2.845902657728323
 30
0.0
  0
SPLINE
  5
118C
330
1F
100
AcDbEntity
  8
0
  6
Continuous
 62
     7
370
    15
100
AcDbSpline
210
0.0
220
0.0
230
1.0
 70
    24
 71
     3
 72
    10
 73
     6
 74
     0
 42
0.0000000001
 43
0.0000000001
 40
0.0
 40
0.0
 40
0.0
 40
0.0
 40
0.5
 40
0.5
 40
1.0
 40
1.0
 40
1.0
 40
1.0
 10
2.964530945517605
 20
2.845902657728323
 30
0.0
 10
2.959938819200115
 20
2.845902657728323
 30
0.0
 10
2.953736376958868
 20
2.845902657728323
 30
0.0
 10
2.940311581434297
 20
2.845902657728323
 30
0.0
 10
2.933038717538234
 20
2.845902657728323
 30
0.0
 10
2.92592585183441
 20
2.845902657728323
 30
0.0
  0
LINE
  5
118D
330
1F
100
AcDbEntity
  8
0
  6
Continuous
 62
     7
370
    15
100
AcDbLine
 10
0.7945309455176109
 20
1.585902657728322
 30
0.0
 11
0.7945309455176109
 21
1.565902657728322
 31
0.0
  0
LINE
  5
118E
330
1F
100
AcDbEntity
  8
0
  6
Continuous
 62
     7
370
    15
100
AcDbLine
 10
0.7945309455176109
 20
1.585902657728322
 30
0.0
 11
2.942620662241033
 21
1.585902657728322
 31
0.0
  0
LINE
  5
118F
330
1F
100
AcDbEntity
  8
0
  6
Continuous
 62
     7
370
    15
100
AcDbLine
 10
2.925925851834417
 20
1.565902657728322
 30
0.0
 11
0.7945309455176109
 21
1.565902657728322
 31
0.0
  0
LINE
  5
1190
330
1F
100
AcDbEntity
  8
0
  6
Continuous
 62
     7
370
    15
100
AcDbLine
 10
0.8745309455176126
 20
2.097729580805243
 30
0.0
 11
0.8745309455176126
 21
2.093990264565928
 31
0.0
  0
LINE
  5
1191
330
1F
100
AcDbEntity
  8
0
  6
Continuous
 62
     7
370
    15
100
AcDbLine
 10
0.8553001762868461
 20
2.097729580805243
 30
0.0
 11
0.8745309455176126
 21
2.097729580805243
 31
0.0
  0
LINE
  5
1192
330
1F
100
AcDbEntity
  8
0
  6
Continuous
 62
     7
370
    15
100
AcDbLine
 10
0.8553001762868461
 20
2.100709348433451
 30
0.0
 11
0.8553001762868461
 21
2.097729580805243
 31
0.0
  0
SPLINE
  5
1193
330
1F
100
AcDbEntity
  8
0
  6
Continuous
 62
     7
370
    15
100
AcDbSpline
210
0.0
220
0.0
230
1.0
 70
     8
 71
     3
 72
    15
 73
    11
 74
     0
 42
0.0000000001
 43
0.0000000001
 40
0.0
 40
0.0
 40
0.0
 40
0.0
 40
0.0751715905611769
 40
0.1647429114078639
 40
0.2680114373901252
 40
0.3859639562109159
 40
0.5177992732835641
 40
0.6636978076578749
 40
0.8244167868186481
 40
1.0
 40
1.0
 40
1.0
 40
1.0
 10
0.854615747868042
 20
2.111317988924902
 30
0.0
 10
0.8546712181764206
 20
2.111056946262259
 30
0.0
 10
0.8547927845824254
 20
2.110484856089303
 30
0.0
 10
0.8549294218185856
 20
2.109542739900767
 30
0.0
 10
0.8550414792817306
 20
2.108445280111048
 30
0.0
 10
0.8551460522034801
 20
2.107196210765323
 30
0.0
 10
0.8552014627783286
 20
2.105792619061162
 30
0.0
 10
0.8552665238315704
 20
2.104237724166374
 30
0.0
 10
0.8552972225874455
 20
2.102526263792753
 30
0.0
 10
0.8552991631303328
 20
2.101332573540911
 30
0.0
 10
0.8553001762868461
 20
2.100709348433451
 30
0.0
  0
SPLINE
  5
1194
330
1F
100
AcDbEntity
  8
0
  6
Continuous
 62
     7
370
    15
100
AcDbSpline
210
0.0
220
0.0
230
1.0
 70
     8
 71
     3
 72
    23
 73
    19
 74
     0
 42
0.0000000001
 43
0.0000000001
 40
0.0
 40
0.0
 40
0.0
 40
0.0
 40
0.070118894419714
 40
0.1371923527859822
 40
0.2020161807247721
 40
0.2646314069747504
 40
0.3261165471458093
 40
0.3860103046676293
 40
0.4458118469576961
 40
0.5052976967309518
 40
0.5646332777264953
 40
0.6242826253338442
 40
0.6839020319037453
 40
0.743952770938272
 40
0.8053877310076378
 40
0.8683880308962731
 40
0.9330840282524725
 40
1.0
 40
1.0
 40
1.0
 40
1.0
 10
0.8440404941287269
 20
2.119631290206953
 30
0.0
 10
0.8443830867095272
 20
2.119626273245895
 30
0.0
 10
0.845053392232689
 20
2.11961645722274
 30
0.0
 10
0.8460340206635095
 20
2.119498644302154
 30
0.0
 10
0.8469711443555532
 20
2.119339951544791
 30
0.0
 10
0.8478626854325632
 20
2.119095939017082
 30
0.0
 10
0.8487033493667404
 20
2.118776347670674
 30
0.0
 10
0.8495059830812756
 20
2.118401442279655
 30
0.0
 10
0.8502569315562595
 20
2.1179492573943
 30
0.0
 10
0.8509589210508039
 20
2.117429676088224
 30
0.0
 10
0.8516126104831123
 20
2.11685168091688
 30
0.0
 10
0.8522132627985037
 20
2.116217717367508
 30
0.0
 10
0.8527573620654358
 20
2.11553034483774
 30
0.0
 10
0.853246128061631
 20
2.114791747836832
 30
0.0
 10
0.8536682266270823
 20
2.113994725826874
 30
0.0
 10
0.8540462897809568
 20
2.113151366855792
 30
0.0
 10
0.8543638024076081
 20
2.112254340469817
 30
0.0
 10
0.8545308269483982
 20
2.111633596255824
 30
0.0
 10
0.854615747868042
 20
2.111317988924902
 30
0.0
  0
SPLINE
  5
1195
330
1F
100
AcDbEntity
  8
0
  6
Continuous
 62
     7
370
    15
100
AcDbSpline
210
0.0
220
0.0
230
1.0
 70
     8
 71
     3
 72
    23
 73
    19
 74
     0
 42
0.0000000001
 43
0.0000000001
 40
0.0
 40
0.0
 40
0.0
 40
0.0
 40
0.0624583578464851
 40
0.123444962623379
 40
0.1833436351585699
 40
0.2430637886521126
 40
0.3020156124220237
 40
0.3612084316096553
 40
0.4217375746045498
 40
0.4828047154488973
 40
0.5444024043174451
 40
0.6060083467453472
 40
0.6674600399472213
 40
0.730083699938831
 40
0.794626485958334
 40
0.8603969849337399
 40
0.928933504313472
 40
1.0
 40
1.0
 40
1.0
 40
1.0
 10
0.833490280453514
 20
2.111651856446272
 30
0.0
 10
0.8335691155680677
 20
2.111939872875691
 30
0.0
 10
0.8337249281463279
 20
2.11250911898767
 30
0.0
 10
0.8340369618671239
 20
2.113329395979405
 30
0.0
 10
0.8344071154040015
 20
2.11410970060589
 30
0.0
 10
0.8348283566621184
 20
2.114853296828442
 30
0.0
 10
0.8353205786407507
 20
2.115547445994007
 30
0.0
 10
0.8358553719573222
 20
2.116213820773236
 30
0.0
 10
0.8364543649283433
 20
2.116838446321644
 30
0.0
 10
0.837116768921934
 20
2.117411890996006
 30
0.0
 10
0.837820883837427
 20
2.117943212247844
 30
0.0
 10
0.8385846642408054
 20
2.118387966220005
 30
0.0
 10
0.8393816142708345
 20
2.118780701476655
 30
0.0
 10
0.8402311917071187
 20
2.119086763638037
 30
0.0
 10
0.8411221822388661
 20
2.119327340257161
 30
0.0
 10
0.8420569048410158
 20
2.119502552469398
 30
0.0
 10
0.8430333430926992
 20
2.119615165098217
 30
0.0
 10
0.8437007454175713
 20
2.119625850620721
 30
0.0
 10
0.8440404941287269
 20
2.119631290206953
 30
0.0
  0
SPLINE
  5
1196
330
1F
100
AcDbEntity
  8
0
  6
Continuous
 62
     7
370
    15
100
AcDbSpline
210
0.0
220
0.0
230
1.0
 70
     8
 71
     3
 72
    15
 73
    11
 74
     0
 42
0.0000000001
 43
0.0000000001
 40
0.0
 40
0.0
 40
0.0
 40
0.0
 40
0.1769557521312511
 40
0.3390550796425811
 40
0.4863182249420777
 40
0.6187809228353784
 40
0.7356188277673819
 40
0.8387424767201107
 40
0.9264570678763178
 40
1.0
 40
1.0
 40
1.0
 40
1.0
 10
0.8328642788509483
 20
2.1021616721514
 30
0.0
 10
0.832864896663338
 20
2.102723706748442
 30
0.0
 10
0.8328660804193184
 20
2.10380058999619
 30
0.0
 10
0.8329019702505746
 20
2.105344816849864
 30
0.0
 10
0.8329499070612023
 20
2.106747313654945
 30
0.0
 10
0.8330163581706422
 20
2.108005056285023
 30
0.0
 10
0.8330948890069258
 20
2.109121914595576
 30
0.0
 10
0.8332050323328452
 20
2.110092834828275
 30
0.0
 10
0.8333200358513401
 20
2.110925448594155
 30
0.0
 10
0.8334369573575202
 20
2.11142433489709
 30
0.0
 10
0.833490280453514
 20
2.111651856446272
 30
0.0
  0
LINE
  5
1197
330
1F
100
AcDbEntity
  8
0
  6
Continuous
 62
     7
370
    15
100
AcDbLine
 10
0.8328642788509483
 20
2.093990264565928
 30
0.0
 11
0.8328642788509483
 21
2.1021616721514
 31
0.0
  0
LINE
  5
1198
330
1F
100
AcDbEntity
  8
0
  6
Continuous
 62
     7
370
    15
100
AcDbLine
 10
0.8745309455176126
 20
2.093990264565928
 30
0.0
 11
0.8328642788509483
 21
2.093990264565928
 31
0.0
  0
LINE
  5
1199
330
1F
100
AcDbEntity
  8
0
  6
Continuous
 62
     7
370
    15
100
AcDbLine
 10
0.8418119284235991
 20
2.174652657728323
 30
0.0
 11
0.8745309455176126
 21
2.174652657728323
 31
0.0
  0
LINE
  5
119A
330
1F
100
AcDbEntity
  8
0
  6
Continuous
 62
     7
370
    15
100
AcDbLine
 10
0.8745309455176126
 20
2.2021132613608
 30
0.0
 11
0.8418119284235991
 21
2.174652657728323
 31
0.0
  0
LINE
  5
119B
330
1F
100
AcDbEntity
  8
0
  6
Continuous
 62
     7
370
    15
100
AcDbLine
 10
0.8745309455176126
 20
2.202964623540285
 30
0.0
 11
0.8745309455176126
 21
2.2021132613608
 31
0.0
  0
LINE
  5
119C
330
1F
100
AcDbEntity
  8
0
  6
Continuous
 62
     7
370
    15
100
AcDbLine
 10
0.8328642788509483
 20
2.202964623540285
 30
0.0
 11
0.8745309455176126
 21
2.202964623540285
 31
0.0
  0
LINE
  5
119D
330
1F
100
AcDbEntity
  8
0
  6
Continuous
 62
     7
370
    15
100
AcDbLine
 10
0.8328642788509483
 20
2.199225307300974
 30
0.0
 11
0.8328642788509483
 21
2.202964623540285
 31
0.0
  0
LINE
  5
119E
330
1F
100
AcDbEntity
  8
0
  6
Continuous
 62
     7
370
    15
100
AcDbLine
 10
0.865658416137272
 20
2.199225307300974
 30
0.0
 11
0.8328642788509483
 21
2.199225307300974
 31
0.0
  0
LINE
  5
119F
330
1F
100
AcDbEntity
  8
0
  6
Continuous
 62
     7
370
    15
100
AcDbLine
 10
0.8328642788509483
 20
2.171697930164221
 30
0.0
 11
0.865658416137272
 21
2.199225307300974
 31
0.0
  0
LINE
  5
11A0
330
1F
100
AcDbEntity
  8
0
  6
Continuous
 62
     7
370
    15
100
AcDbLine
 10
0.8328642788509483
 20
2.170913341489008
 30
0.0
 11
0.8328642788509483
 21
2.171697930164221
 31
0.0
  0
LINE
  5
11A1
330
1F
100
AcDbEntity
  8
0
  6
Continuous
 62
     7
370
    15
100
AcDbLine
 10
0.8745309455176126
 20
2.170913341489008
 30
0.0
 11
0.8328642788509483
 21
2.170913341489008
 31
0.0
  0
LINE
  5
11A2
330
1F
100
AcDbEntity
  8
0
  6
Continuous
 62
     7
370
    15
100
AcDbLine
 10
0.8745309455176126
 20
2.174652657728323
 30
0.0
 11
0.8745309455176126
 21
2.170913341489008
 31
0.0
  0
SPLINE
  5
11A3
330
1F
100
AcDbEntity
  8
0
  6
Continuous
 62
     7
370
    15
100
AcDbSpline
210
0.0
220
0.0
230
1.0
 70
     8
 71
     3
 72
    15
 73
    11
 74
     0
 42
0.0000000001
 43
0.0000000001
 40
0.0
 40
0.0
 40
0.0
 40
0.0
 40
0.0781298651584125
 40
0.169465417497711
 40
0.2743352908540636
 40
0.3921101633539336
 40
0.5236873298575135
 40
0.6683654211389715
 40
0.8271319021257525
 40
1.0
 40
1.0
 40
1.0
 40
1.0
 10
0.8668102590859909
 20
2.257126282194136
 30
0.0
 10
0.8665884427235006
 20
2.257064649358724
 30
0.0
 10
0.8661073180933591
 20
2.256930966366148
 30
0.0
 10
0.865311050372437
 20
2.256787808060856
 30
0.0
 10
0.8643942061146923
 20
2.256667461850838
 30
0.0
 10
0.8633567225626954
 20
2.25655430044344
 30
0.0
 10
0.8621977955793305
 20
2.256487527134432
 30
0.0
 10
0.8609179275332685
 20
2.256428986197569
 30
0.0
 10
0.8595155708465256
 20
2.256383014545232
 30
0.0
 10
0.8585387313748853
 20
2.256383285645274
 30
0.0
 10
0.858029543274025
 20
2.256383426959093
 30
0.0
  0
SPLINE
  5
11A4
330
1F
100
AcDbEntity
  8
0
  6
Continuous
 62
     7
370
    15
100
AcDbSpline
210
0.0
220
0.0
230
1.0
 70
     8
 71
     3
 72
    23
 73
    19
 74
     0
 42
0.0000000001
 43
0.0000000001
 40
0.0
 40
0.0
 40
0.0
 40
0.0
 40
0.0711836930841651
 40
0.1396621511999491
 40
0.2063438615239656
 40
0.2714082771846402
 40
0.3354613897373599
 40
0.3983202342166757
 40
0.4606311555540438
 40
0.5232643920666501
 40
0.5850185770939975
 40
0.6452055630551223
 40
0.7042523817819394
 40
0.7629675906211226
 40
0.8210643315062293
 40
0.8800884116929116
 40
0.9393806626387906
 40
1.0
 40
1.0
 40
1.0
 40
1.0
 10
0.8755993215859874
 20
2.270147115527468
 30
0.0
 10
0.8755899856167914
 20
2.269746289949704
 30
0.0
 10
0.8755716684786207
 20
2.268959871599925
 30
0.0
 10
0.8754665440400053
 20
2.267801126550061
 30
0.0
 10
0.8752690401709557
 20
2.266690092157645
 30
0.0
 10
0.8750159293248032
 20
2.265615925018106
 30
0.0
 10
0.8746725423765404
 20
2.264589002785083
 30
0.0
 10
0.8742506114054009
 20
2.26360962808464
 30
0.0
 10
0.8737689130934356
 20
2.262666555650774
 30
0.0
 10
0.8731997105919084
 20
2.26178103268278
 30
0.0
 10
0.8725790335776295
 20
2.260945794955503
 30
0.0
 10
0.8718972879343134
 20
2.260186754835078
 30
0.0
 10
0.8711804380264638
 20
2.259484644021856
 30
0.0
 10
0.8704014908520996
 20
2.258870409993814
 30
0.0
 10
0.8695763921690158
 20
2.258320820379335
 30
0.0
 10
0.8687012611570921
 20
2.257847985663239
 30
0.0
 10
0.8677772709715227
 20
2.257441837171271
 30
0.0
 10
0.8671349658890221
 20
2.257232240403482
 30
0.0
 10
0.8668102590859909
 20
2.257126282194136
 30
0.0
  0
SPLINE
  5
11A5
330
1F
100
AcDbEntity
  8
0
  6
Continuous
 62
     7
370
    15
100
AcDbSpline
210
0.0
220
0.0
230
1.0
 70
     8
 71
     3
 72
    31
 73
    27
 74
     0
 42
0.0000000001
 43
0.0000000001
 40
0.0
 40
0.0
 40
0.0
 40
0.0
 40
0.0548535446666281
 40
0.1070500275152893
 40
0.1569655040429745
 40
0.2039755780042505
 40
0.2484266377219329
 40
0.2904729182225025
 40
0.3300742042959813
 40
0.3674680643807463
 40
0.4038660487602967
 40
0.4398777827759542
 40
0.4763208478512883
 40
0.5128151439109444
 40
0.5500329604948599
 40
0.5881778153971897
 40
0.6272030520705583
 40
0.6675338875292728
 40
0.7081835266754707
 40
0.74863770688314
 40
0.7886698330486153
 40
0.8294751652475973
 40
0.8703816569671229
 40
0.9122214134524369
 40
0.9555502139698958
 40
1.0
 40
1.0
 40
1.0
 40
1.0
 10
0.858029543274025
 20
2.283092828668493
 30
0.0
 10
0.858483100205408
 20
2.283089836447754
 30
0.0
 10
0.8593682441332859
 20
2.283083996947052
 30
0.0
 10
0.8606652174262912
 20
2.283032340871798
 30
0.0
 10
0.8618958456775978
 20
2.282952330511289
 30
0.0
 10
0.8630585808153981
 20
2.282831469244761
 30
0.0
 10
0.8641547313844384
 20
2.28269773727138
 30
0.0
 10
0.8651802824811021
 20
2.282508014158931
 30
0.0
 10
0.866143934382535
 20
2.28230624891346
 30
0.0
 10
0.8670474645565633
 20
2.282053036313119
 30
0.0
 10
0.8679045060829082
 20
2.281751825782851
 30
0.0
 10
0.8687312467691228
 20
2.281393127238622
 30
0.0
 10
0.8695202482515931
 20
2.280956252814515
 30
0.0
 10
0.8702859743731714
 20
2.280461738968568
 30
0.0
 10
0.8710213684134018
 20
2.279899460957885
 30
0.0
 10
0.8717321369193555
 20
2.27927421320421
 30
0.0
 10
0.8724089358611522
 20
2.27857598834743
 30
0.0
 10
0.8730550009009334
 20
2.277822383694186
 30
0.0
 10
0.8736600935336298
 20
2.277019517724191
 30
0.0
 10
0.8741752802828308
 20
2.276158383014742
 30
0.0
 10
0.874611290646392
 20
2.275254394072643
 30
0.0
 10
0.8749826517402823
 20
2.274317138252623
 30
0.0
 10
0.8752542103255613
 20
2.273330774535828
 30
0.0
 10
0.8754580921662942
 20
2.272307589083641
 30
0.0
 10
0.8755734286093179
 20
2.271240390912641
 30
0.0
 10
0.8755906174232563
 20
2.270514630123585
 30
0.0
 10
0.8755993215859874
 20
2.270147115527468
 30
0.0
  0
LINE
  5
11A6
330
1F
100
AcDbEntity
  8
0
  6
Continuous
 62
     7
370
    15
100
AcDbLine
 10
0.8328642788509483
 20
2.283092828668493
 30
0.0
 11
0.858029543274025
 21
2.283092828668493
 31
0.0
  0
LINE
  5
11A7
330
1F
100
AcDbEntity
  8
0
  6
Continuous
 62
     7
370
    15
100
AcDbLine
 10
0.8328642788509483
 20
2.279353512429178
 30
0.0
 11
0.8328642788509483
 21
2.283092828668493
 31
0.0
  0
LINE
  5
11A8
330
1F
100
AcDbEntity
  8
0
  6
Continuous
 62
     7
370
    15
100
AcDbLine
 10
0.8578292227612074
 20
2.279353512429178
 30
0.0
 11
0.8328642788509483
 21
2.279353512429178
 31
0.0
  0
SPLINE
  5
11A9
330
1F
100
AcDbEntity
  8
0
  6
Continuous
 62
     7
370
    15
100
AcDbSpline
210
0.0
220
0.0
230
1.0
 70
     8
 71
     3
 72
    15
 73
    11
 74
     0
 42
0.0000000001
 43
0.0000000001
 40
0.0
 40
0.0
 40
0.0
 40
0.0
 40
0.0698351039153831
 40
0.1556207549116351
 40
0.2578015566582636
 40
0.3738112340663531
 40
0.5064024926743414
 40
0.6555644581430568
 40
0.8200792824038153
 40
0.9999999999999998
 40
0.9999999999999998
 40
0.9999999999999998
 40
0.9999999999999998
 10
0.8642979059877013
 20
2.278927831339434
 30
0.0
 10
0.8641508991502853
 20
2.278963547116756
 30
0.0
 10
0.8638233086731084
 20
2.279043136262004
 30
0.0
 10
0.8632694837855545
 20
2.279117505845174
 30
0.0
 10
0.862616038976423
 20
2.279194964481074
 30
0.0
 10
0.8618582793001117
 20
2.27924870936204
 30
0.0
 10
0.8609987439119599
 20
2.27930110484316
 30
0.0
 10
0.8600329551324001
 20
2.27933245094788
 30
0.0
 10
0.8589644198846464
 20
2.279346939435072
 30
0.0
 10
0.8582187393873148
 20
2.27935125705834
 30
0.0
 10
0.8578292227612074
 20
2.279353512429178
 30
0.0
  0
SPLINE
  5
11AA
330
1F
100
AcDbEntity
  8
0
  6
Continuous
 62
     7
370
    15
100
AcDbSpline
210
0.0
220
0.0
230
1.0
 70
     8
 71
     3
 72
    19
 73
    15
 74
     0
 42
0.0000000001
 43
0.0000000001
 40
0.0
 40
0.0
 40
0.0
 40
0.0
 40
0.0828786634439039
 40
0.1652786415506185
 40
0.2477260553507343
 40
0.3317292961358364
 40
0.4151528467813259
 40
0.4962275412280834
 40
0.577514714490654
 40
0.6581342491615808
 40
0.7396615623070272
 40
0.8231953158415498
 40
0.9094890411089281
 40
1.0
 40
1.0
 40
1.0
 40
1.0
 10
0.8713258173124884
 20
2.269938448326612
 30
0.0
 10
0.8713131049516746
 20
2.270278404309003
 30
0.0
 10
0.8712877536532985
 20
2.270956352777538
 30
0.0
 10
0.8711288135434003
 20
2.271963117921746
 30
0.0
 10
0.8708480708060477
 20
2.272946792119757
 30
0.0
 10
0.8704654407509408
 20
2.273899435549285
 30
0.0
 10
0.8699956581320229
 20
2.274806356321409
 30
0.0
 10
0.8694289726021828
 20
2.275643171310758
 30
0.0
 10
0.868778503497122
 20
2.276401068034118
 30
0.0
 10
0.8680472981493778
 20
2.277084548986159
 30
0.0
 10
0.8672308757699731
 20
2.277679456562946
 30
0.0
 10
0.8663334899665464
 20
2.278191581848787
 30
0.0
 10
0.865347983279296
 20
2.278610015323121
 30
0.0
 10
0.8646534538392529
 20
2.278820221354251
 30
0.0
 10
0.8642979059877013
 20
2.278927831339434
 30
0.0
  0
SPLINE
  5
11AB
330
1F
100
AcDbEntity
  8
0
  6
Continuous
 62
     7
370
    15
100
AcDbSpline
210
0.0
220
0.0
230
1.0
 70
     8
 71
     3
 72
    19
 73
    15
 74
     0
 42
0.0000000001
 43
0.0000000001
 40
0.0
 40
0.0
 40
0.0
 40
0.0
 40
0.0869102560751839
 40
0.1677763432358102
 40
0.2449982577407021
 40
0.3184830614061211
 40
0.3927010604187309
 40
0.4700254624245081
 40
0.5542035830749383
 40
0.6443488959349387
 40
0.7368816159009688
 40
0.8261729574647107
 40
0.9136808757619334
 40
1.0
 40
1.0
 40
1.0
 40
1.0
 10
0.8633714236159057
 20
2.260289676959093
 30
0.0
 10
0.8637654892867026
 20
2.260350550720026
 30
0.0
 10
0.8645262153531909
 20
2.260468064779587
 30
0.0
 10
0.865608160197798
 20
2.260781406324909
 30
0.0
 10
0.8665884339351599
 20
2.261195726307303
 30
0.0
 10
0.8674779891287727
 20
2.261723740912113
 30
0.0
 10
0.8682830803227084
 20
2.262374979054651
 30
0.0
 10
0.8690114479039507
 20
2.263178477666237
 30
0.0
 10
0.8696651902372316
 20
2.264132578355184
 30
0.0
 10
0.8702386384537419
 20
2.265215586661206
 30
0.0
 10
0.870714244557444
 20
2.266370246606605
 30
0.0
 10
0.8710702950618873
 20
2.267554304725702
 30
0.0
 10
0.8712881586648073
 20
2.268745142392596
 30
0.0
 10
0.871313321793032
 20
2.269542497371617
 30
0.0
 10
0.8713258173124884
 20
2.269938448326612
 30
0.0
  0
SPLINE
  5
11AC
330
1F
100
AcDbEntity
  8
0
  6
Continuous
 62
     7
370
    15
100
AcDbSpline
210
0.0
220
0.0
230
1.0
 70
     8
 71
     3
 72
    15
 73
    11
 74
     0
 42
0.0000000001
 43
0.0000000001
 40
0.0
 40
0.0
 40
0.0
 40
0.0
 40
0.1910785917157658
 40
0.3626045563099711
 40
0.5160987502785801
 40
0.6500380260398885
 40
0.7659767209868363
 40
0.8623740257994375
 40
0.9408420582211959
 40
1.0
 40
1.0
 40
1.0
 40
1.0
 10
0.8578292227612074
 20
2.260122743198405
 30
0.0
 10
0.8581825648534042
 20
2.260122186722544
 30
0.0
 10
0.8588530923647113
 20
2.260121130713688
 30
0.0
 10
0.8598074768948258
 20
2.260128184450252
 30
0.0
 10
0.8606559585502076
 20
2.260147938836126
 30
0.0
 10
0.8614018079260148
 20
2.260160393116581
 30
0.0
 10
0.8620416025386248
 20
2.260188099468191
 30
0.0
 10
0.862578808618192
 20
2.260210695264618
 30
0.0
 10
0.8630108824569369
 20
2.26023974951115
 30
0.0
 10
0.8632630363384983
 20
2.260274667576624
 30
0.0
 10
0.8633714236159057
 20
2.260289676959093
 30
0.0
  0
LINE
  5
11AD
330
1F
100
AcDbEntity
  8
0
  6
Continuous
 62
     7
370
    15
100
AcDbLine
 10
0.8328642788509483
 20
2.260122743198405
 30
0.0
 11
0.8578292227612074
 21
2.260122743198405
 31
0.0
  0
LINE
  5
11AE
330
1F
100
AcDbEntity
  8
0
  6
Continuous
 62
     7
370
    15
100
AcDbLine
 10
0.8328642788509483
 20
2.256383426959093
 30
0.0
 11
0.8328642788509483
 21
2.260122743198405
 31
0.0
  0
LINE
  5
11AF
330
1F
100
AcDbEntity
  8
0
  6
Continuous
 62
     7
370
    15
100
AcDbLine
 10
0.858029543274025
 20
2.256383426959093
 30
0.0
 11
0.8328642788509483
 21
2.256383426959093
 31
0.0
  0
LINE
  5
11B0
330
1F
100
AcDbEntity
  8
0
  6
Continuous
 62
     7
370
    15
100
AcDbLine
 10
0.8745309455176126
 20
2.311404794480459
 30
0.0
 11
0.8371377831244544
 21
2.311404794480459
 31
0.0
  0
LINE
  5
11B1
330
1F
100
AcDbEntity
  8
0
  6
Continuous
 62
     7
370
    15
100
AcDbLine
 10
0.8745309455176126
 20
2.315144110719774
 30
0.0
 11
0.8745309455176126
 21
2.311404794480459
 31
0.0
  0
LINE
  5
11B2
330
1F
100
AcDbEntity
  8
0
  6
Continuous
 62
     7
370
    15
100
AcDbLine
 10
0.8371377831244544
 20
2.315144110719774
 30
0.0
 11
0.8745309455176126
 21
2.315144110719774
 31
0.0
  0
LINE
  5
11B3
330
1F
100
AcDbEntity
  8
0
  6
Continuous
 62
     7
370
    15
100
AcDbLine
 10
0.8371377831244544
 20
2.32422530730097
 30
0.0
 11
0.8371377831244544
 21
2.315144110719774
 31
0.0
  0
LINE
  5
11B4
330
1F
100
AcDbEntity
  8
0
  6
Continuous
 62
     7
370
    15
100
AcDbLine
 10
0.8328642788509483
 20
2.32422530730097
 30
0.0
 11
0.8371377831244544
 21
2.32422530730097
 31
0.0
  0
LINE
  5
11B5
330
1F
100
AcDbEntity
  8
0
  6
Continuous
 62
     7
370
    15
100
AcDbLine
 10
0.8328642788509483
 20
2.302323597899263
 30
0.0
 11
0.8328642788509483
 21
2.32422530730097
 31
0.0
  0
LINE
  5
11B6
330
1F
100
AcDbEntity
  8
0
  6
Continuous
 62
     7
370
    15
100
AcDbLine
 10
0.8371377831244544
 20
2.302323597899263
 30
0.0
 11
0.8328642788509483
 21
2.302323597899263
 31
0.0
  0
LINE
  5
11B7
330
1F
100
AcDbEntity
  8
0
  6
Continuous
 62
     7
370
    15
100
AcDbLine
 10
0.8371377831244544
 20
2.311404794480459
 30
0.0
 11
0.8371377831244544
 21
2.302323597899263
 31
0.0
  0
LINE
  5
11B8
330
1F
100
AcDbEntity
  8
0
  6
Continuous
 62
     7
370
    15
100
AcDbLine
 10
0.7945309455176109
 20
2.825902657728324
 30
0.0
 11
0.7945309455176109
 21
1.585902657728322
 31
0.0
  0
LINE
  5
11B9
330
1F
100
AcDbEntity
  8
0
  6
Continuous
 62
     7
370
    15
100
AcDbLine
 10
2.942620662241033
 20
2.825902657728324
 30
0.0
 11
0.7945309455176109
 21
2.825902657728324
 31
0.0
  0
LINE
  5
11BA
330
1F
100
AcDbEntity
  8
0
  6
Continuous
 62
     7
370
    15
100
AcDbLine
 10
0.8745309455176126
 20
2.298050093625757
 30
0.0
 11
0.8745309455176126
 21
2.294310777386442
 31
0.0
  0
LINE
  5
11BB
330
1F
100
AcDbEntity
  8
0
  6
Continuous
 62
     7
370
    15
100
AcDbLine
 10
0.8328642788509483
 20
2.298050093625757
 30
0.0
 11
0.8745309455176126
 21
2.298050093625757
 31
0.0
  0
LINE
  5
11BC
330
1F
100
AcDbEntity
  8
0
  6
Continuous
 62
     7
370
    15
100
AcDbLine
 10
0.8328642788509483
 20
2.294310777386442
 30
0.0
 11
0.8328642788509483
 21
2.298050093625757
 31
0.0
  0
LINE
  5
11BD
330
1F
100
AcDbEntity
  8
0
  6
Continuous
 62
     7
370
    15
100
AcDbLine
 10
0.8745309455176126
 20
2.294310777386442
 30
0.0
 11
0.8328642788509483
 21
2.294310777386442
 31
0.0
  0
SPLINE
  5
11BE
330
1F
100
AcDbEntity
  8
0
  6
Continuous
 62
     7
370
    15
100
AcDbSpline
210
0.0
220
0.0
230
1.0
 70
     8
 71
     3
 72
    31
 73
    27
 74
     0
 42
0.0000000001
 43
0.0000000001
 40
0.0
 40
0.0
 40
0.0
 40
0.0
 40
0.0460789331719114
 40
0.0908033506254639
 40
0.1342901697877986
 40
0.1770176620073562
 40
0.2188144224581094
 40
0.2601525809625703
 40
0.3009867807439141
 40
0.3415192683708308
 40
0.3814872745332967
 40
0.4201624942685504
 40
0.4577665571630244
 40
0.4947807484119072
 40
0.5310556470601864
 40
0.5669862605707192
 40
0.6025596744781182
 40
0.6380458471959411
 40
0.6747953027942886
 40
0.7134079580996794
 40
0.7544511305269946
 40
0.7978230399965964
 40
0.8439953817289229
 40
0.8930756311861639
 40
0.9449654365550486
 40
1.0
 40
1.0
 40
1.0
 40
1.0
 10
0.8542234535304373
 20
2.247836418412084
 30
0.0
 10
0.854738466528115
 20
2.247828925652786
 30
0.0
 10
0.8557533534316412
 20
2.247814160387985
 30
0.0
 10
0.8572491033759348
 20
2.247681740839258
 30
0.0
 10
0.8587003640727353
 20
2.247488901375376
 30
0.0
 10
0.8601007631884485
 20
2.247191714383415
 30
0.0
 10
0.8614597292061496
 20
2.246826537900709
 30
0.0
 10
0.8627708276236774
 20
2.246375817009184
 30
0.0
 10
0.8640349495472356
 20
2.245841598312587
 30
0.0
 10
0.8652420544008982
 20
2.245222056354176
 30
0.0
 10
0.8663892069615428
 20
2.244543683186808
 30
0.0
 10
0.8674582313200751
 20
2.243804484253345
 30
0.0
 10
0.868460913936726
 20
2.243029769258988
 30
0.0
 10
0.8693746030985423
 20
2.24219128294629
 30
0.0
 10
0.8702277513571523
 20
2.241316786742601
 30
0.0
 10
0.8709825129793031
 20
2.240376537812249
 30
0.0
 10
0.8716739276172909
 20
2.239399976466231
 30
0.0
 10
0.872280998192032
 20
2.238357763964607
 30
0.0
 10
0.8728210055113194
 20
2.237241349345719
 30
0.0
 10
0.873277044930429
 20
2.236021570275212
 30
0.0
 10
0.873669500824068
 20
2.234702878600018
 30
0.0
 10
0.8739821828214147
 20
2.233276536405615
 30
0.0
 10
0.8742342203766213
 20
2.231747300676758
 30
0.0
 10
0.8744020644474588
 20
2.230111026002461
 30
0.0
 10
0.8745158836733821
 20
2.228370776416266
 30
0.0
 10
0.8745258274175498
 20
2.227175781235491
 30
0.0
 10
0.8745309455176126
 20
2.22656071061294
 30
0.0
  0
SPLINE
  5
11BF
330
1F
100
AcDbEntity
  8
0
  6
Continuous
 62
     7
370
    15
100
AcDbSpline
210
0.0
220
0.0
230
1.0
 70
     8
 71
     3
 72
    23
 73
    19
 74
     0
 42
0.0000000001
 43
0.0000000001
 40
0.0
 40
0.0
 40
0.0
 40
0.0
 40
0.0615435260186338
 40
0.1216914490610148
 40
0.1811506168838248
 40
0.2400657121915231
 40
0.2986720767057372
 40
0.3576161787882432
 40
0.4175721950753191
 40
0.4786489474901403
 40
0.5403937355314663
 40
0.6023302295747742
 40
0.6651085453793629
 40
0.7285656598540874
 40
0.7936553700861463
 40
0.8605375307382752
 40
0.9292376162628293
 40
1.0
 40
1.0
 40
1.0
 40
1.0
 10
0.8343666826971016
 20
2.235282999608664
 30
0.0
 10
0.8345503245733425
 20
2.235765122949651
 30
0.0
 10
0.8349134439373706
 20
2.236718436673882
 30
0.0
 10
0.8355994654786051
 20
2.238075038477681
 30
0.0
 10
0.8363735796106652
 20
2.239356458746577
 30
0.0
 10
0.837253534089676
 20
2.240552579333492
 30
0.0
 10
0.838228084130133
 20
2.241666035828053
 30
0.0
 10
0.8392893448443281
 20
2.242710837928171
 30
0.0
 10
0.8404656483219952
 20
2.243657038325917
 30
0.0
 10
0.8417204942857026
 20
2.244537271745326
 30
0.0
 10
0.8430653021072807
 20
2.245307704372251
 30
0.0
 10
0.8444731354609409
 20
2.245987077892344
 30
0.0
 10
0.8459412627348967
 20
2.246567159738056
 30
0.0
 10
0.8474803961796588
 20
2.247019779390743
 30
0.0
 10
0.8490757530245396
 20
2.247393721443007
 30
0.0
 10
0.8507394120660869
 20
2.24764462738647
 30
0.0
 10
0.8524616740500974
 20
2.2478112941181
 30
0.0
 10
0.8536304327059731
 20
2.247827961491282
 30
0.0
 10
0.8542234535304373
 20
2.247836418412084
 30
0.0
  0
SPLINE
  5
11C0
330
1F
100
AcDbEntity
  8
0
  6
Continuous
 62
     7
370
    15
100
AcDbSpline
210
0.0
220
0.0
230
1.0
 70
     8
 71
     3
 72
    15
 73
    11
 74
     0
 42
0.0000000001
 43
0.0000000001
 40
0.0
 40
0.0
 40
0.0
 40
0.0
 40
0.1642896338889928
 40
0.3174067176726125
 40
0.4588447774378822
 40
0.5887462863853714
 40
0.7078305764569874
 40
0.8157695626207386
 40
0.9128796815536382
 40
1.0
 40
1.0
 40
1.0
 40
1.0
 10
0.8328642788509483
 20
2.22206184576251
 30
0.0
 10
0.8328695331844784
 20
2.222793620952881
 30
0.0
 10
0.8328796845295194
 20
2.224207406812354
 30
0.0
 10
0.8329444172067432
 20
2.226250391762437
 30
0.0
 10
0.8330577731666757
 20
2.228137978566195
 30
0.0
 10
0.8332260745013009
 20
2.229869095290339
 30
0.0
 10
0.8334280832680143
 20
2.231446523110818
 30
0.0
 10
0.833684987983986
 20
2.232867735597057
 30
0.0
 10
0.8339871253264945
 20
2.234135035930453
 30
0.0
 10
0.8342448213855497
 20
2.234914432508467
 30
0.0
 10
0.8343666826971016
 20
2.235282999608664
 30
0.0
  0
LINE
  5
11C1
330
1F
100
AcDbEntity
  8
0
  6
Continuous
 62
     7
370
    15
100
AcDbLine
 10
0.8328642788509483
 20
2.21364838422405
 30
0.0
 11
0.8328642788509483
 21
2.22206184576251
 31
0.0
  0
LINE
  5
11C2
330
1F
100
AcDbEntity
  8
0
  6
Continuous
 62
     7
370
    15
100
AcDbLine
 10
0.8745309455176126
 20
2.21364838422405
 30
0.0
 11
0.8328642788509483
 21
2.21364838422405
 31
0.0
  0
LINE
  5
11C3
330
1F
100
AcDbEntity
  8
0
  6
Continuous
 62
     7
370
    15
100
AcDbLine
 10
0.8745309455176126
 20
2.22656071061294
 30
0.0
 11
0.8745309455176126
 21
2.21364838422405
 31
0.0
  0
LINE
  5
11C4
330
1F
100
AcDbEntity
  8
0
  6
Continuous
 62
     7
370
    15
100
AcDbLine
 10
0.8745309455176126
 20
2.124973170548837
 30
0.0
 11
0.8328642788509483
 21
2.144738127813791
 31
0.0
  0
LINE
  5
11C5
330
1F
100
AcDbEntity
  8
0
  6
Continuous
 62
     7
370
    15
100
AcDbLine
 10
0.8745309455176126
 20
2.129054700997553
 30
0.0
 11
0.8745309455176126
 21
2.124973170548837
 31
0.0
  0
LINE
  5
11C6
330
1F
100
AcDbEntity
  8
0
  6
Continuous
 62
     7
370
    15
100
AcDbLine
 10
0.8611762446629143
 20
2.135389837215502
 30
0.0
 11
0.8745309455176126
 21
2.129054700997553
 31
0.0
  0
LINE
  5
11C7
330
1F
100
AcDbEntity
  8
0
  6
Continuous
 62
     7
370
    15
100
AcDbLine
 10
0.8611762446629143
 20
2.154278392236872
 30
0.0
 11
0.8611762446629143
 21
2.135389837215502
 31
0.0
  0
LINE
  5
11C8
330
1F
100
AcDbEntity
  8
0
  6
Continuous
 62
     7
370
    15
100
AcDbLine
 10
0.8745309455176126
 20
2.160438248006101
 30
0.0
 11
0.8611762446629143
 21
2.154278392236872
 31
0.0
  0
LINE
  5
11C9
330
1F
100
AcDbEntity
  8
0
  6
Continuous
 62
     7
370
    15
100
AcDbLine
 10
0.8745309455176126
 20
2.164503085078752
 30
0.0
 11
0.8745309455176126
 21
2.160438248006101
 31
0.0
  0
LINE
  5
11CA
330
1F
100
AcDbEntity
  8
0
  6
Continuous
 62
     7
370
    15
100
AcDbLine
 10
0.8328642788509483
 20
2.145272315847979
 30
0.0
 11
0.8745309455176126
 21
2.164503085078752
 31
0.0
  0
LINE
  5
11CB
330
1F
100
AcDbEntity
  8
0
  6
Continuous
 62
     7
370
    15
100
AcDbLine
 10
0.8328642788509483
 20
2.144738127813791
 30
0.0
 11
0.8328642788509483
 21
2.145272315847979
 31
0.0
  0
CIRCLE
  5
11CC
330
1F
100
AcDbEntity
  8
0
  6
Continuous
 62
     7
370
    15
100
AcDbCircle
 10
1.368575803879323
 20
2.205902657728323
 30
0.0
 40
0.1875
  0
CIRCLE
  5
11CD
330
1F
100
AcDbEntity
  8
0
  6
Continuous
 62
     7
370
    15
100
AcDbCircle
 10
2.368575803879323
 20
2.205902657728323
 30
0.0
 40
0.1875
  0
LINE
  5
11CE
330
1F
100
AcDbEntity
  8
0
  6
Continuous
 62
     7
370
    15
100
AcDbLine
 10
0.7945309455176109
 20
2.845902657728323
 30
0.0
 11
0.7945309455176109
 21
2.825902657728324
 31
0.0
  0
LINE
  5
11CF
330
1F
100
AcDbEntity
  8
0
  6
Continuous
 62
     7
370
    15
100
AcDbLine
 10
0.7945309455176109
 20
2.845902657728323
 30
0.0
 11
2.92592585183441
 21
2.845902657728323
 31
0.0
  0
LINE
  5
11D0
330
1F
100
AcDbEntity
  8
0
  6
Continuous
 62
     7
370
    15
100
AcDbLine
 10
0.8371377831244544
 20
2.220317387963365
 30
0.0
 11
0.8371377831244544
 21
2.217387700463365
 31
0.0
  0
SPLINE
  5
11D1
330
1F
100
AcDbEntity
  8
0
  6
Continuous
 62
     7
370
    15
100
AcDbSpline
210
0.0
220
0.0
230
1.0
 70
     8
 71
     3
 72
    15
 73
    11
 74
     0
 42
0.0000000001
 43
0.0000000001
 40
0.0
 40
0.0
 40
0.0
 40
0.0
 40
0.0843186169585829
 40
0.1792845142139055
 40
0.2865825276465603
 40
0.4051114834342784
 40
0.5355928734189745
 40
0.6781902099934131
 40
0.8329758397604882
 40
1.0
 40
1.0
 40
1.0
 40
1.0
 10
0.8383063194492379
 20
2.233121207407808
 30
0.0
 10
0.8382096953079134
 20
2.232771788998626
 30
0.0
 10
0.8380042458726215
 20
2.232028829590515
 30
0.0
 10
0.8377801342949808
 20
2.230816455018782
 30
0.0
 10
0.8375824616876386
 20
2.229451988954146
 30
0.0
 10
0.8374151040763599
 20
2.227929373464696
 30
0.0
 10
0.8372950169175261
 20
2.226250344189747
 30
0.0
 10
0.8372048822198223
 20
2.224413609808969
 30
0.0
 10
0.837144088975986
 20
2.222418376421256
 30
0.0
 10
0.8371399376997565
 20
2.221035251018246
 30
0.0
 10
0.8371377831244544
 20
2.220317387963365
 30
0.0
  0
SPLINE
  5
11D2
330
1F
100
AcDbEntity
  8
0
  6
Continuous
 62
     7
370
    15
100
AcDbSpline
210
0.0
220
0.0
230
1.0
 70
     8
 71
     3
 72
    23
 73
    19
 74
     0
 42
0.0000000001
 43
0.0000000001
 40
0.0
 40
0.0
 40
0.0
 40
0.0
 40
0.0701420572220142
 40
0.1377946922754889
 40
0.2031998303117215
 40
0.26713932600975
 40
0.3299811044164784
 40
0.3915885098483991
 40
0.4530550564334037
 40
0.5140826114793837
 40
0.5747408108196586
 40
0.6345985188588856
 40
0.6938416495593282
 40
0.753473671285045
 40
0.8131500916116923
 40
0.8740960537026218
 40
0.9360153315621021
 40
1.0
 40
1.0
 40
1.0
 40
1.0
 10
0.8542151068424033
 20
2.244097102172769
 30
0.0
 10
0.8537278064232829
 20
2.24409098509599
 30
0.0
 10
0.8527705004365842
 20
2.244078968044508
 30
0.0
 10
0.8513658079390111
 20
2.243928175726594
 30
0.0
 10
0.8500149976858324
 20
2.243707346478625
 30
0.0
 10
0.8487170971472046
 20
2.243389700831325
 30
0.0
 10
0.847473794927481
 20
2.242979330044676
 30
0.0
 10
0.8462780668984457
 20
2.24248828813544
 30
0.0
 10
0.8451453009377374
 20
2.24189208617912
 30
0.0
 10
0.8440659029529165
 20
2.241217122531679
 30
0.0
 10
0.8430562197421487
 20
2.240459352222202
 30
0.0
 10
0.8421280802874768
 20
2.239622136694691
 30
0.0
 10
0.8412797556812243
 20
2.238714303870789
 30
0.0
 10
0.8405098952567904
 20
2.237740037671059
 30
0.0
 10
0.8398321899209442
 20
2.236685716212868
 30
0.0
 10
0.8392293138310655
 20
2.235569180687459
 30
0.0
 10
0.8387170744508267
 20
2.234374703202089
 30
0.0
 10
0.8384447270237131
 20
2.233543584035796
 30
0.0
 10
0.8383063194492379
 20
2.233121207407808
 30
0.0
  0
SPLINE
  5
11D3
330
1F
100
AcDbEntity
  8
0
  6
Continuous
 62
     7
370
    15
100
AcDbSpline
210
0.0
220
0.0
230
1.0
 70
     8
 71
     3
 72
    23
 73
    19
 74
     0
 42
0.0000000001
 43
0.0000000001
 40
0.0
 40
0.0
 40
0.0
 40
0.0
 40
0.0624012892571642
 40
0.1233121250056955
 40
0.1830857765168646
 40
0.2417318174828725
 40
0.3008503100224227
 40
0.3599389926754441
 40
0.4191280276906106
 40
0.4797642139830002
 40
0.5407054899312067
 40
0.6021453426096031
 40
0.6645243374636123
 40
0.7278534407501005
 40
0.7925098928848273
 40
0.8592732719002516
 40
0.9284795423630015
 40
1.0
 40
1.0
 40
1.0
 40
1.0
 10
0.8691974118637695
 20
2.23408107653174
 30
0.0
 10
0.8690634747496481
 20
2.234461422257506
 30
0.0
 10
0.8687987996066226
 20
2.235213029159211
 30
0.0
 10
0.868315825595765
 20
2.236294829976284
 30
0.0
 10
0.867744430099048
 20
2.237304273100967
 30
0.0
 10
0.8671055301157188
 20
2.238258187007122
 30
0.0
 10
0.8663892604068834
 20
2.239150441203356
 30
0.0
 10
0.8655933430746642
 20
2.239976903725871
 30
0.0
 10
0.8647269926168306
 20
2.240744102613671
 30
0.0
 10
0.8637872898448293
 20
2.241439754276512
 30
0.0
 10
0.8627846612230278
 20
2.242068916020951
 30
0.0
 10
0.8617202236035446
 20
2.24261250969571
 30
0.0
 10
0.8605999502275523
 20
2.243070753007557
 30
0.0
 10
0.8594277387127924
 20
2.243446711181057
 30
0.0
 10
0.8582028914008184
 20
2.243739829639732
 30
0.0
 10
0.8569223345397212
 20
2.243946196568312
 30
0.0
 10
0.8555865738376411
 20
2.244074079735518
 30
0.0
 10
0.8546772469965482
 20
2.244089344353778
 30
0.0
 10
0.8542151068424033
 20
2.244097102172769
 30
0.0
  0
SPLINE
  5
11D4
330
1F
100
AcDbEntity
  8
0
  6
Continuous
 62
     7
370
    15
100
AcDbSpline
210
0.0
220
0.0
230
1.0
 70
     8
 71
     3
 72
    15
 73
    11
 74
     0
 42
0.0000000001
 43
0.0000000001
 40
0.0
 40
0.0
 40
0.0
 40
0.0
 40
0.1719006646132704
 40
0.3306279320958825
 40
0.4755488358809206
 40
0.6067461903123652
 40
0.7250238034674924
 40
0.8297423869584646
 40
0.9213228203439827
 40
1.0
 40
1.0
 40
1.0
 40
1.0
 10
0.8702574412441101
 20
2.222170352706957
 30
0.0
 10
0.8702544877158473
 20
2.222857595215767
 30
0.0
 10
0.8702488069993457
 20
2.224179414244492
 30
0.0
 10
0.8701989593429999
 20
2.226080104688406
 30
0.0
 10
0.8701175077060554
 20
2.227816764170199
 30
0.0
 10
0.8700035186845269
 20
2.229389639282025
 30
0.0
 10
0.8698527018370398
 20
2.230797841952234
 30
0.0
 10
0.8696845482329074
 20
2.232044315165119
 30
0.0
 10
0.8694750547715237
 20
2.233124973002322
 30
0.0
 10
0.8692851623975421
 20
2.233778894870678
 30
0.0
 10
0.8691974118637695
 20
2.23408107653174
 30
0.0
  0
LINE
  5
11D5
330
1F
100
AcDbEntity
  8
0
  6
Continuous
 62
     7
370
    15
100
AcDbLine
 10
0.8702574412441101
 20
2.217387700463365
 30
0.0
 11
0.8702574412441101
 21
2.222170352706957
 31
0.0
  0
LINE
  5
11D6
330
1F
100
AcDbEntity
  8
0
  6
Continuous
 62
     7
370
    15
100
AcDbLine
 10
0.8371377831244544
 20
2.217387700463365
 30
0.0
 11
0.8702574412441101
 21
2.217387700463365
 31
0.0
  0
SPLINE
  5
11D7
330
1F
100
AcDbEntity
  8
0
  6
Continuous
 62
     7
370
    15
100
AcDbSpline
210
0.0
220
0.0
230
1.0
 70
     8
 71
     3
 72
    23
 73
    19
 74
     0
 42
0.0000000001
 43
0.0000000001
 40
0.0
 40
0.0
 40
0.0
 40
0.0
 40
0.0700244800013627
 40
0.1391999996196787
 40
0.2081401609613366
 40
0.2788024546502977
 40
0.349596404685827
 40
0.4183718283485194
 40
0.4876085078815601
 40
0.5576354056465784
 40
0.5955440543077961
 40
0.6381662166421596
 40
0.6859992117136492
 40
0.7382572137601461
 40
0.7961587579179604
 40
0.8585554789322003
 40
0.926677909608086
 40
1.0
 40
1.0
 40
1.0
 40
1.0
 10
0.844057187504795
 20
2.115891973967638
 30
0.0
 10
0.8437222315605978
 20
2.115876896112894
 30
0.0
 10
0.8430563805995774
 20
2.115846923203775
 30
0.0
 10
0.8420800540800037
 20
2.115625513418535
 30
0.0
 10
0.8411514682005716
 20
2.115250227369603
 30
0.0
 10
0.840278136871742
 20
2.114743875794101
 30
0.0
 10
0.839489751961068
 20
2.114114306705605
 30
0.0
 10
0.8388097151651159
 20
2.113377520502702
 30
0.0
 10
0.8382593050031346
 20
2.112544980446287
 30
0.0
 10
0.8378929022025438
 20
2.111776580576915
 30
0.0
 10
0.8376780354448349
 20
2.111088923205027
 30
0.0
 10
0.8375229125247862
 20
2.110494505950267
 30
0.0
 10
0.8374159275451837
 20
2.109819933295302
 30
0.0
 10
0.8373135630423718
 20
2.109071589219627
 30
0.0
 10
0.8372309326136111
 20
2.108250431848148
 30
0.0
 10
0.837173551398493
 20
2.107351239631981
 30
0.0
 10
0.8371403214406782
 20
2.10637700772083
 30
0.0
 10
0.8371386497147064
 20
2.105700694571321
 30
0.0
 10
0.8371377831244544
 20
2.105350106980459
 30
0.0
  0
SPLINE
  5
11D8
330
1F
100
AcDbEntity
  8
0
  6
Continuous
 62
     7
370
    15
100
AcDbSpline
210
0.0
220
0.0
230
1.0
 70
     8
 71
     3
 72
    23
 73
    19
 74
     0
 42
0.0000000001
 43
0.0000000001
 40
0.0
 40
0.0
 40
0.0
 40
0.0
 40
0.0725313541839813
 40
0.1400202838978649
 40
0.2030415919339311
 40
0.2605514448249602
 40
0.3137607527620665
 40
0.3616572418242699
 40
0.4053615799550814
 40
0.4447823627431149
 40
0.5170476272957402
 40
0.5863648132800494
 40
0.6553546736950075
 40
0.7246463792511789
 40
0.7934544970047604
 40
0.8616391828750565
 40
0.9295525679937926
 40
1.0
 40
1.0
 40
1.0
 40
1.0
 10
0.8511184855817184
 20
2.105024586147127
 30
0.0
 10
0.8511187204464398
 20
2.105380781735842
 30
0.0
 10
0.8511191738479517
 20
2.106068409976295
 30
0.0
 10
0.8510709171710892
 20
2.107064392106845
 30
0.0
 10
0.8510184193507335
 20
2.10798620914317
 30
0.0
 10
0.8509335179078583
 20
2.108835222103728
 30
0.0
 10
0.8508299646093426
 20
2.109607555866631
 30
0.0
 10
0.8506915133348016
 20
2.110305080354734
 30
0.0
 10
0.8505503019766713
 20
2.110933362154767
 30
0.0
 10
0.8503052752092266
 20
2.111657073205439
 30
0.0
 10
0.8499356212324649
 20
2.112467705484068
 30
0.0
 10
0.8493834969361522
 20
2.113347528578938
 30
0.0
 10
0.8486879591531675
 20
2.114099265262694
 30
0.0
 10
0.8478974732436128
 20
2.114744291450183
 30
0.0
 10
0.8470171646419686
 20
2.115254140591712
 30
0.0
 10
0.8460779008004593
 20
2.115623650368835
 30
0.0
 10
0.8450832482480379
 20
2.115849191464057
 30
0.0
 10
0.8444033584283339
 20
2.115877540067039
 30
0.0
 10
0.844057187504795
 20
2.115891973967638
 30
0.0
  0
LINE
  5
11D9
330
1F
100
AcDbEntity
  8
0
  6
Continuous
 62
     7
370
    15
100
AcDbLine
 10
0.8510266720133436
 20
2.097729580805243
 30
0.0
 11
0.8511184855817184
 21
2.105024586147127
 31
0.0
  0
LINE
  5
11DA
330
1F
100
AcDbEntity
  8
0
  6
Continuous
 62
     7
370
    15
100
AcDbLine
 10
0.8371377831244544
 20
2.097729580805243
 30
0.0
 11
0.8510266720133436
 21
2.097729580805243
 31
0.0
  0
LINE
  5
11DB
330
1F
100
AcDbEntity
  8
0
  6
Continuous
 62
     7
370
    15
100
AcDbLine
 10
0.8371377831244544
 20
2.105350106980459
 30
0.0
 11
0.8371377831244544
 21
2.097729580805243
 31
0.0
  0
LINE
  5
11DC
330
1F
100
AcDbEntity
  8
0
  6
Continuous
 62
     7
370
    15
100
AcDbLine
 10
0.8569027403894082
 20
2.137418082407812
 30
0.0
 11
0.8569027403894082
 21
2.1523085738608
 31
0.0
  0
LINE
  5
11DD
330
1F
100
AcDbEntity
  8
0
  6
Continuous
 62
     7
370
    15
100
AcDbLine
 10
0.8569027403894082
 20
2.1523085738608
 30
0.0
 11
0.8409856063082123
 21
2.144963488390715
 31
0.0
  0
LINE
  5
11DE
330
1F
100
AcDbEntity
  8
0
  6
Continuous
 62
     7
370
    15
100
AcDbLine
 10
0.8409856063082123
 20
2.144963488390715
 30
0.0
 11
0.8569027403894082
 21
2.137418082407812
 31
0.0
  0
ARC
  5
11DF
330
1F
100
AcDbEntity
  8
0
  6
Continuous
 62
     7
370
    15
100
AcDbCircle
 10
0.7945309455176109
 20
2.825902657728324
 30
0.0
 40
0.0199999999999996
100
AcDbArc
 50
90.0
 51
180.0000000000008
  0
LINE
  5
11E0
330
1F
100
AcDbEntity
  8
0
  6
Continuous
 62
     7
370
    15
100
AcDbLine
 10
0.7945309455176109
 20
2.825902657728324
 30
0.0
 11
0.7745309455176148
 21
2.825902657728324
 31
0.0
  0
ARC
  5
11E1
330
1F
100
AcDbEntity
  8
0
  6
Continuous
 62
     7
370
    15
100
AcDbCircle
 10
0.7945309455176109
 20
1.585902657728322
 30
0.0
 40
0.0199999999999996
100
AcDbArc
 50
180.0000000000008
 51
270.0
  0
LINE
  5
11E2
330
1F
100
AcDbEntity
  8
0
  6
Continuous
 62
     7
370
    15
100
AcDbLine
 10
0.7945309455176109
 20
1.585902657728322
 30
0.0
 11
0.7745309455176148
 21
1.585902657728322
 31
0.0
  0
LINE
  5
11E3
330
1F
100
AcDbEntity
  8
0
  6
Continuous
 62
     7
370
    15
100
AcDbLine
 10
0.7745309455176148
 20
1.585902657728322
 30
0.0
 11
0.7745309455176148
 21
2.825902657728324
 31
0.0
  0
LINE
  5
11E4
330
1F
100
AcDbEntity
  8
0
  6
HIDDEN
 62
     7
370
     0
100
AcDbLine
 10
4.362030945517613
 20
1.845902657728323
 30
0.0
 11
4.362030945517613
 21
2.565902657728322
 31
0.0
  0
LINE
  5
11E5
330
1F
100
AcDbEntity
  8
0
  6
HIDDEN
 62
     7
370
     0
100
AcDbLine
 10
2.964530945517612
 20
1.565902657728322
 30
0.0
 11
2.964530945517612
 21
2.845902657728323
 31
0.0
  0
LINE
  5
11E6
330
1F
100
AcDbEntity
  8
0
  6
HIDDEN
 62
     7
370
     0
100
AcDbLine
 10
4.554530945517612
 20
2.758402657728321
 30
0.0
 11
4.362030945517613
 21
2.565902657728322
 31
0.0
  0
LINE
  5
11E7
330
1F
100
AcDbEntity
  8
0
  6
HIDDEN
 62
     7
370
     0
100
AcDbLine
 10
4.362030945517613
 20
1.845902657728323
 30
0.0
 11
4.554530945517612
 21
1.653402657728324
 31
0.0
  0
LINE
  5
11E8
330
1F
100
AcDbEntity
  8
0
  6
HIDDEN
 62
     7
370
     0
100
AcDbLine
 10
3.114530945517614
 20
1.845902657728323
 30
0.0
 11
4.362030945517613
 21
1.845902657728323
 31
0.0
  0
LINE
  5
11E9
330
1F
100
AcDbEntity
  8
0
  6
HIDDEN
 62
     7
370
     0
100
AcDbLine
 10
4.362030945517613
 20
2.565902657728322
 30
0.0
 11
3.114530945517614
 21
2.565902657728322
 31
0.0
  0
INSERT
  5
11EA
330
1F
100
AcDbEntity
  8
0
  6
Continuous
 62
     7
370
     0
100
AcDbBlockReference
  2
SW_CENTERMARKSYMBOL_0
 10
1.368575803879327
 20
2.205902657728323
 30
0.0
 50
270.0
  0
INSERT
  5
11EB
330
1F
100
AcDbEntity
  8
0
  6
Continuous
 62
     7
370
     0
100
AcDbBlockReference
  2
SW_CENTERMARKSYMBOL_1
 10
2.368575803879327
 20
2.205902657728323
 30
0.0
 50
270.0
  0
ARC
  5
1396
330
1F
100
AcDbEntity
  8
0
100
AcDbCircle
 10
5.517335279665491
 20
4.62007681127682
 30
0.0
 40
0.0200000000000008
100
AcDbArc
 50
119.9973117336509
 51
180.0
  0
LINE
  5
1397
330
1F
100
AcDbEntity
  8
0
100
AcDbLine
 10
7.022927177351782
 20
5.512329898448633
 30
0.0
 11
5.50733609233913
 21
4.637397788524435
 31
0.0
  0
LINE
  5
1398
330
1F
100
AcDbEntity
  8
0
100
AcDbLine
 10
5.497335279665492
 20
4.62007681127682
 30
0.0
 11
5.497335279665492
 21
4.497595689493959
 31
0.0
  0
SPLINE
  5
1399
330
1F
100
AcDbEntity
  8
0
100
AcDbSpline
210
0.0
220
0.0
230
1.0
 70
     8
 71
     3
 72
     9
 73
     5
 74
     0
 42
0.0000000001
 43
0.0000000001
 40
0.0
 40
0.0
 40
0.0
 40
0.0
 40
0.5090215975690428
 40
1.0
 40
1.0
 40
1.0
 40
1.0
 10
7.218564559282334
 20
5.976164664374422
 30
0.0
 10
7.212604344068289
 20
5.954462815783838
 30
0.0
 10
7.200895184294893
 20
5.91182838004628
 30
0.0
 10
7.185039435277495
 20
5.872049085642419
 30
0.0
 10
7.177254604955592
 20
5.852518311226177
 30
0.0
  0
LINE
  5
139A
330
1F
100
AcDbEntity
  8
0
100
AcDbLine
 10
8.338235431371863
 20
6.708987220087813
 30
0.0
 11
7.320001666463234
 21
6.121173379575466
 31
0.0
  0
LINE
  5
139B
330
1F
100
AcDbEntity
  8
0
100
AcDbLine
 10
7.972027769499497
 20
5.221670503303862
 30
0.0
 11
8.890690531153282
 21
5.752003227157157
 31
0.0
  0
SPLINE
  5
139C
330
1F
100
AcDbEntity
  8
0
100
AcDbSpline
210
0.0
220
0.0
230
1.0
 70
     8
 71
     3
 72
    16
 73
    12
 74
     0
 42
0.0000000001
 43
0.0000000001
 40
0.0
 40
0.0
 40
0.0
 40
0.0
 40
0.1039326753346464
 40
0.2316815270725687
 40
0.3601407127568574
 40
0.488773362440008
 40
0.6169336011710466
 40
0.7442066652326416
 40
0.8701576837818546
 40
0.9914991609251588
 40
1.0
 40
1.0
 40
1.0
 40
1.0
 10
7.903569313442311
 20
5.676338317758176
 30
0.0
 10
7.900867645859364
 20
5.668992123643405
 30
0.0
 10
7.894845223466752
 20
5.652616354760318
 30
0.0
 10
7.883248575985888
 20
5.628889094480452
 30
0.0
 10
7.869368724045706
 20
5.605041718248784
 30
0.0
 10
7.853869975631653
 20
5.583025204250667
 30
0.0
 10
7.837049582763093
 20
5.563063217465963
 30
0.0
 10
7.819156293604017
 20
5.545288600713949
 30
0.0
 10
7.800540532579823
 20
5.530310277568176
 30
0.0
 10
7.787457968584554
 20
5.521104002857658
 30
0.0
 10
7.780431040252111
 20
5.517516723071192
 30
0.0
 10
7.779970983864608
 20
5.517281862133177
 30
0.0
  0
LINE
  5
139D
330
1F
100
AcDbEntity
  8
0
100
AcDbLine
 10
7.972241764060434
 20
5.224244382465897
 30
0.0
 11
7.985593796026542
 21
5.380925924325691
 31
0.0
  0
ARC
  5
139E
330
1F
100
AcDbEntity
  8
0
100
AcDbCircle
 10
6.394147688336801
 20
4.133033922527634
 30
0.0
 40
0.0307404381582436
100
AcDbArc
 50
242.6096722366103
 51
297.3903277634032
  0
ARC
  5
139F
330
1F
100
AcDbEntity
  8
0
100
AcDbCircle
 10
6.41070987474044
 20
4.104342483783288
 30
0.0
 40
0.0307360961514625
100
AcDbArc
 50
122.6054783400304
 51
177.3945215143188
  0
ARC
  5
13A0
330
1F
100
AcDbEntity
  8
0
100
AcDbCircle
 10
6.377585501933182
 20
4.104342483783302
 30
0.0
 40
0.0307360961514468
100
AcDbArc
 50
2.605478485655896
 51
57.39452165996672
  0
LINE
  5
13A1
330
1F
100
AcDbEntity
  8
0
100
AcDbLine
 10
6.408289823960537
 20
3.983258579045649
 30
0.0
 11
7.942711539135352
 21
4.869061380373288
 31
0.0
  0
LINE
  5
13A2
330
1F
100
AcDbEntity
  8
0
100
AcDbLine
 10
6.408289823960537
 20
4.105739700828515
 30
0.0
 11
6.408289823960537
 21
3.983258579045649
 31
0.0
  0
LINE
  5
13A3
330
1F
100
AcDbEntity
  8
0
100
AcDbLine
 10
7.915413615603618
 20
4.975783746335835
 30
0.0
 11
6.408289823960537
 21
4.105739700828515
 31
0.0
  0
SPLINE
  5
13A4
330
1F
100
AcDbEntity
  8
0
100
AcDbSpline
210
0.0
220
0.0
230
1.0
 70
     8
 71
     3
 72
    10
 73
     6
 74
     0
 42
0.0000000001
 43
0.0000000001
 40
0.0
 40
0.0
 40
0.0
 40
0.0
 40
0.5
 40
0.5
 40
1.0
 40
1.0
 40
1.0
 40
1.0
 10
7.942711539135345
 20
5.012591012972983
 30
0.0
 10
7.93946441547618
 20
5.005478187576795
 30
0.0
 10
7.935078626507483
 20
4.998903380136216
 30
0.0
 10
7.925585862556005
 20
4.98684700657353
 30
0.0
 10
7.920443171176131
 20
4.981281539388145
 30
0.0
 10
7.915413615603611
 20
4.975783746335832
 30
0.0
  0
LINE
  5
13A5
330
1F
100
AcDbEntity
  8
0
100
AcDbLine
 10
7.942711539135352
 20
5.007873318393869
 30
0.0
 11
7.942711539135352
 21
5.012591012972983
 31
0.0
  0
LINE
  5
13A6
330
1F
100
AcDbEntity
  8
0
100
AcDbLine
 10
7.942711539135352
 20
5.007873318393869
 30
0.0
 11
7.942711539135352
 21
4.869061380373288
 31
0.0
  0
ARC
  5
13A7
330
1F
100
AcDbEntity
  8
0
100
AcDbCircle
 10
6.394147688336801
 20
4.010552800744822
 30
0.0
 40
0.0307404381582909
100
AcDbArc
 50
242.6096722366559
 51
297.3903277633573
  0
LINE
  5
13A8
330
1F
100
AcDbEntity
  8
0
100
AcDbLine
 10
6.380005552713072
 20
3.983258579045649
 30
0.0
 11
6.380005552713072
 21
4.105739700828515
 31
0.0
  0
LINE
  5
13A9
330
1F
100
AcDbEntity
  8
0
100
AcDbLine
 10
6.394147688336808
 20
4.130234598184458
 30
0.0
 11
7.913076493629034
 21
5.007093533012433
 31
0.0
  0
SPLINE
  5
13AA
330
1F
100
AcDbEntity
  8
0
100
AcDbSpline
210
0.0
220
0.0
230
1.0
 70
     8
 71
     3
 72
    12
 73
     8
 74
     0
 42
0.0000000001
 43
0.0000000001
 40
0.0
 40
0.0
 40
0.0
 40
0.0
 40
0.5000000000000018
 40
0.5000000000000018
 40
0.7500000000000009
 40
0.7500000000000009
 40
1.0
 40
1.0
 40
1.0
 40
1.0
 10
7.915413615603618
 20
4.975783746335846
 30
0.0
 10
7.918207008055922
 20
4.981198095393697
 30
0.0
 10
7.91997018642332
 20
4.987261862296975
 30
0.0
 10
7.919891320620969
 20
4.996021705355005
 30
0.0
 10
7.919374354051598
 20
4.998905750211783
 30
0.0
 10
7.91711163911539
 20
5.003825341590793
 30
0.0
 10
7.915318953358294
 20
5.005879324885217
 30
0.0
 10
7.913076493629034
 20
5.007093533012426
 30
0.0
  0
LINE
  5
13AB
330
1F
100
AcDbEntity
  8
0
100
AcDbLine
 10
6.380005552713072
 20
4.105739700828515
 30
0.0
 11
5.503193144041759
 21
4.611912730158593
 31
0.0
  0
ARC
  5
13AC
330
1F
100
AcDbEntity
  8
0
100
AcDbCircle
 10
5.533897466069085
 20
4.610515513113394
 30
0.0
 40
0.0307360961514176
100
AcDbArc
 50
122.6054783399975
 51
177.3945215143681
  0
LINE
  5
13AD
330
1F
100
AcDbEntity
  8
0
100
AcDbLine
 10
5.517335279665491
 20
4.636407627514536
 30
0.0
 11
6.394147688336808
 21
4.130234598184458
 31
0.0
  0
LINE
  5
13AE
330
1F
100
AcDbEntity
  8
0
100
AcDbLine
 10
6.380005552713072
 20
3.983258579045649
 30
0.0
 11
5.503193144041759
 21
4.489431608375731
 31
0.0
  0
LINE
  5
13AF
330
1F
100
AcDbEntity
  8
0
100
AcDbLine
 10
5.503193144041759
 20
4.611912730158593
 30
0.0
 11
5.503193144041759
 21
4.489431608375731
 31
0.0
  0
LINE
  5
13B0
330
1F
100
AcDbEntity
  8
0
100
AcDbLine
 10
6.08879994273019
 20
4.371820748581995
 30
0.0
 11
6.091444038600016
 21
4.370294344526769
 31
0.0
  0
LINE
  5
13B1
330
1F
100
AcDbEntity
  8
0
100
AcDbLine
 10
6.07520173539968
 20
4.3639706705837
 30
0.0
 11
6.08879994273019
 21
4.371820748581995
 31
0.0
  0
LINE
  5
13B2
330
1F
100
AcDbEntity
  8
0
100
AcDbLine
 10
6.073094721503423
 20
4.365187023815206
 30
0.0
 11
6.07520173539968
 21
4.3639706705837
 31
0.0
  0
SPLINE
  5
13B3
330
1F
100
AcDbEntity
  8
0
100
AcDbSpline
210
0.0
220
0.0
230
1.0
 70
     8
 71
     3
 72
    15
 73
    11
 74
     0
 42
0.0000000001
 43
0.0000000001
 40
0.0
 40
0.0
 40
0.0
 40
0.0
 40
0.0751715905611769
 40
0.1647429114078639
 40
0.2680114373901252
 40
0.3859639562109159
 40
0.5177992732835641
 40
0.6636978076578749
 40
0.8244167868186481
 40
1.0
 40
1.0
 40
1.0
 40
1.0
 10
6.06510931589657
 20
4.369238127434986
 30
0.0
 10
6.065333124364713
 20
4.36915421196619
 30
0.0
 10
6.065823613635508
 20
4.368970306337235
 30
0.0
 10
6.066586407497339
 20
4.368641506561925
 30
0.0
 10
6.067441665348802
 20
4.368239261335517
 30
0.0
 10
6.06839883497544
 20
4.367772073253274
 30
0.0
 10
6.069430505380694
 20
4.367221740248179
 30
0.0
 10
6.070575987216763
 20
4.36661358403143
 30
0.0
 10
6.071807879751141
 20
4.365927490322043
 30
0.0
 10
6.072653318393889
 20
4.365441013257221
 30
0.0
 10
6.073094721503423
 20
4.365187023815206
 30
0.0
  0
SPLINE
  5
13B4
330
1F
100
AcDbEntity
  8
0
100
AcDbSpline
210
0.0
220
0.0
230
1.0
 70
     8
 71
     3
 72
    23
 73
    19
 74
     0
 42
0.0000000001
 43
0.0000000001
 40
0.0
 40
0.0
 40
0.0
 40
0.0
 40
0.070118894419714
 40
0.1371923527859822
 40
0.2020161807247721
 40
0.2646314069747504
 40
0.3261165471458093
 40
0.3860103046676293
 40
0.4458118469576961
 40
0.5052976967309518
 40
0.5646332777264953
 40
0.6242826253338442
 40
0.6839020319037453
 40
0.743952770938272
 40
0.8053877310076378
 40
0.8683880308962731
 40
0.9330840282524725
 40
1.0
 40
1.0
 40
1.0
 40
1.0
 10
6.051753090554143
 20
4.368314789267653
 30
0.0
 10
6.051998887618402
 20
4.368452589004807
 30
0.0
 10
6.052479806175838
 20
4.368722203497593
 30
0.0
 10
6.053256521504145
 20
4.369074408288376
 30
0.0
 10
6.054031380746458
 20
4.369392166953161
 30
0.0
 10
6.054834338400759
 20
4.369656490733309
 30
0.0
 10
6.055654762777571
 20
4.369869194677058
 30
0.0
 10
6.056487408664217
 20
4.370043795113545
 30
0.0
 10
6.057338152421984
 20
4.37016575162259
 30
0.0
 10
6.058201933418807
 20
4.370240211384952
 30
0.0
 10
6.059072865954327
 20
4.370271110089287
 30
0.0
 10
6.059945871204462
 20
4.370257512308473
 30
0.0
 10
6.060816653262747
 20
4.370199027581474
 30
0.0
 10
6.061684529960977
 20
4.370097045552061
 30
0.0
 10
6.062546578386935
 20
4.369944000281357
 30
0.0
 10
6.063410254254186
 20
4.369754064641576
 30
0.0
 10
6.064269063026024
 20
4.36951750477456
 30
0.0
 10
6.064826099654538
 20
4.369332294563712
 30
0.0
 10
6.06510931589657
 20
4.369238127434986
 30
0.0
  0
SPLINE
  5
13B5
330
1F
100
AcDbEntity
  8
0
100
AcDbSpline
210
0.0
220
0.0
230
1.0
 70
     8
 71
     3
 72
    23
 73
    19
 74
     0
 42
0.0000000001
 43
0.0000000001
 40
0.0
 40
0.0
 40
0.0
 40
0.0
 40
0.0624583578464851
 40
0.123444962623379
 40
0.1833436351585699
 40
0.2430637886521126
 40
0.3020156124220237
 40
0.3612084316096553
 40
0.4217375746045498
 40
0.4828047154488973
 40
0.5444024043174451
 40
0.6060083467453472
 40
0.6674600399472213
 40
0.730083699938831
 40
0.794626485958334
 40
0.8603969849337399
 40
0.928933504313472
 40
1.0
 40
1.0
 40
1.0
 40
1.0
 10
6.049935274643644
 20
4.360750912029715
 30
0.0
 10
6.049787361117402
 20
4.360900662317881
 30
0.0
 10
6.049495019462142
 20
4.361196634216014
 30
0.0
 10
6.049135637198773
 20
4.361658848041415
 30
0.0
 10
6.048845616581999
 20
4.362128469729857
 30
0.0
 10
6.048617677200695
 20
4.362603961113943
 30
0.0
 10
6.048474893117507
 20
4.363088242626822
 30
0.0
 10
6.048381850972987
 20
4.363578564315357
 30
0.0
 10
6.048363726003692
 20
4.364078050357875
 30
0.0
 10
6.048426629741577
 20
4.364582528796628
 30
0.0
 10
6.048548813312891
 20
4.365086838850952
 30
0.0
 10
6.048774399065784
 20
4.365580167484754
 30
0.0
 10
6.049060222073094
 20
4.366065801844037
 30
0.0
 10
6.049444545409656
 20
4.366537538614974
 30
0.0
 10
6.049904457497852
 20
4.3669994489155
 30
0.0
 10
6.05044151244494
 20
4.367452528808524
 30
0.0
 10
6.051052329400633
 20
4.367897083795039
 30
0.0
 10
6.051516698304901
 20
4.368173882004608
 30
0.0
 10
6.051753090554143
 20
4.368314789267653
 30
0.0
  0
SPLINE
  5
13B6
330
1F
100
AcDbEntity
  8
0
100
AcDbSpline
210
0.0
220
0.0
230
1.0
 70
     8
 71
     3
 72
    15
 73
    11
 74
     0
 42
0.0000000001
 43
0.0000000001
 40
0.0
 40
0.0
 40
0.0
 40
0.0
 40
0.1769557521312511
 40
0.3390550796425811
 40
0.4863182249420777
 40
0.6187809228353784
 40
0.7356188277673819
 40
0.8387424767201107
 40
0.9264570678763178
 40
1.0
 40
1.0
 40
1.0
 40
1.0
 10
6.056203198335047
 20
4.356621443916026
 30
0.0
 10
6.055806216719552
 20
4.356851120911624
 30
0.0
 10
6.055045582314406
 20
4.357291192235091
 30
0.0
 10
6.053979026977536
 20
4.357936202274689
 30
0.0
 10
6.053021208419941
 20
4.358528275159454
 30
0.0
 10
6.052178838107323
 20
4.35906881641474
 30
0.0
 10
6.051444629709173
 20
4.359556779112871
 30
0.0
 10
6.050835968521298
 20
4.359998073642195
 30
0.0
 10
6.050328541449125
 20
4.360384894861127
 30
0.0
 10
6.050058451551166
 20
4.360636270106471
 30
0.0
 10
6.049935274643644
 20
4.360750912029715
 30
0.0
  0
LINE
  5
13B7
330
1F
100
AcDbEntity
  8
0
100
AcDbLine
 10
6.061981256050579
 20
4.353285842197131
 30
0.0
 11
6.056203198335047
 21
4.356621443916026
 31
0.0
  0
LINE
  5
13B8
330
1F
100
AcDbEntity
  8
0
100
AcDbLine
 10
6.091444038600016
 20
4.370294344526769
 30
0.0
 11
6.061981256050579
 21
4.353285842197131
 31
0.0
  0
LINE
  5
13B9
330
1F
100
AcDbEntity
  8
0
100
AcDbLine
 10
6.011271274547215
 20
4.389865025091967
 30
0.0
 11
6.03440711340815
 21
4.403221060575177
 31
0.0
  0
LINE
  5
13BA
330
1F
100
AcDbEntity
  8
0
100
AcDbLine
 10
6.014989534364151
 20
4.414430590355731
 30
0.0
 11
6.011271274547215
 21
4.389865025091967
 31
0.0
  0
LINE
  5
13BB
330
1F
100
AcDbEntity
  8
0
100
AcDbLine
 10
6.01438753039379
 20
4.414778119850446
 30
0.0
 11
6.014989534364151
 21
4.414430590355731
 31
0.0
  0
LINE
  5
13BC
330
1F
100
AcDbEntity
  8
0
100
AcDbLine
 10
5.984924747844349
 20
4.397769617520804
 30
0.0
 11
6.01438753039379
 21
4.414778119850446
 31
0.0
  0
LINE
  5
13BD
330
1F
100
AcDbEntity
  8
0
100
AcDbLine
 10
5.987568843714175
 20
4.396243213465584
 30
0.0
 11
5.984924747844349
 21
4.397769617520804
 31
0.0
  0
LINE
  5
13BE
330
1F
100
AcDbEntity
  8
0
100
AcDbLine
 10
6.010757800572495
 20
4.409629913315971
 30
0.0
 11
5.987568843714175
 21
4.396243213465584
 31
0.0
  0
LINE
  5
13BF
330
1F
100
AcDbEntity
  8
0
100
AcDbLine
 10
6.007033638755849
 20
4.385006426469757
 30
0.0
 11
6.010757800572495
 21
4.409629913315971
 31
0.0
  0
LINE
  5
13C0
330
1F
100
AcDbEntity
  8
0
100
AcDbLine
 10
6.007588426728535
 20
4.384686154190312
 30
0.0
 11
6.007033638755849
 21
4.385006426469757
 31
0.0
  0
LINE
  5
13C1
330
1F
100
AcDbEntity
  8
0
100
AcDbLine
 10
6.037051209277976
 20
4.401694656519953
 30
0.0
 11
6.007588426728535
 21
4.384686154190312
 31
0.0
  0
LINE
  5
13C2
330
1F
100
AcDbEntity
  8
0
100
AcDbLine
 10
6.03440711340815
 20
4.403221060575177
 30
0.0
 11
6.037051209277976
 21
4.401694656519953
 31
0.0
  0
SPLINE
  5
13C3
330
1F
100
AcDbEntity
  8
0
100
AcDbSpline
210
0.0
220
0.0
230
1.0
 70
     8
 71
     3
 72
    15
 73
    11
 74
     0
 42
0.0000000001
 43
0.0000000001
 40
0.0
 40
0.0
 40
0.0
 40
0.0
 40
0.0781298651584125
 40
0.169465417497711
 40
0.2743352908540636
 40
0.3921101633539336
 40
0.5236873298575135
 40
0.6683654211389715
 40
0.8271319021257525
 40
1.0
 40
1.0
 40
1.0
 40
1.0
 10
5.970630104548124
 20
4.433735513072026
 30
0.0
 10
5.970516837689892
 20
4.433619807959797
 30
0.0
 10
5.970271159351906
 20
4.433368840994596
 30
0.0
 10
5.969809341255256
 20
4.432985363480465
 30
0.0
 10
5.96924613208451
 20
4.432561978124773
 30
0.0
 10
5.968592537628062
 20
4.432092280185436
 30
0.0
 10
5.967820268358828
 20
4.431591944354753
 30
0.0
 10
5.966956659677858
 20
4.431045600379459
 30
0.0
 10
5.965997550622137
 20
4.430454386877155
 30
0.0
 10
5.965306629110934
 20
4.43005574770699
 30
0.0
 10
5.964946478827954
 20
4.429847952743873
 30
0.0
  0
SPLINE
  5
13C4
330
1F
100
AcDbEntity
  8
0
100
AcDbSpline
210
0.0
220
0.0
230
1.0
 70
     8
 71
     3
 72
    23
 73
    19
 74
     0
 42
0.0000000001
 43
0.0000000001
 40
0.0
 40
0.0
 40
0.0
 40
0.0
 40
0.0711836930841651
 40
0.1396621511999491
 40
0.2063438615239656
 40
0.2714082771846402
 40
0.3354613897373599
 40
0.3983202342166757
 40
0.4606311555540438
 40
0.5232643920666501
 40
0.5850185770939975
 40
0.6452055630551223
 40
0.7042523817819394
 40
0.7629675906211226
 40
0.8210643315062293
 40
0.8800884116929116
 40
0.9393806626387906
 40
1.0
 40
1.0
 40
1.0
 40
1.0
 10
5.967637790695448
 20
4.442638401010196
 30
0.0
 10
5.967914615652432
 20
4.442470971403142
 30
0.0
 10
5.968457745227794
 20
4.442142475113026
 30
0.0
 10
5.969202767506811
 20
4.441626558461685
 30
0.0
 10
5.969848731134696
 20
4.441092407836041
 30
0.0
 10
5.970429305607492
 20
4.440550607578963
 30
0.0
 10
5.970912638042527
 20
4.439991241813306
 30
0.0
 10
5.971306810283643
 20
4.439419223154594
 30
0.0
 10
5.971633051053903
 20
4.4388376259574
 30
0.0
 10
5.971856723400769
 20
4.43824380112051
 30
0.0
 10
5.972008440735908
 20
4.437649490817943
 30
0.0
 10
5.972063096184822
 20
4.437061356225488
 30
0.0
 10
5.972052674071061
 20
4.436482130703964
 30
0.0
 10
5.971936204288347
 20
4.435913428486522
 30
0.0
 10
5.97174138995766
 20
4.435352275147842
 30
0.0
 10
5.971456923518829
 20
4.434802030070436
 30
0.0
 10
5.971090754145706
 20
4.43425906206734
 30
0.0
 10
5.970784783162098
 20
4.433911312276812
 30
0.0
 10
5.970630104548124
 20
4.433735513072026
 30
0.0
  0
SPLINE
  5
13C5
330
1F
100
AcDbEntity
  8
0
100
AcDbSpline
210
0.0
220
0.0
230
1.0
 70
     8
 71
     3
 72
    31
 73
    27
 74
     0
 42
0.0000000001
 43
0.0000000001
 40
0.0
 40
0.0
 40
0.0
 40
0.0
 40
0.0548535446666281
 40
0.1070500275152893
 40
0.1569655040429745
 40
0.2039755780042505
 40
0.2484266377219329
 40
0.2904729182225025
 40
0.3300742042959813
 40
0.3674680643807463
 40
0.4038660487602967
 40
0.4398777827759542
 40
0.4763208478512883
 40
0.5128151439109444
 40
0.5500329604948599
 40
0.5881778153971897
 40
0.6272030520705583
 40
0.6675338875292728
 40
0.7081835266754707
 40
0.74863770688314
 40
0.7886698330486153
 40
0.8294751652475973
 40
0.8703816569671229
 40
0.9122214134524369
 40
0.9555502139698958
 40
1.0
 40
1.0
 40
1.0
 40
1.0
 10
5.946060079757799
 20
4.440750838852615
 30
0.0
 10
5.946382908759215
 20
4.440934761194952
 30
0.0
 10
5.947012929183486
 20
4.441293696828505
 30
0.0
 10
5.947966554155087
 20
4.44180204036769
 30
0.0
 10
5.948893315605189
 20
4.442271727257516
 30
0.0
 10
5.949800955326992
 20
4.442697024397521
 30
0.0
 10
5.950670613612803
 20
4.443089887571751
 30
0.0
 10
5.951529942247066
 20
4.44343107594495
 30
0.0
 10
5.952354016614556
 20
4.443742081168061
 30
0.0
 10
5.953171957274399
 20
4.444007543439266
 30
0.0
 10
5.953990965157949
 20
4.444234435906267
 30
0.0
 10
5.954829197276488
 20
4.444425492606963
 30
0.0
 10
5.955696022442918
 20
4.444569232300384
 30
0.0
 10
5.956587146669878
 20
4.444679942251308
 30
0.0
 10
5.957504739376833
 20
4.444750608916713
 30
0.0
 10
5.958449445533798
 20
4.44478551883466
 30
0.0
 10
5.959421734186062
 20
4.444776772689262
 30
0.0
 10
5.960411450117423
 20
4.444732874582875
 30
0.0
 10
5.961407027193015
 20
4.444652142704438
 30
0.0
 10
5.96238023342952
 20
4.44451092534393
 30
0.0
 10
5.963327756025336
 20
4.444319894590094
 30
0.0
 10
5.964253087919136
 20
4.444088894067665
 30
0.0
 10
5.965142573309144
 20
4.443797107713795
 30
0.0
 10
5.966010240912936
 20
4.443462664656578
 30
0.0
 10
5.966846419157498
 20
4.443074110838551
 30
0.0
 10
5.967371763859858
 20
4.442784868884402
 30
0.0
 10
5.967637790695448
 20
4.442638401010196
 30
0.0
  0
LINE
  5
13C6
330
1F
100
AcDbEntity
  8
0
100
AcDbLine
 10
5.928265550633891
 20
4.430478275847036
 30
0.0
 11
5.946060079757799
 21
4.440750838852615
 31
0.0
  0
LINE
  5
13C7
330
1F
100
AcDbEntity
  8
0
100
AcDbLine
 10
5.93090964650371
 20
4.428951871791809
 30
0.0
 11
5.928265550633891
 21
4.430478275847036
 31
0.0
  0
LINE
  5
13C8
330
1F
100
AcDbEntity
  8
0
100
AcDbLine
 10
5.948562527634596
 20
4.439142663151574
 30
0.0
 11
5.93090964650371
 21
4.428951871791809
 31
0.0
  0
SPLINE
  5
13C9
330
1F
100
AcDbEntity
  8
0
100
AcDbSpline
210
0.0
220
0.0
230
1.0
 70
     8
 71
     3
 72
    15
 73
    11
 74
     0
 42
0.0000000001
 43
0.0000000001
 40
0.0
 40
0.0
 40
0.0
 40
0.0
 40
0.0698351039153831
 40
0.1556207549116351
 40
0.2578015566582636
 40
0.3738112340663531
 40
0.5064024926743414
 40
0.6555644581430568
 40
0.8200792824038153
 40
0.9999999999999998
 40
0.9999999999999998
 40
0.9999999999999998
 40
0.9999999999999998
 10
5.953437579394577
 20
4.441609441133678
 30
0.0
 10
5.953308374994623
 20
4.441564011671566
 30
0.0
 10
5.953020455522441
 20
4.441462776521998
 30
0.0
 10
5.95257625495229
 20
4.441267060922122
 30
0.0
 10
5.952059428169921
 20
4.441031941030061
 30
0.0
 10
5.951485607794502
 20
4.440744559335175
 30
0.0
 10
5.950840775292871
 20
4.440415081551442
 30
0.0
 10
5.950135694454434
 20
4.440033638261553
 30
0.0
 10
5.949369881027269
 20
4.439603372098769
 30
0.0
 10
5.948839552270314
 20
4.439300744766676
 30
0.0
 10
5.948562527634596
 20
4.439142663151574
 30
0.0
  0
SPLINE
  5
13CA
330
1F
100
AcDbEntity
  8
0
100
AcDbSpline
210
0.0
220
0.0
230
1.0
 70
     8
 71
     3
 72
    19
 73
    15
 74
     0
 42
0.0000000001
 43
0.0000000001
 40
0.0
 40
0.0
 40
0.0
 40
0.0
 40
0.0828786634439039
 40
0.1652786415506185
 40
0.2477260553507343
 40
0.3317292961358364
 40
0.4151528467813259
 40
0.4962275412280834
 40
0.577514714490654
 40
0.6581342491615808
 40
0.7396615623070272
 40
0.8231953158415498
 40
0.9094890411089281
 40
1.0
 40
1.0
 40
1.0
 40
1.0
 10
5.96476351683696
 20
4.440808760435068
 30
0.0
 10
5.964514142659975
 20
4.440942342608668
 30
0.0
 10
5.964016834625585
 20
4.441208735420406
 30
0.0
 10
5.963192556535538
 20
4.441554821038113
 30
0.0
 10
5.962298478746298
 20
4.441841760511383
 30
0.0
 10
5.961354297810576
 20
4.442074442282745
 30
0.0
 10
5.960380821507083
 20
4.442252883849874
 30
0.0
 10
5.959388396772567
 20
4.442363151790868
 30
0.0
 10
5.958392531744898
 20
4.442407004180374
 30
0.0
 10
5.957392197469069
 20
4.442387522888484
 30
0.0
 10
5.956394236486556
 20
4.44229709964761
 30
0.0
 10
5.955397561637177
 20
4.442139834741745
 30
0.0
 10
5.954404826028536
 20
4.441908353156236
 30
0.0
 10
5.953765081441691
 20
4.441710650376347
 30
0.0
 10
5.953437579394577
 20
4.441609441133678
 30
0.0
  0
SPLINE
  5
13CB
330
1F
100
AcDbEntity
  8
0
100
AcDbSpline
210
0.0
220
0.0
230
1.0
 70
     8
 71
     3
 72
    19
 73
    15
 74
     0
 42
0.0000000001
 43
0.0000000001
 40
0.0
 40
0.0
 40
0.0
 40
0.0
 40
0.0869102560751839
 40
0.1677763432358102
 40
0.2449982577407021
 40
0.3184830614061211
 40
0.3927010604187309
 40
0.4700254624245081
 40
0.5542035830749383
 40
0.6443488959349387
 40
0.7368816159009688
 40
0.8261729574647107
 40
0.9136808757619334
 40
1.0
 40
1.0
 40
1.0
 40
1.0
 10
5.965961622777975
 20
4.433623077059028
 30
0.0
 10
5.966197225036875
 20
4.433808785180254
 30
0.0
 10
5.966652044608714
 20
4.43416728636177
 30
0.0
 10
5.967195529213679
 20
4.434736847925297
 30
0.0
 10
5.967595718951653
 20
4.435306126738051
 30
0.0
 10
5.967851366753674
 20
4.435884784479302
 30
0.0
 10
5.967960157289624
 20
4.436479264021194
 30
0.0
 10
5.967907031628588
 20
4.437104578014221
 30
0.0
 10
5.967694646198516
 20
4.437760906057164
 30
0.0
 10
5.967334332803794
 20
4.438437078328103
 30
0.0
 10
5.966854169227541
 20
4.439102559541559
 30
0.0
 10
5.966268679428345
 20
4.439731238128231
 30
0.0
 10
5.965580682869791
 20
4.440306275700137
 30
0.0
 10
5.965034660775717
 20
4.440642030927577
 30
0.0
 10
5.96476351683696
 20
4.440808760435068
 30
0.0
  0
SPLINE
  5
13CC
330
1F
100
AcDbEntity
  8
0
100
AcDbSpline
210
0.0
220
0.0
230
1.0
 70
     8
 71
     3
 72
    15
 73
    11
 74
     0
 42
0.0000000001
 43
0.0000000001
 40
0.0
 40
0.0
 40
0.0
 40
0.0
 40
0.1910785917157658
 40
0.3626045563099711
 40
0.5160987502785801
 40
0.6500380260398885
 40
0.7659767209868363
 40
0.8623740257994375
 40
0.9408420582211959
 40
1.0
 40
1.0
 40
1.0
 40
1.0
 10
5.962160734965106
 20
4.431292585153279
 30
0.0
 10
5.962410979042438
 20
4.431436593672739
 30
0.0
 10
5.962885860303678
 20
4.431709874655354
 30
0.0
 10
5.963555724331822
 20
4.432102337655322
 30
0.0
 10
5.964141723003844
 20
4.43245675512885
 30
0.0
 10
5.964660311649062
 20
4.432766297756948
 30
0.0
 10
5.965093123409097
 20
4.433038774357868
 30
0.0
 10
5.965457007829972
 20
4.433267287754159
 30
0.0
 10
5.965741985716576
 20
4.433455522108861
 30
0.0
 10
5.965895594635245
 20
4.433572706041978
 30
0.0
 10
5.965961622777975
 20
4.433623077059028
 30
0.0
  0
LINE
  5
13CD
330
1F
100
AcDbEntity
  8
0
100
AcDbLine
 10
5.94450785383422
 20
4.421101793793514
 30
0.0
 11
5.962160734965106
 21
4.431292585153279
 31
0.0
  0
LINE
  5
13CE
330
1F
100
AcDbEntity
  8
0
100
AcDbLine
 10
5.947151949704043
 20
4.419575389738295
 30
0.0
 11
5.94450785383422
 21
4.421101793793514
 31
0.0
  0
LINE
  5
13CF
330
1F
100
AcDbEntity
  8
0
100
AcDbLine
 10
5.964946478827954
 20
4.429847952743873
 30
0.0
 11
5.947151949704043
 21
4.419575389738295
 31
0.0
  0
LINE
  5
13D0
330
1F
100
AcDbEntity
  8
0
100
AcDbLine
 10
5.937708750168969
 20
4.459043837451943
 30
0.0
 11
5.911267791470752
 21
4.443779796899704
 31
0.0
  0
LINE
  5
13D1
330
1F
100
AcDbEntity
  8
0
100
AcDbLine
 10
5.935064654299146
 20
4.460570241507166
 30
0.0
 11
5.937708750168969
 21
4.459043837451943
 31
0.0
  0
LINE
  5
13D2
330
1F
100
AcDbEntity
  8
0
100
AcDbLine
 10
5.90862369560093
 20
4.445306200954924
 30
0.0
 11
5.935064654299146
 21
4.460570241507166
 31
0.0
  0
LINE
  5
13D3
330
1F
100
AcDbEntity
  8
0
100
AcDbLine
 10
5.902202319917076
 20
4.449013182231897
 30
0.0
 11
5.90862369560093
 21
4.445306200954924
 31
0.0
  0
LINE
  5
13D4
330
1F
100
AcDbEntity
  8
0
100
AcDbLine
 10
5.899180496065852
 20
4.447268720454498
 30
0.0
 11
5.902202319917076
 21
4.449013182231897
 31
0.0
  0
LINE
  5
13D5
330
1F
100
AcDbEntity
  8
0
100
AcDbLine
 10
5.914667343303378
 20
4.438328353845331
 30
0.0
 11
5.899180496065852
 21
4.447268720454498
 31
0.0
  0
LINE
  5
13D6
330
1F
100
AcDbEntity
  8
0
100
AcDbLine
 10
5.917689167154605
 20
4.440072815622727
 30
0.0
 11
5.914667343303378
 21
4.438328353845331
 31
0.0
  0
LINE
  5
13D7
330
1F
100
AcDbEntity
  8
0
100
AcDbLine
 10
5.911267791470752
 20
4.443779796899704
 30
0.0
 11
5.917689167154605
 21
4.440072815622727
 31
0.0
  0
LINE
  5
13D8
330
1F
100
AcDbEntity
  8
0
100
AcDbLine
 10
7.036264084957714
 20
5.513266562342508
 30
0.0
 11
5.517335279665491
 21
4.636407627514536
 31
0.0
  0
SPLINE
  5
13D9
330
1F
100
AcDbEntity
  8
0
100
AcDbSpline
210
0.0
220
0.0
230
1.0
 70
     8
 71
     3
 72
    10
 73
     6
 74
     0
 42
0.0000000001
 43
0.0000000001
 40
0.0
 40
0.0
 40
0.0
 40
0.0
 40
0.5
 40
0.5
 40
1.0
 40
1.0
 40
1.0
 40
1.0
 10
7.913076493629034
 20
5.007093533012426
 30
0.0
 10
7.765076237567505
 20
5.090371179809814
 30
0.0
 10
7.618222096628429
 20
5.174320906291402
 30
0.0
 10
7.325943509258152
 20
5.343049735975984
 30
0.0
 10
7.180520423658357
 20
5.427828074308003
 30
0.0
 10
7.036264084957714
 20
5.513266562342511
 30
0.0
  0
LINE
  5
13DA
330
1F
100
AcDbEntity
  8
0
100
AcDbLine
 10
5.947151949704043
 20
4.453592394397574
 30
0.0
 11
5.949796045573865
 21
4.452065990342347
 31
0.0
  0
LINE
  5
13DB
330
1F
100
AcDbEntity
  8
0
100
AcDbLine
 10
5.917689167154605
 20
4.436583892067933
 30
0.0
 11
5.947151949704043
 21
4.453592394397574
 31
0.0
  0
LINE
  5
13DC
330
1F
100
AcDbEntity
  8
0
100
AcDbLine
 10
5.920333263024424
 20
4.435057488012709
 30
0.0
 11
5.917689167154605
 21
4.436583892067933
 31
0.0
  0
LINE
  5
13DD
330
1F
100
AcDbEntity
  8
0
100
AcDbLine
 10
5.949796045573865
 20
4.452065990342347
 30
0.0
 11
5.920333263024424
 21
4.435057488012709
 31
0.0
  0
SPLINE
  5
13DE
330
1F
100
AcDbEntity
  8
0
100
AcDbSpline
210
0.0
220
0.0
230
1.0
 70
     8
 71
     3
 72
    31
 73
    27
 74
     0
 42
0.0000000001
 43
0.0000000001
 40
0.0
 40
0.0
 40
0.0
 40
0.0
 40
0.0460789331719114
 40
0.0908033506254639
 40
0.1342901697877986
 40
0.1770176620073562
 40
0.2188144224581094
 40
0.2601525809625703
 40
0.3009867807439141
 40
0.3415192683708308
 40
0.3814872745332967
 40
0.4201624942685504
 40
0.4577665571630244
 40
0.4947807484119072
 40
0.5310556470601864
 40
0.5669862605707192
 40
0.6025596744781182
 40
0.6380458471959411
 40
0.6747953027942886
 40
0.7134079580996794
 40
0.7544511305269946
 40
0.7978230399965964
 40
0.8439953817289229
 40
0.8930756311861639
 40
0.9449654365550486
 40
1.0
 40
1.0
 40
1.0
 40
1.0
 10
5.968298814662908
 20
4.42480536791858
 30
0.0
 10
5.968668282026872
 20
4.425012539738339
 30
0.0
 10
5.969396356057359
 20
4.425420793447678
 30
0.0
 10
5.970547645746794
 20
4.425977310444697
 30
0.0
 10
5.971710200119364
 20
4.426491003096014
 30
0.0
 10
5.972910574767752
 20
4.426941338759462
 30
0.0
 10
5.974129727621519
 20
4.42734700767837
 30
0.0
 10
5.975375522002174
 20
4.427698217274102
 30
0.0
 10
5.976647140849571
 20
4.427996166731766
 30
0.0
 10
5.977938775197223
 20
4.428236012288714
 30
0.0
 10
5.979229616818731
 20
4.428427369938379
 30
0.0
 10
5.980508223770396
 20
4.428562006014633
 30
0.0
 10
5.981765033674005
 20
4.428655063322668
 30
0.0
 10
5.983004008833866
 20
4.428685761430692
 30
0.0
 10
5.98422563794864
 20
4.428677047112927
 30
0.0
 10
5.985424191404494
 20
4.428601330441402
 30
0.0
 10
5.986603628533639
 20
4.428484932398653
 30
0.0
 10
5.987769847781038
 20
4.428307305699203
 30
0.0
 10
5.988941114966024
 20
4.428072013901648
 30
0.0
 10
5.99012609758407
 20
4.427760252278286
 30
0.0
 10
5.991336061633603
 20
4.427382159075527
 30
0.0
 10
5.992565737432236
 20
4.426927558466179
 30
0.0
 10
5.993825287850544
 20
4.426406200991493
 30
0.0
 10
5.995100992449295
 20
4.425806781663339
 30
0.0
 10
5.996412017079133
 20
4.425142866193617
 30
0.0
 10
5.997264037563869
 20
4.424659123390732
 30
0.0
 10
5.997702577215253
 20
4.424410138297137
 30
0.0
  0
SPLINE
  5
13DF
330
1F
100
AcDbEntity
  8
0
100
AcDbSpline
210
0.0
220
0.0
230
1.0
 70
     8
 71
     3
 72
    23
 73
    19
 74
     0
 42
0.0000000001
 43
0.0000000001
 40
0.0
 40
0.0
 40
0.0
 40
0.0
 40
0.0615435260186338
 40
0.1216914490610148
 40
0.1811506168838248
 40
0.2400657121915231
 40
0.2986720767057372
 40
0.3576161787882432
 40
0.4175721950753191
 40
0.4786489474901403
 40
0.5403937355314663
 40
0.6023302295747742
 40
0.6651085453793629
 40
0.7285656598540874
 40
0.7936553700861463
 40
0.8605375307382752
 40
0.9292376162628293
 40
1.0
 40
1.0
 40
1.0
 40
1.0
 10
5.963134564917162
 20
4.411575397056001
 30
0.0
 10
5.962923506649378
 20
4.411847165117958
 30
0.0
 10
5.962506176215065
 20
4.412384538443923
 30
0.0
 10
5.962032004364075
 20
4.413218345578066
 30
0.0
 10
5.961673284754581
 20
4.414057423057595
 30
0.0
 10
5.961449721555698
 20
4.414904885319888
 30
0.0
 10
5.96135149986005
 20
4.415757218056249
 30
0.0
 10
5.96136313785767
 20
4.416616921439054
 30
0.0
 10
5.961525845305857
 20
4.417483336129691
 30
0.0
 10
5.961790736376247
 20
4.418354884193565
 30
0.0
 10
5.96219688097133
 20
4.419218333923872
 30
0.0
 10
5.962711979859474
 20
4.420070340235266
 30
0.0
 10
5.963339922803786
 20
4.420906427505272
 30
0.0
 10
5.964108204074012
 20
4.42171946919802
 30
0.0
 10
5.964971874756518
 20
4.422523344995141
 30
0.0
 10
5.965970842052314
 20
4.423304878187327
 30
0.0
 10
5.967070814004053
 20
4.424075946550381
 30
0.0
 10
5.967885465562591
 20
4.424559842263423
 30
0.0
 10
5.968298814662908
 20
4.42480536791858
 30
0.0
  0
SPLINE
  5
13E0
330
1F
100
AcDbEntity
  8
0
100
AcDbSpline
210
0.0
220
0.0
230
1.0
 70
     8
 71
     3
 72
    15
 73
    11
 74
     0
 42
0.0000000001
 43
0.0000000001
 40
0.0
 40
0.0
 40
0.0
 40
0.0
 40
0.1642896338889928
 40
0.3174067176726125
 40
0.4588447774378822
 40
0.5887462863853714
 40
0.7078305764569874
 40
0.8157695626207386
 40
0.9128796815536382
 40
1.0
 40
1.0
 40
1.0
 40
1.0
 10
5.971420972509189
 20
4.405565181088558
 30
0.0
 10
5.970907244684649
 20
4.405866039529541
 30
0.0
 10
5.969914725201185
 20
4.406447296471785
 30
0.0
 10
5.968515889604148
 20
4.407307675355966
 30
0.0
 10
5.967261318943084
 20
4.40812446830775
 30
0.0
 10
5.966156241583412
 20
4.408899818463215
 30
0.0
 10
5.965183673443522
 20
4.409626191695341
 30
0.0
 10
5.964360383523782
 20
4.410311205943578
 30
0.0
 10
5.963677910227978
 20
4.410951856768384
 30
0.0
 10
5.963309012253269
 20
4.411375202189191
 30
0.0
 10
5.963134564917162
 20
4.411575397056001
 30
0.0
  0
LINE
  5
13E1
330
1F
100
AcDbEntity
  8
0
100
AcDbLine
 10
5.977370188216287
 20
4.402130771964301
 30
0.0
 11
5.971420972509189
 21
4.405565181088558
 31
0.0
  0
LINE
  5
13E2
330
1F
100
AcDbEntity
  8
0
100
AcDbLine
 10
6.006832970765728
 20
4.419139274293939
 30
0.0
 11
5.977370188216287
 21
4.402130771964301
 31
0.0
  0
LINE
  5
13E3
330
1F
100
AcDbEntity
  8
0
100
AcDbLine
 10
5.997702577215253
 20
4.424410138297137
 30
0.0
 11
6.006832970765728
 21
4.419139274293939
 31
0.0
  0
LINE
  5
13E4
330
1F
100
AcDbEntity
  8
0
100
AcDbLine
 10
6.069535815678641
 20
4.382941692412913
 30
0.0
 11
6.026097097817284
 21
4.374001325803746
 31
0.0
  0
LINE
  5
13E5
330
1F
100
AcDbEntity
  8
0
100
AcDbLine
 10
6.066649737820732
 20
4.384607789696406
 30
0.0
 11
6.069535815678641
 21
4.382941692412913
 31
0.0
  0
LINE
  5
13E6
330
1F
100
AcDbEntity
  8
0
100
AcDbLine
 10
6.052726920506202
 20
4.381742374940952
 30
0.0
 11
6.066649737820732
 21
4.384607789696406
 31
0.0
  0
LINE
  5
13E7
330
1F
100
AcDbEntity
  8
0
100
AcDbLine
 10
6.039370695163775
 20
4.389452759710977
 30
0.0
 11
6.052726920506202
 21
4.381742374940952
 31
0.0
  0
LINE
  5
13E8
330
1F
100
AcDbEntity
  8
0
100
AcDbLine
 10
6.044458218913298
 20
4.397418680874181
 30
0.0
 11
6.039370695163775
 21
4.389452759710977
 31
0.0
  0
LINE
  5
13E9
330
1F
100
AcDbEntity
  8
0
100
AcDbLine
 10
6.04158394505481
 20
4.399077963853855
 30
0.0
 11
6.044458218913298
 21
4.397418680874181
 31
0.0
  0
LINE
  5
13EA
330
1F
100
AcDbEntity
  8
0
100
AcDbLine
 10
6.025719369835879
 20
4.374219383525918
 30
0.0
 11
6.04158394505481
 21
4.399077963853855
 31
0.0
  0
LINE
  5
13EB
330
1F
100
AcDbEntity
  8
0
100
AcDbLine
 10
6.026097097817284
 20
4.374001325803746
 30
0.0
 11
6.025719369835879
 21
4.374219383525918
 31
0.0
  0
LWPOLYLINE
  5
13EC
330
1F
100
AcDbEntity
  8
0
100
AcDbPolyline
 90
       52
 70
   128
 43
0.0
 10
6.229069974581506
 20
4.541110291824427
 10
6.246367721956453
 20
4.532284756828232
 10
6.265413068991882
 20
4.52475324995645
 10
6.285917307640509
 20
4.518629941176058
 10
6.307569614545279
 20
4.514007653606405
 10
6.330041762804668
 20
4.51095645641535
 10
6.352993097557913
 20
4.509522602642096
 10
6.376075699965447
 20
4.509727828048244
 10
6.398939661303892
 20
4.511569021625838
 10
6.421238387225592
 20
4.515018272757057
 10
6.442633851775646
 20
4.520023294310714
 10
6.462801721520804
 20
4.526508215261902
 10
6.481436272113732
 20
4.534374730819358
 10
6.498255022762442
 20
4.543503592625921
 10
6.513003018351213
 20
4.553756416442048
 10
6.525456694300181
 20
4.564977779909849
 10
6.535427265576537
 20
4.576997578597573
 10
6.54276358848319
 20
4.589633604609421
 10
6.547354451843084
 20
4.602694308671512
 10
6.549130262847377
 20
4.615981703823607
 10
6.548064102011387
 20
4.629294366699639
 10
6.544172131246611
 20
4.642430490900576
 10
6.537513348862596
 20
4.655190946173767
 10
6.528188695212676
 20
4.667382297024555
 10
6.516339522541166
 20
4.678819735001226
 10
6.502145452227388
 20
4.689329880202738
 10
6.485821651908651
 20
4.698753409541286
 10
6.467615573758223
 20
4.706947471917906
 10
6.44780320336261
 20
4.713787853699546
 10
6.426684876061401
 20
4.719170861671102
 10
6.404580724169633
 20
4.723014894918847
 10
6.381825824098264
 20
4.725261681817148
 10
6.358765116937298
 20
4.72587716336687
 10
6.335748179500505
 20
4.724852009495108
 10
6.313123925097265
 20
4.722201760489575
 10
6.291235314362417
 20
4.717966591423675
 10
6.270414156322701
 20
4.712210703143359
 10
6.250976078510063
 20
4.705021349047726
 10
6.233215742370063
 20
4.696507512416438
 10
6.217402376494696
 20
4.686798254334302
 10
6.203775695391371
 20
4.676040757256767
 10
6.19254226565534
 20
4.664398093873945
 10
6.183872374630681
 20
4.65204675509484
 10
6.177897449027717
 20
4.63917397462508
 10
6.174708062628091
 20
4.625974890694795
 10
6.174352563278539
 20
4.612649587961968
 10
6.176836339986827
 20
4.599400064432963
 10
6.182121741229877
 20
4.586427169378648
 10
6.190128645712484
 20
4.57392755866422
 10
6.20073567692448
 20
4.5620907136467
 10
6.213782043084911
 20
4.551096068830741
 10
6.229069974581506
 20
4.541110291824427
  0
LWPOLYLINE
  5
13ED
330
1F
100
AcDbEntity
  8
0
100
AcDbPolyline
 90
       52
 70
   128
 43
0.0
 10
7.201341798713009
 20
5.102390868702538
 10
7.184044051338076
 20
5.11121640369873
 10
7.164998704302639
 20
5.118747910570519
 10
7.144494465654013
 20
5.124871219350911
 10
7.122842158749243
 20
5.129493506920564
 10
7.100370010489854
 20
5.132544704111616
 10
7.077418675736609
 20
5.133978557884873
 10
7.054336073329075
 20
5.133773332478721
 10
7.03147211199063
 20
5.131932138901124
 10
7.00917338606893
 20
5.128482887769912
 10
6.987777921518876
 20
5.123477866216251
 10
6.967610051773718
 20
5.116992945265067
 10
6.94897550118079
 20
5.109126429707607
 10
6.932156750532072
 20
5.099997567901045
 10
6.917408754943309
 20
5.089744744084914
 10
6.904955078994341
 20
5.078523380617117
 10
6.894984507717978
 20
5.066503581929396
 10
6.887648184811332
 20
5.053867555917548
 10
6.883057321451438
 20
5.040806851855457
 10
6.881281510447145
 20
5.027519456703355
 10
6.882347671283127
 20
5.014206793827327
 10
6.886239642047904
 20
5.00107066962639
 10
6.892898424431926
 20
4.988310214353202
 10
6.902223078081846
 20
4.976118863502414
 10
6.914072250753356
 20
4.964681425525739
 10
6.928266321067141
 20
4.954171280324228
 10
6.944590121385878
 20
4.944747750985683
 10
6.962796199536299
 20
4.936553688609059
 10
6.982608569931912
 20
4.929713306827416
 10
7.003726897233121
 20
4.924330298855867
 10
7.025831049124889
 20
4.920486265608118
 10
7.048585949196258
 20
4.918239478709821
 10
7.071646656357224
 20
4.917623997160099
 10
7.094663593794017
 20
4.918649151031861
 10
7.117287848197257
 20
4.921299400037394
 10
7.139176458932098
 20
4.925534569103291
 10
7.159997616971821
 20
4.931290457383607
 10
7.179435694784459
 20
4.938479811479243
 10
7.197196030924459
 20
4.946993648110531
 10
7.213009396799826
 20
4.956702906192667
 10
7.226636077903151
 20
4.967460403270198
 10
7.237869507639182
 20
4.979103066653021
 10
7.246539398663841
 20
4.991454405432129
 10
7.252514324266805
 20
5.004327185901889
 10
7.255703710666431
 20
5.01752626983217
 10
7.256059210015983
 20
5.030851572565001
 10
7.253575433307695
 20
5.044101096094006
 10
7.248290032064645
 20
5.057073991148314
 10
7.240283127582038
 20
5.069573601862746
 10
7.229676096370042
 20
5.081410446880266
 10
7.216629730209611
 20
5.092405091696228
 10
7.201341798713009
 20
5.102390868702538
  0
SPLINE
  5
13EE
330
1F
100
AcDbEntity
  8
0
100
AcDbSpline
210
0.0
220
0.0
230
1.0
 70
     8
 71
     3
 72
    10
 73
     6
 74
     0
 42
0.0000000001
 43
0.0000000001
 40
0.0
 40
0.0
 40
0.0
 40
0.0
 40
0.3655139400554978
 40
0.6824937604430266
 40
1.0
 40
1.0
 40
1.0
 40
1.0
 10
6.048538464689357
 20
4.36230366431209
 30
0.0
 10
6.048461375350058
 20
4.363008281541656
 30
0.0
 10
6.048317432842523
 20
4.364323954652789
 30
0.0
 10
6.049670217036734
 20
4.366133734451679
 30
0.0
 10
6.051058415462414
 20
4.36704315894455
 30
0.0
 10
6.051753090554143
 20
4.367498248455767
 30
0.0
  0
SPLINE
  5
13EF
330
1F
100
AcDbEntity
  8
0
100
AcDbSpline
210
0.0
220
0.0
230
1.0
 70
     8
 71
     3
 72
    23
 73
    19
 74
     0
 42
0.0000000001
 43
0.0000000001
 40
0.0
 40
0.0
 40
0.0
 40
0.0
 40
0.070118894419714
 40
0.1371923527859822
 40
0.2020161807247721
 40
0.2646314069747504
 40
0.3261165471458093
 40
0.3860103046676293
 40
0.4458118469576961
 40
0.5052976967309518
 40
0.5646332777264953
 40
0.6242826253338442
 40
0.6839020319037453
 40
0.743952770938272
 40
0.8053877310076378
 40
0.8683880308962731
 40
0.9330840282524725
 40
1.0
 40
1.0
 40
1.0
 40
1.0
 10
6.051753090554143
 20
4.367498248455767
 30
0.0
 10
6.051998887618402
 20
4.36763604819292
 30
0.0
 10
6.052479806175838
 20
4.367905662685707
 30
0.0
 10
6.053256521504145
 20
4.36825786747649
 30
0.0
 10
6.054031380746458
 20
4.368575626141275
 30
0.0
 10
6.054834338400759
 20
4.368839949921422
 30
0.0
 10
6.055654762777571
 20
4.369052653865171
 30
0.0
 10
6.056487408664217
 20
4.369227254301659
 30
0.0
 10
6.057338152421984
 20
4.369349210810703
 30
0.0
 10
6.058201933418807
 20
4.369423670573066
 30
0.0
 10
6.059072865954327
 20
4.369454569277401
 30
0.0
 10
6.059945871204462
 20
4.369440971496587
 30
0.0
 10
6.060816653262747
 20
4.369382486769591
 30
0.0
 10
6.061684529960977
 20
4.369280504740178
 30
0.0
 10
6.062546578386935
 20
4.369127459469471
 30
0.0
 10
6.063410254254186
 20
4.368937523829689
 30
0.0
 10
6.064269063026024
 20
4.368700963962673
 30
0.0
 10
6.064826099654538
 20
4.368515753751825
 30
0.0
 10
6.06510931589657
 20
4.368421586623099
 30
0.0
  0
SPLINE
  5
13F0
330
1F
100
AcDbEntity
  8
0
100
AcDbSpline
210
0.0
220
0.0
230
1.0
 70
     8
 71
     3
 72
    15
 73
    11
 74
     0
 42
0.0000000001
 43
0.0000000001
 40
0.0
 40
0.0
 40
0.0
 40
0.0
 40
0.0751715905611769
 40
0.1647429114078639
 40
0.2680114373901252
 40
0.3859639562109159
 40
0.5177992732835641
 40
0.6636978076578749
 40
0.8244167868186481
 40
1.0
 40
1.0
 40
1.0
 40
1.0
 10
6.06510931589657
 20
4.368421586623099
 30
0.0
 10
6.065333124364713
 20
4.368337671154304
 30
0.0
 10
6.065823613635508
 20
4.368153765525352
 30
0.0
 10
6.066586407497339
 20
4.367824965750038
 30
0.0
 10
6.067441665348802
 20
4.367422720523631
 30
0.0
 10
6.06839883497544
 20
4.366955532441391
 30
0.0
 10
6.069430505380694
 20
4.366405199436293
 30
0.0
 10
6.070575987216763
 20
4.365797043219544
 30
0.0
 10
6.071807879751141
 20
4.36511094951016
 30
0.0
 10
6.072653318393889
 20
4.364624472445335
 30
0.0
 10
6.073094721503423
 20
4.36437048300332
 30
0.0
  0
LINE
  5
13F1
330
1F
100
AcDbEntity
  8
0
100
AcDbLine
 10
6.073094721503423
 20
4.36437048300332
 30
0.0
 11
6.07520173539968
 21
4.363154129771814
 31
0.0
  0
LINE
  5
13F2
330
1F
100
AcDbEntity
  8
0
100
AcDbLine
 10
6.07520173539968
 20
4.363154129771814
 30
0.0
 11
6.08879994273019
 21
4.371004207770109
 31
0.0
  0
LINE
  5
13F3
330
1F
100
AcDbEntity
  8
0
100
AcDbLine
 10
6.08879994273019
 20
4.371004207770109
 30
0.0
 11
6.090736816884749
 21
4.369886074120827
 31
0.0
  0
LINE
  5
13F4
330
1F
100
AcDbEntity
  8
0
100
AcDbLine
 10
6.056970458297278
 20
4.358850896910769
 30
0.0
 11
6.06235898403198
 21
4.355740167217867
 31
0.0
  0
LINE
  5
13F5
330
1F
100
AcDbEntity
  8
0
100
AcDbLine
 10
6.06235898403198
 20
4.355740167217867
 30
0.0
 11
6.07217991154846
 21
4.361409667994387
 31
0.0
  0
SPLINE
  5
13F6
330
1F
100
AcDbEntity
  8
0
100
AcDbSpline
210
0.0
220
0.0
230
1.0
 70
     8
 71
     3
 72
    10
 73
     6
 74
     0
 42
0.0000000001
 43
0.0000000001
 40
0.0
 40
0.0
 40
0.0
 40
0.0
 40
0.1484373496281546
 40
0.3196424213268839
 40
1.0
 40
1.0
 40
1.0
 40
1.0
 10
6.052634987025122
 20
4.364061496595059
 30
0.0
 10
6.052547756006994
 20
4.363765780084541
 30
0.0
 10
6.052359914241307
 20
4.363128989265479
 30
0.0
 10
6.053013535094066
 20
4.361100391680139
 30
0.0
 10
6.055213106551086
 20
4.359849944240721
 30
0.0
 10
6.056970458297278
 20
4.358850896910769
 30
0.0
  0
LINE
  5
13F7
330
1F
100
AcDbEntity
  8
0
100
AcDbLine
 10
6.06235898403198
 20
4.355740167217867
 30
0.0
 11
6.06235898403198
 21
4.356556708029749
 31
0.0
  0
LINE
  5
13F8
330
1F
100
AcDbEntity
  8
0
100
AcDbLine
 10
6.056970458297278
 20
4.358850896910769
 30
0.0
 11
6.056970458297278
 21
4.359667437722656
 31
0.0
  0
LINE
  5
13F9
330
1F
100
AcDbEntity
  8
0
100
AcDbLine
 10
6.056970458297278
 20
4.359667437722656
 30
0.0
 11
6.06235898403198
 21
4.356556708029749
 31
0.0
  0
LINE
  5
13FA
330
1F
100
AcDbEntity
  8
0
100
AcDbLine
 10
6.07217991154846
 20
4.361409667994387
 30
0.0
 11
6.07217991154846
 21
4.362226208806301
 31
0.0
  0
LINE
  5
13FB
330
1F
100
AcDbEntity
  8
0
100
AcDbLine
 10
6.06235898403198
 20
4.356556708029749
 30
0.0
 11
6.07217991154846
 21
4.362226208806301
 31
0.0
  0
SPLINE
  5
13FC
330
1F
100
AcDbEntity
  8
0
100
AcDbSpline
210
0.0
220
0.0
230
1.0
 70
     8
 71
     3
 72
    23
 73
    19
 74
     0
 42
0.0000000001
 43
0.0000000001
 40
0.0
 40
0.0
 40
0.0
 40
0.0
 40
0.0700244800013627
 40
0.1391999996196787
 40
0.2081401609613366
 40
0.2788024546502977
 40
0.349596404685827
 40
0.4183718283485194
 40
0.4876085078815601
 40
0.5576354056465784
 40
0.5955440543077961
 40
0.6381662166421596
 40
0.6859992117136492
 40
0.7382572137601461
 40
0.7961587579179604
 40
0.8585554789322003
 40
0.926677909608086
 40
1.0
 40
1.0
 40
1.0
 40
1.0
 10
6.054408990423389
 20
4.366795199516246
 30
0.0
 10
6.054182802457184
 20
4.366652314299813
 30
0.0
 10
6.053733168774677
 20
4.366368276173819
 30
0.0
 10
6.053199362032593
 20
4.365879355356284
 30
0.0
 10
6.052808119970421
 20
4.365347109546739
 30
0.0
 10
6.052548626098285
 20
4.364783917389317
 30
0.0
 10
6.052436326353458
 20
4.364205102815763
 30
0.0
 10
6.052476454243944
 20
4.36362674992112
 30
0.0
 10
6.052675950205475
 20
4.363062224032844
 30
0.0
 10
6.052960205058823
 20
4.362598992980309
 30
0.0
 10
6.053294518508195
 20
4.362230578970052
 30
0.0
 10
6.053605146511209
 20
4.361924613630623
 30
0.0
 10
6.05400649160537
 20
4.361605578634268
 30
0.0
 10
6.054463268141851
 20
4.361258315942126
 30
0.0
 10
6.054985485551142
 20
4.360889386096388
 30
0.0
 10
6.055580735818459
 20
4.360498908941959
 30
0.0
 10
6.056246124680768
 20
4.360087658920871
 30
0.0
 10
6.056723168206218
 20
4.359810902744854
 30
0.0
 10
6.056970458297278
 20
4.359667437722656
 30
0.0
  0
SPLINE
  5
13FD
330
1F
100
AcDbEntity
  8
0
100
AcDbSpline
210
0.0
220
0.0
230
1.0
 70
     8
 71
     3
 72
    23
 73
    19
 74
     0
 42
0.0000000001
 43
0.0000000001
 40
0.0
 40
0.0
 40
0.0
 40
0.0
 40
0.0725313541839813
 40
0.1400202838978649
 40
0.2030415919339311
 40
0.2605514448249602
 40
0.3137607527620665
 40
0.3616572418242699
 40
0.4053615799550814
 40
0.4447823627431149
 40
0.5170476272957402
 40
0.5863648132800494
 40
0.6553546736950075
 40
0.7246463792511789
 40
0.7934544970047604
 40
0.8616391828750565
 40
0.9295525679937926
 40
1.0
 40
1.0
 40
1.0
 40
1.0
 10
6.067086485799222
 20
4.365241538245751
 30
0.0
 10
6.066834783557453
 20
4.365387034602495
 30
0.0
 10
6.066348877568977
 20
4.36566791231954
 30
0.0
 10
6.065610489227076
 20
4.36605477769363
 30
0.0
 10
6.064921544584905
 20
4.366409637323471
 30
0.0
 10
6.064261167377196
 20
4.366721550744156
 30
0.0
 10
6.063641821696514
 20
4.366994549642232
 30
0.0
 10
6.063050697565834
 20
4.36722276559556
 30
0.0
 10
6.062506583735626
 20
4.367421589725459
 30
0.0
 10
6.061821582655241
 20
4.367616990591375
 30
0.0
 10
6.060986994240316
 20
4.367796999722767
 30
0.0
 10
6.059974454529708
 20
4.367930767701452
 30
0.0
 10
6.05895107694004
 20
4.367953708320687
 30
0.0
 10
6.057936016601743
 20
4.367894331072164
 30
0.0
 10
6.056953026634623
 20
4.367743108017993
 30
0.0
 10
6.056027583933854
 20
4.367510532098041
 30
0.0
 10
6.055164776731245
 20
4.367196577681767
 30
0.0
 10
6.054663976539863
 20
4.366930615914508
 30
0.0
 10
6.054408990423389
 20
4.366795199516246
 30
0.0
  0
LINE
  5
13FE
330
1F
100
AcDbEntity
  8
0
100
AcDbLine
 10
6.07217991154846
 20
4.362226208806301
 30
0.0
 11
6.067086485799222
 21
4.365241538245751
 31
0.0
  0
LINE
  5
13FF
330
1F
100
AcDbEntity
  8
0
100
AcDbLine
 10
6.051753090554143
 20
4.367498248455767
 30
0.0
 11
6.051753090554143
 21
4.368314789267653
 31
0.0
  0
LINE
  5
1400
330
1F
100
AcDbEntity
  8
0
100
AcDbLine
 10
6.07520173539968
 20
4.363154129771814
 30
0.0
 11
6.07520173539968
 21
4.3639706705837
 31
0.0
  0
LINE
  5
1401
330
1F
100
AcDbEntity
  8
0
100
AcDbLine
 10
6.073094721503423
 20
4.36437048300332
 30
0.0
 11
6.073094721503423
 21
4.365187023815206
 31
0.0
  0
LINE
  5
1402
330
1F
100
AcDbEntity
  8
0
100
AcDbLine
 10
6.08879994273019
 20
4.371004207770109
 30
0.0
 11
6.08879994273019
 21
4.371820748581995
 31
0.0
  0
LINE
  5
1403
330
1F
100
AcDbEntity
  8
0
100
AcDbLine
 10
6.06510931589657
 20
4.368421586623099
 30
0.0
 11
6.06510931589657
 21
4.369238127434986
 31
0.0
  0
LINE
  5
1404
330
1F
100
AcDbEntity
  8
0
100
AcDbLine
 10
6.026101955718853
 20
4.374002325635764
 30
0.0
 11
6.04158394505481
 21
4.398261423041969
 31
0.0
  0
LINE
  5
1405
330
1F
100
AcDbEntity
  8
0
100
AcDbLine
 10
6.04158394505481
 20
4.398261423041969
 30
0.0
 11
6.0440772032142
 21
4.396822095743498
 31
0.0
  0
LINE
  5
1406
330
1F
100
AcDbEntity
  8
0
100
AcDbLine
 10
6.039370695163775
 20
4.38863621889909
 30
0.0
 11
6.052726920506202
 21
4.380925834129069
 31
0.0
  0
LINE
  5
1407
330
1F
100
AcDbEntity
  8
0
100
AcDbLine
 10
6.052726920506202
 20
4.380925834129069
 30
0.0
 11
6.066649737820732
 21
4.38379124888452
 31
0.0
  0
LINE
  5
1408
330
1F
100
AcDbEntity
  8
0
100
AcDbLine
 10
6.066649737820732
 20
4.38379124888452
 30
0.0
 11
6.068493116995874
 21
4.382727088737997
 31
0.0
  0
LINE
  5
1409
330
1F
100
AcDbEntity
  8
0
100
AcDbLine
 10
6.031680389542394
 20
4.37659193690084
 30
0.0
 11
6.048270910725591
 21
4.380009310265549
 31
0.0
  0
LINE
  5
140A
330
1F
100
AcDbEntity
  8
0
100
AcDbLine
 10
6.04158394505481
 20
4.398261423041969
 30
0.0
 11
6.04158394505481
 21
4.399077963853855
 31
0.0
  0
LINE
  5
140B
330
1F
100
AcDbEntity
  8
0
100
AcDbLine
 10
6.048270910725591
 20
4.380825851077435
 30
0.0
 11
6.037741743243977
 21
4.386904210083059
 31
0.0
  0
LINE
  5
140C
330
1F
100
AcDbEntity
  8
0
100
AcDbLine
 10
6.031680389542394
 20
4.377408477712727
 30
0.0
 11
6.048270910725591
 21
4.380825851077435
 31
0.0
  0
LINE
  5
140D
330
1F
100
AcDbEntity
  8
0
100
AcDbLine
 10
6.037741743243977
 20
4.386904210083059
 30
0.0
 11
6.031680389542394
 21
4.377408477712727
 31
0.0
  0
LINE
  5
140E
330
1F
100
AcDbEntity
  8
0
100
AcDbLine
 10
6.048270910725591
 20
4.380009310265549
 30
0.0
 11
6.048270910725591
 21
4.380825851077435
 31
0.0
  0
LINE
  5
140F
330
1F
100
AcDbEntity
  8
0
100
AcDbLine
 10
6.031680389542394
 20
4.37659193690084
 30
0.0
 11
6.031680389542394
 21
4.377408477712727
 31
0.0
  0
LINE
  5
1410
330
1F
100
AcDbEntity
  8
0
100
AcDbLine
 10
6.066649737820732
 20
4.38379124888452
 30
0.0
 11
6.066649737820732
 21
4.384607789696406
 31
0.0
  0
LINE
  5
1411
330
1F
100
AcDbEntity
  8
0
100
AcDbLine
 10
6.052726920506202
 20
4.380925834129069
 30
0.0
 11
6.052726920506202
 21
4.381742374940952
 31
0.0
  0
LINE
  5
1412
330
1F
100
AcDbEntity
  8
0
100
AcDbLine
 10
6.039370695163775
 20
4.38863621889909
 30
0.0
 11
6.039370695163775
 21
4.389452759710977
 31
0.0
  0
LINE
  5
1413
330
1F
100
AcDbEntity
  8
0
100
AcDbLine
 10
6.010757800572495
 20
4.408813372504088
 30
0.0
 11
6.010757800572495
 21
4.409629913315971
 31
0.0
  0
LINE
  5
1414
330
1F
100
AcDbEntity
  8
0
100
AcDbLine
 10
6.007147219031324
 20
4.384940857972388
 30
0.0
 11
6.010757800572495
 21
4.408813372504088
 31
0.0
  0
LINE
  5
1415
330
1F
100
AcDbEntity
  8
0
100
AcDbLine
 10
5.985631969559616
 20
4.397361347114863
 30
0.0
 11
6.01438753039379
 21
4.413961579038559
 31
0.0
  0
LINE
  5
1416
330
1F
100
AcDbEntity
  8
0
100
AcDbLine
 10
6.01438753039379
 20
4.413961579038559
 30
0.0
 11
6.014875873731337
 21
4.41367966443051
 31
0.0
  0
LINE
  5
1417
330
1F
100
AcDbEntity
  8
0
100
AcDbLine
 10
6.011271274547215
 20
4.389048484280081
 30
0.0
 11
6.03440711340815
 21
4.40240451976329
 31
0.0
  0
LINE
  5
1418
330
1F
100
AcDbEntity
  8
0
100
AcDbLine
 10
6.03440711340815
 20
4.40240451976329
 30
0.0
 11
6.036343987562709
 21
4.401286386114009
 31
0.0
  0
LINE
  5
1419
330
1F
100
AcDbEntity
  8
0
100
AcDbLine
 10
6.03440711340815
 20
4.40240451976329
 30
0.0
 11
6.03440711340815
 21
4.403221060575177
 31
0.0
  0
LINE
  5
141A
330
1F
100
AcDbEntity
  8
0
100
AcDbLine
 10
6.011271274547215
 20
4.389048484280081
 30
0.0
 11
6.011271274547215
 21
4.389865025091967
 31
0.0
  0
LINE
  5
141B
330
1F
100
AcDbEntity
  8
0
100
AcDbLine
 10
6.01438753039379
 20
4.413961579038559
 30
0.0
 11
6.01438753039379
 21
4.414778119850446
 31
0.0
  0
SPLINE
  5
141C
330
1F
100
AcDbEntity
  8
0
100
AcDbSpline
210
0.0
220
0.0
230
1.0
 70
     8
 71
     3
 72
    10
 73
     6
 74
     0
 42
0.0000000001
 43
0.0000000001
 40
0.0
 40
0.0
 40
0.0
 40
0.0
 40
0.022822098767949
 40
0.40356315385007
 40
1.0
 40
1.0
 40
1.0
 40
1.0
 10
5.961493947601042
 20
4.414434183841869
 30
0.0
 10
5.961457707972972
 20
4.414512210316615
 30
0.0
 10
5.960816882659408
 20
4.415891952405761
 30
0.0
 10
5.962372704659347
 20
4.419608637762973
 30
0.0
 10
5.966052680171387
 20
4.422328632753501
 30
0.0
 10
5.968298814662908
 20
4.423988827106693
 30
0.0
  0
SPLINE
  5
141D
330
1F
100
AcDbEntity
  8
0
100
AcDbSpline
210
0.0
220
0.0
230
1.0
 70
     8
 71
     3
 72
    31
 73
    27
 74
     0
 42
0.0000000001
 43
0.0000000001
 40
0.0
 40
0.0
 40
0.0
 40
0.0
 40
0.0460789331719114
 40
0.0908033506254639
 40
0.1342901697877986
 40
0.1770176620073562
 40
0.2188144224581094
 40
0.2601525809625703
 40
0.3009867807439141
 40
0.3415192683708308
 40
0.3814872745332967
 40
0.4201624942685504
 40
0.4577665571630244
 40
0.4947807484119072
 40
0.5310556470601864
 40
0.5669862605707192
 40
0.6025596744781182
 40
0.6380458471959411
 40
0.6747953027942886
 40
0.7134079580996794
 40
0.7544511305269946
 40
0.7978230399965964
 40
0.8439953817289229
 40
0.8930756311861639
 40
0.9449654365550486
 40
1.0
 40
1.0
 40
1.0
 40
1.0
 10
5.968298814662908
 20
4.423988827106693
 30
0.0
 10
5.968668282026872
 20
4.424195998926457
 30
0.0
 10
5.969396356057359
 20
4.424604252635795
 30
0.0
 10
5.970547645746794
 20
4.42516076963281
 30
0.0
 10
5.971710200119364
 20
4.425674462284128
 30
0.0
 10
5.972910574767752
 20
4.426124797947576
 30
0.0
 10
5.974129727621519
 20
4.426530466866484
 30
0.0
 10
5.975375522002174
 20
4.426881676462215
 30
0.0
 10
5.976647140849571
 20
4.427179625919883
 30
0.0
 10
5.977938775197223
 20
4.427419471476827
 30
0.0
 10
5.979229616818731
 20
4.427610829126493
 30
0.0
 10
5.980508223770396
 20
4.427745465202747
 30
0.0
 10
5.981765033674005
 20
4.427838522510782
 30
0.0
 10
5.983004008833866
 20
4.427869220618806
 30
0.0
 10
5.98422563794864
 20
4.42786050630104
 30
0.0
 10
5.985424191404494
 20
4.427784789629516
 30
0.0
 10
5.986603628533639
 20
4.427668391586767
 30
0.0
 10
5.987769847781038
 20
4.427490764887316
 30
0.0
 10
5.988941114966024
 20
4.427255473089761
 30
0.0
 10
5.99012609758407
 20
4.426943711466403
 30
0.0
 10
5.991336061633603
 20
4.426565618263641
 30
0.0
 10
5.992565737432236
 20
4.426111017654292
 30
0.0
 10
5.993825287850544
 20
4.425589660179607
 30
0.0
 10
5.995100992449295
 20
4.424990240851453
 30
0.0
 10
5.996412017079133
 20
4.424326325381731
 30
0.0
 10
5.997264037563869
 20
4.423842582578846
 30
0.0
 10
5.997702577215253
 20
4.42359359748525
 30
0.0
  0
LINE
  5
141E
330
1F
100
AcDbEntity
  8
0
100
AcDbLine
 10
5.997702577215253
 20
4.42359359748525
 30
0.0
 11
6.006125749050461
 21
4.418731003887998
 31
0.0
  0
LINE
  5
141F
330
1F
100
AcDbEntity
  8
0
100
AcDbLine
 10
5.977747916197692
 20
4.404585096985037
 30
0.0
 11
6.001167051044685
 21
4.418104675759884
 31
0.0
  0
SPLINE
  5
1420
330
1F
100
AcDbEntity
  8
0
100
AcDbSpline
210
0.0
220
0.0
230
1.0
 70
     8
 71
     3
 72
     9
 73
     5
 74
     0
 42
0.0000000001
 43
0.0000000001
 40
0.0
 40
0.0
 40
0.0
 40
0.0
 40
0.4853973519872845
 40
0.9999999999999998
 40
0.9999999999999998
 40
0.9999999999999998
 40
0.9999999999999998
 10
5.96568070957349
 20
4.416443605187971
 30
0.0
 10
5.965635364892456
 20
4.41560276970469
 30
0.0
 10
5.965541947240208
 20
4.413870507507883
 30
0.0
 10
5.966801009785122
 20
4.412295224439226
 30
0.0
 10
5.967448926704747
 20
4.411484579600728
 30
0.0
  0
SPLINE
  5
1421
330
1F
100
AcDbEntity
  8
0
100
AcDbSpline
210
0.0
220
0.0
230
1.0
 70
     8
 71
     3
 72
    15
 73
    11
 74
     0
 42
0.0000000001
 43
0.0000000001
 40
0.0
 40
0.0
 40
0.0
 40
0.0
 40
0.0843186169585829
 40
0.1792845142139055
 40
0.2865825276465603
 40
0.4051114834342784
 40
0.5355928734189745
 40
0.6781902099934131
 40
0.8329758397604882
 40
1.0
 40
1.0
 40
1.0
 40
1.0
 10
5.967448926704747
 20
4.411484579600728
 30
0.0
 10
5.967627679245797
 20
4.411302503222501
 30
0.0
 10
5.968007756192537
 20
4.410915358885958
 30
0.0
 10
5.968706563657253
 20
4.410328979413527
 30
0.0
 10
5.96953161122315
 20
4.409691308071732
 30
0.0
 10
5.970489923259059
 20
4.409001454197632
 30
0.0
 10
5.971592261800843
 20
4.408267047572305
 30
0.0
 10
5.972827294280762
 20
4.407480491799258
 30
0.0
 10
5.974195150024293
 20
4.4066412133892
 30
0.0
 10
5.97517023198042
 20
4.40607492142206
 30
0.0
 10
5.975676314299683
 20
4.405781007305094
 30
0.0
  0
LINE
  5
1422
330
1F
100
AcDbEntity
  8
0
100
AcDbLine
 10
5.975676314299683
 20
4.405781007305094
 30
0.0
 11
5.977747916197692
 21
4.404585096985037
 31
0.0
  0
LINE
  5
1423
330
1F
100
AcDbEntity
  8
0
100
AcDbLine
 10
5.977747916197692
 20
4.404585096985037
 30
0.0
 11
5.977747916197692
 21
4.405401637796924
 31
0.0
  0
LINE
  5
1424
330
1F
100
AcDbEntity
  8
0
100
AcDbLine
 10
5.975676314299683
 20
4.405781007305094
 30
0.0
 11
5.975676314299683
 21
4.40659754811698
 31
0.0
  0
LINE
  5
1425
330
1F
100
AcDbEntity
  8
0
100
AcDbLine
 10
5.975676314299683
 20
4.40659754811698
 30
0.0
 11
5.977747916197692
 21
4.405401637796924
 31
0.0
  0
LINE
  5
1426
330
1F
100
AcDbEntity
  8
0
100
AcDbLine
 10
6.001167051044685
 20
4.418104675759884
 30
0.0
 11
6.001167051044685
 21
4.418921216571686
 31
0.0
  0
LINE
  5
1427
330
1F
100
AcDbEntity
  8
0
100
AcDbLine
 10
5.977747916197692
 20
4.405401637796924
 30
0.0
 11
6.001167051044685
 21
4.418921216571686
 31
0.0
  0
SPLINE
  5
1428
330
1F
100
AcDbEntity
  8
0
100
AcDbSpline
210
0.0
220
0.0
230
1.0
 70
     8
 71
     3
 72
    15
 73
    11
 74
     0
 42
0.0000000001
 43
0.0000000001
 40
0.0
 40
0.0
 40
0.0
 40
0.0
 40
0.0843186169585829
 40
0.1792845142139055
 40
0.2865825276465603
 40
0.4051114834342784
 40
0.5355928734189745
 40
0.6781902099934131
 40
0.8329758397604882
 40
1.0
 40
1.0
 40
1.0
 40
1.0
 10
5.967448926704747
 20
4.412301120412614
 30
0.0
 10
5.967627679245797
 20
4.412119044034387
 30
0.0
 10
5.968007756192537
 20
4.411731899697844
 30
0.0
 10
5.968706563657253
 20
4.411145520225414
 30
0.0
 10
5.96953161122315
 20
4.410507848883614
 30
0.0
 10
5.970489923259059
 20
4.409817995009518
 30
0.0
 10
5.971592261800843
 20
4.409083588384191
 30
0.0
 10
5.972827294280762
 20
4.408297032611145
 30
0.0
 10
5.974195150024293
 20
4.407457754201086
 30
0.0
 10
5.97517023198042
 20
4.406891462233947
 30
0.0
 10
5.975676314299683
 20
4.40659754811698
 30
0.0
  0
SPLINE
  5
1429
330
1F
100
AcDbEntity
  8
0
100
AcDbSpline
210
0.0
220
0.0
230
1.0
 70
     8
 71
     3
 72
    23
 73
    19
 74
     0
 42
0.0000000001
 43
0.0000000001
 40
0.0
 40
0.0
 40
0.0
 40
0.0
 40
0.0701420572220142
 40
0.1377946922754889
 40
0.2031998303117215
 40
0.26713932600975
 40
0.3299811044164784
 40
0.3915885098483991
 40
0.4530550564334037
 40
0.5140826114793837
 40
0.5747408108196586
 40
0.6345985188588856
 40
0.6938416495593282
 40
0.753473671285045
 40
0.8131500916116923
 40
0.8740960537026218
 40
0.9360153315621021
 40
1.0
 40
1.0
 40
1.0
 40
1.0
 10
5.970937008533017
 20
4.423275556711445
 30
0.0
 10
5.970596760528657
 20
4.423074141688363
 30
0.0
 10
5.969928340312378
 20
4.42267846009269
 30
0.0
 10
5.969041698992413
 20
4.422043504882097
 30
0.0
 10
5.968242681761015
 20
4.421401955263302
 30
0.0
 10
5.967549536880071
 20
4.420742482757695
 30
0.0
 10
5.966960565415483
 20
4.420067446729344
 30
0.0
 10
5.966462277081561
 20
4.419378900399149
 30
0.0
 10
5.966082869035517
 20
4.418673128682879
 30
0.0
 10
5.96579689077301
 20
4.417956991149051
 30
0.0
 10
5.965618761452237
 20
4.417235509453455
 30
0.0
 10
5.965554468526768
 20
4.416514884389602
 30
0.0
 10
5.965596547191005
 20
4.415798013803794
 30
0.0
 10
5.96574108390083
 20
4.41508605424179
 30
0.0
 10
5.96600739171485
 20
4.414379033879516
 30
0.0
 10
5.966370603784934
 20
4.413677163084372
 30
0.0
 10
5.966853018975452
 20
4.41298047433754
 30
0.0
 10
5.967248130261364
 20
4.41253003479855
 30
0.0
 10
5.967448926704747
 20
4.412301120412614
 30
0.0
  0
SPLINE
  5
142A
330
1F
100
AcDbEntity
  8
0
100
AcDbSpline
210
0.0
220
0.0
230
1.0
 70
     8
 71
     3
 72
    23
 73
    19
 74
     0
 42
0.0000000001
 43
0.0000000001
 40
0.0
 40
0.0
 40
0.0
 40
0.0
 40
0.0624012892571642
 40
0.1233121250056955
 40
0.1830857765168646
 40
0.2417318174828725
 40
0.3008503100224227
 40
0.3599389926754441
 40
0.4191280276906106
 40
0.4797642139830002
 40
0.5407054899312067
 40
0.6021453426096031
 40
0.6645243374636123
 40
0.7278534407501005
 40
0.7925098928848273
 40
0.8592732719002516
 40
0.9284795423630015
 40
1.0
 40
1.0
 40
1.0
 40
1.0
 10
5.988613497662743
 20
4.425302812097289
 30
0.0
 10
5.988249844779211
 20
4.425403397091976
 30
0.0
 10
5.987531224853782
 20
4.425602164610818
 30
0.0
 10
5.986424761961924
 20
4.425846608141906
 30
0.0
 10
5.985306940252765
 20
4.426025420960325
 30
0.0
 10
5.984180650750342
 20
4.426154010921287
 30
0.0
 10
5.983043252589371
 20
4.426225848502827
 30
0.0
 10
5.981896056792429
 20
4.426238317173389
 30
0.0
 10
5.980740962972728
 20
4.42619784310035
 30
0.0
 10
5.979584592762208
 20
4.426098220447745
 30
0.0
 10
5.978430742728761
 20
4.425945769753653
 30
0.0
 10
5.977293692896243
 20
4.425733159142925
 30
0.0
 10
5.976177513042053
 20
4.425462915785608
 30
0.0
 10
5.975082791757067
 20
4.42513788194217
 30
0.0
 10
5.974009427867027
 20
4.424757546445242
 30
0.0
 10
5.972958013972242
 20
4.424319057757969
 30
0.0
 10
5.971923061467023
 20
4.423825997249188
 30
0.0
 10
5.971269276576286
 20
4.423461037423592
 30
0.0
 10
5.970937008533017
 20
4.423275556711445
 30
0.0
  0
SPLINE
  5
142B
330
1F
100
AcDbEntity
  8
0
100
AcDbSpline
210
0.0
220
0.0
230
1.0
 70
     8
 71
     3
 72
    15
 73
    11
 74
     0
 42
0.0000000001
 43
0.0000000001
 40
0.0
 40
0.0
 40
0.0
 40
0.0
 40
0.1719006646132704
 40
0.3306279320958825
 40
0.4755488358809206
 40
0.6067461903123652
 40
0.7250238034674924
 40
0.8297423869584646
 40
0.9213228203439827
 40
1.0
 40
1.0
 40
1.0
 40
1.0
 10
5.997785205211187
 20
4.420873514615614
 30
0.0
 10
5.997297162913021
 20
4.421152844152889
 30
0.0
 10
5.996358478841152
 20
4.421690097150079
 30
0.0
 10
5.994979240123488
 20
4.422445618682822
 30
0.0
 10
5.993693641422478
 20
4.423121281238461
 30
0.0
 10
5.992500848354843
 20
4.423716804457633
 30
0.0
 10
5.991398455081881
 20
4.424230074450314
 30
0.0
 10
5.990398162866714
 20
4.424670248888176
 30
0.0
 10
5.98948588813473
 20
4.425025861719749
 30
0.0
 10
5.988889221361912
 20
4.425215280441417
 30
0.0
 10
5.988613497662743
 20
4.425302812097289
 30
0.0
  0
LINE
  5
142C
330
1F
100
AcDbEntity
  8
0
100
AcDbLine
 10
6.001167051044685
 20
4.418921216571686
 30
0.0
 11
5.997785205211187
 21
4.420873514615614
 31
0.0
  0
LINE
  5
142D
330
1F
100
AcDbEntity
  8
0
100
AcDbLine
 10
5.967448926704747
 20
4.411484579600728
 30
0.0
 11
5.967448926704747
 21
4.412301120412614
 31
0.0
  0
LINE
  5
142E
330
1F
100
AcDbEntity
  8
0
100
AcDbLine
 10
5.968298814662908
 20
4.423988827106693
 30
0.0
 11
5.968298814662908
 21
4.42480536791858
 31
0.0
  0
LINE
  5
142F
330
1F
100
AcDbEntity
  8
0
100
AcDbLine
 10
5.997702577215253
 20
4.42359359748525
 30
0.0
 11
5.997702577215253
 21
4.424410138297137
 31
0.0
  0
LINE
  5
1430
330
1F
100
AcDbEntity
  8
0
100
AcDbLine
 10
5.945215075549487
 20
4.420693523387573
 30
0.0
 11
5.962160734965106
 21
4.430476044341396
 31
0.0
  0
SPLINE
  5
1431
330
1F
100
AcDbEntity
  8
0
100
AcDbSpline
210
0.0
220
0.0
230
1.0
 70
     8
 71
     3
 72
    15
 73
    11
 74
     0
 42
0.0000000001
 43
0.0000000001
 40
0.0
 40
0.0
 40
0.0
 40
0.0
 40
0.1910785917157658
 40
0.3626045563099711
 40
0.5160987502785801
 40
0.6500380260398885
 40
0.7659767209868363
 40
0.8623740257994375
 40
0.9408420582211959
 40
1.0
 40
1.0
 40
1.0
 40
1.0
 10
5.962160734965106
 20
4.430476044341396
 30
0.0
 10
5.962410979042438
 20
4.430620052860852
 30
0.0
 10
5.962885860303678
 20
4.430893333843467
 30
0.0
 10
5.963555724331822
 20
4.431285796843436
 30
0.0
 10
5.964141723003844
 20
4.431640214316963
 30
0.0
 10
5.964660311649062
 20
4.431949756945066
 30
0.0
 10
5.965093123409097
 20
4.432222233545981
 30
0.0
 10
5.965457007829972
 20
4.432450746942272
 30
0.0
 10
5.965741985716576
 20
4.432638981296978
 30
0.0
 10
5.965895594635245
 20
4.432756165230095
 30
0.0
 10
5.965961622777975
 20
4.432806536247142
 30
0.0
  0
SPLINE
  5
1432
330
1F
100
AcDbEntity
  8
0
100
AcDbSpline
210
0.0
220
0.0
230
1.0
 70
     8
 71
     3
 72
     9
 73
     5
 74
     0
 42
0.0000000001
 43
0.0000000001
 40
0.0
 40
0.0
 40
0.0
 40
0.0
 40
0.5486600049317456
 40
1.0
 40
1.0
 40
1.0
 40
1.0
 10
5.965961622777975
 20
4.432806536247142
 30
0.0
 10
5.966710798829804
 20
4.433438692758119
 30
0.0
 10
5.968076263862979
 20
4.43459087535809
 30
0.0
 10
5.967795831791875
 20
4.435966294056957
 30
0.0
 10
5.967669261582287
 20
4.436587075525718
 30
0.0
  0
LINE
  5
1433
330
1F
100
AcDbEntity
  8
0
100
AcDbLine
 10
5.928972772349158
 20
4.430070005441091
 30
0.0
 11
5.946060079757799
 21
4.439934298040732
 31
0.0
  0
SPLINE
  5
1434
330
1F
100
AcDbEntity
  8
0
100
AcDbSpline
210
0.0
220
0.0
230
1.0
 70
     8
 71
     3
 72
    31
 73
    27
 74
     0
 42
0.0000000001
 43
0.0000000001
 40
0.0
 40
0.0
 40
0.0
 40
0.0
 40
0.0548535446666281
 40
0.1070500275152893
 40
0.1569655040429745
 40
0.2039755780042505
 40
0.2484266377219329
 40
0.2904729182225025
 40
0.3300742042959813
 40
0.3674680643807463
 40
0.4038660487602967
 40
0.4398777827759542
 40
0.4763208478512883
 40
0.5128151439109444
 40
0.5500329604948599
 40
0.5881778153971897
 40
0.6272030520705583
 40
0.6675338875292728
 40
0.7081835266754707
 40
0.74863770688314
 40
0.7886698330486153
 40
0.8294751652475973
 40
0.8703816569671229
 40
0.9122214134524369
 40
0.9555502139698958
 40
1.0
 40
1.0
 40
1.0
 40
1.0
 10
5.946060079757799
 20
4.439934298040732
 30
0.0
 10
5.946382908759215
 20
4.440118220383066
 30
0.0
 10
5.947012929183486
 20
4.440477156016619
 30
0.0
 10
5.947966554155087
 20
4.440985499555804
 30
0.0
 10
5.948893315605189
 20
4.441455186445633
 30
0.0
 10
5.949800955326992
 20
4.441880483585634
 30
0.0
 10
5.950670613612803
 20
4.442273346759865
 30
0.0
 10
5.951529942247066
 20
4.442614535133063
 30
0.0
 10
5.952354016614556
 20
4.442925540356174
 30
0.0
 10
5.953171957274399
 20
4.443191002627386
 30
0.0
 10
5.953990965157949
 20
4.443417895094384
 30
0.0
 10
5.954829197276488
 20
4.443608951795081
 30
0.0
 10
5.955696022442918
 20
4.443752691488498
 30
0.0
 10
5.956587146669878
 20
4.443863401439422
 30
0.0
 10
5.957504739376833
 20
4.443934068104827
 30
0.0
 10
5.958449445533798
 20
4.443968978022773
 30
0.0
 10
5.959421734186062
 20
4.443960231877376
 30
0.0
 10
5.960411450117423
 20
4.443916333770989
 30
0.0
 10
5.961407027193015
 20
4.443835601892555
 30
0.0
 10
5.96238023342952
 20
4.443694384532044
 30
0.0
 10
5.963327756025336
 20
4.443503353778208
 30
0.0
 10
5.964253087919136
 20
4.443272353255778
 30
0.0
 10
5.965142573309144
 20
4.442980566901908
 30
0.0
 10
5.966010240912936
 20
4.442646123844692
 30
0.0
 10
5.966846419157498
 20
4.442257570026665
 30
0.0
 10
5.967371763859858
 20
4.441968328072515
 30
0.0
 10
5.967637790695448
 20
4.441821860198309
 30
0.0
  0
SPLINE
  5
1435
330
1F
100
AcDbEntity
  8
0
100
AcDbSpline
210
0.0
220
0.0
230
1.0
 70
     8
 71
     3
 72
    10
 73
     6
 74
     0
 42
0.0000000001
 43
0.0000000001
 40
0.0
 40
0.0
 40
0.0
 40
0.0
 40
0.3750744713877421
 40
0.7494380922947285
 40
1.0
 40
1.0
 40
1.0
 40
1.0
 10
5.967637790695448
 20
4.441821860198309
 30
0.0
 10
5.968671250826567
 20
4.441133147847459
 30
0.0
 10
5.970736212449413
 20
4.439757028410564
 30
0.0
 10
5.972156075120761
 20
4.437373522777971
 30
0.0
 10
5.97196216201338
 20
4.435858538142266
 30
0.0
 10
5.971884413168297
 20
4.435251109859876
 30
0.0
  0
LINE
  5
1436
330
1F
100
AcDbEntity
  8
0
100
AcDbLine
 10
5.962160734965106
 20
4.430476044341396
 30
0.0
 11
5.962160734965106
 21
4.431292585153279
 31
0.0
  0
LINE
  5
1437
330
1F
100
AcDbEntity
  8
0
100
AcDbLine
 10
5.946060079757799
 20
4.439934298040732
 30
0.0
 11
5.946060079757799
 21
4.440750838852615
 31
0.0
  0
LINE
  5
1438
330
1F
100
AcDbEntity
  8
0
100
AcDbLine
 10
5.965961622777975
 20
4.432806536247142
 30
0.0
 11
5.965961622777975
 21
4.433623077059028
 31
0.0
  0
LINE
  5
1439
330
1F
100
AcDbEntity
  8
0
100
AcDbLine
 10
5.967637790695448
 20
4.441821860198309
 30
0.0
 11
5.967637790695448
 21
4.442638401010196
 31
0.0
  0
LINE
  5
143A
330
1F
100
AcDbEntity
  8
0
100
AcDbLine
 10
5.918396388869872
 20
4.436175621661991
 30
0.0
 11
5.947151949704043
 21
4.452775853585688
 31
0.0
  0
LINE
  5
143B
330
1F
100
AcDbEntity
  8
0
100
AcDbLine
 10
5.947151949704043
 20
4.452775853585688
 30
0.0
 11
5.949088823858598
 21
4.451657719936406
 31
0.0
  0
LINE
  5
143C
330
1F
100
AcDbEntity
  8
0
100
AcDbLine
 10
5.947151949704043
 20
4.452775853585688
 30
0.0
 11
5.947151949704043
 21
4.453592394397574
 31
0.0
  0
LINE
  5
143D
330
1F
100
AcDbEntity
  8
0
100
AcDbLine
 10
5.899887717781119
 20
4.446860450048557
 30
0.0
 11
5.902202319917076
 21
4.448196641420011
 31
0.0
  0
LINE
  5
143E
330
1F
100
AcDbEntity
  8
0
100
AcDbLine
 10
5.902202319917076
 20
4.448196641420011
 30
0.0
 11
5.90862369560093
 21
4.444489660143041
 31
0.0
  0
LINE
  5
143F
330
1F
100
AcDbEntity
  8
0
100
AcDbLine
 10
5.90862369560093
 20
4.444489660143041
 30
0.0
 11
5.935064654299146
 21
4.459753700695284
 31
0.0
  0
LINE
  5
1440
330
1F
100
AcDbEntity
  8
0
100
AcDbLine
 10
5.935064654299146
 20
4.459753700695284
 30
0.0
 11
5.937001528453702
 21
4.458635567045998
 31
0.0
  0
LINE
  5
1441
330
1F
100
AcDbEntity
  8
0
100
AcDbLine
 10
5.911267791470752
 20
4.442963256087818
 30
0.0
 11
5.916981945439335
 21
4.439664545216785
 31
0.0
  0
LINE
  5
1442
330
1F
100
AcDbEntity
  8
0
100
AcDbLine
 10
5.911267791470752
 20
4.442963256087818
 30
0.0
 11
5.911267791470752
 21
4.443779796899704
 31
0.0
  0
LINE
  5
1443
330
1F
100
AcDbEntity
  8
0
100
AcDbLine
 10
5.935064654299146
 20
4.459753700695284
 30
0.0
 11
5.935064654299146
 21
4.460570241507166
 31
0.0
  0
LINE
  5
1444
330
1F
100
AcDbEntity
  8
0
100
AcDbLine
 10
5.90862369560093
 20
4.444489660143041
 30
0.0
 11
5.90862369560093
 21
4.445306200954924
 31
0.0
  0
LINE
  5
1445
330
1F
100
AcDbEntity
  8
0
100
AcDbLine
 10
5.902202319917076
 20
4.448196641420011
 30
0.0
 11
5.902202319917076
 21
4.449013182231897
 31
0.0
  0
ARC
  5
1446
330
1F
100
AcDbEntity
  8
0
100
AcDbCircle
 10
6.361652496053984
 20
4.309732331377134
 30
0.0
 40
0.2785474689255353
100
AcDbArc
 50
58.8996904956642
 51
121.1003095043446
  0
ARC
  5
1447
330
1F
100
AcDbEntity
  8
0
100
AcDbCircle
 10
5.507344420915298
 20
4.498593817031942
 30
0.0
 40
0.0100587855698748
100
AcDbArc
 50
185.6947992511774
 51
245.6253417064286
  0
LINE
  5
1448
330
1F
100
AcDbEntity
  8
0
100
AcDbLine
 10
7.944294734394745
 20
5.026138613704873
 30
0.0
 11
7.983505033605318
 21
5.478507132409191
 31
0.0
  0
SPLINE
  5
1449
330
1F
100
AcDbEntity
  8
0
100
AcDbSpline
210
0.0
220
0.0
230
1.0
 70
     8
 71
     3
 72
     8
 73
     4
 74
     0
 42
0.0000000001
 43
0.0000000001
 40
0.0
 40
0.0
 40
0.0
 40
0.0
 40
1.0
 40
1.0
 40
1.0
 40
1.0
 10
7.93301185361026
 20
5.035901153215238
 30
0.0
 10
7.937135910903457
 20
5.033476405752985
 30
0.0
 10
7.940949522420062
 20
5.030148575218071
 30
0.0
 10
7.944294734394745
 20
5.026138613704873
 30
0.0
  0
SPLINE
  5
144A
330
1F
100
AcDbEntity
  8
0
100
AcDbSpline
210
0.0
220
0.0
230
1.0
 70
     8
 71
     3
 72
    14
 73
    10
 74
     0
 42
0.0000000001
 43
0.0000000001
 40
0.0
 40
0.0
 40
0.0
 40
0.0
 40
0.2500000000000001
 40
0.2500000000000001
 40
0.5000000000000001
 40
0.5000000000000001
 40
0.7500000000000001
 40
0.7500000000000001
 40
1.0
 40
1.0
 40
1.0
 40
1.0
 10
7.056716774108274
 20
5.54177553477276
 30
0.0
 10
7.129191352301958
 20
5.500721308044003
 30
0.0
 10
7.201722857243694
 20
5.459141583198896
 30
0.0
 10
7.34713585655227
 20
5.375561936498833
 30
0.0
 10
7.420000495209357
 20
5.333550783428062
 30
0.0
 10
7.566057421617536
 20
5.249233912532403
 30
0.0
 10
7.639249855371275
 20
5.20692810827327
 30
0.0
 10
7.785938906755902
 20
5.121880833659496
 30
0.0
 10
7.859451645407872
 20
5.079151019907307
 30
0.0
 10
7.93301185361026
 20
5.035901153215238
 30
0.0
  0
SPLINE
  5
144B
330
1F
100
AcDbEntity
  8
0
100
AcDbSpline
210
0.0
220
0.0
230
1.0
 70
     8
 71
     3
 72
     8
 73
     4
 74
     0
 42
0.0000000001
 43
0.0000000001
 40
0.0
 40
0.0
 40
0.0
 40
0.0
 40
1.0
 40
1.0
 40
1.0
 40
1.0
 10
7.044264506853387
 20
5.545715004570055
 30
0.0
 10
7.048500845261507
 20
5.545377123239347
 30
0.0
 10
7.052660285351635
 20
5.544073388907111
 30
0.0
 10
7.056716774108274
 20
5.54177553477276
 30
0.0
  0
LINE
  5
144C
330
1F
100
AcDbEntity
  8
0
100
AcDbLine
 10
7.177254604955592
 20
5.852518311226177
 30
0.0
 11
7.044264506853387
 21
5.545715004570055
 31
0.0
  0
SPLINE
  5
144D
330
1F
100
AcDbEntity
  8
0
100
AcDbSpline
210
0.0
220
0.0
230
1.0
 70
     8
 71
     3
 72
    11
 73
     7
 74
     0
 42
0.0000000001
 43
0.0000000001
 40
0.0
 40
0.0
 40
0.0
 40
0.0
 40
0.012265319565732
 40
0.434259700827068
 40
0.7171298504135323
 40
1.0
 40
1.0
 40
1.0
 40
1.0
 10
7.218632644034187
 20
5.976000293945819
 30
0.0
 10
7.218728404834472
 20
5.976503451177407
 30
0.0
 10
7.222118863294262
 20
5.994317981625457
 30
0.0
 10
7.232826427427859
 20
6.019362145769083
 30
0.0
 10
7.2490893491983
 20
6.051780818065317
 30
0.0
 10
7.260871061396279
 20
6.067475256833642
 30
0.0
 10
7.266761917495266
 20
6.075322476217809
 30
0.0
  0
SPLINE
  5
144E
330
1F
100
AcDbEntity
  8
0
100
AcDbSpline
210
0.0
220
0.0
230
1.0
 70
     8
 71
     3
 72
    58
 73
    54
 74
     0
 42
0.0000000001
 43
0.0000000001
 40
0.0
 40
0.0
 40
0.0
 40
0.0
 40
0.0625000000000001
 40
0.0625000000000001
 40
0.0937500000000001
 40
0.0937500000000001
 40
0.1250000000000001
 40
0.1250000000000001
 40
0.1875
 40
0.1875
 40
0.21875
 40
0.21875
 40
0.25
 40
0.25
 40
0.3125
 40
0.3125
 40
0.3749999999999999
 40
0.3749999999999999
 40
0.4374999999999999
 40
0.4374999999999999
 40
0.4687499999999999
 40
0.4687499999999999
 40
0.4999999999999998
 40
0.4999999999999998
 40
0.5624999999999997
 40
0.5624999999999997
 40
0.5937499999999996
 40
0.5937499999999996
 40
0.6249999999999996
 40
0.6249999999999996
 40
0.6562499999999995
 40
0.6562499999999995
 40
0.6874999999999995
 40
0.6874999999999995
 40
0.7499999999999995
 40
0.7499999999999995
 40
0.7812499999999995
 40
0.7812499999999995
 40
0.8124999999999996
 40
0.8124999999999996
 40
0.8749999999999996
 40
0.8749999999999996
 40
0.9062499999999996
 40
0.9062499999999996
 40
0.9374999999999998
 40
0.9374999999999998
 40
0.9687499999999998
 40
0.9687499999999998
 40
0.984375
 40
0.984375
 40
0.9921875
 40
0.9921875
 40
1.0
 40
1.0
 40
1.0
 40
1.0
 10
7.925696515604421
 20
5.694927629906477
 30
0.0
 10
7.9190260382911
 20
5.670386934738132
 30
0.0
 10
7.910012437493655
 20
5.64743395967994
 30
0.0
 10
7.89386134910228
 20
5.615237387215184
 30
0.0
 10
7.888030844039221
 20
5.604881770452479
 30
0.0
 10
7.875529965992662
 20
5.584944479281169
 30
0.0
 10
7.868834612580656
 20
5.575338081542195
 30
0.0
 10
7.847881772508351
 20
5.548210396352523
 30
0.0
 10
7.832683595156417
 20
5.532205748569246
 30
0.0
 10
7.808124214146637
 20
5.511379663768849
 30
0.0
 10
7.799640547785614
 20
5.504970980835139
 30
0.0
 10
7.782056521632689
 20
5.493267036912467
 30
0.0
 10
7.772970468204249
 20
5.487991226013672
 30
0.0
 10
7.745329696347312
 20
5.474181957767434
 30
0.0
 10
7.726221342733467
 20
5.467527952111815
 30
0.0
 10
7.686551063591331
 20
5.459392432743779
 30
0.0
 10
7.665796195211591
 20
5.457961697367686
 30
0.0
 10
7.624348039732517
 20
5.460583397308468
 30
0.0
 10
7.603498318301831
 20
5.464555540556769
 30
0.0
 10
7.571974495676435
 20
5.474567078678568
 30
0.0
 10
7.561367931048778
 20
5.478612644972244
 30
0.0
 10
7.54044742252578
 20
5.487943569090937
 30
0.0
 10
7.530115437203505
 20
5.493226281074964
 30
0.0
 10
7.499494053207655
 20
5.510883156509315
 30
0.0
 10
7.47957310990855
 20
5.52504911644057
 30
0.0
 10
7.450478219403613
 20
5.550014716573322
 30
0.0
 10
7.441003196820439
 20
5.55888824428365
 30
0.0
 10
7.42268976674871
 20
5.57752536209362
 30
0.0
 10
7.413819380834212
 20
5.58731620016141
 30
0.0
 10
7.396653169138588
 20
5.607830916829584
 30
0.0
 10
7.388357570450956
 20
5.618554919742035
 30
0.0
 10
7.372358499850186
 20
5.640949075841692
 30
0.0
 10
7.364618064535605
 20
5.65268386360201
 30
0.0
 10
7.342694800399122
 20
5.688742656900259
 30
0.0
 10
7.329750644620816
 20
5.713941302337694
 30
0.0
 10
7.312780783344457
 20
5.753415750243608
 30
0.0
 10
7.307533969308117
 20
5.766854895951585
 30
0.0
 10
7.29787300836886
 20
5.794302965545071
 30
0.0
 10
7.293492277911568
 20
5.808228216553487
 30
0.0
 10
7.281801373009727
 20
5.850094638718587
 30
0.0
 10
7.275863889496228
 20
5.878325803970433
 30
0.0
 10
7.269569778754402
 20
5.921114146699387
 30
0.0
 10
7.267904425361237
 20
5.93550727477962
 30
0.0
 10
7.265457117293784
 20
5.964148275209264
 30
0.0
 10
7.264674599387603
 20
5.978353343394665
 30
0.0
 10
7.26392556779065
 20
6.006517988573271
 30
0.0
 10
7.263958947102238
 20
6.020477653682345
 30
0.0
 10
7.264583901957713
 20
6.041209493598
 30
0.0
 10
7.264888172768067
 20
6.048085352897448
 30
0.0
 10
7.265485504632813
 20
6.058342793263957
 30
0.0
 10
7.26570812746722
 20
6.061752535203215
 30
0.0
 10
7.266200054894419
 20
6.068552425978328
 30
0.0
 10
7.266473057053246
 20
6.071985321381632
 30
0.0
 10
7.266761917103458
 20
6.075322476689105
 30
0.0
  0
SPLINE
  5
144F
330
1F
100
AcDbEntity
  8
0
100
AcDbSpline
210
0.0
220
0.0
230
1.0
 70
     8
 71
     3
 72
    10
 73
     6
 74
     0
 42
0.0000000001
 43
0.0000000001
 40
0.0
 40
0.0
 40
0.0
 40
0.0
 40
0.5
 40
0.5
 40
1.0
 40
1.0
 40
1.0
 40
1.0
 10
7.925696515212621
 20
5.694927629887548
 30
0.0
 10
7.940915590990748
 20
5.658563033768416
 30
0.0
 10
7.953527080867267
 20
5.621786374228591
 30
0.0
 10
7.972942673306498
 20
5.549135901759679
 30
0.0
 10
7.979746053785476
 20
5.51326479076841
 30
0.0
 10
7.983485280559321
 20
5.478690030186442
 30
0.0
  0
LWPOLYLINE
  5
1450
330
1F
100
AcDbEntity
  8
0
100
AcDbPolyline
 90
       46
 70
   128
 43
0.0
 10
8.890690531153282
 20
5.752003227157157
 10
8.893195555559678
 20
5.753475812581136
 10
8.912221782805538
 20
5.766541655601269
 10
8.929695633533164
 20
5.782026337697907
 10
8.945526007175892
 20
5.799849128908565
 10
8.959630371495563
 20
5.819917109452457
 10
8.971935192867462
 20
5.842125654171223
 10
8.982376319650519
 20
5.86635897799606
 10
8.990899316644302
 20
5.892490739597434
 10
8.997459748888942
 20
5.920384700070307
 10
9.002023413328437
 20
5.949895433220682
 10
9.004566517129525
 20
5.980869083750427
 10
9.005075801726547
 20
6.013144169387604
 10
9.003548611945433
 20
6.046552422780219
 10
8.999992909846554
 20
6.080919668764305
 10
8.994427233214224
 20
6.116066732432575
 10
8.986880598909316
 20
6.151810373269402
 10
8.977392351588726
 20
6.187964240482063
 10
8.96601195858058
 20
6.224339844547447
 10
8.952798751984495
 20
6.260747539909168
 10
8.937821619341477
 20
6.296997513701679
 10
8.921158644486169
 20
6.332900775346661
 10
8.902896700453922
 20
6.368270141862403
 10
8.883130996564965
 20
6.402921213749174
 10
8.861964582047171
 20
6.436673336362847
 10
8.839507808785008
 20
6.469350541764562
 10
8.815877755995977
 20
6.500782466136069
 10
8.791197619833752
 20
6.530805237977805
 10
8.76559607110051
 20
6.559262332459013
 10
8.739206584416891
 20
6.586005387465725
 10
8.712166742347193
 20
6.610894977092122
 10
8.68461751810755
 20
6.633801338542674
 10
8.656702540596867
 20
6.654605048655238
 10
8.628567345582247
 20
6.673197646518154
 10
8.600358616942891
 20
6.689482198935213
 10
8.572223421928271
 20
6.703373805790434
 10
8.544308444417588
 20
6.714800042677993
 10
8.516759220177945
 20
6.723701338489515
 10
8.489719378108247
 20
6.730031285990254
 10
8.463329891424628
 20
6.733756883764939
 10
8.437728342691386
 20
6.734858708271858
 10
8.413048206529168
 20
6.733331015108213
 10
8.38941815374013
 20
6.729181768958785
 10
8.366961380477967
 20
6.722432602071748
 10
8.345794965960173
 20
6.713118701478144
 10
8.338235431371863
 20
6.708987220087813
  0
SPLINE
  5
1451
330
1F
100
AcDbEntity
  8
0
100
AcDbSpline
210
0.0
220
0.0
230
1.0
 70
     8
 71
     3
 72
    10
 73
     6
 74
     0
 42
0.0000000001
 43
0.0000000001
 40
0.0
 40
0.0
 40
0.0
 40
0.0
 40
0.086086571028219
 40
0.4038754367846649
 40
1.0
 40
1.0
 40
1.0
 40
1.0
 10
7.98539653587111
 20
5.38094215208331
 30
0.0
 10
7.985644924904782
 20
5.383561326335652
 30
0.0
 10
7.986810242889532
 20
5.395849191127378
 30
0.0
 10
7.987384753015128
 20
5.427833922555642
 30
0.0
 10
7.985024778153274
 20
5.458613356578261
 30
0.0
 10
7.983485421208598
 20
5.478690068530493
 30
0.0
  0
SPLINE
  5
1452
330
1F
100
AcDbEntity
  8
0
100
AcDbSpline
210
0.0
220
0.0
230
1.0
 70
     8
 71
     3
 72
     9
 73
     5
 74
     0
 42
0.0000000001
 43
0.0000000001
 40
0.0
 40
0.0
 40
0.0
 40
0.0
 40
0.5
 40
1.0
 40
1.0
 40
1.0
 40
1.0
 10
7.906268020392722
 20
5.738193718321614
 30
0.0
 10
7.909704352946427
 20
5.731034323065717
 30
0.0
 10
7.916382609176807
 20
5.71665564183926
 30
0.0
 10
7.922659488517069
 20
5.70218421988833
 30
0.0
 10
7.925694633241128
 20
5.694932126653387
 30
0.0
  0
SPLINE
  5
1453
330
1F
100
AcDbEntity
  8
0
100
AcDbSpline
210
0.0
220
0.0
230
1.0
 70
     8
 71
     3
 72
    10
 73
     6
 74
     0
 42
0.0000000001
 43
0.0000000001
 40
0.0
 40
0.0
 40
0.0
 40
0.0
 40
0.5
 40
0.5
 40
1.0
 40
1.0
 40
1.0
 40
1.0
 10
7.680770694535645
 20
6.034325830275275
 30
0.0
 10
7.725178817279754
 20
5.997323185661446
 30
0.0
 10
7.767839706772498
 20
5.952286221859491
 30
0.0
 10
7.844555895945873
 20
5.851539452315101
 30
0.0
 10
7.878592275033739
 20
5.795854493852228
 30
0.0
 10
7.906268020393575
 20
5.738193718319848
 30
0.0
  0
SPLINE
  5
1454
330
1F
100
AcDbEntity
  8
0
100
AcDbSpline
210
0.0
220
0.0
230
1.0
 70
     8
 71
     3
 72
    10
 73
     6
 74
     0
 42
0.0000000001
 43
0.0000000001
 40
0.0
 40
0.0
 40
0.0
 40
0.0
 40
0.5
 40
0.5
 40
1.0
 40
1.0
 40
1.0
 40
1.0
 10
7.596334030274164
 20
6.09375965765265
 30
0.0
 10
7.610519160755551
 20
6.085566361444652
 30
0.0
 10
7.624704050494543
 20
6.076480182038093
 30
0.0
 10
7.652905341110383
 20
6.056629674525257
 30
0.0
 10
7.666921675853714
 20
6.045865392969481
 30
0.0
 10
7.680770694535645
 20
6.034325830275275
 30
0.0
  0
SPLINE
  5
1455
330
1F
100
AcDbEntity
  8
0
100
AcDbSpline
210
0.0
220
0.0
230
1.0
 70
     8
 71
     3
 72
    10
 73
     6
 74
     0
 42
0.0000000001
 43
0.0000000001
 40
0.0
 40
0.0
 40
0.0
 40
0.0
 40
0.5
 40
0.5
 40
1.0
 40
1.0
 40
1.0
 40
1.0
 10
7.511687738172241
 20
6.131935343306967
 30
0.0
 10
7.525570866983464
 20
6.127474208604951
 30
0.0
 10
7.539622137645636
 20
6.122039832590136
 30
0.0
 10
7.567893718540879
 20
6.109289280163007
 30
0.0
 10
7.582113961820198
 20
6.101973133947002
 30
0.0
 10
7.596334030274164
 20
6.09375965765265
 30
0.0
  0
SPLINE
  5
1456
330
1F
100
AcDbEntity
  8
0
100
AcDbSpline
210
0.0
220
0.0
230
1.0
 70
     8
 71
     3
 72
    10
 73
     6
 74
     0
 42
0.0000000001
 43
0.0000000001
 40
0.0
 40
0.0
 40
0.0
 40
0.0
 40
0.5
 40
0.5
 40
1.0
 40
1.0
 40
1.0
 40
1.0
 10
7.286190412293194
 20
6.096156901983789
 30
0.0
 10
7.313866157653336
 20
6.121863942086054
 30
0.0
 10
7.347902536743589
 20
6.138251333732267
 30
0.0
 10
7.424618725924545
 20
6.150423476627747
 30
0.0
 10
7.467279615422484
 20
6.14620522584887
 30
0.0
 10
7.511687738172241
 20
6.131935343306967
 30
0.0
  0
SPLINE
  5
1457
330
1F
100
AcDbEntity
  8
0
100
AcDbSpline
210
0.0
220
0.0
230
1.0
 70
     8
 71
     3
 72
    11
 73
     7
 74
     0
 42
0.0000000001
 43
0.0000000001
 40
0.0
 40
0.0
 40
0.0
 40
0.0
 40
0.250058537984548
 40
0.4999999999999981
 40
0.7499414620154478
 40
1.0
 40
1.0
 40
1.0
 40
1.0
 10
7.286190412312798
 20
6.096156902001993
 30
0.0
 10
7.284485735074284
 20
6.094539825499374
 30
0.0
 10
7.281077178717346
 20
6.091306429600056
 30
0.0
 10
7.27615428859228
 20
6.08618568943967
 30
0.0
 10
7.27136027758852
 20
6.080886370951734
 30
0.0
 10
7.268294943433147
 20
6.077177397269775
 30
0.0
 10
7.26676191747849
 20
6.075322476197101
 30
0.0
  0
LWPOLYLINE
  5
1458
330
1F
100
AcDbEntity
  8
0
100
AcDbPolyline
 90
       31
 70
   128
 43
0.0
 10
7.843388181413878
 20
5.570359085557949
 10
7.83939218084496
 20
5.589272953946959
 10
7.831566804761052
 20
5.618878869815127
 10
7.821804770749736
 20
5.648680663130573
 10
7.810186413281513
 20
5.678433086715973
 10
7.796807343024653
 20
5.707891299671118
 10
7.781777660038606
 20
5.736812882236247
 10
7.765221047730243
 20
5.764959830731076
 10
7.74727375502902
 20
5.792100516152764
 10
7.728083475156907
 20
5.818011590314846
 10
7.707808130220172
 20
5.842479823841074
 10
7.686614571624787
 20
5.865303860888776
 10
7.664677207010171
 20
5.886295876161593
 10
7.642176565000653
 20
5.905283120575692
 10
7.619297809585617
 20
5.922109342859592
 10
7.59622921635394
 20
5.936636075389007
 10
7.573160623122262
 20
5.948743773675086
 10
7.550281867707226
 20
5.958332800129003
 10
7.527781225697715
 20
5.96532424400716
 10
7.5058438610831
 20
5.969660570789461
 10
7.484650302487708
 20
5.971306095646731
 10
7.464374957550973
 20
5.970247277101048
 10
7.445184677678867
 20
5.966492828462268
 10
7.427237384977637
 20
5.96007364612382
 10
7.41068077266928
 20
5.951042555307751
 10
7.395651089683227
 20
5.939473875351399
 10
7.382272019426373
 20
5.925462808113081
 10
7.370653661958151
 20
5.909124654529723
 10
7.360891627946834
 20
5.89059386577367
 10
7.353066251862919
 20
5.870022936816877
 10
7.347241930884656
 20
5.847581151507746
  0
ARC
  5
1459
330
1F
100
AcDbEntity
  8
0
100
AcDbCircle
 10
7.963073344968691
 20
6.138839304883997
 30
0.0
 40
0.6812339117226078
100
AcDbArc
 50
192.9606329123924
 51
205.3118603243858
  0
SPLINE
  5
145A
330
1F
100
AcDbEntity
  8
0
100
AcDbSpline
210
0.0
220
0.0
230
1.0
 70
     8
 71
     3
 72
    22
 73
    18
 74
     0
 42
0.0000000001
 43
0.0000000001
 40
0.0
 40
0.0
 40
0.0
 40
0.0
 40
0.0312499999999998
 40
0.0312499999999998
 40
0.0624999999999996
 40
0.0624999999999996
 40
0.0937499999999993
 40
0.0937499999999993
 40
0.1249999999999991
 40
0.1249999999999991
 40
0.1874999999999994
 40
0.1874999999999994
 40
0.2499999999999996
 40
0.2499999999999996
 40
0.5
 40
0.5
 40
1.0
 40
1.0
 40
1.0
 40
1.0
 10
7.266761917103643
 20
6.075322476689333
 30
0.0
 10
7.267201138307925
 20
6.075864839343601
 30
0.0
 10
7.267696071231945
 20
6.076328590144299
 30
0.0
 10
7.268898905353701
 20
6.076915419423407
 30
0.0
 10
7.269611476488478
 20
6.077021402782563
 30
0.0
 10
7.271206987041487
 20
6.076495565762165
 30
0.0
 10
7.272054936163584
 20
6.075843913344211
 30
0.0
 10
7.273535567180104
 20
6.074220000123091
 30
0.0
 10
7.274194442394119
 20
6.073261359635061
 30
0.0
 10
7.275971222985042
 20
6.070320784779855
 30
0.0
 10
7.276928102356265
 20
6.068239506260404
 30
0.0
 10
7.27865865343508
 20
6.064117896667269
 30
0.0
 10
7.279432104952547
 20
6.062042220638126
 30
0.0
 10
7.283075492737985
 20
6.051627583968009
 30
0.0
 10
7.285300628290755
 20
6.043391496872327
 30
0.0
 10
7.291741259351994
 20
6.018738232540876
 30
0.0
 10
7.295514793896799
 20
6.00238007431491
 30
0.0
 10
7.299194279061133
 20
5.986051123631018
 30
0.0
  0
SPLINE
  5
145B
330
1F
100
AcDbEntity
  8
0
100
AcDbSpline
210
0.0
220
0.0
230
1.0
 70
     8
 71
     3
 72
    17
 73
    13
 74
     0
 42
0.0000000001
 43
0.0000000001
 40
0.0
 40
0.0
 40
0.0
 40
0.0
 40
0.3848280393826724
 40
0.6007662501003884
 40
0.7223362963668598
 40
0.7844557460738
 40
0.8294292232531883
 40
0.860372188807436
 40
0.8914893620441638
 40
0.9199142832568332
 40
0.9709368152460474
 40
1.0
 40
1.0
 40
1.0
 40
1.0
 10
7.904181752747625
 20
5.676113944362022
 30
0.0
 10
7.905931259194382
 20
5.680898103022201
 30
0.0
 10
7.908662464615979
 20
5.688366792317221
 30
0.0
 10
7.91288165132623
 20
5.696381638022003
 30
0.0
 10
7.915854581880779
 20
5.700067197633931
 30
0.0
 10
7.91804396363905
 20
5.701457351283501
 30
0.0
 10
7.919675467532222
 20
5.701713785601167
 30
0.0
 10
7.921137133532319
 20
5.701279409878246
 30
0.0
 10
7.922405841191704
 20
5.700344480080438
 30
0.0
 10
7.923775599028409
 20
5.69873080095262
 30
0.0
 10
7.924851744738724
 20
5.696859139741867
 30
0.0
 10
7.925470196495169
 20
5.695445234313144
 30
0.0
 10
7.925694633241064
 20
5.694932126653366
 30
0.0
  0
LINE
  5
145C
330
1F
100
AcDbEntity
  8
0
100
AcDbLine
 10
7.778401329978912
 20
5.516488711293884
 30
0.0
 11
7.779932156500322
 21
5.517328811508086
 31
0.0
  0
LINE
  5
145D
330
1F
100
AcDbEntity
  8
0
100
AcDbLine
 10
7.972241764060434
 20
5.224244382465908
 30
0.0
 11
7.942711539135352
 21
4.869061380373288
 31
0.0
  0
SPLINE
  5
145E
330
1F
100
AcDbEntity
  8
0
100
AcDbSpline
210
0.0
220
0.0
230
1.0
 70
     8
 71
     3
 72
     8
 73
     4
 74
     0
 42
0.0000000001
 43
0.0000000001
 40
0.0
 40
0.0
 40
0.0
 40
0.0
 40
1.0
 40
1.0
 40
1.0
 40
1.0
 10
7.944294734394745
 20
5.026138613704873
 30
0.0
 10
7.943908178802644
 20
5.021678928772143
 30
0.0
 10
7.943334274163035
 20
5.017149145262148
 30
0.0
 10
7.942711539135345
 20
5.012591012972983
 30
0.0
  0
LWPOLYLINE
  5
145F
330
1F
100
AcDbEntity
  8
0
100
AcDbPolyline
 90
       22
 70
   128
 43
0.0
 10
7.802456803653683
 20
5.530791019733488
 10
7.793390255367235
 20
5.527053966692228
 10
7.773362800136048
 20
5.521083045122839
 10
7.752171425575291
 20
5.51771479211499
 10
7.729955377162568
 20
5.516971339975267
 10
7.706860633360115
 20
5.518857573820863
 10
7.683038946411357
 20
5.523361099480187
 10
7.658646845198688
 20
5.530452324933168
 10
7.63384460671466
 20
5.540084654756174
 10
7.608795202904921
 20
5.552194796293864
 10
7.583663229802958
 20
5.566703175546091
 10
7.558613825993219
 20
5.583514460037264
 10
7.533811587509191
 20
5.602518185232348
 10
7.509419486296522
 20
5.623589480383408
 10
7.485597799347772
 20
5.646589889037414
 10
7.462503055545319
 20
5.671368278813652
 10
7.440287007132589
 20
5.69776183447291
 10
7.419095632571831
 20
5.725597127753012
 10
7.399068177340645
 20
5.754691256941018
 10
7.380336238969924
 20
5.784853048694113
 10
7.363022902335409
 20
5.81588431421213
 10
7.347241930884656
 20
5.847581151507746
  0
ARC
  5
1460
330
1F
100
AcDbEntity
  8
0
100
AcDbCircle
 10
7.06875927724053
 20
4.717936387288407
 30
0.0
 40
0.2785474689256136
100
AcDbArc
 50
58.89969049569271
 51
121.1003095043108
  0
ARC
  5
1461
330
1F
100
AcDbEntity
  8
0
100
AcDbCircle
 10
7.886798736852661
 20
5.046579797844202
 30
0.0
 40
0.0474308508416535
100
AcDbArc
 50
303.643410784522
 51
346.9888112520186
  0
ARC
  5
1462
330
1F
100
AcDbEntity
  8
0
100
AcDbCircle
 10
7.011463260607875
 20
5.552649972428962
 30
0.0
 40
0.0465417433973999
100
AcDbArc
 50
302.1997576941308
 51
346.4879932619043
  0
SPLINE
  5
1463
330
1F
100
AcDbEntity
  8
0
100
AcDbSpline
210
0.0
220
0.0
230
1.0
 70
     8
 71
     3
 72
     8
 73
     4
 74
     0
 42
0.0000000001
 43
0.0000000001
 40
0.0
 40
0.0
 40
0.0
 40
0.0
 40
1.0
 40
1.0
 40
1.0
 40
1.0
 10
7.03761485921656
 20
5.53509220453952
 30
0.0
 10
7.04026739229296
 20
5.538478559357152
 30
0.0
 10
7.042640917808206
 20
5.541969443849225
 30
0.0
 10
7.044264506853387
 20
5.545715004570055
 30
0.0
  0
SPLINE
  5
1464
330
1F
100
AcDbEntity
  8
0
100
AcDbSpline
210
0.0
220
0.0
230
1.0
 70
     8
 71
     3
 72
     9
 73
     5
 74
     0
 42
0.0000000001
 43
0.0000000001
 40
0.0
 40
0.0
 40
0.0
 40
0.0
 40
0.476552356669505
 40
1.0
 40
1.0
 40
1.0
 40
1.0
 10
7.021726256579796
 20
5.511193462875095
 30
0.0
 10
7.02461995495355
 20
5.514665047372414
 30
0.0
 10
7.030692107012505
 20
5.52194983874682
 30
0.0
 10
7.035236242306133
 20
5.530576565008292
 30
0.0
 10
7.03761485921656
 20
5.535092204539516
 30
0.0
  0
ARC
  5
1465
330
1F
100
AcDbEntity
  8
0
100
AcDbCircle
 10
5.507344420915305
 20
4.621074938814803
 30
0.0
 40
0.0100587855698789
100
AcDbArc
 50
185.6947992511934
 51
245.6253417063914
  0
ARC
  5
1466
330
1F
100
AcDbEntity
  8
0
100
AcDbCircle
 10
5.51147687856848
 20
4.62823000093217
 30
0.0
 40
0.0100595447180322
100
AcDbArc
 50
54.38242252478129
 51
114.3071190461096
  0
SPLINE
  5
1467
330
1F
100
AcDbEntity
  8
0
100
AcDbSpline
210
0.0
220
0.0
230
1.0
 70
     8
 71
     3
 72
    11
 73
     7
 74
     0
 42
0.0000000001
 43
0.0000000001
 40
0.0
 40
0.0
 40
0.0
 40
0.0
 40
0.3296808313431941
 40
0.3902045968613223
 40
0.7984560555099422
 40
1.0
 40
1.0
 40
1.0
 40
1.0
 10
7.036264084957714
 20
5.513266562342508
 30
0.0
 10
7.034927859228091
 20
5.513886397408633
 30
0.0
 10
7.033346325294139
 20
5.514620023598283
 30
0.0
 10
7.029766577553594
 20
5.514859094651466
 30
0.0
 10
7.02654130493557
 20
5.514417672541959
 30
0.0
 10
7.023920684655394
 20
5.512686116686666
 30
0.0
 10
7.023054541444807
 20
5.512113818838269
 30
0.0
  0
SPLINE
  5
1468
330
1F
100
AcDbEntity
  8
0
100
AcDbSpline
210
0.0
220
0.0
230
1.0
 70
     8
 71
     3
 72
    32
 73
    28
 74
     0
 42
0.0000000001
 43
0.0000000001
 40
0.0
 40
0.0
 40
0.0
 40
0.0
 40
0.0489230416589187
 40
0.0886943386815949
 40
0.1287126333297249
 40
0.1695217718256557
 40
0.2106111463799475
 40
0.2495418268920438
 40
0.2887274177243563
 40
0.3287280379487174
 40
0.3690154627725116
 40
0.4078904260430362
 40
0.4470346016301218
 40
0.4865982806620523
 40
0.526737736532774
 40
0.5655964885400741
 40
0.6047287990307312
 40
0.6442852193452424
 40
0.6844227004566508
 40
0.7240177111057417
 40
0.7639018572935508
 40
0.8046972857119069
 40
0.8458066790382781
 40
0.8869525090865481
 40
0.9284149480003998
 40
0.9708683212946375
 40
1.0
 40
1.0
 40
1.0
 40
1.0
 10
7.299194279061133
 20
5.986051123631018
 30
0.0
 10
7.299690809716288
 20
5.971436071852984
 30
0.0
 10
7.300590987967709
 20
5.944939919768096
 30
0.0
 10
7.304918600255213
 20
5.906134213128346
 30
0.0
 10
7.310900838382387
 20
5.869882265629996
 30
0.0
 10
7.319149543711915
 20
5.833546973904116
 30
0.0
 10
7.32948695292967
 20
5.798118074620361
 30
0.0
 10
7.341749760343276
 20
5.763975328729316
 30
0.0
 10
7.355836166855496
 20
5.731154234411281
 30
0.0
 10
7.371983353457949
 20
5.699223130873701
 30
0.0
 10
7.389893590334317
 20
5.66888879330051
 30
0.0
 10
7.409303435247856
 20
5.640474641942262
 30
0.0
 10
7.430044572768792
 20
5.614096220796795
 30
0.0
 10
7.452321988956299
 20
5.589520590234297
 30
0.0
 10
7.475692973188884
 20
5.567286678147137
 30
0.0
 10
7.499926704528029
 20
5.547550013523107
 30
0.0
 10
7.524790978604613
 20
5.5304174087744
 30
0.0
 10
7.550508021286887
 20
5.515778357544501
 30
0.0
 10
7.576729871445643
 20
5.503913578159263
 30
0.0
 10
7.603241529719511
 20
5.494945089235027
 30
0.0
 10
7.629940178462106
 20
5.488931091217327
 30
0.0
 10
7.656836277823657
 20
5.485970555127899
 30
0.0
 10
7.683683298914807
 20
5.48622195866968
 30
0.0
 10
7.710179379439132
 20
5.489701669042858
 30
0.0
 10
7.736227750133792
 20
5.49660515348145
 30
0.0
 10
7.759132893538648
 20
5.505384368094382
 30
0.0
 10
7.772828056346973
 20
5.513276850106002
 30
0.0
 10
7.778401329978912
 20
5.516488711293884
 30
0.0
  0
TEXT
  5
146E
330
1F
100
AcDbEntity
  8
0
 62
     7
100
AcDbText
 10
2.297241162857554
 20
1.215500165184852
 30
0.0
 40
0.12
  1
TOP
100
AcDbText
  0
TEXT
  5
1474
330
1F
100
AcDbEntity
  8
0
 62
     7
100
AcDbText
 10
7.091172905122339
 20
1.242929913994794
 30
0.0
 40
0.12
  1
SIDE
100
AcDbText
  0
DIMENSION
  5
1475
330
1F
100
AcDbEntity
  8
DIM
100
AcDbDimension
  2
*D7
 10
4.897041653408969
 20
1.736057003410623
 30
0.0
 11
4.79927482812005
 21
2.140081476558143
 31
0.0
 70
    32
 71
     5
 42
0.1699999999999999
 73
     0
 74
     0
 75
     0
  3
Standard
100
AcDbAlignedDimension
 13
5.329569014673428
 23
1.566057003410623
 33
0.0
 14
5.349569014673424
 24
1.736057003410623
 34
0.0
 50
90.0
100
AcDbRotatedDimension
  0
DIMENSION
  5
1484
330
1F
100
AcDbEntity
  8
DIM
100
AcDbDimension
  2
*D8
 10
0.3631401106641086
 20
2.845902657728323
 30
0.0
 11
0.265373285375189
 21
2.205902657728323
 31
0.0
 70
    32
 71
     5
 42
1.28
 73
     0
 74
     0
 75
     0
  3
Standard
100
AcDbAlignedDimension
 13
0.7945309455176109
 23
1.565902657728322
 33
0.0
 14
0.7945309455176109
 24
2.845902657728323
 34
0.0
 50
90.0
100
AcDbRotatedDimension
  0
DIMENSION
  5
1491
330
1F
100
AcDbEntity
  8
DIM
100
AcDbDimension
  2
*D9
 10
4.554530945517612
 20
3.780091407358737
 30
0.0
 11
2.664530945517611
 21
3.877858232647656
 31
0.0
 70
    32
 71
     5
 42
3.780000000000001
 73
     0
 74
     0
 75
     0
  3
Standard
100
AcDbAlignedDimension
 13
0.7745309455176113
 23
2.825902657728324
 33
0.0
 14
4.554530945517612
 24
2.758402657728321
 34
0.0
100
AcDbRotatedDimension
  0
DIMENSION
  5
149E
330
1F
100
AcDbEntity
  8
DIM
100
AcDbDimension
  2
*D10
 10
9.109569014673429
 20
3.242292459782584
 30
0.0
 11
8.389569014673426
 21
3.339722779293121
 31
0.0
 70
    32
 71
     5
 42
1.440000000000004
 73
     0
 74
     0
 75
     0
  3
Standard
100
AcDbAlignedDimension
 13
7.669569014673424
 23
2.671057003410622
 33
0.0
 14
9.109569014673429
 24
2.671057003410624
 34
0.0
100
AcDbRotatedDimension
  0
DIMENSION
  5
14AB
330
1F
100
AcDbEntity
  8
DIM
100
AcDbDimension
  2
*D11
 10
2.368575803879327
 20
3.32237648587059
 30
0.0
 11
1.868575803879327
 21
3.420143311159509
 31
0.0
 70
    32
 71
     5
 73
     0
 74
     0
 75
     0
  3
Standard
100
AcDbAlignedDimension
 13
1.368575803879327
 23
2.205902657728323
 33
0.0
 14
2.368575803879327
 24
2.205902657728323
 34
0.0
100
AcDbRotatedDimension
  0
DIMENSION
  5
14B9
330
1F
100
AcDbEntity
  8
DIM
100
AcDbDimension
  2
*D12
 10
2.283376589889054
 20
2.038877677753948
 30
0.0
 11
2.862659186090975
 21
3.174506276876714
 31
0.0
 70
   163
 71
     5
 42
0.375
 73
     0
 74
     0
 75
     0
  3
Standard
100
AcDbDiametricDimension
 15
2.453775017869592
 25
2.372927637702698
 35
0.0
 40
0.0
1001
ACAD
1000
DSTYLE
1002
{
1070
   288
1070
     1
1002
}
  0
ENDSEC
  0
SECTION
  2
OBJECTS
  0
DICTIONARY
  5
C
330
0
100
AcDbDictionary
281
     1
  3
ACAD_COLOR
350
FC
  3
ACAD_GROUP
350
D
  3
ACAD_LAYOUT
350
1A
  3
ACAD_MATERIAL
350
E7
  3
ACAD_MLINESTYLE
350
17
  3
ACAD_PLOTSETTINGS
350
19
  3
ACAD_PLOTSTYLENAME
350
E
  3
ACAD_TABLESTYLE
350
FD
  3
ACAD_VISUALSTYLE
350
EB
  3
AcDbVariableDictionary
350
3CB
  0
DICTIONARY
  5
4DC
330
8
100
AcDbDictionary
280
     1
281
     1
  0
DICTIONARY
  5
61E
330
2
100
AcDbDictionary
280
     1
281
     1
  3
ACAD_LAYERFILTERS
360
622
  3
ACLYDICTIONARY
360
621
  0
DICTIONARY
  5
40A
330
409
100
AcDbDictionary
280
     1
281
     1
  3
ACAD_SORTENTS
360
40B
  0
DICTIONARY
  5
FC
102
{ACAD_REACTORS
330
C
102
}
330
C
100
AcDbDictionary
281
     1
  0
DICTIONARY
  5
D
102
{ACAD_REACTORS
330
C
102
}
330
C
100
AcDbDictionary
281
     1
  0
DICTIONARY
  5
1A
102
{ACAD_REACTORS
330
C
102
}
330
C
100
AcDbDictionary
281
     1
  3
Layout1
350
1E
  3
Layout2
350
26
  3
Model
350
22
  0
DICTIONARY
  5
E7
102
{ACAD_REACTORS
330
C
102
}
330
C
100
AcDbDictionary
281
     1
  3
ByBlock
350
E9
  3
ByLayer
350
E8
  3
Global
350
EA
  0
DICTIONARY
  5
17
102
{ACAD_REACTORS
330
C
102
}
330
C
100
AcDbDictionary
281
     1
  3
Standard
350
18
  0
DICTIONARY
  5
19
102
{ACAD_REACTORS
330
C
102
}
330
C
100
AcDbDictionary
281
     1
  3
JPG
350
B7B
  3
PDF
350
B72
  0
ACDBDICTIONARYWDFLT
  5
E
102
{ACAD_REACTORS
330
C
102
}
330
C
100
AcDbDictionary
281
     1
  3
Normal
350
F
100
AcDbDictionaryWithDefault
340
F
  0
DICTIONARY
  5
FD
102
{ACAD_REACTORS
330
C
102
}
330
C
100
AcDbDictionary
281
     1
  3
Standard
350
FE
  0
DICTIONARY
  5
EB
102
{ACAD_REACTORS
330
C
102
}
330
C
100
AcDbDictionary
281
     1
  3
2dWireframe
350
F1
  3
3D Hidden
350
F3
  3
3dWireframe
350
F2
  3
Basic
350
F0
  3
Brighten
350
F7
  3
ColorChange
350
FB
  3
Conceptual
350
F4
  3
Dim
350
F6
  3
Facepattern
350
FA
  3
Flat
350
EC
  3
FlatWithEdges
350
ED
  3
Gouraud
350
EE
  3
GouraudWithEdges
350
EF
  3
Linepattern
350
F9
  3
Realistic
350
F5
  3
Thicken
350
F8
  0
DICTIONARY
  5
3CB
102
{ACAD_REACTORS
330
C
102
}
330
C
100
AcDbDictionary
281
     1
  3
CTABLESTYLE
350
3CC
  0
DICTIONARY
  5
622
102
{ACAD_REACTORS
330
61E
102
}
330
61E
100
AcDbDictionary
281
     1
  0
DICTIONARY
  5
621
102
{ACAD_REACTORS
330
61E
102
}
330
61E
100
AcDbDictionary
281
     1
1001
ACAD
1000
<All
  0
SORTENTSTABLE
  5
40B
102
{ACAD_REACTORS
330
40A
102
}
330
40A
100
AcDbSortentsTable
330
409
331
410
  5
69
331
40E
  5
6B
331
40F
  5
6D
331
40D
  5
6A
  0
LAYOUT
  5
1E
102
{ACAD_REACTORS
330
1A
102
}
330
1A
100
AcDbPlotSettings
  1

  2
none_device
  4

  6

 40
0.0
 41
0.0
 42
0.0
 43
0.0
 44
0.0
 45
0.0
 46
0.0
 47
0.0
 48
0.0
 49
0.0
140
0.0
141
0.0
142
1.0
143
1.0
 70
   688
 72
     0
 73
     0
 74
     5
  7

 75
    16
147
1.0
 76
     0
 77
     2
 78
   300
148
0.0
149
0.0
100
AcDbLayout
  1
Layout1
 70
     1
 71
     1
 10
0.0
 20
0.0
 11
12.0
 21
9.0
 12
0.0
 22
0.0
 32
0.0
 14
1.000000000000000E+20
 24
1.000000000000000E+20
 34
1.000000000000000E+20
 15
-1.000000000000000E+20
 25
-1.000000000000000E+20
 35
-1.000000000000000E+20
146
0.0
 13
0.0
 23
0.0
 33
0.0
 16
1.0
 26
0.0
 36
0.0
 17
0.0
 27
1.0
 37
0.0
 76
     0
330
1B
  0
LAYOUT
  5
26
102
{ACAD_REACTORS
330
1A
102
}
330
1A
100
AcDbPlotSettings
  1

  2
none_device
  4

  6

 40
0.0
 41
0.0
 42
0.0
 43
0.0
 44
0.0
 45
0.0
 46
0.0
 47
0.0
 48
0.0
 49
0.0
140
0.0
141
0.0
142
1.0
143
1.0
 70
   688
 72
     0
 73
     0
 74
     5
  7

 75
    16
147
1.0
 76
     0
 77
     2
 78
   300
148
0.0
149
0.0
100
AcDbLayout
  1
Layout2
 70
     1
 71
     2
 10
0.0
 20
0.0
 11
0.0
 21
0.0
 12
0.0
 22
0.0
 32
0.0
 14
0.0
 24
0.0
 34
0.0
 15
0.0
 25
0.0
 35
0.0
146
0.0
 13
0.0
 23
0.0
 33
0.0
 16
1.0
 26
0.0
 36
0.0
 17
0.0
 27
1.0
 37
0.0
 76
     0
330
23
  0
LAYOUT
  5
22
102
{ACAD_REACTORS
330
1A
102
}
330
1A
100
AcDbPlotSettings
  1

  2
none_device
  4
Letter_(8.50_x_11.00_Inches)
  6

 40
6.349999904632568
 41
6.349999904632568
 42
6.350006103515625
 43
6.350006103515625
 44
215.8999938964844
 45
279.3999938964844
 46
0.0
 47
0.0
 48
0.0
 49
0.0
140
0.0
141
0.0
142
1.0
143
2.383658744906425
 70
 11952
 72
     0
 73
     1
 74
     0
  7

 75
     0
147
0.4195231394329716
 76
     0
 77
     2
 78
   300
148
135.2900774710282
149
-27.52084133435472
100
AcDbLayout
  1
Model
 70
     1
 71
     0
 10
0.0
 20
0.0
 11
16.53543307086614
 21
11.69291338582677
 12
0.0
 22
0.0
 32
0.0
 14
0.0
 24
0.0
 34
0.0
 15
16.53543307086614
 25
11.69291338582677
 35
0.0
146
0.0
 13
0.0
 23
0.0
 33
0.0
 16
1.0
 26
0.0
 36
0.0
 17
0.0
 27
1.0
 37
0.0
 76
     0
330
1F
331
29
1001
ACAD_PSEXT
1000
None
1000
None
1000
Not applicable
1000
The layout will not be plotted unless a new plotter configuration name is selected.
1070
     0
  0
MATERIAL
  5
E9
102
{ACAD_REACTORS
330
E7
102
}
330
E7
100
AcDbMaterial
  1
ByBlock
  0
MATERIAL
  5
E8
102
{ACAD_REACTORS
330
E7
102
}
330
E7
100
AcDbMaterial
  1
ByLayer
  0
MATERIAL
  5
EA
102
{ACAD_REACTORS
330
E7
102
}
330
E7
100
AcDbMaterial
  1
Global
  0
MLINESTYLE
  5
18
102
{ACAD_REACTORS
330
17
102
}
330
17
100
AcDbMlineStyle
  2
STANDARD
 70
     0
  3

 62
   256
 51
90.0
 52
90.0
 71
     2
 49
0.5
 62
   256
  6
BYLAYER
 49
-0.5
 62
   256
  6
BYLAYER
  0
PLOTSETTINGS
  5
B7B
102
{ACAD_REACTORS
330
19
102
}
330
19
100
AcDbPlotSettings
  1
JPG
  2
PublishToWeb JPG.pc3
  4
User-1
  6

 40
75.0
 41
75.0
 42
75.000244140625
 43
75.000244140625
 44
2550.0
 45
3300.0
 46
7.281523769336217
 47
0.0
 48
0.0
 49
0.0
140
7.817532181279499
141
5.920072913978676
142
1.0
143
0.0024817564403737
 70
 11956
 72
     2
 73
     1
 74
     4
  7

 75
     0
147
402.9404270829381
 76
     0
 77
     2
 78
   300
148
0.0
149
0.0
1001
ACAD_PSEXT
1000
PublishToWeb JPG.pc3
1000
Independent JPEG Group JFIF (JPEG Compression)
1000
File
1000

1070
     0
  0
PLOTSETTINGS
  5
B72
102
{ACAD_REACTORS
330
19
102
}
330
19
100
AcDbPlotSettings
  1
PDF
  2
DWG To PDF.pc3
  4
ISO_expand_A1_(841.00_x_594.00_MM)
  6

 40
5.793749809265136
 41
10.79374980926513
 42
5.79376220703125
 43
10.79376220703125
 44
841.0
 45
594.0
 46
36.76722948979278
 47
0.0
 48
0.0
 49
0.0
140
7.817532181279499
141
5.920072913978676
142
1.0
143
0.0103423196353243
 70
 11956
 72
     1
 73
     0
 74
     4
  7

 75
     0
147
96.69010775730546
 76
     0
 77
     2
 78
   300
148
0.0
149
0.0
1001
ACAD_PSEXT
1000
DWG To PDF.pc3
1000
PDF
1000
File
1000

1070
     0
  0
ACDBPLACEHOLDER
  5
F
102
{ACAD_REACTORS
330
E
102
}
330
E
  0
TABLESTYLE
  5
FE
102
{ACAD_REACTORS
330
FD
102
}
330
FD
100
AcDbTableStyle
  3
Standard
 70
     0
 71
     0
 40
0.06
 41
0.06
280
     0
281
     0
  7
Standard
140
0.18
170
     2
 62
     0
 63
     7
283
     0
 90
      512
 91
        0
  1

274
    -2
284
     1
 64
     0
275
    -2
285
     1
 65
     0
276
    -2
286
     1
 66
     0
277
    -2
287
     1
 67
     0
278
    -2
288
     1
 68
     0
279
    -2
289
     1
 69
     0
  7
Standard
140
0.25
170
     5
 62
     0
 63
     7
283
     0
 90
      512
 91
        0
  1

274
    -2
284
     1
 64
     0
275
    -2
285
     1
 65
     0
276
    -2
286
     1
 66
     0
277
    -2
287
     1
 67
     0
278
    -2
288
     1
 68
     0
279
    -2
289
     1
 69
     0
  7
Standard
140
0.18
170
     5
 62
     0
 63
     7
283
     0
 90
      512
 91
        0
  1

274
    -2
284
     1
 64
     0
275
    -2
285
     1
 65
     0
276
    -2
286
     1
 66
     0
277
    -2
287
     1
 67
     0
278
    -2
288
     1
 68
     0
279
    -2
289
     1
 69
     0
  0
VISUALSTYLE
  5
F1
102
{ACAD_REACTORS
330
EB
102
}
330
EB
100
AcDbVisualStyle
  2
2dWireframe
 70
     4
 71
     0
 72
     2
 73
     0
 90
        0
 40
-0.6
 41
-30.0
 62
     5
 63
     7
421
 16777215
 74
     1
 91
        4
 64
     7
 65
   257
 75
     1
175
     1
 42
1.0
 92
        0
 66
   257
 43
1.0
 76
     1
 77
     6
 78
     2
 67
     7
 79
     5
170
     0
171
     0
290
     0
174
     0
 93
        1
 44
0.0
173
     0
291
     0
 45
0.0
  0
VISUALSTYLE
  5
F3
102
{ACAD_REACTORS
330
EB
102
}
330
EB
100
AcDbVisualStyle
  2
3D Hidden
 70
     6
 71
     1
 72
     2
 73
     2
 90
        0
 40
-0.6
 41
-30.0
 62
     5
 63
     7
421
 16777215
 74
     2
 91
        2
 64
     7
 65
   257
 75
     2
175
     1
 42
40.0
 92
        0
 66
   257
 43
1.0
 76
     1
 77
     6
 78
     2
 67
     7
 79
     3
170
     0
171
     0
290
     0
174
     0
 93
        1
 44
0.0
173
     0
291
     0
 45
0.0
  0
VISUALSTYLE
  5
F2
102
{ACAD_REACTORS
330
EB
102
}
330
EB
100
AcDbVisualStyle
  2
3dWireframe
 70
     5
 71
     0
 72
     2
 73
     0
 90
        0
 40
-0.6
 41
-30.0
 62
     5
 63
     7
421
 16777215
 74
     1
 91
        4
 64
     7
 65
   257
 75
     1
175
     1
 42
1.0
 92
        0
 66
   257
 43
1.0
 76
     1
 77
     6
 78
     2
 67
     7
 79
     5
170
     0
171
     0
290
     0
174
     0
 93
        1
 44
0.0
173
     0
291
     0
 45
0.0
  0
VISUALSTYLE
  5
F0
102
{ACAD_REACTORS
330
EB
102
}
330
EB
100
AcDbVisualStyle
  2
Basic
 70
     7
 71
     1
 72
     0
 73
     1
 90
        0
 40
-0.6
 41
-30.0
 62
     5
 63
     7
421
 16777215
 74
     0
 91
        4
 64
     7
 65
   257
 75
     1
175
     1
 42
1.0
 92
        8
 66
     7
 43
1.0
 76
     1
 77
     6
 78
     2
 67
     7
 79
     5
170
     0
171
     0
290
     0
174
     0
 93
        1
 44
0.0
173
     0
291
     1
 45
0.0
  0
VISUALSTYLE
  5
F7
102
{ACAD_REACTORS
330
EB
102
}
330
EB
100
AcDbVisualStyle
  2
Brighten
 70
    12
 71
     2
 72
     2
 73
     0
 90
        0
 40
-0.6
 41
-30.0
 62
     5
 63
     7
421
 16777215
 74
     1
 91
        4
 64
     7
 65
   257
 75
     1
175
     1
 42
1.0
 92
        8
 66
     7
 43
1.0
 76
     1
 77
     6
 78
     2
 67
     7
 79
     5
170
     0
171
     0
290
     0
174
     0
 93
        1
 44
50.0
173
     0
291
     1
 45
0.0
  0
VISUALSTYLE
  5
FB
102
{ACAD_REACTORS
330
EB
102
}
330
EB
100
AcDbVisualStyle
  2
ColorChange
 70
    16
 71
     2
 72
     2
 73
     3
 90
        0
 40
-0.6
 41
-30.0
 62
     5
 63
     8
421
  8421504
 74
     1
 91
        4
 64
     7
 65
   257
 75
     1
175
     1
 42
1.0
 92
        8
 66
     8
424
  8421504
 43
1.0
 76
     1
 77
     6
 78
     2
 67
     7
 79
     5
170
     0
171
     0
290
     0
174
     0
 93
        1
 44
0.0
173
     0
291
     1
 45
0.0
  0
VISUALSTYLE
  5
F4
102
{ACAD_REACTORS
330
EB
102
}
330
EB
100
AcDbVisualStyle
  2
Conceptual
 70
     9
 71
     3
 72
     2
 73
     0
 90
        0
 40
-0.6
 41
-30.0
 62
     5
 63
     7
421
 16777215
 74
     2
 91
        2
 64
     7
 65
   257
 75
     1
175
     1
 42
40.0
 92
        8
 66
     7
 43
1.0
 76
     1
 77
     6
 78
     2
 67
     7
 79
     3
170
     0
171
     0
290
     0
174
     0
 93
        1
 44
0.0
173
     0
291
     0
 45
0.0
  0
VISUALSTYLE
  5
F6
102
{ACAD_REACTORS
330
EB
102
}
330
EB
100
AcDbVisualStyle
  2
Dim
 70
    11
 71
     2
 72
     2
 73
     0
 90
        0
 40
-0.6
 41
-30.0
 62
     5
 63
     7
421
 16777215
 74
     1
 91
        4
 64
     7
 65
   257
 75
     1
175
     1
 42
1.0
 92
        8
 66
     7
 43
1.0
 76
     1
 77
     6
 78
     2
 67
     7
 79
     5
170
     0
171
     0
290
     0
174
     0
 93
        1
 44
-50.0
173
     0
291
     1
 45
0.0
  0
VISUALSTYLE
  5
FA
102
{ACAD_REACTORS
330
EB
102
}
330
EB
100
AcDbVisualStyle
  2
Facepattern
 70
    15
 71
     2
 72
     2
 73
     0
 90
        0
 40
-0.6
 41
-30.0
 62
     5
 63
     7
421
 16777215
 74
     1
 91
        4
 64
     7
 65
   257
 75
     1
175
     1
 42
1.0
 92
        8
 66
     7
 43
1.0
 76
     1
 77
     6
 78
     2
 67
     7
 79
     5
170
     0
171
     0
290
     0
174
     0
 93
        1
 44
0.0
173
     0
291
     1
 45
0.0
  0
VISUALSTYLE
  5
EC
102
{ACAD_REACTORS
330
EB
102
}
330
EB
100
AcDbVisualStyle
  2
Flat
 70
     0
 71
     2
 72
     1
 73
     1
 90
        2
 40
-0.6
 41
30.0
 62
     5
 63
     7
421
 16777215
 74
     0
 91
        4
 64
     7
 65
   257
 75
     1
175
     1
 42
1.0
 92
        8
 66
     7
 43
1.0
 76
     1
 77
     6
 78
     2
 67
     7
 79
     5
170
     0
171
     0
290
     0
174
     0
 93
       13
 44
0.0
173
     0
291
     1
 45
0.0
  0
VISUALSTYLE
  5
ED
102
{ACAD_REACTORS
330
EB
102
}
330
EB
100
AcDbVisualStyle
  2
FlatWithEdges
 70
     1
 71
     2
 72
     1
 73
     1
 90
        2
 40
-0.6
 41
30.0
 62
     5
 63
     7
421
 16777215
 74
     1
 91
        4
 64
     7
 65
   257
 75
     1
175
     1
 42
1.0
 92
        0
 66
   257
 43
1.0
 76
     1
 77
     6
 78
     2
 67
     7
 79
     5
170
     0
171
     0
290
     0
174
     0
 93
       13
 44
0.0
173
     0
291
     1
 45
0.0
  0
VISUALSTYLE
  5
EE
102
{ACAD_REACTORS
330
EB
102
}
330
EB
100
AcDbVisualStyle
  2
Gouraud
 70
     2
 71
     2
 72
     2
 73
     1
 90
        2
 40
-0.6
 41
30.0
 62
     5
 63
     7
421
 16777215
 74
     0
 91
        4
 64
     7
 65
   257
 75
     1
175
     1
 42
1.0
 92
        0
 66
     7
 43
1.0
 76
     1
 77
     6
 78
     2
 67
     7
 79
     5
170
     0
171
     0
290
     0
174
     0
 93
       13
 44
0.0
173
     0
291
     1
 45
0.0
  0
VISUALSTYLE
  5
EF
102
{ACAD_REACTORS
330
EB
102
}
330
EB
100
AcDbVisualStyle
  2
GouraudWithEdges
 70
     3
 71
     2
 72
     2
 73
     1
 90
        2
 40
-0.6
 41
30.0
 62
     5
 63
     7
421
 16777215
 74
     1
 91
        4
 64
     7
 65
   257
 75
     1
175
     1
 42
1.0
 92
        0
 66
   257
 43
1.0
 76
     1
 77
     6
 78
     2
 67
     7
 79
     5
170
     0
171
     0
290
     0
174
     0
 93
       13
 44
0.0
173
     0
291
     1
 45
0.0
  0
VISUALSTYLE
  5
F9
102
{ACAD_REACTORS
330
EB
102
}
330
EB
100
AcDbVisualStyle
  2
Linepattern
 70
    14
 71
     2
 72
     2
 73
     0
 90
        0
 40
-0.6
 41
-30.0
 62
     5
 63
     7
421
 16777215
 74
     1
 91
        4
 64
     7
 65
   257
 75
     7
175
     7
 42
1.0
 92
        8
 66
     7
 43
1.0
 76
     1
 77
     6
 78
     2
 67
     7
 79
     5
170
     0
171
     0
290
     0
174
     0
 93
        1
 44
0.0
173
     0
291
     1
 45
0.0
  0
VISUALSTYLE
  5
F5
102
{ACAD_REACTORS
330
EB
102
}
330
EB
100
AcDbVisualStyle
  2
Realistic
 70
     8
 71
     2
 72
     2
 73
     0
 90
        0
 40
-0.6
 41
-30.0
 62
     5
 63
     7
421
 16777215
 74
     1
 91
        0
 64
     7
 65
   257
 75
     1
175
     1
 42
1.0
 92
        8
 66
     8
424
  7895160
 43
1.0
 76
     1
 77
     6
 78
     2
 67
     7
 79
     5
170
     0
171
     0
290
     0
174
     0
 93
       13
 44
0.0
173
     0
291
     0
 45
0.0
  0
VISUALSTYLE
  5
F8
102
{ACAD_REACTORS
330
EB
102
}
330
EB
100
AcDbVisualStyle
  2
Thicken
 70
    13
 71
     2
 72
     2
 73
     0
 90
        0
 40
-0.6
 41
-30.0
 62
     5
 63
     7
421
 16777215
 74
     1
 91
        4
 64
     7
 65
   257
 75
     1
175
     1
 42
1.0
 92
       12
 66
     7
 43
1.0
 76
     1
 77
     6
 78
     2
 67
     7
 79
     5
170
     0
171
     0
290
     0
174
     0
 93
        1
 44
0.0
173
     0
291
     1
 45
0.0
  0
DICTIONARYVAR
  5
3CC
102
{ACAD_REACTORS
330
3CB
102
}
330
3CB
100
DictionaryVariables
280
     0
  1
STANDARD
  0
ENDSEC
  0
EOF
