  0
SECTION
  2
HEADER
  9
$ACADVER
  1
AC1021
  9
$ACADMAINTVER
 70
     1
  9
$DWGCODEPAGE
  3
ANSI_1252
  9
$AUTHOR
  1
‘Created by Cad / Cam Services, Inc. for Amazon Services LLC on November, 2012’
  9
$LASTSAVEDBY
  1
AE21
  9
$INSBASE
 10
0.0
 20
0.0
 30
0.0
  9
$EXTMIN
 10
0.0
 20
0.0
 30
0.0
  9
$EXTMAX
 10
35.9606480338857
 20
27.23233540430192
 30
0.0
  9
$LIMMIN
 10
0.0
 20
0.0
  9
$LIMMAX
 10
16.53543307086614
 20
11.69291338582677
  9
$ORTHOMODE
 70
     1
  9
$REGENMODE
 70
     1
  9
$FILLMODE
 70
     1
  9
$QTEXTMODE
 70
     0
  9
$MIRRTEXT
 70
     1
  9
$LTSCALE
 40
1.0
  9
$ATTMODE
 70
     1
  9
$TEXTSIZE
 40
0.2
  9
$TRACEWID
 40
0.05
  9
$TEXTSTYLE
  7
SLDTEXTSTYLE0
  9
$CLAYER
  8
0
  9
$CELTYPE
  6
ByLayer
  9
$CECOLOR
 62
   256
  9
$CELTSCALE
 40
1.0
  9
$DISPSILH
 70
     0
  9
$DIMSCALE
 40
1.0
  9
$DIMASZ
 40
0.41
  9
$DIMEXO
 40
0.12
  9
$DIMDLI
 40
0.38
  9
$DIMRND
 40
0.0
  9
$DIMDLE
 40
0.0
  9
$DIMEXE
 40
0.15
  9
$DIMTP
 40
0.0
  9
$DIMTM
 40
0.0
  9
$DIMTXT
 40
0.41
  9
$DIMCEN
 40
0.09
  9
$DIMTSZ
 40
0.0
  9
$DIMTOL
 70
     0
  9
$DIMLIM
 70
     0
  9
$DIMTIH
 70
     0
  9
$DIMTOH
 70
     0
  9
$DIMSE1
 70
     0
  9
$DIMSE2
 70
     0
  9
$DIMTAD
 70
     1
  9
$DIMZIN
 70
     0
  9
$DIMBLK
  1

  9
$DIMASO
 70
     1
  9
$DIMSHO
 70
     1
  9
$DIMPOST
  1

  9
$DIMAPOST
  1

  9
$DIMALT
 70
     0
  9
$DIMALTD
 70
     2
  9
$DIMALTF
 40
25.4
  9
$DIMLFAC
 40
1.0
  9
$DIMTOFL
 70
     1
  9
$DIMTVP
 40
0.0
  9
$DIMTIX
 70
     0
  9
$DIMSOXD
 70
     0
  9
$DIMSAH
 70
     0
  9
$DIMBLK1
  1

  9
$DIMBLK2
  1

  9
$DIMSTYLE
  2
Standard
  9
$DIMCLRD
 70
     0
  9
$DIMCLRE
 70
     0
  9
$DIMCLRT
 70
     0
  9
$DIMTFAC
 40
1.0
  9
$DIMGAP
 40
0.14
  9
$DIMJUST
 70
     0
  9
$DIMSD1
 70
     0
  9
$DIMSD2
 70
     0
  9
$DIMTOLJ
 70
     1
  9
$DIMTZIN
 70
     0
  9
$DIMALTZ
 70
     0
  9
$DIMALTTZ
 70
     0
  9
$DIMUPT
 70
     0
  9
$DIMDEC
 70
     2
  9
$DIMTDEC
 70
     2
  9
$DIMALTU
 70
     2
  9
$DIMALTTD
 70
     2
  9
$DIMTXSTY
  7
Standard
  9
$DIMAUNIT
 70
     0
  9
$DIMADEC
 70
     0
  9
$DIMALTRND
 40
0.0
  9
$DIMAZIN
 70
     0
  9
$DIMDSEP
 70
    46
  9
$DIMATFIT
 70
     3
  9
$DIMFRAC
 70
     0
  9
$DIMLDRBLK
  1

  9
$DIMLUNIT
 70
     2
  9
$DIMLWD
 70
    -2
  9
$DIMLWE
 70
    -2
  9
$DIMTMOVE
 70
     0
  9
$DIMFXL
 40
1.0
  9
$DIMFXLON
 70
     0
  9
$DIMJOGANG
 40
0.7853981633974483
  9
$DIMTFILL
 70
     0
  9
$DIMTFILLCLR
 70
     0
  9
$DIMARCSYM
 70
     0
  9
$DIMLTYPE
  6

  9
$DIMLTEX1
  6

  9
$DIMLTEX2
  6

  9
$LUNITS
 70
     2
  9
$LUPREC
 70
     2
  9
$SKETCHINC
 40
0.1
  9
$FILLETRAD
 40
0.5
  9
$AUNITS
 70
     0
  9
$AUPREC
 70
     2
  9
$MENU
  1
.
  9
$ELEVATION
 40
0.0
  9
$PELEVATION
 40
0.0
  9
$THICKNESS
 40
0.0
  9
$LIMCHECK
 70
     0
  9
$CHAMFERA
 40
0.5
  9
$CHAMFERB
 40
0.5
  9
$CHAMFERC
 40
1.0
  9
$CHAMFERD
 40
0.0
  9
$SKPOLY
 70
     0
  9
$TDCREATE
 40
2456644.526254873
  9
$TDUCREATE
 40
2456644.297088206
  9
$TDUPDATE
 40
2456665.522786273
  9
$TDUUPDATE
 40
2456665.293619607
  9
$TDINDWG
 40
0.0054054630
  9
$TDUSRTIMER
 40
0.0054054630
  9
$USRTIMER
 70
     1
  9
$ANGBASE
 50
0.0
  9
$ANGDIR
 70
     0
  9
$PDMODE
 70
     0
  9
$PDSIZE
 40
-1.0
  9
$PLINEWID
 40
0.0
  9
$SPLFRAME
 70
     0
  9
$SPLINETYPE
 70
     6
  9
$SPLINESEGS
 70
     8
  9
$HANDSEED
  5
1139
  9
$SURFTAB1
 70
     6
  9
$SURFTAB2
 70
     6
  9
$SURFTYPE
 70
     6
  9
$SURFU
 70
     6
  9
$SURFV
 70
     6
  9
$UCSBASE
  2

  9
$UCSNAME
  2

  9
$UCSORG
 10
0.0
 20
0.0
 30
0.0
  9
$UCSXDIR
 10
1.0
 20
0.0
 30
0.0
  9
$UCSYDIR
 10
0.0
 20
1.0
 30
0.0
  9
$UCSORTHOREF
  2

  9
$UCSORTHOVIEW
 70
     0
  9
$UCSORGTOP
 10
0.0
 20
0.0
 30
0.0
  9
$UCSORGBOTTOM
 10
0.0
 20
0.0
 30
0.0
  9
$UCSORGLEFT
 10
0.0
 20
0.0
 30
0.0
  9
$UCSORGRIGHT
 10
0.0
 20
0.0
 30
0.0
  9
$UCSORGFRONT
 10
0.0
 20
0.0
 30
0.0
  9
$UCSORGBACK
 10
0.0
 20
0.0
 30
0.0
  9
$PUCSBASE
  2

  9
$PUCSNAME
  2

  9
$PUCSORG
 10
0.0
 20
0.0
 30
0.0
  9
$PUCSXDIR
 10
1.0
 20
0.0
 30
0.0
  9
$PUCSYDIR
 10
0.0
 20
1.0
 30
0.0
  9
$PUCSORTHOREF
  2

  9
$PUCSORTHOVIEW
 70
     0
  9
$PUCSORGTOP
 10
0.0
 20
0.0
 30
0.0
  9
$PUCSORGBOTTOM
 10
0.0
 20
0.0
 30
0.0
  9
$PUCSORGLEFT
 10
0.0
 20
0.0
 30
0.0
  9
$PUCSORGRIGHT
 10
0.0
 20
0.0
 30
0.0
  9
$PUCSORGFRONT
 10
0.0
 20
0.0
 30
0.0
  9
$PUCSORGBACK
 10
0.0
 20
0.0
 30
0.0
  9
$USERI1
 70
     0
  9
$USERI2
 70
     0
  9
$USERI3
 70
     0
  9
$USERI4
 70
     0
  9
$USERI5
 70
     0
  9
$USERR1
 40
0.0
  9
$USERR2
 40
0.0
  9
$USERR3
 40
0.0
  9
$USERR4
 40
0.0
  9
$USERR5
 40
0.0
  9
$WORLDVIEW
 70
     1
  9
$SHADEDGE
 70
     3
  9
$SHADEDIF
 70
    70
  9
$TILEMODE
 70
     1
  9
$MAXACTVP
 70
    64
  9
$PINSBASE
 10
0.0
 20
0.0
 30
0.0
  9
$PLIMCHECK
 70
     0
  9
$PEXTMIN
 10
1.000000000000000E+20
 20
1.000000000000000E+20
 30
1.000000000000000E+20
  9
$PEXTMAX
 10
-1.000000000000000E+20
 20
-1.000000000000000E+20
 30
-1.000000000000000E+20
  9
$PLIMMIN
 10
0.0
 20
0.0
  9
$PLIMMAX
 10
12.0
 20
9.0
  9
$UNITMODE
 70
     0
  9
$VISRETAIN
 70
     1
  9
$PLINEGEN
 70
     0
  9
$PSLTSCALE
 70
     1
  9
$TREEDEPTH
 70
  3020
  9
$CMLSTYLE
  2
Standard
  9
$CMLJUST
 70
     0
  9
$CMLSCALE
 40
1.0
  9
$PROXYGRAPHICS
 70
     1
  9
$MEASUREMENT
 70
     0
  9
$CELWEIGHT
370
    -1
  9
$ENDCAPS
280
     0
  9
$JOINSTYLE
280
     0
  9
$LWDISPLAY
290
     1
  9
$INSUNITS
 70
     1
  9
$HYPERLINKBASE
  1

  9
$STYLESHEET
  1

  9
$XEDIT
290
     1
  9
$CEPSNTYPE
380
     0
  9
$PSTYLEMODE
290
     1
  9
$FINGERPRINTGUID
  2
{CD3F7D2B-3353-4BF7-9D91-2C23C288AD95}
  9
$VERSIONGUID
  2
{3EB8BCCE-0897-438E-8AA3-380E3FF7E000}
  9
$EXTNAMES
290
     1
  9
$PSVPSCALE
 40
0.0
  9
$OLESTARTUP
290
     0
  9
$SORTENTS
280
   127
  9
$INDEXCTL
280
     0
  9
$HIDETEXT
280
     0
  9
$XCLIPFRAME
290
     0
  9
$HALOGAP
280
     0
  9
$OBSCOLOR
 70
   257
  9
$OBSLTYPE
280
     0
  9
$INTERSECTIONDISPLAY
280
     0
  9
$INTERSECTIONCOLOR
 70
   257
  9
$DIMASSOC
280
     1
  9
$PROJECTNAME
  1

  9
$CAMERADISPLAY
290
     0
  9
$LENSLENGTH
 40
50.0
  9
$CAMERAHEIGHT
 40
0.0
  9
$STEPSPERSEC
 40
2.0
  9
$STEPSIZE
 40
6.0
  9
$3DDWFPREC
 40
2.0
  9
$PSOLWIDTH
 40
0.25
  9
$PSOLHEIGHT
 40
4.0
  9
$LOFTANG1
 40
1.570796326794896
  9
$LOFTANG2
 40
1.570796326794896
  9
$LOFTMAG1
 40
0.0
  9
$LOFTMAG2
 40
0.0
  9
$LOFTPARAM
 70
     7
  9
$LOFTNORMALS
280
     1
  9
$LATITUDE
 40
37.795
  9
$LONGITUDE
 40
-122.394
  9
$NORTHDIRECTION
 40
0.0
  9
$TIMEZONE
 70
 -8000
  9
$LIGHTGLYPHDISPLAY
280
     1
  9
$TILEMODELIGHTSYNCH
280
     1
  9
$CMATERIAL
347
E8
  9
$SOLIDHIST
280
     1
  9
$SHOWHIST
280
     1
  9
$DWFFRAME
280
     2
  9
$DGNFRAME
280
     0
  9
$REALWORLDSCALE
290
     1
  9
$INTERFERECOLOR
 62
     1
  9
$INTERFEREOBJVS
345
F5
  9
$INTERFEREVPVS
346
F2
  9
$CSHADOW
280
     0
  9
$SHADOWPLANELOCATION
 40
0.0
  0
ENDSEC
  0
SECTION
  2
CLASSES
  0
CLASS
  1
ACDBDICTIONARYWDFLT
  2
AcDbDictionaryWithDefault
  3
ObjectDBX Classes
 90
        0
 91
        1
280
     0
281
     0
  0
CLASS
  1
VISUALSTYLE
  2
AcDbVisualStyle
  3
ObjectDBX Classes
 90
     4095
 91
       16
280
     0
281
     0
  0
CLASS
  1
MATERIAL
  2
AcDbMaterial
  3
ObjectDBX Classes
 90
     1024
 91
        3
280
     0
281
     0
  0
CLASS
  1
TABLESTYLE
  2
AcDbTableStyle
  3
ObjectDBX Classes
 90
     4095
 91
        1
280
     0
281
     0
  0
CLASS
  1
DICTIONARYVAR
  2
AcDbDictionaryVar
  3
ObjectDBX Classes
 90
        0
 91
        1
280
     0
281
     0
  0
CLASS
  1
SORTENTSTABLE
  2
AcDbSortentsTable
  3
ObjectDBX Classes
 90
        0
 91
        1
280
     0
281
     0
  0
CLASS
  1
PLOTSETTINGS
  2
AcDbPlotSettings
  3
ObjectDBX Classes
 90
        0
 91
        2
280
     0
281
     0
  0
ENDSEC
  0
SECTION
  2
TABLES
  0
TABLE
  2
VPORT
  5
8
102
{ACAD_XDICTIONARY
360
4DC
102
}
330
0
100
AcDbSymbolTable
 70
     1
  0
VPORT
  5
29
330
8
100
AcDbSymbolTableRecord
100
AcDbViewportTableRecord
  2
*Active
 70
     0
 10
0.0
 20
0.0
 11
1.0
 21
1.0
 12
17.97974986737844
 22
13.70814632412188
 13
0.0
 23
0.0
 14
0.5
 24
0.5
 15
0.5
 25
0.5
 16
0.0
 26
0.0
 36
1.0
 17
0.0
 27
0.0
 37
0.0
 40
27.7047264267128
 41
1.911666666666666
 42
50.0
 43
0.0
 44
0.0
 50
0.0
 51
0.0
 71
     0
 72
  2000
 73
     1
 74
     3
 75
     0
 76
     0
 77
     0
 78
     0
281
     0
 65
     1
110
0.0
120
0.0
130
0.0
111
1.0
121
0.0
131
0.0
112
0.0
122
1.0
132
0.0
 79
     0
146
0.0
348
F1
 60
     3
 61
     5
292
     1
282
     1
141
0.0
142
0.0
 63
   250
421
  3355443
  0
ENDTAB
  0
TABLE
  2
LTYPE
  5
5
330
0
100
AcDbSymbolTable
 70
     2
  0
LTYPE
  5
14
330
5
100
AcDbSymbolTableRecord
100
AcDbLinetypeTableRecord
  2
ByBlock
 70
     0
  3

 72
    65
 73
     0
 40
0.0
  0
LTYPE
  5
15
330
5
100
AcDbSymbolTableRecord
100
AcDbLinetypeTableRecord
  2
ByLayer
 70
     0
  3

 72
    65
 73
     0
 40
0.0
  0
LTYPE
  5
16
330
5
100
AcDbSymbolTableRecord
100
AcDbLinetypeTableRecord
  2
Continuous
 70
     0
  3
Solid line
 72
    65
 73
     0
 40
0.0
  0
LTYPE
  5
DAF
330
5
100
AcDbSymbolTableRecord
100
AcDbLinetypeTableRecord
  2
HIDDEN
 70
     0
  3
Hidden __ __ __ __ __ __ __ __ __ __ __ __ __ __
 72
    65
 73
     2
 40
0.075
 49
0.05
 74
     0
 49
-0.025
 74
     0
  0
ENDTAB
  0
TABLE
  2
LAYER
  5
2
102
{ACAD_XDICTIONARY
360
61E
102
}
330
0
100
AcDbSymbolTable
 70
     4
  0
LAYER
  5
10
330
2
100
AcDbSymbolTableRecord
100
AcDbLayerTableRecord
  2
0
 70
     0
 62
     7
  6
Continuous
370
    -3
390
F
347
EA
  0
LAYER
  5
44
330
2
100
AcDbSymbolTableRecord
100
AcDbLayerTableRecord
  2
FORMAT
 70
     0
 62
     7
  6
Continuous
370
    -3
390
F
347
EA
  0
LAYER
  5
125
330
2
100
AcDbSymbolTableRecord
100
AcDbLayerTableRecord
  2
Defpoints
 70
     0
 62
     7
  6
Continuous
290
     0
370
    -3
390
F
347
EA
  0
LAYER
  5
61C
330
2
100
AcDbSymbolTableRecord
100
AcDbLayerTableRecord
  2
DIM
 70
     0
 62
     8
  6
Continuous
370
    -3
390
F
347
EA
1001
AcAecLayerStandard
1000

1000

  0
ENDTAB
  0
TABLE
  2
STYLE
  5
3
330
0
100
AcDbSymbolTable
 70
     4
  0
STYLE
  5
11
330
3
100
AcDbSymbolTableRecord
100
AcDbTextStyleTableRecord
  2
Standard
 70
     0
 40
0.0
 41
1.0
 50
0.0
 71
     0
 42
0.2
  3
GOTHIC.TTF
  4

1001
ACAD
1000
Century Gothic
1071
       34
  0
STYLE
  5
66
330
3
100
AcDbSymbolTableRecord
100
AcDbTextStyleTableRecord
  2
SLDTEXTSTYLE0
 70
     0
 40
0.0
 41
0.75
 50
0.0
 71
     0
 42
0.2
  3
GOTHIC.TTF
  4

1001
ACAD
1000
Century Gothic
1071
       34
  0
STYLE
  5
6A
330
3
100
AcDbSymbolTableRecord
100
AcDbTextStyleTableRecord
  2
SLDTEXTSTYLE1
 70
     0
 40
0.0
 41
0.6875
 50
0.0
 71
     0
 42
0.2
  3
GOTHIC.TTF
  4

1001
ACAD
1000
Century Gothic
1071
       34
  0
STYLE
  5
412
330
3
100
AcDbSymbolTableRecord
100
AcDbTextStyleTableRecord
  2
style2
 70
     0
 40
0.0
 41
1.0
 50
0.0
 71
     0
 42
0.2
  3

  4

1001
ACAD
1000
Euphemia
1071
       34
  0
ENDTAB
  0
TABLE
  2
VIEW
  5
6
330
0
100
AcDbSymbolTable
 70
     0
  0
ENDTAB
  0
TABLE
  2
UCS
  5
7
330
0
100
AcDbSymbolTable
 70
     0
  0
ENDTAB
  0
TABLE
  2
APPID
  5
9
330
0
100
AcDbSymbolTable
 70
     5
  0
APPID
  5
12
330
9
100
AcDbSymbolTableRecord
100
AcDbRegAppTableRecord
  2
ACAD
 70
     0
  0
APPID
  5
3B8
330
9
100
AcDbSymbolTableRecord
100
AcDbRegAppTableRecord
  2
ACAD_EXEMPT_FROM_CAD_STANDARDS
 70
     0
  0
APPID
  5
413
330
9
100
AcDbSymbolTableRecord
100
AcDbRegAppTableRecord
  2
ACAD_PSEXT
 70
     0
  0
APPID
  5
61D
330
9
100
AcDbSymbolTableRecord
100
AcDbRegAppTableRecord
  2
AcAecLayerStandard
 70
     0
  0
APPID
  5
B19
330
9
100
AcDbSymbolTableRecord
100
AcDbRegAppTableRecord
  2
PE_URL
 70
     0
  0
ENDTAB
  0
TABLE
  2
DIMSTYLE
  5
A
330
0
100
AcDbSymbolTable
 70
     1
100
AcDbDimStyleTable
 71
     1
340
27
  0
DIMSTYLE
105
27
102
{ACAD_REACTORS
330
106E
330
107C
330
108A
330
10A5
330
10C5
102
}
330
A
100
AcDbSymbolTableRecord
100
AcDbDimStyleTableRecord
  2
Standard
 70
     0
 41
0.41
 42
0.12
 44
0.15
 73
     0
 74
     0
 77
     1
140
0.41
147
0.14
172
     1
271
     2
272
     2
340
11
  0
ENDTAB
  0
TABLE
  2
BLOCK_RECORD
  5
1
330
0
100
AcDbSymbolTable
 70
    10
  0
BLOCK_RECORD
  5
1F
330
1
100
AcDbSymbolTableRecord
100
AcDbBlockTableRecord
  2
*Model_Space
340
22
 70
     0
280
     1
281
     0
  0
BLOCK_RECORD
  5
1B
330
1
100
AcDbSymbolTableRecord
100
AcDbBlockTableRecord
  2
*Paper_Space
340
1E
 70
     0
280
     1
281
     0
  0
BLOCK_RECORD
  5
23
330
1
100
AcDbSymbolTableRecord
100
AcDbBlockTableRecord
  2
*Paper_Space0
340
26
 70
     0
280
     1
281
     0
  0
BLOCK_RECORD
  5
3F9
330
1
100
AcDbSymbolTableRecord
100
AcDbBlockTableRecord
  2
Block3
340
0
102
{BLKREFS
331
407
102
}
 70
     0
280
     1
281
     0
  0
BLOCK_RECORD
  5
405
330
1
100
AcDbSymbolTableRecord
100
AcDbBlockTableRecord
  2
Block2
340
0
102
{BLKREFS
331
44A
102
}
 70
     0
280
     1
281
     0
  0
BLOCK_RECORD
  5
409
102
{ACAD_XDICTIONARY
360
40A
102
}
330
1
100
AcDbSymbolTableRecord
100
AcDbBlockTableRecord
  2
amazon
340
0
310
2800000020000000200000000100080000000000000400000000000000000000000000000000000000000000000080000080000000808000800000008000800080800000C0C0C000C0DCC000F0CAA6000020400000206000002080000020A0000020C0000020E00000400000004020000040400000406000004080000040A0
310
000040C0000040E00000600000006020000060400000606000006080000060A0000060C0000060E00000800000008020000080400000806000008080000080A0000080C0000080E00000A0000000A0200000A0400000A0600000A0800000A0A00000A0C00000A0E00000C0000000C0200000C0400000C0600000C0800000C0
310
A00000C0C00000C0E00000E0000000E0200000E0400000E0600000E0800000E0A00000E0C00000E0E00040000000400020004000400040006000400080004000A0004000C0004000E00040200000402020004020400040206000402080004020A0004020C0004020E000404000004040200040404000404060004040800040
310
40A0004040C0004040E00040600000406020004060400040606000406080004060A0004060C0004060E00040800000408020004080400040806000408080004080A0004080C0004080E00040A0000040A0200040A0400040A0600040A0800040A0A00040A0C00040A0E00040C0000040C0200040C0400040C0600040C08000
310
40C0A00040C0C00040C0E00040E0000040E0200040E0400040E0600040E0800040E0A00040E0C00040E0E00080000000800020008000400080006000800080008000A0008000C0008000E00080200000802020008020400080206000802080008020A0008020C0008020E00080400000804020008040400080406000804080
310
008040A0008040C0008040E00080600000806020008060400080606000806080008060A0008060C0008060E00080800000808020008080400080806000808080008080A0008080C0008080E00080A0000080A0200080A0400080A0600080A0800080A0A00080A0C00080A0E00080C0000080C0200080C0400080C0600080C0
310
800080C0A00080C0C00080C0E00080E0000080E0200080E0400080E0600080E0800080E0A00080E0C00080E0E000C0000000C0002000C0004000C0006000C0008000C000A000C000C000C000E000C0200000C0202000C0204000C0206000C0208000C020A000C020C000C020E000C0400000C0402000C0404000C0406000C0
310
408000C040A000C040C000C040E000C0600000C0602000C0604000C0606000C0608000C060A000C060C000C060E000C0800000C0802000C0804000C0806000C0808000C080A000C080C000C080E000C0A00000C0A02000C0A04000C0A06000C0A08000C0A0A000C0A0C000C0A0E000C0C00000C0C02000C0C04000C0C06000
310
C0C08000C0C0A000F0FBFF00A4A0A000808080000000FF0000FF000000FFFF00FF000000FF00FF00FFFF0000FFFFFF0000000000000000000000000000000000000000000000000000000000000000000000000000000000000000000000000000000000000000000000000000000000000000000000000000000000000000
310
00000000000000000000000000000000000000000000000000000000000000000000000000000000000000000000000000000000000000000000000000000000000000000000000000000000000000000000000000000000000000000000000000000000000000000000000000000000000000000000000000000000000000
310
00000000000000000000000000000000000000000000000000000000000000000000000000000000000000000000000000000000000000000000000000000000000000000000000000000000000000000000000000000000000000000000000000000000000000000000000000000000000000000000000000000000000000
310
0000000000000000000000000000000000000000000000000000000000000000000000000000000000000000000000000000000000000000000000000000000000000000000000000000000000000000000000000000000000FFFFFFFFFF00000000000000000000000000000000000000000000000000FFFFFFFFFFFFFFFF
310
00000000000000000000FC00FC0000FCFC00000000FFFFFFFFFFFFFFFFFFFFFFFFFFFFFFFFFCFCFCFCFCFCFCFCFCFCFCFCFC00000000FFFFFFFFFFFFFFFFFFFFFFFFFFFFFFFCFCFC00FCFCFCFC00FCFCFCFC00000000FFFFFFFFFFFFFFFFFFFFFFFFFFFFFFFCFCFC00FCFCFCFCFCFCFCFCFC00000000000000000000000000
310
00000000000000000000000000000000FC0000000000000000000000000000000000000000000000000000000000000000000000000000000000000000000000000000000000000000000000000000000000000000000000000000000000000000000000000000000000000000000000000000000000000000000000000000
310
00000000000000000000000000000000000000000000000000000000000000000000000000000000000000000000000000000000000000000000000000000000000000000000000000000000000000000000000000000000000000000000000000000000000000000000000000000000000000000000000000000000000000
310
00000000000000000000000000000000000000000000000000000000000000000000000000000000000000000000000000000000000000000000000000000000000000000000000000000000000000000000000000000000000000000000000000000000000000000000000000000000000000000000000000000000000000
310
0000000000000000000000000000000000000000000000000000000000000000000000000000000000000000000000000000000000000000
 70
     1
280
     1
281
     0
  0
BLOCK_RECORD
  5
D53
330
1
100
AcDbSymbolTableRecord
100
AcDbBlockTableRecord
  2
amazon block
340
0
310
2800000020000000200000000100080000000000000400000000000000000000000000000000000000000000000080000080000000808000800000008000800080800000C0C0C000C0DCC000F0CAA6000020400000206000002080000020A0000020C0000020E00000400000004020000040400000406000004080000040A0
310
000040C0000040E00000600000006020000060400000606000006080000060A0000060C0000060E00000800000008020000080400000806000008080000080A0000080C0000080E00000A0000000A0200000A0400000A0600000A0800000A0A00000A0C00000A0E00000C0000000C0200000C0400000C0600000C0800000C0
310
A00000C0C00000C0E00000E0000000E0200000E0400000E0600000E0800000E0A00000E0C00000E0E00040000000400020004000400040006000400080004000A0004000C0004000E00040200000402020004020400040206000402080004020A0004020C0004020E000404000004040200040404000404060004040800040
310
40A0004040C0004040E00040600000406020004060400040606000406080004060A0004060C0004060E00040800000408020004080400040806000408080004080A0004080C0004080E00040A0000040A0200040A0400040A0600040A0800040A0A00040A0C00040A0E00040C0000040C0200040C0400040C0600040C08000
310
40C0A00040C0C00040C0E00040E0000040E0200040E0400040E0600040E0800040E0A00040E0C00040E0E00080000000800020008000400080006000800080008000A0008000C0008000E00080200000802020008020400080206000802080008020A0008020C0008020E00080400000804020008040400080406000804080
310
008040A0008040C0008040E00080600000806020008060400080606000806080008060A0008060C0008060E00080800000808020008080400080806000808080008080A0008080C0008080E00080A0000080A0200080A0400080A0600080A0800080A0A00080A0C00080A0E00080C0000080C0200080C0400080C0600080C0
310
800080C0A00080C0C00080C0E00080E0000080E0200080E0400080E0600080E0800080E0A00080E0C00080E0E000C0000000C0002000C0004000C0006000C0008000C000A000C000C000C000E000C0200000C0202000C0204000C0206000C0208000C020A000C020C000C020E000C0400000C0402000C0404000C0406000C0
310
408000C040A000C040C000C040E000C0600000C0602000C0604000C0606000C0608000C060A000C060C000C060E000C0800000C0802000C0804000C0806000C0808000C080A000C080C000C080E000C0A00000C0A02000C0A04000C0A06000C0A08000C0A0A000C0A0C000C0A0E000C0C00000C0C02000C0C04000C0C06000
310
C0C08000C0C0A000F0FBFF00A4A0A000808080000000FF0000FF000000FFFF00FF000000FF00FF00FFFF0000FFFFFF0000000000000000000000000000000000000000000000000000000000000000000000000000000000000000000000000000000000000000000000000000000000000000000000000000000000000000
310
00000000000000000000000000000000000000000000000000000000000000000000000000000000000000000000000000000000000000000000000000000000000000000000000000000000000000000000000000000000000000000000000000000000000000000000000000000000000000000000000000000000000000
310
00000000000000000000000000000000000000000000000000000000000000000000000000000000000000000000000000000000000000000000000000000000000000000000000000000000000000000000000000000000000000000000000000000000000000000000000000000000000000000000000000000000000000
310
0000000000000000000000000000000000000000000000000000000000000000000000000000000000000000000000000000000000000000000000000000000000000000000000000000000000000000000000000000000000FFFFFFFFFF00000000000000000000000000000000000000000000000000FFFFFFFFFFFFFFFF
310
00000000000000000000E000E0E000E0E0E0000000FFFFFFFFFFFFFFFFFFFFFFFFFFFFFFFFE0E0E0E0E0E0E0E0E0E0E0E0E000000000FFFFFFFFFFFFFFFFFFFFFFFFFFFFFFE0E0E0E0E0E0E0E0E0E0E0E0E000000000FFFFFFFFFFFFFFFFFFFFFFFFFFFFFFE0E0E0E0E0E0E0E0E0E0E0E0E0E0000000000000000000000000
310
00000000000000000000000000000000E00000000000000000000000000000000000000000000000000000000000000000000000000000000000000000000000000000000000000000000000000000000000000000000000000000000000000000000000000000000000000000000000000000000000000000000000000000
310
00000000000000000000000000000000000000000000000000000000000000000000000000000000000000000000000000000000000000000000000000000000000000000000000000000000000000000000000000000000000000000000000000000000000000000000000000000000000000000000000000000000000000
310
00000000000000000000000000000000000000000000000000000000000000000000000000000000000000000000000000000000000000000000000000000000000000000000000000000000000000000000000000000000000000000000000000000000000000000000000000000000000000000000000000000000000000
310
0000000000000000000000000000000000000000000000000000000000000000000000000000000000000000000000000000000000000000
102
{BLKREFS
331
D5F
102
}
 70
     1
280
     1
281
     0
  0
BLOCK_RECORD
  5
106F
330
1
100
AcDbSymbolTableRecord
100
AcDbBlockTableRecord
  2
*D5
340
0
 70
     0
280
     1
281
     0
  0
BLOCK_RECORD
  5
107D
330
1
100
AcDbSymbolTableRecord
100
AcDbBlockTableRecord
  2
*D6
340
0
 70
     0
280
     1
281
     0
  0
BLOCK_RECORD
  5
108B
330
1
100
AcDbSymbolTableRecord
100
AcDbBlockTableRecord
  2
*D7
340
0
 70
     0
280
     1
281
     0
  0
BLOCK_RECORD
  5
10A6
330
1
100
AcDbSymbolTableRecord
100
AcDbBlockTableRecord
  2
*D8
340
0
 70
     0
280
     1
281
     0
  0
BLOCK_RECORD
  5
10C6
330
1
100
AcDbSymbolTableRecord
100
AcDbBlockTableRecord
  2
*D9
340
0
 70
     0
280
     1
281
     0
  0
ENDTAB
  0
ENDSEC
  0
SECTION
  2
BLOCKS
  0
BLOCK
  5
20
330
1F
100
AcDbEntity
  8
0
100
AcDbBlockBegin
  2
*Model_Space
 70
     0
 10
0.0
 20
0.0
 30
0.0
  3
*Model_Space
  1

  0
ENDBLK
  5
21
330
1F
100
AcDbEntity
  8
0
100
AcDbBlockEnd
  0
BLOCK
  5
1C
330
1B
100
AcDbEntity
 67
     1
  8
0
100
AcDbBlockBegin
  2
*Paper_Space
 70
     0
 10
0.0
 20
0.0
 30
0.0
  3
*Paper_Space
  1

  0
ENDBLK
  5
1D
330
1B
100
AcDbEntity
 67
     1
  8
0
100
AcDbBlockEnd
  0
BLOCK
  5
24
330
23
100
AcDbEntity
 67
     1
  8
0
100
AcDbBlockBegin
  2
*Paper_Space0
 70
     0
 10
0.0
 20
0.0
 30
0.0
  3
*Paper_Space0
  1

  0
ENDBLK
  5
25
330
23
100
AcDbEntity
 67
     1
  8
0
100
AcDbBlockEnd
  0
BLOCK
  5
3FA
330
3F9
100
AcDbEntity
  8
0
100
AcDbBlockBegin
  2
Block3
 70
     0
 10
0.0
 20
0.0
 30
0.0
  3
Block3
  1

  0
CIRCLE
  5
3FB
330
3F9
100
AcDbEntity
  8
FORMAT
 62
     7
370
    15
100
AcDbCircle
 10
9.623096090023436
 20
2.115622186524885
 30
0.0
 40
0.0998031496062924
  0
CIRCLE
  5
3FC
330
3F9
100
AcDbEntity
  8
FORMAT
 62
     7
370
    15
100
AcDbCircle
 10
9.623096090023436
 20
2.115622186524885
 30
0.0
 40
0.1996062992125948
  0
LINE
  5
3FD
330
3F9
100
AcDbEntity
  8
FORMAT
 62
     7
370
    15
100
AcDbLine
 10
10.05890680910872
 20
2.020396293772344
 30
0.0
 11
10.05890680910872
 21
2.210848079277426
 31
0.0
  0
LINE
  5
3FE
330
3F9
100
AcDbEntity
  8
FORMAT
 62
     7
370
    15
100
AcDbLine
 10
10.05890680910872
 20
2.210848079277426
 30
0.0
 11
10.55986477488565
 21
2.315228485737483
 31
0.0
  0
LINE
  5
3FF
330
3F9
100
AcDbEntity
  8
FORMAT
 62
     7
370
    15
100
AcDbLine
 10
10.55986477488565
 20
2.315228485737483
 30
0.0
 11
10.55986477488565
 21
1.916015887312285
 31
0.0
  0
LINE
  5
400
330
3F9
100
AcDbEntity
  8
FORMAT
 62
     7
370
    15
100
AcDbLine
 10
10.55986477488565
 20
1.916015887312285
 30
0.0
 11
10.05890680910872
 21
2.020396293772344
 31
0.0
  0
LINE
  5
401
330
3F9
100
AcDbEntity
  8
FORMAT
 62
     7
370
    15
100
AcDbLine
 10
9.987169396213419
 20
2.115622186524885
 30
0.0
 11
10.59626953693931
 21
2.115622186524885
 31
0.0
  0
LINE
  5
402
330
3F9
100
AcDbEntity
  8
FORMAT
 62
     7
370
    15
100
AcDbLine
 10
9.368122674365656
 20
2.115622186524885
 30
0.0
 11
9.87806950568121
 21
2.115622186524885
 31
0.0
  0
LINE
  5
403
330
3F9
100
AcDbEntity
  8
FORMAT
 62
     7
370
    15
100
AcDbLine
 10
9.623096090023436
 20
1.872691387914879
 30
0.0
 11
9.623096090023436
 21
2.382638219230431
 31
0.0
  0
ENDBLK
  5
404
330
3F9
100
AcDbEntity
  8
0
100
AcDbBlockEnd
  0
BLOCK
  5
406
330
405
100
AcDbEntity
  8
0
100
AcDbBlockBegin
  2
Block2
 70
     0
 10
0.0
 20
0.0
 30
0.0
  3
Block2
  1

  0
INSERT
  5
407
330
405
100
AcDbEntity
  8
0
  6
Continuous
 62
     7
100
AcDbBlockReference
  2
Block3
 10
-0.0282699124868556
 20
0.0201145539810274
 30
0.0
  0
ENDBLK
  5
408
330
405
100
AcDbEntity
  8
0
100
AcDbBlockEnd
  0
BLOCK
  5
40C
330
409
100
AcDbEntity
  8
0
100
AcDbBlockBegin
  2
amazon
 70
     0
 10
0.0
 20
0.0
 30
0.0
  3
amazon
  1

  0
HATCH
  5
40D
330
409
100
AcDbEntity
  8
0
100
AcDbHatch
 10
0.0
 20
0.0
 30
0.0
210
0.0
220
0.0
230
0.9999999999999998
  2
SOLID
 70
     1
 71
     0
 91
        1
 92
        5
 93
        1
 72
     4
 94
        3
 73
     0
 74
     0
 95
       18
 96
       14
 40
0.0
 40
0.0
 40
0.0
 40
0.0
 40
0.0596755466403443
 40
0.1035834707990989
 40
0.1695571134872838
 40
0.2000964637947284
 40
0.2237461165360023
 40
0.2565225897680324
 40
0.2756876256135649
 40
0.3018435697278741
 40
0.3302551352352805
 40
0.3457181605243852
 40
0.3618589112597388
 40
0.3618589112597388
 40
0.3618589112597388
 40
0.3618589112597388
 10
0.9280407135556529
 20
0.3678371450737368
 10
1.014164084729102
 20
0.3851494268204694
 10
1.144945011486449
 20
0.4024842103214663
 10
1.481904894757406
 20
0.3990648758382389
 10
1.309526957346704
 20
0.1657833910269666
 10
1.071996456892463
 20
0.0025828528301117
 10
1.213429780952147
 20
0.147260900816045
 10
1.269689397936616
 20
0.2055836989094448
 10
1.328770741103362
 20
0.3426132943554165
 10
1.182110533057802
 20
0.3629915346337151
 10
1.077363991359149
 20
0.3586993230536737
 10
1.01802908590988
 20
0.3618658313307459
 10
0.904746484263093
 20
0.3631546035627498
 10
0.9280407135556529
 20
0.3678371450737368
 97
        0
 75
     0
 76
     1
 47
0.0083360314226261
 98
        1
 10
1.350036184717041
 20
0.3275823953230534
450
        0
451
        0
460
0.0
461
0.0
452
        1
462
1.0
453
        2
463
0.0
 63
     5
421
      255
463
1.0
 63
     7
421
 16777215
470
LINEAR
1001
ACAD
1010
0.0
1020
0.0
1030
0.0
  0
HATCH
  5
40E
330
409
100
AcDbEntity
  8
0
100
AcDbHatch
 10
0.0
 20
0.0
 30
0.0
210
0.0
220
0.0
230
0.9999999999999998
  2
SOLID
 70
     1
 71
     0
 91
        9
 92
        7
 72
     1
 73
     1
 93
       20
 10
-1.397399278738596
 20
0.888299103756417
 42
0.0
 10
-1.517557092146972
 20
0.8521069912840207
 42
0.0
 10
-1.634457615432786
 20
0.8260486703038981
 42
0.113500075695427
 10
-1.796297882939342
 20
0.77249506361993
 42
0.335029435887297
 10
-1.882119182302076
 20
0.5660893728218724
 42
0.2523749963765925
 10
-1.737967057103837
 20
0.4398788302234422
 42
0.1008759599722844
 10
-1.585598263595066
 20
0.4319165654795154
 42
0.1558313267708922
 10
-1.397230403062579
 20
0.516966153393244
 42
0.0
 10
-1.397399278738596
 20
0.5017673425512395
 42
0.1600174655974661
 10
-1.372064800007926
 20
0.4395169090987201
 42
0.0
 10
-1.217886400875514
 20
0.4395169090987201
 42
-0.1096578030042886
 10
-1.250459302100694
 20
0.4735374948229208
 42
-0.1371553684281488
 10
-1.269279200586318
 20
0.540854824021424
 42
0.0
 10
-1.269279200586318
 20
0.9244912162288137
 42
0.267077244638994
 10
-1.391608540743007
 20
1.084460353356798
 42
0.1085027846705916
 10
-1.618171164820246
 20
1.110518674336923
 42
0.3343505200399534
 10
-1.854867580389672
 20
0.9063951599926172
 42
0.0
 10
-1.71371834174733
 20
0.9063951599926172
 42
-0.2815324590939715
 10
-1.623703637535193
 20
0.9970774848409384
 42
-0.1775171235246243
 10
-1.454582816445004
 20
0.984570122933
 42
-0.2483479329952881
 97
        0
 92
       22
 72
     1
 73
     1
 93
        8
 10
-1.397399278738596
 20
0.7768273973414295
 42
0.0
 10
-1.397399278738596
 20
0.658841110681435
 42
-0.2004737922071577
 10
-1.563882996111615
 20
0.5415786662708722
 42
-0.1115040980661369
 10
-1.686936178517754
 20
0.5404929028967014
 42
-0.2738586692622027
 10
-1.742672031725241
 20
0.6002098884761536
 42
-0.289643054085014
 10
-1.707203761502306
 20
0.6928616964054842
 42
-0.1190249358109779
 10
-1.625409587314685
 20
0.7261584398800891
 42
-0.0006545690929014
 10
-1.500908720409647
 20
0.7514929186107651
 42
0.031014715336947
 97
        0
 92
        7
 72
     1
 73
     1
 93
       27
 10
-1.062984159493659
 20
0.4395169090987201
 42
0.0
 10
-0.9348640813413879
 20
0.4395169090987201
 42
0.0
 10
-0.9348640813413879
 20
0.8535546757829193
 42
-0.1716644096531924
 10
-0.8769567013855592
 20
0.9534449062067299
 42
-0.1448545784781812
 10
-0.7799618399595332
 20
0.9997708101713946
 42
-0.1340090766267909
 10
-0.6862242686560336
 20
0.9885512553049524
 42
-0.2563461470910333
 10
-0.6192688605821033
 20
0.8998805797475881
 42
0.0
 10
-0.6192688605821033
 20
0.4395169090987201
 42
0.0
 10
-0.4904249401803611
 20
0.4395169090987201
 42
0.0
 10
-0.4904249401803753
 20
0.8641979875178154
 42
-0.1830801363087423
 10
-0.4212980053581035
 20
0.9621310132001053
 42
-0.1206854715101709
 10
-0.3311796453018374
 20
0.9975992834230517
 42
-0.2157527517618656
 10
-0.216674861049178
 20
0.9774303127070119
 42
-0.2679983488848178
 10
-0.1748297194210906
 20
0.9063951599927708
 42
0.0
 10
-0.1748297194210977
 20
0.4395169090987201
 42
0.0
 10
-0.0467096412688122
 20
0.4395169090987201
 42
0.0
 10
-0.0467096412688122
 20
0.9063951599926172
 42
0.0
 10
-0.0467096412688122
 20
0.9360726922199805
 42
0.2784603970195297
 10
-0.1675912969266093
 20
1.094594144849069
 42
0.1495326253440701
 10
-0.3521710705358245
 20
1.102556409592997
 42
0.1796241607690637
 10
-0.5034541006704388
 20
0.9896370186791244
 42
0.1190036376854939
 10
-0.5809052213613626
 20
1.073602719615081
 42
0.1510696384071214
 10
-0.753179676729971
 20
1.112690201085266
 42
0.122416550902687
 10
-0.8494506959065404
 20
1.081564984359008
 42
0.0903817772246913
 10
-0.9348640813413879
 20
1.001218494670287
 42
0.0
 10
-0.9348640813413879
 20
1.101108725094101
 42
0.0
 10
-1.062984159493659
 20
1.101108725094101
 42
0.0
 97
        0
 92
        7
 72
     1
 73
     1
 93
       20
 10
0.1120662149268909
 20
0.5660893728218764
 42
0.2523749963765703
 10
0.256218340125109
 20
0.4398788302234467
 42
0.100875959972303
 10
0.4085871336339224
 20
0.4319165654795159
 42
0.1558313267708855
 10
0.5969549941663886
 20
0.516966153393244
 42
0.0
 10
0.5967861184903711
 20
0.5017673425512395
 42
0.1600174655974661
 10
0.6221205972210555
 20
0.4395169090987201
 42
0.0
 10
0.7762989963534466
 20
0.4395169090987201
 42
-0.1096578030036369
 10
0.7437260951284089
 20
0.4735374948226645
 42
-0.1371553684287215
 10
0.7249061966426496
 20
0.540854824021424
 42
0.0
 10
0.7249061966426496
 20
0.9244912162288137
 42
0.2670772446390557
 10
0.6025768564859249
 20
1.084460353356814
 42
0.1085027846705556
 10
0.3760142324087567
 20
1.110518674336923
 42
0.3343505200399825
 10
0.1393178168393021
 20
0.9063951599926172
 42
0.0
 10
0.2804670554816368
 20
0.9063951599926172
 42
-0.2815324590939487
 10
0.370481759693746
 20
0.9970774848409313
 42
-0.1775171235246857
 10
0.539602580783992
 20
0.9845701229329858
 42
-0.2483479329952225
 10
0.5967861184903711
 20
0.888299103756417
 42
0.0
 10
0.4766283050820306
 20
0.8521069912840264
 42
0.0
 10
0.359727781796181
 20
0.8260486703038981
 42
0.113500075695427
 10
0.1978875142896257
 20
0.77249506361993
 42
0.335029435887291
 97
        0
 92
       22
 72
     1
 73
     1
 93
        8
 10
0.2869816357266757
 20
0.6928616964054842
 42
-0.1190249358109779
 10
0.3687758099142826
 20
0.7261584398800891
 42
-0.0006545690929014
 10
0.4932766768193205
 20
0.7514929186107651
 42
0.0310147153369478
 10
0.5967861184903711
 20
0.7768273973414419
 42
0.0
 10
0.5967861184903711
 20
0.658841110681435
 42
-0.2004737922071577
 10
0.430302401117352
 20
0.5415786662708722
 42
-0.1115040980661369
 10
0.3072492187112061
 20
0.5404929028967014
 42
-0.2738586692622027
 10
0.251513365503726
 20
0.6002098884761536
 42
-0.289643054085014
 97
        0
 92
        7
 72
     1
 73
     1
 93
       10
 10
1.490731296558529
 20
0.9717250567569255
 42
0.0
 10
1.490731296558529
 20
1.101108725094102
 42
0.0
 10
0.9246866574902696
 20
1.101108725094102
 42
0.0
 10
0.9246866574902767
 20
0.9648744605637409
 42
0.0
 10
1.298313112053691
 20
0.9648744605637409
 42
0.0
 10
0.8993521787595994
 20
0.5408548240214275
 42
0.0
 10
0.8993521787595994
 20
0.4395169090987241
 42
-0.1473109550280885
 10
1.52402804003313
 20
0.4395169090987184
 42
0.0
 10
1.52402804003313
 20
0.581774738538516
 42
0.0747823019347494
 10
1.16328520907988
 20
0.6214717791056393
 42
0.0
 97
        0
 92
        7
 72
     1
 73
     1
 93
        2
 10
1.658662698430447
 20
0.7829800564617493
 42
1.0
 10
2.353551257900427
 20
0.7829800564617493
 42
1.0
 97
        0
 92
       22
 72
     1
 73
     1
 93
        2
 10
2.212041370259932
 20
0.7829800564617493
 42
-1.0
 10
1.800172586070949
 20
0.7829800564617493
 42
-1.0
 97
        0
 92
        7
 72
     1
 73
     1
 93
       15
 10
2.520758817522896
 20
0.4395169090987201
 42
0.0
 10
2.649602737924617
 20
0.4395169090987201
 42
0.0
 10
2.649602737924617
 20
0.7753797128425455
 42
-0.1884880930389393
 10
2.726330016366098
 20
0.9404157457166672
 42
-0.0825504763720134
 10
2.808124190553712
 20
1.002666179169187
 42
-0.1879859195515259
 10
2.9333488997082
 20
1.010628443913113
 42
-0.3400688989443128
 10
3.022381496390295
 20
0.8948632846375158
 42
0.0
 10
3.022381496390295
 20
0.4395169090987201
 42
0.0
 10
3.151225416792009
 20
0.4395169090987201
 42
0.0
 10
3.151225416792023
 20
0.9382442189683235
 42
0.3709832727766776
 10
2.952118968473769
 20
1.109868265359158
 42
0.160618198198489
 10
2.773379762580219
 20
1.083012668857902
 42
0.0920112842116662
 10
2.649602737924617
 20
0.9831224384341012
 42
0.0
 10
2.649602737924631
 20
1.101108725094101
 42
0.0
 10
2.520758817522896
 20
1.1011087250941
 42
0.0
 97
        0
 75
     0
 76
     1
 47
0.0079344138681199
 98
        9
 10
-1.376638647914745
 20
0.8943652481782571
 10
-1.376638647914745
 20
0.8943652481782571
 10
-1.008011843667617
 20
0.7810537369378041
 10
0.2295103337683244
 20
0.706616395506853
 10
0.2295103337683244
 20
0.706616395506853
 10
1.173803717490862
 20
0.7215039733471374
 10
1.736822720547962
 20
0.9152585806937842
 10
1.736822720547962
 20
0.9152585806937842
 10
2.581717008623201
 20
0.8854836988984509
450
        0
451
        0
460
0.0
461
0.0
452
        1
462
1.0
453
        2
463
0.0
 63
     5
421
      255
463
1.0
 63
     7
421
 16777215
470
LINEAR
1001
ACAD
1010
0.0
1020
0.0
1030
0.0
  0
TEXT
  5
40F
330
409
100
AcDbEntity
  8
0
 62
   150
100
AcDbText
 10
3.411151618523078
 20
0.4239129498757777
 30
0.0
 40
1.05
  1
supply
 41
1.08
  7
style2
100
AcDbText
  0
HATCH
  5
410
330
409
100
AcDbEntity
  8
0
100
AcDbHatch
 10
0.0
 20
0.0
 30
0.0
210
0.0
220
0.0
230
0.9999999999999998
  2
SOLID
 70
     1
 71
     0
 91
        1
 92
        7
 72
     1
 73
     1
 93
        2
 10
-1.177902949885989
 20
0.4051926481048067
 42
0.3081272588713221
 10
1.212164975232198
 20
0.2933070771634125
 42
-0.177724595219735
 97
        0
 75
     0
 76
     1
 47
0.0009928164167271
 98
        1
 10
0.1755697210077258
 20
0.0593374821502257
450
        0
451
        0
460
0.0
461
0.0
452
        1
462
1.0
453
        2
463
0.0
 63
     5
421
      255
463
1.0
 63
     7
421
 16777215
470
LINEAR
1001
ACAD
1010
0.0
1020
0.0
1030
0.0
  0
ENDBLK
  5
411
330
409
100
AcDbEntity
  8
0
100
AcDbBlockEnd
  0
BLOCK
  5
D54
330
D53
100
AcDbEntity
  8
0
100
AcDbBlockBegin
  2
amazon block
 70
     0
 10
0.0
 20
0.0
 30
0.0
  3
amazon block
  1

  0
HATCH
  5
D55
330
D53
100
AcDbEntity
  8
0
100
AcDbHatch
 10
0.0
 20
0.0
 30
0.0
210
0.0
220
0.0
230
1.0
  2
SOLID
 70
     1
 71
     0
 91
        1
 92
        7
 72
     1
 73
     1
 93
        2
 10
0.1428560650202613
 20
0.0268249692297831
 42
0.3005568377796329
 10
0.6100026189360293
 20
0.0009915743964171
 42
-0.1486648242730099
 97
        0
 75
     0
 76
     1
 47
0.0083360314226261
 98
        1
 10
0.3681872109149253
 20
-0.0332769951503647
450
        0
451
        0
460
0.0
461
0.0
452
        1
462
1.0
453
        2
463
0.0
 63
     5
421
      255
463
1.0
 63
     7
421
 16777215
470
LINEAR
1001
ACAD
1010
0.0
1020
0.0
1030
0.0
  0
HATCH
  5
D56
330
D53
100
AcDbEntity
  8
0
100
AcDbHatch
 10
0.0
 20
0.0
 30
0.0
210
0.0
220
0.0
230
1.0
  2
SOLID
 70
     1
 71
     0
 91
        1
 92
        5
 93
        1
 72
     4
 94
        3
 73
     0
 74
     0
 95
       18
 96
       14
 40
0.0
 40
0.0
 40
0.0
 40
0.0
 40
0.3060284443094571
 40
0.531197286149225
 40
0.8695236589091486
 40
1.026135711767838
 40
1.14741598223591
 40
1.315500460348882
 40
1.413679231894078
 40
1.543957423309552
 40
1.719337158993241
 40
1.76919128251474
 40
1.852441399548553
 40
1.852441399548553
 40
1.852441399548553
 40
1.852441399548553
 10
0.5476248318910955
 20
0.0189472839500944
 10
0.5671265702171127
 20
0.0228674694218305
 10
0.5967407336623403
 20
0.0267937023518194
 10
0.6730410215606746
 20
0.0260155775369224
 10
0.6340109953118472
 20
-0.0267925718215847
 10
0.5802183818763105
 20
-0.0637796196110996
 10
0.6122605658026537
 20
-0.030937261100445
 10
0.624929189918916
 20
-0.0180757154749651
 10
0.6383573330340191
 20
0.013562833138125
 10
0.6020518241954172
 20
0.0146147000415664
 10
0.5794789444548947
 20
0.0158864032827642
 10
0.5641956865595646
 20
0.0167018526831093
 10
0.5423196975867733
 20
0.017880860532975
 10
0.5476248318910955
 20
0.0189472839500944
 97
        0
 75
     0
 76
     1
 47
0.0083360314226261
 98
        1
 10
0.644363460657651
 20
0.0075847933888076
450
        0
451
        0
460
0.0
461
0.0
452
        1
462
1.0
453
        2
463
0.0
 63
     5
421
      255
463
1.0
 63
     7
421
 16777215
470
LINEAR
1001
ACAD
1010
0.0
1020
0.0
1030
0.0
  0
HATCH
  5
D57
330
D53
100
AcDbEntity
  8
0
100
AcDbHatch
 10
0.0
 20
0.0
 30
0.0
210
0.0
220
0.0
230
1.0
  2
SOLID
 70
     1
 71
     0
 91
        9
 92
        7
 72
     1
 73
     1
 93
       20
 10
0.1000542808940033
 20
0.1169245515333142
 42
0.0
 10
0.076623507279372
 20
0.1098670896011966
 42
0.0
 10
0.0538279052386379
 20
0.1047857170100728
 42
0.113500075695427
 10
0.0222690530748579
 20
0.0943427637066989
 42
0.335029435887297
 10
0.0055338996991239
 20
0.0540936540010777
 42
0.2523749963765925
 10
0.0336435641127828
 20
0.0294825981943836
 42
0.1008759599722844
 10
0.0633554788469937
 20
0.0279299565693179
 42
0.1558313267708922
 10
0.1000872116508269
 20
0.0445146262124951
 42
0.0
 10
0.1000542808940033
 20
0.0415508580983044
 42
0.1600174655974661
 10
0.1049945042464841
 20
0.029412023575063
 42
0.0
 10
0.1350592920773046
 20
0.029412023575063
 42
-0.1096578030042886
 10
0.128707576338396
 20
0.0360460377912819
 42
-0.1371553684281488
 10
0.125037696133699
 20
0.0491729169849902
 42
0.0
 10
0.125037696133699
 20
0.1239820134654312
 42
0.267077244638994
 10
0.1011834748031433
 20
0.1551759952053882
 42
0.1085027846705916
 10
0.0570037631080815
 20
0.1602573677965124
 42
0.3343505200399534
 10
0.0108479620720452
 20
0.1204532824993727
 42
0.0
 10
0.0383720636073015
 20
0.1204532824993727
 42
-0.2815324590939715
 10
0.0559249309286685
 20
0.1381363358447958
 42
-0.1775171235246243
 10
0.0889034910412541
 20
0.1356974002727478
 42
-0.2483479329952881
 97
        0
 92
       22
 72
     1
 73
     1
 93
        8
 10
0.1000542808940033
 20
0.0951875687823911
 42
0.0
 10
0.1000542808940033
 20
0.0721802428836922
 42
-0.2004737922071577
 10
0.0675899560062661
 20
0.0493140662236327
 42
-0.1115040980661369
 10
0.0435945854370701
 20
0.0491023423656691
 42
-0.2738586692622027
 10
0.0327260940616085
 20
0.0607471545536624
 42
-0.289643054085014
 10
0.0396424067550818
 20
0.0788142570998818
 42
-0.1190249358109779
 10
0.0555922707216681
 20
0.0853071220774298
 42
-0.0006545690929014
 10
0.0798699397681482
 20
0.090247345429912
 42
0.031014715336947
 97
        0
 92
        7
 72
     1
 73
     1
 93
       27
 10
0.1652652291467689
 20
0.029412023575063
 42
0.0
 10
0.190248644386461
 20
0.029412023575063
 42
0.0
 10
0.190248644386461
 20
0.1101493880784821
 42
-0.1716644096531924
 10
0.201540583477847
 20
0.1296279830111251
 42
-0.1448545784781812
 10
0.2204545814559218
 20
0.1386615342842345
 42
-0.1340090766267909
 10
0.2387334078601029
 20
0.1364737210852782
 42
-0.2563461470910333
 10
0.251789712434519
 20
0.1191829393515924
 42
0.0
 10
0.251789712434519
 20
0.029412023575063
 42
0.0
 10
0.2769142769128621
 20
0.029412023575063
 42
0.0
 10
0.2769142769128585
 20
0.1122248338667866
 42
-0.1830801363087423
 10
0.290394029203199
 20
0.1313217738748333
 42
-0.1206854715101709
 10
0.3079671094141716
 20
0.1382380865683075
 42
-0.2157527517618656
 10
0.3302955423434426
 20
0.1343051372786799
 42
-0.2679983488848178
 10
0.33845534496092
 20
0.1204532824994029
 42
0.0
 10
0.3384553449609164
 20
0.029412023575063
 42
0.0
 10
0.3634387602006122
 20
0.029412023575063
 42
0.0
 10
0.3634387602006122
 20
0.1204532824993727
 42
0.0
 10
0.3634387602006122
 20
0.1262404012837086
 42
0.2784603970195297
 10
0.3398668373473406
 20
0.1571520845463814
 42
0.1495326253440701
 10
0.3038737814935466
 20
0.1587047261714471
 42
0.1796241607690637
 10
0.2743735906172944
 20
0.1366854449432417
 42
0.1190036376854939
 10
0.259270622082564
 20
0.1530587566257537
 42
0.1510696384071214
 10
0.2256771032856868
 20
0.1606808155124395
 42
0.122416550902687
 10
0.2069042545462558
 20
0.154611398250819
 42
0.0903817772246913
 10
0.190248644386461
 20
0.1389438327615187
 42
0.0
 10
0.190248644386461
 20
0.1584224276941626
 42
0.0
 10
0.1652652291467689
 20
0.1584224276941626
 42
0.0
 97
        0
 92
        7
 72
     1
 73
     1
 93
       20
 10
0.394400052158776
 20
0.0540936540010786
 42
0.2523749963765703
 10
0.4225097165724279
 20
0.0294825981943845
 42
0.100875959972303
 10
0.4522216313066459
 20
0.0279299565693183
 42
0.1558313267708855
 10
0.4889533641104756
 20
0.0445146262124951
 42
0.0
 10
0.4889204333536519
 20
0.0415508580983044
 42
0.1600174655974661
 10
0.4938606567061364
 20
0.029412023575063
 42
0.0
 10
0.5239254445369533
 20
0.029412023575063
 42
-0.1096578030036369
 10
0.5175737287980695
 20
0.0360460377912322
 42
-0.1371553684287215
 10
0.5139038485933476
 20
0.0491729169849902
 42
0.0
 10
0.5139038485933476
 20
0.1239820134654312
 42
0.2670772446390557
 10
0.4900496272627848
 20
0.1551759952053913
 42
0.1085027846705556
 10
0.4458699155677373
 20
0.1602573677965129
 42
0.3343505200399825
 10
0.3997141145316938
 20
0.1204532824993727
 42
0.0
 10
0.4272382160669502
 20
0.1204532824993727
 42
-0.2815324590939487
 10
0.44479108338831
 20
0.138136335844794
 42
-0.1775171235246857
 10
0.4777696435009098
 20
0.1356974002727447
 42
-0.2483479329952225
 10
0.4889204333536519
 20
0.1169245515333142
 42
0.0
 10
0.4654896597390277
 20
0.1098670896011979
 42
0.0
 10
0.4426940576982866
 20
0.1047857170100728
 42
0.113500075695427
 10
0.4111352055345066
 20
0.0943427637066989
 42
0.335029435887291
 97
        0
 92
       22
 72
     1
 73
     1
 93
        8
 10
0.428508559214734
 20
0.0788142570998818
 42
-0.1190249358109779
 10
0.4444584231813167
 20
0.0853071220774298
 42
-0.0006545690929014
 10
0.4687360922277968
 20
0.090247345429912
 42
0.0310147153369478
 10
0.4889204333536519
 20
0.0951875687823938
 42
0.0
 10
0.4889204333536519
 20
0.0721802428836922
 42
-0.2004737922071577
 10
0.4564561084659147
 20
0.0493140662236327
 42
-0.1115040980661369
 10
0.4324607378967152
 20
0.0491023423656691
 42
-0.2738586692622027
 10
0.4215922465212572
 20
0.0607471545536624
 42
-0.289643054085014
 97
        0
 92
        7
 72
     1
 73
     1
 93
       10
 10
0.663239743076943
 20
0.1331926123684131
 42
0.0
 10
0.663239743076943
 20
0.1584224276941626
 42
0.0
 10
0.5528610384586337
 20
0.1584224276941626
 42
0.0
 10
0.5528610384586337
 20
0.131856746110742
 42
0.0
 10
0.6257181970985002
 20
0.131856746110742
 42
0.0
 10
0.5479208151061528
 20
0.0491729169849911
 42
0.0
 10
0.5479208151061528
 20
0.0294120235750635
 42
-0.1473109550280885
 10
0.6697326080544919
 20
0.0294120235750626
 42
0.0
 10
0.6697326080544919
 20
0.0571523003158232
 42
0.0747823019347494
 10
0.5993877560186079
 20
0.0648932232264121
 42
0.0
 97
        0
 92
        7
 72
     1
 73
     1
 93
        2
 10
0.6959863664419679
 20
0.0963873373108535
 42
1.0
 10
0.8314896355386132
 20
0.0963873373108535
 42
1.0
 97
        0
 92
       22
 72
     1
 73
     1
 93
        2
 10
0.8038952074487184
 20
0.0963873373108535
 42
-1.0
 10
0.7235807945318662
 20
0.0963873373108535
 42
-1.0
 97
        0
 92
        7
 72
     1
 73
     1
 93
       15
 10
0.8640951096649978
 20
0.029412023575063
 42
0.0
 10
0.8892196741433302
 20
0.029412023575063
 42
0.0
 10
0.8892196741433302
 20
0.0949052703051088
 42
-0.1884880930389393
 10
0.9041814934394203
 20
0.1270872967155627
 42
-0.0825504763720134
 10
0.9201313574060066
 20
0.1392261312388041
 42
-0.1879859195515259
 10
0.9445501756911305
 20
0.1407787728638694
 42
-0.3400688989443128
 10
0.9619115320441373
 20
0.1182045668051281
 42
0.0
 10
0.9619115320441373
 20
0.029412023575063
 42
0.0
 10
0.9870360965224733
 20
0.029412023575063
 42
0.0
 10
0.9870360965224769
 20
0.1266638489996357
 42
0.3709832727766776
 10
0.9482103391004166
 20
0.1601305380458484
 42
0.160618198198489
 10
0.9133561939511736
 20
0.1548936967281036
 42
0.0920112842116662
 10
0.8892196741433302
 20
0.1354151017954623
 42
0.0
 10
0.8892196741433338
 20
0.1584224276941626
 42
0.0
 10
0.8640951096649978
 20
0.1584224276941621
 42
0.0
 97
        0
 75
     0
 76
     1
 47
0.0079344138681199
 98
        9
 10
0.1041026039046571
 20
0.1181074496955725
 10
0.1041026039046571
 20
0.1181074496955725
 10
0.175984830732844
 20
0.0960117050036842
 10
0.4173016553328531
 20
0.0814964234246487
 10
0.4173016553328531
 20
0.0814964234246487
 10
0.6014388651587482
 20
0.0843995011035044
 10
0.7112275707548826
 20
0.1221816495361003
 10
0.7112275707548826
 20
0.1221816495361003
 10
0.8759819569295572
 20
0.1163755475860104
450
        0
451
        0
460
0.0
461
0.0
452
        1
462
1.0
453
        2
463
0.0
 63
     5
421
      255
463
1.0
 63
     7
421
 16777215
470
LINEAR
1001
ACAD
1010
0.0
1020
0.0
1030
0.0
  0
HATCH
  5
D58
330
D53
100
AcDbEntity
  8
0
 62
   150
100
AcDbHatch
 10
0.0
 20
0.0
 30
0.0
210
0.0
220
0.0
230
1.0
  2
SOLID
 70
     1
 71
     0
 91
        8
 92
        7
 72
     1
 73
     1
 93
       22
 10
1.131716859301388
 20
0.0982802106585603
 42
0.0484183422992068
 10
1.088571435005292
 20
0.1135920246412381
 42
-0.1024497749852004
 10
1.063583383368957
 20
0.125237861247649
 42
-0.5197370575112227
 10
1.065952625421378
 20
0.1500864950045506
 42
-0.1784163181567931
 10
1.097462280584622
 20
0.1562497626075707
 42
-0.1611556671223822
 10
1.130948711999153
 20
0.1417059730721331
 42
0.0
 10
1.143877562730139
 20
0.1560685971400009
 42
0.0879608039459819
 10
1.125754289819187
 20
0.1671964668262178
 42
0.096844267443967
 10
1.086490181797579
 20
0.1727441735534061
 42
0.1289645081611661
 10
1.053342092127955
 20
0.1633533786648891
 42
0.2520599057044872
 10
1.037629278411372
 20
0.1399706628121899
 42
0.2998873610886212
 10
1.050463850241648
 20
0.1096908005921695
 42
0.087968247036807
 10
1.088782354168369
 20
0.0932096049078468
 42
-0.0908267507933147
 10
1.119928772767817
 20
0.0811747820304691
 42
-0.4466858316882535
 10
1.125453128485816
 20
0.0540976492614389
 42
-0.2058443735084833
 10
1.094059901125532
 20
0.0433269295271455
 42
-0.2322683613354944
 10
1.04833474053288
 20
0.0635860005622337
 42
0.0
 10
1.033442870302863
 20
0.0487121861500608
 42
0.0897498636939959
 10
1.054992265021407
 20
0.0336893058402592
 42
0.1162784600455089
 10
1.100093060274716
 20
0.0271838680846326
 42
0.1305494116801128
 10
1.134902795650507
 20
0.0379471166909786
 42
0.2700443324603339
 10
1.150563716135536
 20
0.0687356163070478
 42
0.2747552069495999
 97
        0
 92
        7
 72
     1
 73
     1
 93
       17
 10
1.204964925758659
 20
0.0711619205531866
 42
0.0
 10
1.204964925758659
 20
0.1705032481376225
 42
0.0
 10
1.182530424786222
 20
0.1705032481376221
 42
0.0
 10
1.182530424786222
 20
0.068114123580882
 42
0.231056446390574
 10
1.200275679141658
 20
0.0337787716591849
 42
0.1033983125445035
 10
1.222016181175408
 20
0.0271400549874108
 42
0.1113661879093152
 10
1.256252700835137
 20
0.0321455417860066
 42
0.060456799039856
 10
1.280359576718197
 20
0.0437750658039402
 42
0.0
 10
1.282436740080608
 20
0.0292528824702614
 42
0.0
 10
1.305008011852606
 20
0.0292528824702614
 42
0.0
 10
1.303035750365566
 20
0.045573054697837
 42
0.0
 10
1.303035750365566
 20
0.1704535782767582
 42
0.0
 10
1.280726706724607
 20
0.1704535782767582
 42
0.0
 10
1.280726706724607
 20
0.0603385752977079
 42
-0.0926529444633646
 10
1.271406905425951
 20
0.0542136206901671
 42
-0.0664344377826394
 10
1.252018117536273
 20
0.0470706779667407
 42
-0.0713593701437487
 10
1.22596399727168
 20
0.0462232117768133
 42
-0.3666103947779491
 97
        0
 92
        7
 72
     1
 73
     1
 93
       12
 10
1.34888971452673
 20
-0.0300855190343001
 42
0.0
 10
1.37158389411627
 20
-0.0300855190342997
 42
0.0
 10
1.37158389411627
 20
0.0381322242109672
 42
0.2065475696655794
 10
1.43316687203049
 20
0.0295489681525751
 42
0.2194428372319613
 10
1.471434120104095
 20
0.0681246169490031
 42
0.1323036971285341
 10
1.475462458348772
 20
0.1210354643912233
 42
0.1641390880683366
 10
1.453695611337639
 20
0.1611617476764042
 42
0.205639974219759
 10
1.404711616991345
 20
0.1717914749112652
 42
0.0657328919071964
 10
1.371062306057382
 20
0.1603071107053626
 42
0.0
 10
1.369185970032088
 20
0.1704922854774775
 42
0.0
 10
1.347893491957236
 20
0.1704922854774775
 42
0.0
 10
1.348889714526734
 20
0.1571025974974671
 42
0.0
 97
        0
 92
       22
 72
     1
 73
     1
 93
        8
 10
1.37158389411627
 20
0.1447873628418232
 42
-0.1242339830404592
 10
1.408127279067805
 20
0.1549128436768488
 42
-0.229840994742505
 10
1.439329608924591
 20
0.143501077402358
 42
-0.1934262502536381
 10
1.452032531529923
 20
0.1169919663469652
 42
-0.1013985410677669
 10
1.45007247035501
 20
0.0757878280977211
 42
-0.2083357761076617
 10
1.426144858393048
 20
0.0470888301796872
 42
-0.1496858148879605
 10
1.383365488627418
 20
0.0497243925890185
 42
-0.0899155484976542
 10
1.37158389411627
 20
0.0564933659367366
 42
0.0
 97
        0
 92
        7
 72
     1
 73
     1
 93
       12
 10
1.536384209201344
 20
0.0381322242109672
 42
0.2065475696655794
 10
1.597967187115564
 20
0.0295489681525751
 42
0.2194428372319613
 10
1.63623443518917
 20
0.0681246169490031
 42
0.1323036971285341
 10
1.640262773433846
 20
0.1210354643912233
 42
0.1641390880683366
 10
1.618495926422713
 20
0.1611617476764042
 42
0.205639974219759
 10
1.569511932076419
 20
0.1717914749112652
 42
0.0657328919071964
 10
1.535862621142456
 20
0.1603071107053626
 42
0.0
 10
1.533986285117165
 20
0.1704922854774775
 42
0.0
 10
1.51269380704231
 20
0.1704922854774775
 42
0.0
 10
1.513690029611812
 20
0.1571025974974671
 42
0.0
 10
1.513690029611804
 20
-0.0300855190343001
 42
0.0
 10
1.536384209201344
 20
-0.0300855190342997
 42
0.0
 97
        0
 92
       22
 72
     1
 73
     1
 93
        8
 10
1.53638420920134
 20
0.0564933659367348
 42
0.0
 10
1.536384209201344
 20
0.1447873628418232
 42
-0.1242339830404592
 10
1.572927594152879
 20
0.1549128436768488
 42
-0.229840994742505
 10
1.604129924009665
 20
0.143501077402358
 42
-0.1934262502536381
 10
1.616832846614997
 20
0.1169919663469652
 42
-0.1013985410677669
 10
1.614872785440084
 20
0.0757878280977211
 42
-0.2083357761076617
 10
1.590945173478122
 20
0.0470888301796872
 42
-0.1496858148879605
 10
1.548165803712493
 20
0.0497243925890185
 42
-0.0899155484976689
 97
        0
 92
        7
 72
     1
 73
     1
 93
        9
 10
1.700061888317705
 20
0.2342426883985293
 42
0.0
 10
1.677630680467434
 20
0.2342426883985293
 42
0.0
 10
1.67763068046743
 20
0.0525526462764159
 42
0.3003574180393968
 10
1.689763445472692
 20
0.0294232917661481
 42
0.1772930531369512
 10
1.716213749579594
 20
0.0296692382956376
 42
0.0
 10
1.726340843842322
 20
0.0328930300171466
 42
0.0
 10
1.722947015877874
 20
0.0450847282577249
 42
0.0
 10
1.715478639728772
 20
0.0445718860057287
 42
-0.4033750267256485
 10
1.700061888317705
 20
0.0551463102997136
 42
0.0
 97
        0
 92
        7
 72
     1
 73
     1
 93
       13
 10
1.756550300014353
 20
0.1705037737446156
 42
0.0
 10
1.733158403445031
 20
0.1705037737446147
 42
0.0
 10
1.789004390745333
 20
0.0387212794769898
 42
-0.1248046720339364
 10
1.779651976914252
 20
0.0098440558334927
 42
-0.2041270254703542
 10
1.758338890268429
 20
-0.0108879300937863
 42
-0.1582846410265598
 10
1.728104948139659
 20
-0.0088290148710986
 42
0.0
 10
1.723524002749954
 20
-0.0288461752875353
 42
0.0503996825504031
 10
1.752727303871125
 20
-0.0310194851179708
 42
0.1573307408029109
 10
1.778748174224848
 20
-0.02185783610684
 42
0.1379639421479074
 10
1.7998397718477
 20
0.0061205808064937
 42
0.0
 10
1.863932002621172
 20
0.1705037737446151
 42
0.0
 10
1.84037943355916
 20
0.1705037737446147
 42
0.0
 10
1.801429340670335
 20
0.0575527643750102
 42
0.0
 97
        0
 75
     0
 76
     1
 47
0.0008892483299936
 98
        8
 10
1.136466178840407
 20
0.0806040287034282
 10
1.218376325116423
 20
0.039698608137611
 10
1.365280380260387
 20
0.0654868019383397
 10
1.365280380260387
 20
0.0654868019383397
 10
1.532067085388874
 20
0.0510462190903649
 10
1.532067085388874
 20
0.0510462190903649
 10
1.692326025665067
 20
0.0661634458554534
 10
1.78937173321124
 20
0.0643849607353548
450
        0
451
        0
460
0.0
461
0.0
452
        1
462
1.0
453
        2
463
0.0
 63
     5
421
      255
463
1.0
 63
     7
421
 16777215
470
LINEAR
1001
ACAD
1010
0.0
1020
0.0
1030
0.0
  0
ENDBLK
  5
D59
330
D53
100
AcDbEntity
  8
0
100
AcDbBlockEnd
  0
BLOCK
  5
1079
330
106F
100
AcDbEntity
  8
0
100
AcDbBlockBegin
  2
*D5
 70
     1
 10
0.0
 20
0.0
 30
0.0
  3
*D5
  1

  0
LINE
  5
1103
330
106F
100
AcDbEntity
  8
DIM
 62
     0
370
    -2
100
AcDbLine
 10
7.134930897591998
 20
6.156643229878474
 30
0.0
 11
2.487141106835243
 21
6.156643229878475
 31
0.0
  0
LINE
  5
1104
330
106F
100
AcDbEntity
  8
DIM
 62
     0
370
    -2
100
AcDbLine
 10
7.364930897591999
 20
11.95664322987847
 30
0.0
 11
2.487141106835245
 21
11.95664322987847
 31
0.0
  0
LINE
  5
1105
330
106F
100
AcDbEntity
  8
DIM
 62
     0
370
    -2
100
AcDbLine
 10
2.637141106835244
 20
6.566643229878475
 30
0.0
 11
2.637141106835245
 21
11.54664322987847
 31
0.0
  0
SOLID
  5
1106
330
106F
100
AcDbEntity
  8
DIM
 62
     0
100
AcDbTrace
 10
2.568807773501911
 20
6.566643229878475
 30
0.0
 11
2.705474440168577
 21
6.566643229878475
 31
0.0
 12
2.637141106835244
 22
6.156643229878475
 32
0.0
 13
2.637141106835244
 23
6.156643229878475
 33
0.0
  0
SOLID
  5
1107
330
106F
100
AcDbEntity
  8
DIM
 62
     0
100
AcDbTrace
 10
2.568807773501912
 20
11.54664322987847
 30
0.0
 11
2.705474440168579
 21
11.54664322987847
 31
0.0
 12
2.637141106835245
 22
11.95664322987847
 32
0.0
 13
2.637141106835245
 23
11.95664322987847
 33
0.0
  0
MTEXT
  5
1108
330
106F
100
AcDbEntity
  8
DIM
 62
     0
100
AcDbMText
 10
2.281828394394727
 20
9.056643229878476
 30
0.0
 40
0.41
 41
0.0
 46
0.0
 71
     5
 72
     1
  1
\A1;5.80
 11
0.0000000000000001
 21
1.0
 31
0.0
 73
     1
 44
1.0
  0
POINT
  5
1109
330
106F
100
AcDbEntity
  8
Defpoints
 62
     0
100
AcDbPoint
 10
7.254930897591998
 20
6.156643229878474
 30
0.0
  0
POINT
  5
110A
330
106F
100
AcDbEntity
  8
Defpoints
 62
     0
100
AcDbPoint
 10
7.484930897591999
 20
11.95664322987847
 30
0.0
  0
POINT
  5
110B
330
106F
100
AcDbEntity
  8
Defpoints
 62
     0
100
AcDbPoint
 10
2.637141106835245
 20
11.95664322987847
 30
0.0
  0
ENDBLK
  5
107A
330
106F
100
AcDbEntity
  8
0
100
AcDbBlockEnd
  0
BLOCK
  5
1087
330
107D
100
AcDbEntity
  8
0
100
AcDbBlockBegin
  2
*D6
 70
     1
 10
0.0
 20
0.0
 30
0.0
  3
*D6
  1

  0
LINE
  5
110C
330
107D
100
AcDbEntity
  8
DIM
 62
     0
370
    -2
100
AcDbLine
 10
7.134930897591999
 20
6.156643229878473
 30
0.0
 11
4.758330480288313
 21
6.156643229878474
 31
0.0
  0
LINE
  5
110D
330
107D
100
AcDbEntity
  8
DIM
 62
     0
370
    -2
100
AcDbLine
 10
7.084930897591998
 20
11.50664322987847
 30
0.0
 11
4.758330480288313
 21
11.50664322987847
 31
0.0
  0
LINE
  5
110E
330
107D
100
AcDbEntity
  8
DIM
 62
     0
370
    -2
100
AcDbLine
 10
4.908330480288312
 20
6.566643229878474
 30
0.0
 11
4.908330480288313
 21
11.09664322987847
 31
0.0
  0
SOLID
  5
110F
330
107D
100
AcDbEntity
  8
DIM
 62
     0
100
AcDbTrace
 10
4.839997146954979
 20
6.566643229878474
 30
0.0
 11
4.976663813621645
 21
6.566643229878474
 31
0.0
 12
4.908330480288312
 22
6.156643229878474
 32
0.0
 13
4.908330480288312
 23
6.156643229878474
 33
0.0
  0
SOLID
  5
1110
330
107D
100
AcDbEntity
  8
DIM
 62
     0
100
AcDbTrace
 10
4.83999714695498
 20
11.09664322987847
 30
0.0
 11
4.976663813621646
 21
11.09664322987847
 31
0.0
 12
4.908330480288313
 22
11.50664322987847
 32
0.0
 13
4.908330480288313
 23
11.50664322987847
 33
0.0
  0
MTEXT
  5
1111
330
107D
100
AcDbEntity
  8
DIM
 62
     0
100
AcDbMText
 10
4.553017767847794
 20
8.831643229878475
 30
0.0
 40
0.41
 41
0.0
 46
0.0
 71
     5
 72
     1
  1
\A1;5.35
 11
0.0000000000000001
 21
1.0
 31
0.0
 73
     1
 44
1.0
  0
POINT
  5
1112
330
107D
100
AcDbEntity
  8
Defpoints
 62
     0
100
AcDbPoint
 10
7.254930897591999
 20
6.156643229878473
 30
0.0
  0
POINT
  5
1113
330
107D
100
AcDbEntity
  8
Defpoints
 62
     0
100
AcDbPoint
 10
7.204930897591998
 20
11.50664322987847
 30
0.0
  0
POINT
  5
1114
330
107D
100
AcDbEntity
  8
Defpoints
 62
     0
100
AcDbPoint
 10
4.908330480288313
 20
11.50664322987847
 30
0.0
  0
ENDBLK
  5
1088
330
107D
100
AcDbEntity
  8
0
100
AcDbBlockEnd
  0
BLOCK
  5
1097
330
108B
100
AcDbEntity
  8
0
100
AcDbBlockBegin
  2
*D7
 70
     1
 10
0.0
 20
0.0
 30
0.0
  3
*D7
  1

  0
LINE
  5
1115
330
108B
100
AcDbEntity
  8
DIM
 62
     0
370
    -2
100
AcDbLine
 10
30.2879337931177
 20
14.22799953894391
 30
0.0
 11
32.29555192864029
 21
14.22799953894391
 31
0.0
  0
LINE
  5
1116
330
108B
100
AcDbEntity
  8
DIM
 62
     0
370
    -2
100
AcDbLine
 10
30.2879337931177
 20
14.6779995389439
 30
0.0
 11
32.29555192864029
 21
14.6779995389439
 31
0.0
  0
LINE
  5
1117
330
108B
100
AcDbEntity
  8
DIM
 62
     0
370
    -2
100
AcDbLine
 10
32.14555192864029
 20
15.0879995389439
 30
0.0
 11
32.14555192864029
 21
15.4979995389439
 31
0.0
  0
LINE
  5
1118
330
108B
100
AcDbEntity
  8
DIM
 62
     0
370
    -2
100
AcDbLine
 10
32.14555192864029
 20
13.81799953894391
 30
0.0
 11
32.14555192864029
 21
11.66485630646728
 31
0.0
  0
LINE
  5
1119
330
108B
100
AcDbEntity
  8
DIM
 62
     0
370
    -2
100
AcDbLine
 10
32.14555192864029
 20
14.6779995389439
 30
0.0
 11
32.14555192864029
 21
14.22799953894391
 31
0.0
  0
SOLID
  5
111A
330
108B
100
AcDbEntity
  8
DIM
 62
     0
100
AcDbTrace
 10
32.07721859530695
 20
15.0879995389439
 30
0.0
 11
32.21388526197362
 21
15.0879995389439
 31
0.0
 12
32.14555192864029
 22
14.6779995389439
 32
0.0
 13
32.14555192864029
 23
14.6779995389439
 33
0.0
  0
SOLID
  5
111B
330
108B
100
AcDbEntity
  8
DIM
 62
     0
100
AcDbTrace
 10
32.07721859530695
 20
13.81799953894391
 30
0.0
 11
32.21388526197362
 21
13.81799953894391
 31
0.0
 12
32.14555192864029
 22
14.22799953894391
 32
0.0
 13
32.14555192864029
 23
14.22799953894391
 33
0.0
  0
MTEXT
  5
111C
330
108B
100
AcDbEntity
  8
DIM
 62
     0
100
AcDbMText
 10
31.79023921619978
 20
12.33679716302745
 30
0.0
 40
0.41
 41
0.0
 46
0.0
 71
     5
 72
     1
  1
\A1;0.45
 11
0.0000000000000001
 21
1.0
 31
0.0
 73
     1
 44
1.0
  0
POINT
  5
111D
330
108B
100
AcDbEntity
  8
Defpoints
 62
     0
100
AcDbPoint
 10
30.1679337931177
 20
14.22799953894391
 30
0.0
  0
POINT
  5
111E
330
108B
100
AcDbEntity
  8
Defpoints
 62
     0
100
AcDbPoint
 10
30.1679337931177
 20
14.6779995389439
 30
0.0
  0
POINT
  5
111F
330
108B
100
AcDbEntity
  8
Defpoints
 62
     0
100
AcDbPoint
 10
32.14555192864029
 20
14.6779995389439
 30
0.0
  0
ENDBLK
  5
1098
330
108B
100
AcDbEntity
  8
0
100
AcDbBlockEnd
  0
BLOCK
  5
10B0
330
10A6
100
AcDbEntity
  8
0
100
AcDbBlockBegin
  2
*D8
 70
     1
 10
0.0
 20
0.0
 30
0.0
  3
*D8
  1

  0
LINE
  5
1120
330
10A6
100
AcDbEntity
  8
DIM
 62
     0
370
    -2
100
AcDbLine
 10
8.425266937479081
 20
15.89799953894391
 30
0.0
 11
11.00208125512504
 21
15.89799953894391
 31
0.0
  0
LINE
  5
1121
330
10A6
100
AcDbEntity
  8
DIM
 62
     0
370
    -2
100
AcDbLine
 10
8.909930897591998
 20
14.22799953894391
 30
0.0
 11
11.00208125512504
 21
14.22799953894391
 31
0.0
  0
LINE
  5
1122
330
10A6
100
AcDbEntity
  8
DIM
 62
     0
370
    -2
100
AcDbLine
 10
10.85208125512504
 20
15.48799953894391
 30
0.0
 11
10.85208125512504
 21
14.63799953894391
 31
0.0
  0
SOLID
  5
1123
330
10A6
100
AcDbEntity
  8
DIM
 62
     0
100
AcDbTrace
 10
10.78374792179171
 20
15.48799953894391
 30
0.0
 11
10.92041458845837
 21
15.48799953894391
 31
0.0
 12
10.85208125512504
 22
15.89799953894391
 32
0.0
 13
10.85208125512504
 23
15.89799953894391
 33
0.0
  0
SOLID
  5
1124
330
10A6
100
AcDbEntity
  8
DIM
 62
     0
100
AcDbTrace
 10
10.78374792179171
 20
14.63799953894391
 30
0.0
 11
10.92041458845837
 21
14.63799953894391
 31
0.0
 12
10.85208125512504
 22
14.22799953894391
 32
0.0
 13
10.85208125512504
 23
14.22799953894391
 33
0.0
  0
MTEXT
  5
1125
330
10A6
100
AcDbEntity
  8
DIM
 62
     0
100
AcDbMText
 10
10.49676854268452
 20
15.06299953894391
 30
0.0
 40
0.41
 41
0.0
 46
0.0
 71
     5
 72
     1
  1
\A1;1.67
 11
0.0000000000000001
 21
1.0
 31
0.0
 73
     1
 44
1.0
  0
POINT
  5
1126
330
10A6
100
AcDbEntity
  8
Defpoints
 62
     0
100
AcDbPoint
 10
8.305266937479082
 20
15.89799953894391
 30
0.0
  0
POINT
  5
1127
330
10A6
100
AcDbEntity
  8
Defpoints
 62
     0
100
AcDbPoint
 10
8.789930897591998
 20
14.22799953894391
 30
0.0
  0
POINT
  5
1128
330
10A6
100
AcDbEntity
  8
Defpoints
 62
     0
100
AcDbPoint
 10
10.85208125512504
 20
14.22799953894391
 30
0.0
  0
ENDBLK
  5
10B1
330
10A6
100
AcDbEntity
  8
0
100
AcDbBlockEnd
  0
BLOCK
  5
10D0
330
10C6
100
AcDbEntity
  8
0
100
AcDbBlockBegin
  2
*D9
 70
     1
 10
0.0
 20
0.0
 30
0.0
  3
*D9
  1

  0
LINE
  5
1129
330
10C6
100
AcDbEntity
  8
DIM
 62
     0
370
    -2
100
AcDbLine
 10
28.5829337931177
 20
6.086643229878474
 30
0.0
 11
28.5829337931177
 21
5.040994105716739
 31
0.0
  0
LINE
  5
112A
330
10C6
100
AcDbEntity
  8
DIM
 62
     0
370
    -2
100
AcDbLine
 10
30.6229337931177
 20
6.086643229878474
 30
0.0
 11
30.6229337931177
 21
5.040994105716739
 31
0.0
  0
LINE
  5
112B
330
10C6
100
AcDbEntity
  8
DIM
 62
     0
370
    -2
100
AcDbLine
 10
28.9929337931177
 20
5.19099410571674
 30
0.0
 11
30.2129337931177
 21
5.19099410571674
 31
0.0
  0
SOLID
  5
112C
330
10C6
100
AcDbEntity
  8
DIM
 62
     0
100
AcDbTrace
 10
28.9929337931177
 20
5.259327439050073
 30
0.0
 11
28.9929337931177
 21
5.122660772383406
 31
0.0
 12
28.5829337931177
 22
5.19099410571674
 32
0.0
 13
28.5829337931177
 23
5.19099410571674
 33
0.0
  0
SOLID
  5
112D
330
10C6
100
AcDbEntity
  8
DIM
 62
     0
100
AcDbTrace
 10
30.2129337931177
 20
5.259327439050073
 30
0.0
 11
30.2129337931177
 21
5.122660772383406
 31
0.0
 12
30.6229337931177
 22
5.19099410571674
 32
0.0
 13
30.6229337931177
 23
5.19099410571674
 33
0.0
  0
MTEXT
  5
112E
330
10C6
100
AcDbEntity
  8
DIM
 62
     0
100
AcDbMText
 10
29.6029337931177
 20
5.546306818157257
 30
0.0
 40
0.41
 41
0.0
 46
0.0
 71
     5
 72
     1
  1
\A1;2.04
 73
     1
 44
1.0
  0
POINT
  5
112F
330
10C6
100
AcDbEntity
  8
Defpoints
 62
     0
100
AcDbPoint
 10
28.5829337931177
 20
6.206643229878474
 30
0.0
  0
POINT
  5
1130
330
10C6
100
AcDbEntity
  8
Defpoints
 62
     0
100
AcDbPoint
 10
30.6229337931177
 20
6.206643229878474
 30
0.0
  0
POINT
  5
1131
330
10C6
100
AcDbEntity
  8
Defpoints
 62
     0
100
AcDbPoint
 10
30.6229337931177
 20
5.19099410571674
 30
0.0
  0
ENDBLK
  5
10D1
330
10C6
100
AcDbEntity
  8
0
100
AcDbBlockEnd
  0
ENDSEC
  0
SECTION
  2
ENTITIES
  0
LWPOLYLINE
  5
43D
330
1F
100
AcDbEntity
  8
FORMAT
370
    15
100
AcDbPolyline
 90
        4
 70
     1
 43
0.0
 10
0.0
 20
0.0
 10
35.9606480338857
 20
0.0
 10
35.9606480338857
 20
27.23233540430192
 10
0.0
 20
27.23233540430192
  0
LINE
  5
43E
330
1F
100
AcDbEntity
  8
FORMAT
370
    15
100
AcDbLine
 10
14.17784845441687
 20
4.232335404301912
 30
0.0
 11
35.9606480338857
 21
4.232335404301912
 31
0.0
  0
LINE
  5
43F
330
1F
100
AcDbEntity
  8
FORMAT
370
    15
100
AcDbLine
 10
0.0
 20
4.232335404301912
 30
0.0
 11
14.17784845441687
 21
4.232335404301912
 31
0.0
  0
LINE
  5
440
330
1F
100
AcDbEntity
  8
FORMAT
370
    15
100
AcDbLine
 10
20.85964706719614
 20
2.219418848589657
 30
0.0
 11
14.17784845441687
 21
2.219418848589657
 31
0.0
  0
LINE
  5
441
330
1F
100
AcDbEntity
  8
FORMAT
370
    15
100
AcDbLine
 10
20.85964706719614
 20
4.232335404301912
 30
0.0
 11
20.85964706719614
 21
0.0
 31
0.0
  0
LINE
  5
442
330
1F
100
AcDbEntity
  8
FORMAT
370
    15
100
AcDbLine
 10
30.64572095127064
 20
4.232335404301912
 30
0.0
 11
30.64572095127064
 21
2.219418848589657
 31
0.0
  0
LINE
  5
443
330
1F
100
AcDbEntity
  8
FORMAT
370
    15
100
AcDbLine
 10
35.9606480338857
 20
1.323178419925521
 30
0.0
 11
28.53537355935719
 21
1.323178419925521
 31
0.0
  0
LINE
  5
444
330
1F
100
AcDbEntity
  8
FORMAT
370
    15
100
AcDbLine
 10
28.53537355935719
 20
0.0
 30
0.0
 11
28.53537355935719
 21
2.219418848589657
 31
0.0
  0
LINE
  5
445
330
1F
100
AcDbEntity
  8
FORMAT
370
    15
100
AcDbLine
 10
30.5814927807638
 20
27.23233540430192
 30
0.0
 11
30.5814927807638
 21
26.28215964167396
 31
0.0
  0
LINE
  5
446
330
1F
100
AcDbEntity
  8
FORMAT
370
    15
100
AcDbLine
 10
35.9606480338857
 20
2.219418848589657
 30
0.0
 11
20.85964706719614
 21
2.219418848589657
 31
0.0
  0
LINE
  5
447
330
1F
100
AcDbEntity
  8
FORMAT
370
    15
100
AcDbLine
 10
30.5814927807638
 20
26.28215964167396
 30
0.0
 11
35.9606480338857
 21
26.28215964167396
 31
0.0
  0
LINE
  5
448
330
1F
100
AcDbEntity
  8
FORMAT
370
    15
100
AcDbLine
 10
14.17784845441687
 20
4.232335404301912
 30
0.0
 11
14.17784845441687
 21
0.0
 31
0.0
  0
MTEXT
  5
449
330
1F
100
AcDbEntity
  8
0
  6
Continuous
 62
   160
370
     0
100
AcDbMText
 10
28.93016831772879
 20
2.073752441745175
 30
0.0
 40
0.2909437543194679
 41
0.0
 46
0.0
 71
     1
 72
     1
  1
http://www.amazonsupply.com
  7
SLDTEXTSTYLE0
 73
     1
 44
1.0
1001
PE_URL
1000
http://www.amazonsupply.com/
1002
{
1000
http://www.amazonsupply.com/
1002
{
1071
        1
1002
}
1002
}
  0
INSERT
  5
44A
330
1F
100
AcDbEntity
  8
0
  6
Continuous
 62
     7
100
AcDbBlockReference
  2
Block2
 10
-1.595338870308324
 20
-4.224085549446657
 30
0.0
 41
3.491325051833711
 42
3.491325051833565
 43
3.491325051833578
  0
TEXT
  5
44B
330
1F
100
AcDbEntity
  8
FORMAT
 62
     7
100
AcDbText
 10
20.99616759001875
 20
3.722242653705492
 30
0.0
 40
0.3491325051833578
  1
MATERIAL :
 41
0.9
  7
SLDTEXTSTYLE1
100
AcDbText
  0
TEXT
  5
44C
330
1F
100
AcDbEntity
  8
FORMAT
 62
     7
100
AcDbText
 10
15.3697534837841
 20
2.759340293925904
 30
0.0
 40
0.4364156314791974
  1
B00CBKBZO2 
 41
0.9
  7
SLDTEXTSTYLE1
100
AcDbText
  0
TEXT
  5
44D
330
1F
100
AcDbEntity
  8
FORMAT
 62
     7
100
AcDbText
 10
31.38090131945205
 20
26.50060673578239
 30
0.0
 40
0.4364156314791974
  1
B00CBKBZO2 
  7
SLDTEXTSTYLE1
100
AcDbText
  0
TEXT
  5
44E
330
1F
100
AcDbEntity
  8
FORMAT
 62
     7
100
AcDbText
 10
15.37408861640466
 20
0.6469270245383805
 30
0.0
 40
0.4364156314791974
  1
Burndy 
 41
0.9
  7
SLDTEXTSTYLE1
100
AcDbText
  0
TEXT
  5
44F
330
1F
100
AcDbEntity
  8
FORMAT
 62
     0
100
AcDbText
 10
22.69110963223254
 20
2.862945254893842
 30
0.0
 40
0.4364156314792018
  1
Polyethylene
 41
0.9
  7
SLDTEXTSTYLE1
100
AcDbText
  0
TEXT
  5
450
330
1F
100
AcDbEntity
  8
FORMAT
 62
     7
100
AcDbText
 10
0.3596124069073361
 20
3.279032519279159
 30
0.0
 40
0.3491325051833578
  1
ITEM NAME:
 41
0.9
  7
SLDTEXTSTYLE1
100
AcDbText
  0
TEXT
  5
451
330
1F
100
AcDbEntity
  8
FORMAT
 62
     7
100
AcDbText
 10
14.45111417896358
 20
3.555298675701493
 30
0.0
 40
0.3491325051833578
  1
ASIN :
 41
0.9
  7
SLDTEXTSTYLE1
100
AcDbText
  0
TEXT
  5
453
330
1F
100
AcDbEntity
  8
FORMAT
 62
     0
100
AcDbText
 10
21.12949681503959
 20
1.632964891094971
 30
0.0
 40
0.2182078157396009
  1
# UNLESS OTHERWISE SPECIFIED
 41
0.95
  7
SLDTEXTSTYLE1
100
AcDbText
  0
TEXT
  5
454
330
1F
100
AcDbEntity
  8
FORMAT
 62
     0
100
AcDbText
 10
21.45736481282231
 20
1.303289094735323
 30
0.0
 40
0.2182078157396009
  1
DIMENSIONS ARE IN INCHES
 41
0.95
  7
SLDTEXTSTYLE1
100
AcDbText
  0
TEXT
  5
455
330
1F
100
AcDbEntity
  8
FORMAT
 62
     0
100
AcDbText
 10
21.12949681503959
 20
0.6614491765296667
 30
0.0
 40
0.2182078157396009
  1
# INFORMATION IN THIS DRAWING IS PROVIDED FOR
 41
0.95
  7
SLDTEXTSTYLE1
100
AcDbText
  0
TEXT
  5
456
330
1F
100
AcDbEntity
  8
FORMAT
 62
     0
100
AcDbText
 10
21.45647477414493
 20
0.3317733801700216
 30
0.0
 40
0.2182078157396009
  1
REFERENCE ONLY
 41
0.95
  7
SLDTEXTSTYLE1
100
AcDbText
  0
TEXT
  5
457
330
1F
100
AcDbEntity
  8
FORMAT
 62
     7
100
AcDbText
 10
14.37120533357165
 20
1.506151889720075
 30
0.0
 40
0.3491325051833578
  1
BRAND :
 41
0.9
  7
SLDTEXTSTYLE1
100
AcDbText
  0
MTEXT
  5
50B
330
1F
100
AcDbEntity
  8
FORMAT
 62
     7
100
AcDbMText
 10
1.329936244059412
 20
2.910514264153265
 30
0.0
 40
0.4364156314791974
 41
11.98501077772422
 46
0.0
 71
     1
 72
     1
  1
{\fCalibri|b0|i0|c0|p34;\H0.9167x;\C256;Burndy PEN A13-8 Oxide-Inhibiting Joint Compounds PENETROX A-13, 8 oz Container Size, Squeeze Bottle Container Type}
  7
SLDTEXTSTYLE1
 73
     1
 44
1.0
  0
INSERT
  5
D5F
330
1F
100
AcDbEntity
  8
0
100
AcDbBlockReference
  2
amazon block
 10
29.11328270943524
 20
0.3696359628208412
 30
0.0
 41
3.4
 42
3.399999999999999
 43
3.399999999999999
  0
ARC
  5
F0A
330
1F
100
AcDbEntity
  8
DIM
  6
Continuous
 62
     7
370
    15
100
AcDbCircle
 10
9.194930897591998
 20
6.206643229878474
 30
0.0
 40
0.0499999999999998
100
AcDbArc
 50
270.0000000000008
 51
0.0
  0
ARC
  5
F0B
330
1F
100
AcDbEntity
  8
DIM
  6
Continuous
 62
     7
370
    15
100
AcDbCircle
 10
7.254930897591998
 20
6.206643229878474
 30
0.0
 40
0.0500000000000007
100
AcDbArc
 50
180.0
 51
270.0000000000008
  0
LINE
  5
F0C
330
1F
100
AcDbEntity
  8
DIM
  6
Continuous
 62
     7
370
    15
100
AcDbLine
 10
9.244930897591997
 20
6.206643229878474
 30
0.0
 11
9.244930897591997
 21
11.50664322987847
 31
0.0
  0
LINE
  5
F0D
330
1F
100
AcDbEntity
  8
DIM
  6
Continuous
 62
     7
370
    15
100
AcDbLine
 10
7.204930897591998
 20
11.50664322987847
 30
0.0
 11
7.204930897591998
 21
6.206643229878474
 31
0.0
  0
SPLINE
  5
F0E
330
1F
100
AcDbEntity
  8
DIM
  6
Continuous
 62
     7
370
    15
100
AcDbSpline
210
0.0
220
0.0
230
1.0
 70
     8
 71
     3
 72
     9
 73
     5
 74
     0
 42
0.0000000001
 43
0.0000000001
 40
0.0
 40
0.0
 40
0.0
 40
0.0
 40
0.323158003719657
 40
1.0
 40
1.0
 40
1.0
 40
1.0
 10
8.971569422318097
 20
11.77279319160654
 30
0.0
 10
8.976217998169659
 20
11.77399903203872
 30
0.0
 10
8.9906028371588
 20
11.77773045882777
 30
0.0
 10
8.993183915425445
 20
11.78543110747527
 30
0.0
 10
8.994930897591999
 20
11.7906432298785
 30
0.0
  0
SPLINE
  5
F0F
330
1F
100
AcDbEntity
  8
DIM
  6
Continuous
 62
     7
370
    15
100
AcDbSpline
210
0.0
220
0.0
230
1.0
 70
     8
 71
     3
 72
     9
 73
     5
 74
     0
 42
0.0000000001
 43
0.0000000001
 40
0.0
 40
0.0
 40
0.0
 40
0.0
 40
0.3231580037196523
 40
1.0
 40
1.0
 40
1.0
 40
1.0
 10
8.971569422318097
 20
11.65679319160654
 30
0.0
 10
8.976217998169659
 20
11.65799903203871
 30
0.0
 10
8.9906028371588
 20
11.66173045882777
 30
0.0
 10
8.993183915425445
 20
11.66943110747527
 30
0.0
 10
8.994930897591999
 20
11.6746432298785
 30
0.0
  0
SPLINE
  5
F10
330
1F
100
AcDbEntity
  8
DIM
  6
Continuous
 62
     7
370
    15
100
AcDbSpline
210
0.0
220
0.0
230
1.0
 70
     8
 71
     3
 72
    14
 73
    10
 74
     0
 42
0.0000000001
 43
0.0000000001
 40
0.0
 40
0.0
 40
0.0
 40
0.0
 40
0.1845159137825224
 40
0.3468237404778496
 40
0.4658496166083117
 40
0.589132093483589
 40
0.7599797146187611
 40
0.9783178583551251
 40
1.0
 40
1.0
 40
1.0
 40
1.0
 10
7.476406573585927
 20
11.75241182263933
 30
0.0
 10
7.471819626090093
 20
11.75098836876361
 30
0.0
 10
7.463197809926551
 20
11.74831278600518
 30
0.0
 10
7.45517001202603
 20
11.74269891898668
 30
0.0
 10
7.4547894043313
 20
11.72378758951435
 30
0.0
 10
7.467741317436722
 20
11.71296902833648
 30
0.0
 10
7.480066233787569
 20
11.71091179739556
 30
0.0
 10
7.490012808313501
 20
11.70922520210052
 30
0.0
 10
7.500672053424922
 20
11.70844804669914
 30
0.0
 10
7.501634952298099
 20
11.70837784266008
 30
0.0
  0
SPLINE
  5
F11
330
1F
100
AcDbEntity
  8
DIM
  6
Continuous
 62
     7
370
    15
100
AcDbSpline
210
0.0
220
0.0
230
1.0
 70
     8
 71
     3
 72
    14
 73
    10
 74
     0
 42
0.0000000001
 43
0.0000000001
 40
0.0
 40
0.0
 40
0.0
 40
0.0
 40
0.1845159137825194
 40
0.3468237404778464
 40
0.4658496166083145
 40
0.5891320934835874
 40
0.7599797146187636
 40
0.9783178583551229
 40
1.0
 40
1.0
 40
1.0
 40
1.0
 10
7.476406573585927
 20
11.63641182263933
 30
0.0
 10
7.471819626090093
 20
11.63498836876362
 30
0.0
 10
7.463197809926551
 20
11.63231278600519
 30
0.0
 10
7.45517001202603
 20
11.62669891898668
 30
0.0
 10
7.4547894043313
 20
11.60778758951435
 30
0.0
 10
7.467741317436722
 20
11.59696902833649
 30
0.0
 10
7.480066233787569
 20
11.59491179739557
 30
0.0
 10
7.490012808313501
 20
11.59322520210052
 30
0.0
 10
7.500672053424922
 20
11.59244804669915
 30
0.0
 10
7.501634952298099
 20
11.59237784266007
 30
0.0
  0
SPLINE
  5
F12
330
1F
100
AcDbEntity
  8
DIM
  6
Continuous
 62
     7
370
    15
100
AcDbSpline
210
0.0
220
0.0
230
1.0
 70
     8
 71
     3
 72
    11
 73
     7
 74
     0
 42
0.0000000001
 43
0.0000000001
 40
0.0
 40
0.0
 40
0.0
 40
0.0
 40
0.3132330755053063
 40
0.5967973922655184
 40
0.8488047880242213
 40
1.0
 40
1.0
 40
1.0
 40
1.0
 10
8.994930897591999
 20
11.67464322986142
 30
0.0
 10
8.992664491703354
 20
11.67967430105044
 30
0.0
 10
8.988346348984945
 20
11.68925991125799
 30
0.0
 10
8.962331450365368
 20
11.6963093482498
 30
0.0
 10
8.935854355284529
 20
11.6998853199921
 30
0.0
 10
8.915975830065006
 20
11.7012063448291
 30
0.0
 10
8.908521667376875
 20
11.7017017102519
 30
0.0
  0
SPLINE
  5
F13
330
1F
100
AcDbEntity
  8
DIM
  6
Continuous
 62
     7
370
    15
100
AcDbSpline
210
0.0
220
0.0
230
1.0
 70
     8
 71
     3
 72
    11
 73
     7
 74
     0
 42
0.0000000001
 43
0.0000000001
 40
0.0
 40
0.0
 40
0.0
 40
0.0
 40
0.3132330754781262
 40
0.5967973922495455
 40
0.8488047880182078
 40
1.0
 40
1.0
 40
1.0
 40
1.0
 10
8.994930897591999
 20
11.55864322986174
 30
0.0
 10
8.992664491702996
 20
11.56367430105071
 30
0.0
 10
8.988346348983641
 20
11.57325991125875
 30
0.0
 10
8.962331450365388
 20
11.5803093482497
 30
0.0
 10
8.935854355284526
 20
11.58388531999211
 30
0.0
 10
8.915975830065002
 20
11.5852063448291
 30
0.0
 10
8.908521667376872
 20
11.5857017102519
 30
0.0
  0
SPLINE
  5
F14
330
1F
100
AcDbEntity
  8
DIM
  6
Continuous
 62
     7
370
    15
100
AcDbSpline
210
0.0
220
0.0
230
1.0
 70
     8
 71
     3
 72
    11
 73
     7
 74
     0
 42
0.0000000001
 43
0.0000000001
 40
0.0
 40
0.0
 40
0.0
 40
0.0
 40
0.3132330755053059
 40
0.5967973922655042
 40
0.8488047880242014
 40
1.0
 40
1.0
 40
1.0
 40
1.0
 10
8.994930897591999
 20
11.79064322986142
 30
0.0
 10
8.992664491703354
 20
11.79567430105044
 30
0.0
 10
8.988346348984945
 20
11.805259911258
 30
0.0
 10
8.962331450365368
 20
11.8123093482498
 30
0.0
 10
8.935854355284529
 20
11.8158853199921
 30
0.0
 10
8.915975830065004
 20
11.8172063448291
 30
0.0
 10
8.908521667376872
 20
11.8177017102519
 30
0.0
  0
SPLINE
  5
F15
330
1F
100
AcDbEntity
  8
DIM
  6
Continuous
 62
     7
370
    15
100
AcDbSpline
210
0.0
220
0.0
230
1.0
 70
     8
 71
     3
 72
    14
 73
    10
 74
     0
 42
0.0000000001
 43
0.0000000001
 40
0.0
 40
0.0
 40
0.0
 40
0.0
 40
0.1845159137825261
 40
0.3468237404778506
 40
0.4658496166083202
 40
0.5891320934835948
 40
0.7599797146187674
 40
0.9783178583551277
 40
1.0
 40
1.0
 40
1.0
 40
1.0
 10
7.476406573585927
 20
11.86841182263933
 30
0.0
 10
7.471819626090093
 20
11.86698836876361
 30
0.0
 10
7.463197809926551
 20
11.86431278600518
 30
0.0
 10
7.45517001202603
 20
11.85869891898668
 30
0.0
 10
7.4547894043313
 20
11.83978758951435
 30
0.0
 10
7.467741317436722
 20
11.82896902833648
 30
0.0
 10
7.480066233787569
 20
11.82691179739556
 30
0.0
 10
7.490012808313499
 20
11.82522520210052
 30
0.0
 10
7.500672053424922
 20
11.82444804669914
 30
0.0
 10
7.501634952298099
 20
11.82437784266008
 30
0.0
  0
SPLINE
  5
F16
330
1F
100
AcDbEntity
  8
DIM
  6
Continuous
 62
     7
370
    15
100
AcDbSpline
210
0.0
220
0.0
230
1.0
 70
     8
 71
     3
 72
     9
 73
     5
 74
     0
 42
0.0000000001
 43
0.0000000001
 40
0.0
 40
0.0
 40
0.0
 40
0.0
 40
0.323158003721731
 40
1.0
 40
1.0
 40
1.0
 40
1.0
 10
8.971569422318097
 20
11.88879319160654
 30
0.0
 10
8.976217998169659
 20
11.88999903203871
 30
0.0
 10
8.990602837158707
 20
11.89373045882773
 30
0.0
 10
8.99318391542541
 20
11.90143110747525
 30
0.0
 10
8.994930897591999
 20
11.90664322987847
 30
0.0
  0
LINE
  5
F17
330
1F
100
AcDbEntity
  8
DIM
  6
Continuous
 62
     7
370
    15
100
AcDbLine
 10
7.474930897591997
 20
11.59664322987847
 30
0.0
 11
7.474930897591997
 21
11.50664322987847
 31
0.0
  0
LINE
  5
F18
330
1F
100
AcDbEntity
  8
DIM
  6
Continuous
 62
     7
370
    15
100
AcDbLine
 10
7.474930897591997
 20
11.71264322987847
 30
0.0
 11
7.474930897591997
 21
11.63664322987847
 31
0.0
  0
LINE
  5
F19
330
1F
100
AcDbEntity
  8
DIM
  6
Continuous
 62
     7
370
    15
100
AcDbLine
 10
7.474930897591997
 20
11.82864322987847
 30
0.0
 11
7.474930897591997
 21
11.75264322987847
 31
0.0
  0
LINE
  5
F1A
330
1F
100
AcDbEntity
  8
DIM
  6
Continuous
 62
     7
370
    15
100
AcDbLine
 10
7.474930897591997
 20
11.94664322987847
 30
0.0
 11
7.474930897591997
 21
11.86864322987847
 31
0.0
  0
LINE
  5
F1B
330
1F
100
AcDbEntity
  8
DIM
  6
Continuous
 62
     7
370
    15
100
AcDbLine
 10
8.974930897591999
 20
11.92664322987847
 30
0.0
 11
8.974930897591999
 21
11.94664322987847
 31
0.0
  0
LINE
  5
F1C
330
1F
100
AcDbEntity
  8
DIM
  6
Continuous
 62
     7
370
    15
100
AcDbLine
 10
8.974930897591999
 20
11.81064322987847
 30
0.0
 11
8.974930897591999
 21
11.88664322987847
 31
0.0
  0
LINE
  5
F1D
330
1F
100
AcDbEntity
  8
DIM
  6
Continuous
 62
     7
370
    15
100
AcDbLine
 10
8.974930897591999
 20
11.69464322987847
 30
0.0
 11
8.974930897591999
 21
11.77064322987847
 31
0.0
  0
LINE
  5
F1E
330
1F
100
AcDbEntity
  8
DIM
  6
Continuous
 62
     7
370
    15
100
AcDbLine
 10
8.974930897591999
 20
11.57864322987847
 30
0.0
 11
8.974930897591999
 21
11.65464322987847
 31
0.0
  0
LINE
  5
F1F
330
1F
100
AcDbEntity
  8
DIM
  6
Continuous
 62
     7
370
    15
100
AcDbLine
 10
8.974930897591999
 20
11.50664322987847
 30
0.0
 11
8.974930897591999
 21
11.53864322987847
 31
0.0
  0
ARC
  5
F20
330
1F
100
AcDbEntity
  8
DIM
  6
Continuous
 62
     7
370
    15
100
AcDbCircle
 10
7.484930897591999
 20
11.94664322987847
 30
0.0
 40
0.0100000000000016
100
AcDbArc
 50
90.0
 51
180.0
  0
ARC
  5
F21
330
1F
100
AcDbEntity
  8
DIM
  6
Continuous
 62
     7
370
    15
100
AcDbCircle
 10
8.964930897591997
 20
11.94664322987847
 30
0.0
 40
0.0100000000000016
100
AcDbArc
 50
0.0
 51
90.0
  0
LINE
  5
F22
330
1F
100
AcDbEntity
  8
DIM
  6
Continuous
 62
     7
370
    15
100
AcDbLine
 10
8.789930897591998
 20
14.22799953894391
 30
0.0
 11
8.789930897591998
 21
14.6779995389439
 31
0.0
  0
LINE
  5
F23
330
1F
100
AcDbEntity
  8
DIM
  6
Continuous
 62
     7
370
    15
100
AcDbLine
 10
7.659930897591998
 20
14.6779995389439
 30
0.0
 11
7.659930897591998
 21
14.22799953894391
 31
0.0
  0
ARC
  5
F24
330
1F
100
AcDbEntity
  8
DIM
  6
Continuous
 62
     7
370
    15
100
AcDbCircle
 10
8.378185912494153
 20
14.07367400714752
 30
0.0
 40
0.7312614314554047
100
AcDbArc
 50
55.73223002894891
 51
78.70912852378679
  0
ARC
  5
F25
330
1F
100
AcDbEntity
  8
DIM
  6
Continuous
 62
     7
370
    15
100
AcDbCircle
 10
8.071675882689843
 20
14.07367400714752
 30
0.0
 40
0.7312614314554047
100
AcDbArc
 50
101.2908714762132
 51
124.267769971051
  0
ARC
  5
F26
330
1F
100
AcDbEntity
  8
DIM
  6
Continuous
 62
     7
370
    15
100
AcDbCircle
 10
8.525275318657454
 20
14.81039542327912
 30
0.0
 40
0.0200000000000013
100
AcDbArc
 50
189.5413217173907
 51
258.7091285237875
  0
ARC
  5
F27
330
1F
100
AcDbEntity
  8
DIM
  6
Continuous
 62
     7
370
    15
100
AcDbCircle
 10
7.92458647652654
 20
14.81039542327912
 30
0.0
 40
0.0200000000000019
100
AcDbArc
 50
281.2908714762191
 51
350.4586782826116
  0
LINE
  5
F28
330
1F
100
AcDbEntity
  8
DIM
  6
Continuous
 62
     7
370
    15
100
AcDbLine
 10
8.505551992403201
 20
14.80708024583767
 30
0.0
 11
8.451963789298638
 21
15.12589805631004
 31
0.0
  0
LINE
  5
F29
330
1F
100
AcDbEntity
  8
DIM
  6
Continuous
 62
     7
370
    15
100
AcDbLine
 10
7.997898005885359
 20
15.12589805631004
 30
0.0
 11
7.944309802780795
 21
14.80708024583767
 31
0.0
  0
LINE
  5
F2A
330
1F
100
AcDbEntity
  8
DIM
  6
Continuous
 62
     7
370
    15
100
AcDbLine
 10
8.454515888612373
 20
15.12589805631004
 30
0.0
 11
8.452591590559075
 21
15.13843926674472
 31
0.0
  0
LINE
  5
F2B
330
1F
100
AcDbEntity
  8
DIM
  6
Continuous
 62
     7
370
    15
100
AcDbLine
 10
7.997270204624921
 20
15.13843926674472
 30
0.0
 11
7.995345906571621
 21
15.12589805631004
 31
0.0
  0
LINE
  5
F2C
330
1F
100
AcDbEntity
  8
DIM
  6
Continuous
 62
     7
370
    15
100
AcDbLine
 10
8.449855811294037
 20
15.13843926674472
 30
0.0
 11
8.375379895899991
 21
15.58152649309796
 31
0.0
  0
LINE
  5
F2D
330
1F
100
AcDbEntity
  8
DIM
  6
Continuous
 62
     7
370
    15
100
AcDbLine
 10
8.074481899284005
 20
15.58152649309796
 30
0.0
 11
8.000005983889959
 21
15.13843926674472
 31
0.0
  0
LINE
  5
F2E
330
1F
100
AcDbEntity
  8
DIM
  6
Continuous
 62
     7
370
    15
100
AcDbLine
 10
8.376758453721061
 20
15.58152649309796
 30
0.0
 11
8.375229428253538
 21
15.59149159705641
 31
0.0
  0
LINE
  5
F2F
330
1F
100
AcDbEntity
  8
DIM
  6
Continuous
 62
     7
370
    15
100
AcDbLine
 10
8.074632366930458
 20
15.59149159705641
 30
0.0
 11
8.073103341462935
 21
15.58152649309796
 31
0.0
  0
LINE
  5
F30
330
1F
100
AcDbEntity
  8
DIM
  6
Continuous
 62
     7
370
    15
100
AcDbLine
 10
8.373704920420758
 20
15.59149159705641
 30
0.0
 11
8.324990263733333
 21
15.88131471638536
 31
0.0
  0
LINE
  5
F31
330
1F
100
AcDbEntity
  8
DIM
  6
Continuous
 62
     7
370
    15
100
AcDbLine
 10
8.124871531450663
 20
15.88131471638536
 30
0.0
 11
8.076156874763237
 21
15.59149159705641
 31
0.0
  0
ARC
  5
F32
330
1F
100
AcDbEntity
  8
DIM
  6
Continuous
 62
     7
370
    15
100
AcDbCircle
 10
8.305266937479082
 20
15.87799953894391
 30
0.0
 40
0.0199999999999984
100
AcDbArc
 50
9.54132171739079
 51
90.0
  0
ARC
  5
F33
330
1F
100
AcDbEntity
  8
DIM
  6
Continuous
 62
     7
370
    15
100
AcDbCircle
 10
8.144594857704914
 20
15.87799953894391
 30
0.0
 40
0.0199999999999984
100
AcDbArc
 50
90.0
 51
170.4586782826092
  0
LINE
  5
F34
330
1F
100
AcDbEntity
  8
DIM
  6
Continuous
 62
     7
370
    15
100
AcDbLine
 10
7.254930897591998
 20
6.156643229878474
 30
0.0
 11
9.194930897591998
 21
6.156643229878474
 31
0.0
  0
LINE
  5
F35
330
1F
100
AcDbEntity
  8
DIM
  6
Continuous
 62
     7
370
    15
100
AcDbLine
 10
7.204930897591998
 20
11.50664322987847
 30
0.0
 11
9.244930897591997
 21
11.50664322987847
 31
0.0
  0
ARC
  5
F36
330
1F
100
AcDbEntity
  8
DIM
  6
Continuous
 62
     7
370
    15
100
AcDbCircle
 10
8.974930897591999
 20
11.55864322987847
 30
0.0
 40
0.0199999999999996
100
AcDbArc
 50
270.0000000000008
 51
0.0236094573240242
  0
SPLINE
  5
F37
330
1F
100
AcDbEntity
  8
DIM
  6
Continuous
 62
     7
370
    15
100
AcDbSpline
210
0.0
220
0.0
230
1.0
 70
     8
 71
     3
 72
    26
 73
    22
 74
     0
 42
0.0000000001
 43
0.0000000001
 40
0.0
 40
0.0
 40
0.0
 40
0.0
 40
0.0548778551560441
 40
0.1104406127646561
 40
0.1660033703732679
 40
0.2208812255293128
 40
0.2757590806853576
 40
0.3313218382939695
 40
0.3868845959025813
 40
0.4417624510586255
 40
0.4966403062146697
 40
0.5522030638232823
 40
0.6077658214318941
 40
0.6626436765879383
 40
0.7175215317439823
 40
0.7730842893525942
 40
0.8286470469612067
 40
0.8835249021172508
 40
0.938402757273295
 40
0.9939655148819069
 40
1.0
 40
1.0
 40
1.0
 40
1.0
 10
8.974930897591999
 20
11.53864322987847
 30
0.0
 10
8.973167149015585
 20
11.53958585780286
 30
0.0
 10
8.969617639418538
 20
11.54148287810881
 30
0.0
 10
8.940975924139225
 20
11.54444322987848
 30
0.0
 10
8.895886234526674
 20
11.5474035816481
 30
0.0
 10
8.834147189700667
 20
11.55024322987856
 30
0.0
 10
8.757625623995354
 20
11.55308287810848
 30
0.0
 10
8.667608006763778
 20
11.55604322987976
 30
0.0
 10
8.566606686758813
 20
11.55900358164334
 30
0.0
 10
8.457636734924443
 20
11.56184322989609
 30
0.0
 10
8.342984693295715
 20
11.56468287804269
 30
0.0
 10
8.224930777111607
 20
11.56764323012872
 30
0.0
 10
8.106877580839606
 20
11.57060358071945
 30
0.0
 10
7.992223406060242
 20
11.57344323329671
 30
0.0
 10
7.883261287561525
 20
11.57628286527923
 30
0.0
 10
7.782230414334613
 20
11.57924327842632
 30
0.0
 10
7.692322912146549
 20
11.58220340148316
 30
0.0
 10
7.615395332801169
 20
11.5850438930237
 30
0.0
 10
7.555173879786277
 20
11.58788038914012
 30
0.0
 10
7.519514620807743
 20
11.58996585386506
 30
0.0
 10
7.509612372234135
 20
11.59105716562724
 30
0.0
 10
7.508642280570807
 20
11.59116407795474
 30
0.0
  0
SPLINE
  5
F38
330
1F
100
AcDbEntity
  8
DIM
  6
Continuous
 62
     7
370
    15
100
AcDbSpline
210
0.0
220
0.0
230
1.0
 70
     8
 71
     3
 72
    26
 73
    22
 74
     0
 42
0.0000000001
 43
0.0000000001
 40
0.0
 40
0.0
 40
0.0
 40
0.0
 40
0.0548778551560441
 40
0.1104406127646561
 40
0.1660033703732679
 40
0.2208812255293128
 40
0.2757590806853569
 40
0.3313218382939688
 40
0.3868845959025806
 40
0.4417624510586255
 40
0.4966403062146689
 40
0.5522030638232823
 40
0.6077658214318942
 40
0.6626436765879383
 40
0.7175215317439826
 40
0.7730842893525943
 40
0.8286470469612069
 40
0.883524902117251
 40
0.938402757273295
 40
0.9939655148819069
 40
1.0
 40
1.0
 40
1.0
 40
1.0
 10
8.974930897591999
 20
11.65464322987847
 30
0.0
 10
8.973167149015585
 20
11.65558585780286
 30
0.0
 10
8.969617639418538
 20
11.65748287810882
 30
0.0
 10
8.940975924139225
 20
11.66044322987848
 30
0.0
 10
8.895886234526676
 20
11.6634035816481
 30
0.0
 10
8.834147189700667
 20
11.66624322987856
 30
0.0
 10
8.757625623995354
 20
11.66908287810848
 30
0.0
 10
8.667608006763778
 20
11.67204322987976
 30
0.0
 10
8.566606686758813
 20
11.67500358164334
 30
0.0
 10
8.457636734924445
 20
11.67784322989609
 30
0.0
 10
8.342984693295715
 20
11.68068287804269
 30
0.0
 10
8.224930777111607
 20
11.68364323012871
 30
0.0
 10
8.106877580839608
 20
11.68660358071945
 30
0.0
 10
7.992223406060242
 20
11.68944323329671
 30
0.0
 10
7.883261287561525
 20
11.69228286527923
 30
0.0
 10
7.782230414334613
 20
11.69524327842633
 30
0.0
 10
7.692322912146549
 20
11.69820340148316
 30
0.0
 10
7.615395332801169
 20
11.7010438930237
 30
0.0
 10
7.555173879786273
 20
11.70388038914012
 30
0.0
 10
7.519514620807743
 20
11.70596585386507
 30
0.0
 10
7.509612372234135
 20
11.70705716562724
 30
0.0
 10
7.508642280570807
 20
11.70716407795474
 30
0.0
  0
SPLINE
  5
F39
330
1F
100
AcDbEntity
  8
DIM
  6
Continuous
 62
     7
370
    15
100
AcDbSpline
210
0.0
220
0.0
230
1.0
 70
     8
 71
     3
 72
    26
 73
    22
 74
     0
 42
0.0000000001
 43
0.0000000001
 40
0.0
 40
0.0
 40
0.0
 40
0.0
 40
0.0548778551560445
 40
0.1104406127646567
 40
0.166003370373269
 40
0.2208812255293127
 40
0.2757590806853572
 40
0.331321838293969
 40
0.3868845959025808
 40
0.4417624510586254
 40
0.4966403062146691
 40
0.5522030638232817
 40
0.6077658214318938
 40
0.6626436765879379
 40
0.7175215317439822
 40
0.7730842893525942
 40
0.8286470469612062
 40
0.8835249021172504
 40
0.9384027572732948
 40
0.9939655148819067
 40
1.0
 40
1.0
 40
1.0
 40
1.0
 10
8.974930897591999
 20
11.77064322987847
 30
0.0
 10
8.973167149015585
 20
11.77158585780286
 30
0.0
 10
8.969617639418538
 20
11.77348287810882
 30
0.0
 10
8.940975924139225
 20
11.77644322987848
 30
0.0
 10
8.895886234526674
 20
11.7794035816481
 30
0.0
 10
8.834147189700665
 20
11.78224322987856
 30
0.0
 10
8.757625623995354
 20
11.78508287810848
 30
0.0
 10
8.667608006763778
 20
11.78804322987976
 30
0.0
 10
8.566606686758813
 20
11.79100358164334
 30
0.0
 10
8.457636734924443
 20
11.79384322989609
 30
0.0
 10
8.342984693295715
 20
11.79668287804269
 30
0.0
 10
8.224930777111607
 20
11.79964323012872
 30
0.0
 10
8.106877580839608
 20
11.80260358071945
 30
0.0
 10
7.992223406060242
 20
11.80544323329671
 30
0.0
 10
7.883261287561525
 20
11.80828286527923
 30
0.0
 10
7.782230414334613
 20
11.81124327842633
 30
0.0
 10
7.692322912146549
 20
11.81420340148316
 30
0.0
 10
7.615395332801169
 20
11.8170438930237
 30
0.0
 10
7.555173879786273
 20
11.81988038914012
 30
0.0
 10
7.519514620807743
 20
11.82196585386507
 30
0.0
 10
7.509612372234135
 20
11.82305716562724
 30
0.0
 10
7.508642280570807
 20
11.82316407795474
 30
0.0
  0
ARC
  5
F3A
330
1F
100
AcDbEntity
  8
DIM
  6
Continuous
 62
     7
370
    15
100
AcDbCircle
 10
8.974930897591999
 20
11.90664322987847
 30
0.0
 40
0.0200000000000014
100
AcDbArc
 50
270.0000000000008
 51
90.0
  0
SPLINE
  5
F3B
330
1F
100
AcDbEntity
  8
DIM
  6
Continuous
 62
     7
370
    15
100
AcDbSpline
210
0.0
220
0.0
230
1.0
 70
     8
 71
     3
 72
    25
 73
    21
 74
     0
 42
0.0000000001
 43
0.0000000001
 40
0.0
 40
0.0
 40
0.0
 40
0.0
 40
0.011610163680676
 40
0.0694112665172078
 40
0.1272123693537395
 40
0.1857348582025571
 40
0.2442573470513747
 40
0.3020584498879057
 40
0.3598595527244368
 40
0.4183820415732552
 40
0.4769045304220729
 40
0.5347056332586039
 40
0.5925067360951349
 40
0.6510292249439525
 40
0.7095517137927709
 40
0.7673528166293019
 40
0.8251539194658329
 40
0.8836764083146505
 40
0.9421988971634682
 40
1.0
 40
1.0
 40
1.0
 40
1.0
 10
8.901854331797084
 20
11.58681136883612
 30
0.0
 10
8.898936948098853
 20
11.58700715332434
 30
0.0
 10
8.881495394044975
 20
11.58817764925069
 30
0.0
 10
8.833240162856471
 20
11.5902395838917
 30
0.0
 10
8.757872047178484
 20
11.59308386865968
 30
0.0
 10
8.667541605324981
 20
11.59604296296132
 30
0.0
 10
8.56662423231678
 20
11.59900365218548
 30
0.0
 10
8.45763206806483
 20
11.60184321108494
 30
0.0
 10
8.342985931665582
 20
11.60468288321469
 30
0.0
 10
8.224930555317271
 20
11.60764322850263
 30
0.0
 10
8.106877224179113
 20
11.61060358201171
 30
0.0
 10
7.992225027677148
 20
11.6134432297816
 30
0.0
 10
7.883255117277251
 20
11.61628287813514
 30
0.0
 10
7.78225378603491
 20
11.61924322987138
 30
0.0
 10
7.692236171818997
 20
11.62220358165
 30
0.0
 10
7.615714605315384
 20
11.62504322987797
 30
0.0
 10
7.553975560702934
 20
11.62788287810895
 30
0.0
 10
7.508885871032537
 20
11.63084322987844
 30
0.0
 10
7.48024415576847
 20
11.63380358164813
 30
0.0
 10
7.476694646169411
 20
11.63570060195409
 30
0.0
 10
7.474930897591997
 20
11.63664322987847
 30
0.0
  0
SPLINE
  5
F3C
330
1F
100
AcDbEntity
  8
DIM
  6
Continuous
 62
     7
370
    15
100
AcDbSpline
210
0.0
220
0.0
230
1.0
 70
     8
 71
     3
 72
    25
 73
    21
 74
     0
 42
0.0000000001
 43
0.0000000001
 40
0.0
 40
0.0
 40
0.0
 40
0.0
 40
0.0116101636806814
 40
0.0694112665172129
 40
0.1272123693537435
 40
0.1857348582025608
 40
0.2442573470513781
 40
0.3020584498879095
 40
0.3598595527244394
 40
0.4183820415732584
 40
0.4769045304220758
 40
0.5347056332586064
 40
0.5925067360951372
 40
0.6510292249439545
 40
0.7095517137927726
 40
0.7673528166293032
 40
0.8251539194658338
 40
0.8836764083146512
 40
0.9421988971634684
 40
1.0
 40
1.0
 40
1.0
 40
1.0
 10
8.901854331797087
 20
11.70281136883611
 30
0.0
 10
8.898936948098855
 20
11.70300715332434
 30
0.0
 10
8.881495394044977
 20
11.70417764925069
 30
0.0
 10
8.833240162856471
 20
11.7062395838917
 30
0.0
 10
8.757872047178485
 20
11.70908386865968
 30
0.0
 10
8.667541605324984
 20
11.71204296296132
 30
0.0
 10
8.566624232316781
 20
11.71500365218548
 30
0.0
 10
8.45763206806483
 20
11.71784321108494
 30
0.0
 10
8.342985931665584
 20
11.72068288321469
 30
0.0
 10
8.224930555317271
 20
11.72364322850262
 30
0.0
 10
8.106877224179113
 20
11.72660358201172
 30
0.0
 10
7.992225027677148
 20
11.7294432297816
 30
0.0
 10
7.883255117277251
 20
11.73228287813514
 30
0.0
 10
7.78225378603491
 20
11.73524322987138
 30
0.0
 10
7.692236171818999
 20
11.73820358165
 30
0.0
 10
7.615714605315384
 20
11.74104322987797
 30
0.0
 10
7.553975560702934
 20
11.74388287810895
 30
0.0
 10
7.508885871032537
 20
11.74684322987844
 30
0.0
 10
7.48024415576847
 20
11.74980358164813
 30
0.0
 10
7.476694646169411
 20
11.75170060195409
 30
0.0
 10
7.474930897591997
 20
11.75264322987847
 30
0.0
  0
SPLINE
  5
F3D
330
1F
100
AcDbEntity
  8
DIM
  6
Continuous
 62
     7
370
    15
100
AcDbSpline
210
0.0
220
0.0
230
1.0
 70
     8
 71
     3
 72
    25
 73
    21
 74
     0
 42
0.0000000001
 43
0.0000000001
 40
0.0
 40
0.0
 40
0.0
 40
0.0
 40
0.0116101636806791
 40
0.0694112665172096
 40
0.1272123693537408
 40
0.1857348582025584
 40
0.2442573470513758
 40
0.3020584498879071
 40
0.3598595527244377
 40
0.418382041573256
 40
0.4769045304220737
 40
0.5347056332586049
 40
0.592506736095136
 40
0.6510292249439537
 40
0.7095517137927717
 40
0.7673528166293025
 40
0.8251539194658336
 40
0.8836764083146514
 40
0.9421988971634689
 40
1.0
 40
1.0
 40
1.0
 40
1.0
 10
8.901854331797085
 20
11.81881136883611
 30
0.0
 10
8.898936948098853
 20
11.81900715332434
 30
0.0
 10
8.881495394044975
 20
11.82017764925069
 30
0.0
 10
8.833240162856471
 20
11.8222395838917
 30
0.0
 10
8.757872047178484
 20
11.82508386865968
 30
0.0
 10
8.667541605324984
 20
11.82804296296132
 30
0.0
 10
8.566624232316781
 20
11.83100365218548
 30
0.0
 10
8.45763206806483
 20
11.83384321108494
 30
0.0
 10
8.342985931665584
 20
11.83668288321469
 30
0.0
 10
8.224930555317271
 20
11.83964322850263
 30
0.0
 10
8.106877224179113
 20
11.84260358201171
 30
0.0
 10
7.992225027677148
 20
11.8454432297816
 30
0.0
 10
7.883255117277251
 20
11.84828287813514
 30
0.0
 10
7.78225378603491
 20
11.85124322987138
 30
0.0
 10
7.692236171818997
 20
11.85420358165
 30
0.0
 10
7.615714605315384
 20
11.85704322987797
 30
0.0
 10
7.553975560702934
 20
11.85988287810895
 30
0.0
 10
7.508885871032537
 20
11.86284322987844
 30
0.0
 10
7.48024415576847
 20
11.86580358164813
 30
0.0
 10
7.476694646169411
 20
11.86770060195409
 30
0.0
 10
7.474930897591997
 20
11.86864322987847
 30
0.0
  0
LINE
  5
F3E
330
1F
100
AcDbEntity
  8
DIM
  6
Continuous
 62
     7
370
    15
100
AcDbLine
 10
8.974930897591999
 20
11.88664322987847
 30
0.0
 11
8.974930897591999
 21
11.92664322987847
 31
0.0
  0
LINE
  5
F3F
330
1F
100
AcDbEntity
  8
DIM
  6
Continuous
 62
     7
370
    15
100
AcDbLine
 10
7.484930899067366
 20
11.95664322987847
 30
0.0
 11
8.964930897591997
 21
11.95664322987847
 31
0.0
  0
LINE
  5
F40
330
1F
100
AcDbEntity
  8
DIM
  6
Continuous
 62
     7
370
    15
100
AcDbLine
 10
8.789930897591998
 20
14.6779995389439
 30
0.0
 11
7.659930897591998
 21
14.6779995389439
 31
0.0
  0
LINE
  5
F41
330
1F
100
AcDbEntity
  8
DIM
  6
Continuous
 62
     7
370
    15
100
AcDbLine
 10
8.789930897591998
 20
14.22799953894391
 30
0.0
 11
7.659930897591998
 21
14.22799953894391
 31
0.0
  0
LINE
  5
F42
330
1F
100
AcDbEntity
  8
DIM
  6
Continuous
 62
     7
370
    15
100
AcDbLine
 10
7.997270204624921
 20
15.13843926674472
 30
0.0
 11
8.452591590559075
 21
15.13843926674472
 31
0.0
  0
LINE
  5
F43
330
1F
100
AcDbEntity
  8
DIM
  6
Continuous
 62
     7
370
    15
100
AcDbLine
 10
7.995345906571621
 20
15.12589805631004
 30
0.0
 11
8.454515888612373
 21
15.12589805631004
 31
0.0
  0
LINE
  5
F44
330
1F
100
AcDbEntity
  8
DIM
  6
Continuous
 62
     7
370
    15
100
AcDbLine
 10
8.074632366930458
 20
15.59149159705641
 30
0.0
 11
8.375229428253538
 21
15.59149159705641
 31
0.0
  0
LINE
  5
F45
330
1F
100
AcDbEntity
  8
DIM
  6
Continuous
 62
     7
370
    15
100
AcDbLine
 10
8.073103341462935
 20
15.58152649309796
 30
0.0
 11
8.376758453721061
 21
15.58152649309796
 31
0.0
  0
LINE
  5
F46
330
1F
100
AcDbEntity
  8
DIM
  6
Continuous
 62
     7
370
    15
100
AcDbLine
 10
8.144594857704914
 20
15.89799953894391
 30
0.0
 11
8.305266937479082
 21
15.89799953894391
 31
0.0
  0
LINE
  5
F47
330
1F
100
AcDbEntity
  8
DIM
  6
Continuous
 62
     8
370
    15
100
AcDbLine
 10
7.204930897591998
 20
6.206643229878474
 30
0.0
 11
9.244930897591999
 21
6.206643229878474
 31
0.0
  0
LINE
  5
F48
330
1F
100
AcDbEntity
  8
DIM
  6
Continuous
 62
     8
370
    15
100
AcDbLine
 10
8.974930897591999
 20
11.94664322987847
 30
0.0
 11
7.474930897591997
 21
11.94664322987847
 31
0.0
  0
LINE
  5
F49
330
1F
100
AcDbEntity
  8
DIM
  6
Continuous
 62
     8
370
    15
100
AcDbLine
 10
8.521359520507711
 20
14.79078250598336
 30
0.0
 11
7.928502274676285
 21
14.79078250598336
 31
0.0
  0
LINE
  5
F4A
330
1F
100
AcDbEntity
  8
DIM
  6
Continuous
 62
     8
370
    15
100
AcDbLine
 10
8.505551992403201
 20
14.80708024583767
 30
0.0
 11
7.944309802780795
 21
14.80708024583767
 31
0.0
  0
LINE
  5
F4B
330
1F
100
AcDbEntity
  8
DIM
  6
Continuous
 62
     8
370
    15
100
AcDbLine
 10
8.324990263733333
 20
15.88131471638536
 30
0.0
 11
8.124871531450663
 21
15.88131471638536
 31
0.0
  0
LINE
  5
F4C
330
1F
100
AcDbEntity
  8
DIM
  6
HIDDEN
 62
     7
370
     0
100
AcDbLine
 10
7.224930897591999
 20
11.48664322987847
 30
0.0
 11
9.224930897591997
 21
11.48664322987847
 31
0.0
  0
LINE
  5
F4D
330
1F
100
AcDbEntity
  8
DIM
  6
HIDDEN
 62
     7
370
     0
100
AcDbLine
 10
9.224930897591997
 20
6.176643229878474
 30
0.0
 11
7.224930897591999
 21
6.176643229878474
 31
0.0
  0
ARC
  5
F4E
330
1F
100
AcDbEntity
  8
DIM
  6
HIDDEN
 62
     7
370
     0
100
AcDbCircle
 10
8.974930897591999
 20
11.55864322987847
 30
0.0
 40
0.0199999999999996
100
AcDbArc
 50
0.0236094573240242
 51
90.0
  0
LWPOLYLINE
  5
F4F
330
1F
100
AcDbEntity
  8
DIM
  6
HIDDEN
 62
     7
370
     0
100
AcDbPolyline
 90
       24
 70
   128
 43
0.0
 10
7.508642280570807
 20
11.59116407795474
 10
7.484050607368233
 20
11.59379745108248
 10
7.474930897591997
 20
11.59664322987847
 10
7.484050607368233
 20
11.59948900867446
 10
7.511638510370634
 20
11.60244322987847
 10
7.557008285578104
 20
11.60539745108248
 10
7.618168151810786
 20
11.60824322987847
 10
7.69408401842895
 20
11.61108900867446
 10
7.784091958372643
 20
11.61404322987847
 10
7.885089699722675
 20
11.61699745108248
 10
7.993168151810788
 20
11.61984322987847
 10
8.106882894508144
 20
11.62268900867446
 10
8.224930897591997
 20
11.62564322987847
 10
8.342978900675849
 20
11.62859745108248
 10
8.456693643373208
 20
11.63144322987847
 10
8.564772095461316
 20
11.63428900867446
 10
8.66576983681135
 20
11.63724322987847
 10
8.755777776755044
 20
11.64019745108248
 10
8.831693643373208
 20
11.64304322987847
 10
8.892853509605892
 20
11.64588900867446
 10
8.938223284813362
 20
11.64884322987847
 10
8.965811187815763
 20
11.65179745108248
 10
8.974930897591999
 20
11.65464322987847
 10
8.974930897591999
 20
11.65464322987847
  0
LWPOLYLINE
  5
F50
330
1F
100
AcDbEntity
  8
DIM
  6
HIDDEN
 62
     7
370
     0
100
AcDbPolyline
 90
       24
 70
   128
 43
0.0
 10
7.508642280570807
 20
11.70716407795474
 10
7.484050607368233
 20
11.70979745108248
 10
7.474930897591997
 20
11.71264322987847
 10
7.484050607368233
 20
11.71548900867446
 10
7.511638510370634
 20
11.71844322987847
 10
7.557008285578104
 20
11.72139745108248
 10
7.618168151810786
 20
11.72424322987847
 10
7.69408401842895
 20
11.72708900867446
 10
7.784091958372643
 20
11.73004322987847
 10
7.885089699722676
 20
11.73299745108248
 10
7.993168151810788
 20
11.73584322987847
 10
8.106882894508148
 20
11.73868900867446
 10
8.224930897591997
 20
11.74164322987847
 10
8.342978900675849
 20
11.74459745108248
 10
8.456693643373208
 20
11.74744322987847
 10
8.56477209546132
 20
11.75028900867446
 10
8.665769836811353
 20
11.75324322987847
 10
8.755777776755044
 20
11.75619745108248
 10
8.831693643373208
 20
11.75904322987847
 10
8.892853509605892
 20
11.76188900867446
 10
8.938223284813362
 20
11.76484322987847
 10
8.965811187815765
 20
11.76779745108248
 10
8.974930897591999
 20
11.77064322987847
 10
8.974930897591999
 20
11.77064322987847
  0
LWPOLYLINE
  5
F51
330
1F
100
AcDbEntity
  8
DIM
  6
HIDDEN
 62
     7
370
     0
100
AcDbPolyline
 90
       24
 70
   128
 43
0.0
 10
7.508642280570807
 20
11.82316407795474
 10
7.484050607368233
 20
11.82579745108248
 10
7.474930897591997
 20
11.82864322987847
 10
7.484050607368233
 20
11.83148900867446
 10
7.511638510370634
 20
11.83444322987847
 10
7.557008285578104
 20
11.83739745108248
 10
7.618168151810786
 20
11.84024322987847
 10
7.69408401842895
 20
11.84308900867446
 10
7.784091958372643
 20
11.84604322987847
 10
7.885089699722676
 20
11.84899745108248
 10
7.993168151810788
 20
11.85184322987847
 10
8.106882894508146
 20
11.85468900867446
 10
8.224930897591997
 20
11.85764322987847
 10
8.342978900675849
 20
11.86059745108248
 10
8.456693643373208
 20
11.86344322987847
 10
8.56477209546132
 20
11.86628900867446
 10
8.665769836811353
 20
11.86924322987847
 10
8.755777776755044
 20
11.87219745108248
 10
8.831693643373208
 20
11.87504322987847
 10
8.892853509605892
 20
11.87788900867446
 10
8.938223284813362
 20
11.88084322987847
 10
8.965811187815763
 20
11.88379745108248
 10
8.974930897591999
 20
11.88664322987847
 10
8.974930897591999
 20
11.88664322987847
  0
SPLINE
  5
F52
330
1F
100
AcDbEntity
  8
DIM
  6
HIDDEN
 62
     7
370
     0
100
AcDbSpline
210
0.0
220
0.0
230
1.0
 70
     8
 71
     3
 72
    10
 73
     6
 74
     0
 42
0.0000000001
 43
0.0000000001
 40
0.0
 40
0.0
 40
0.0
 40
0.0
 40
0.3540954953462199
 40
0.7126102755299435
 40
1.0
 40
1.0
 40
1.0
 40
1.0
 10
8.974930897591999
 20
11.57864322987847
 30
0.0
 10
8.973071023034083
 20
11.57958541011606
 30
0.0
 10
8.969328061774797
 20
11.58148152946107
 30
0.0
 10
8.943955728927715
 20
11.584251676265
 30
0.0
 10
8.914818634525641
 20
11.58602316151651
 30
0.0
 10
8.901854331797084
 20
11.58681136883612
 30
0.0
  0
SPLINE
  5
F53
330
1F
100
AcDbEntity
  8
DIM
  6
HIDDEN
 62
     7
370
     0
100
AcDbSpline
210
0.0
220
0.0
230
1.0
 70
     8
 71
     3
 72
    30
 73
    26
 74
     0
 42
0.0000000001
 43
0.0000000001
 40
0.0
 40
0.0
 40
0.0
 40
0.0
 40
0.0435750698716309
 40
0.0876939779115174
 40
0.1318128859514039
 40
0.1753879558230342
 40
0.2189630256946649
 40
0.2630819337345512
 40
0.3072008417744376
 40
0.3507759116460683
 40
0.394350981517698
 40
0.4384698895575851
 40
0.4825887975974716
 40
0.5261638674691027
 40
0.5697389373407323
 40
0.6138578453806188
 40
0.6579767534205065
 40
0.7015518232921366
 40
0.7451268931637669
 40
0.7892458012036534
 40
0.8333647092435398
 40
0.8769397791151707
 40
0.920514848986801
 40
0.9646337570266876
 40
1.0
 40
1.0
 40
1.0
 40
1.0
 10
7.474930897591997
 20
11.63664322987847
 30
0.0
 10
7.476694646168656
 20
11.63758585780286
 30
0.0
 10
7.480244155766202
 20
11.63948287810882
 30
0.0
 10
7.508885871041744
 20
11.64244322987847
 30
0.0
 10
7.553975560668595
 20
11.64540358164813
 30
0.0
 10
7.615714605441819
 20
11.64824322987847
 30
0.0
 10
7.692236171344449
 20
11.65108287810882
 30
0.0
 10
7.782253787830635
 20
11.65404322987847
 30
0.0
 10
7.883255110613172
 20
11.65700358164811
 30
0.0
 10
7.992225052206066
 20
11.65984322987853
 30
0.0
 10
8.106877132115252
 20
11.66268287810862
 30
0.0
 10
8.224930903691891
 20
11.66564322987923
 30
0.0
 10
8.342984638819547
 20
11.66860358164533
 30
0.0
 10
8.457636826729657
 20
11.67144322988877
 30
0.0
 10
8.566606371722576
 20
11.67428287807018
 30
0.0
 10
8.667609190777911
 20
11.67724323002468
 30
0.0
 10
8.757621232164899
 20
11.68020358110555
 30
0.0
 10
8.834163354444271
 20
11.68304323187557
 30
0.0
 10
8.895825563894909
 20
11.68588287061316
 30
0.0
 10
8.941205505044266
 20
11.68884325824244
 30
0.0
 10
8.96876564635531
 20
11.69180347638717
 30
0.0
 10
8.978066885413731
 20
11.69464361731952
 30
0.0
 10
8.968473920220452
 20
11.69748142393467
 30
0.0
 10
8.94412148855034
 20
11.70025169674406
 30
0.0
 10
8.914869676963052
 20
11.70202316782263
 30
0.0
 10
8.901854331797087
 20
11.70281136883611
 30
0.0
  0
SPLINE
  5
F54
330
1F
100
AcDbEntity
  8
DIM
  6
HIDDEN
 62
     7
370
     0
100
AcDbSpline
210
0.0
220
0.0
230
1.0
 70
     8
 71
     3
 72
    30
 73
    26
 74
     0
 42
0.0000000001
 43
0.0000000001
 40
0.0
 40
0.0
 40
0.0
 40
0.0
 40
0.0435750698716305
 40
0.0876939779115172
 40
0.1318128859514038
 40
0.1753879558230337
 40
0.2189630256946641
 40
0.2630819337345507
 40
0.3072008417744374
 40
0.3507759116460673
 40
0.3943509815176983
 40
0.4384698895575844
 40
0.4825887975974707
 40
0.526163867469101
 40
0.569738937340731
 40
0.6138578453806173
 40
0.6579767534205043
 40
0.7015518232921345
 40
0.745126893163765
 40
0.7892458012036517
 40
0.8333647092435382
 40
0.8769397791151682
 40
0.9205148489867987
 40
0.9646337570266855
 40
1.0
 40
1.0
 40
1.0
 40
1.0
 10
7.474930897591997
 20
11.75264322987847
 30
0.0
 10
7.476694646168656
 20
11.75358585780286
 30
0.0
 10
7.480244155766202
 20
11.75548287810882
 30
0.0
 10
7.508885871041748
 20
11.75844322987847
 30
0.0
 10
7.553975560668595
 20
11.76140358164813
 30
0.0
 10
7.615714605441819
 20
11.76424322987847
 30
0.0
 10
7.692236171344449
 20
11.76708287810882
 30
0.0
 10
7.782253787830635
 20
11.77004322987848
 30
0.0
 10
7.883255110613173
 20
11.77300358164811
 30
0.0
 10
7.992225052206066
 20
11.77584322987853
 30
0.0
 10
8.106877132115254
 20
11.77868287810862
 30
0.0
 10
8.224930903691893
 20
11.78164322987923
 30
0.0
 10
8.342984638819547
 20
11.78460358164533
 30
0.0
 10
8.457636826729657
 20
11.78744322988876
 30
0.0
 10
8.566606371722576
 20
11.79028287807018
 30
0.0
 10
8.667609190777911
 20
11.79324323002468
 30
0.0
 10
8.757621232164899
 20
11.79620358110555
 30
0.0
 10
8.834163354444271
 20
11.79904323187557
 30
0.0
 10
8.895825563894909
 20
11.80188287061316
 30
0.0
 10
8.941205505044266
 20
11.80484325824244
 30
0.0
 10
8.968765646355311
 20
11.80780347638717
 30
0.0
 10
8.978066885413729
 20
11.81064361731952
 30
0.0
 10
8.968473920220452
 20
11.81348142393467
 30
0.0
 10
8.944121488550338
 20
11.81625169674406
 30
0.0
 10
8.91486967696305
 20
11.81802316782263
 30
0.0
 10
8.901854331797085
 20
11.81881136883611
 30
0.0
  0
SPLINE
  5
F55
330
1F
100
AcDbEntity
  8
DIM
  6
HIDDEN
 62
     7
370
     0
100
AcDbSpline
210
0.0
220
0.0
230
1.0
 70
     8
 71
     3
 72
    46
 73
    42
 74
     0
 42
0.0000000001
 43
0.0000000001
 40
0.0
 40
0.0
 40
0.0
 40
0.0
 40
0.0625000000000001
 40
0.0625000000000001
 40
0.1250000000000002
 40
0.1250000000000002
 40
0.1875000000000003
 40
0.1875000000000003
 40
0.2187500000000003
 40
0.2187500000000003
 40
0.2500000000000003
 40
0.2500000000000003
 40
0.3125000000000004
 40
0.3125000000000004
 40
0.3750000000000004
 40
0.3750000000000004
 40
0.4062500000000005
 40
0.4062500000000005
 40
0.4375000000000005
 40
0.4375000000000005
 40
0.5000000000000004
 40
0.5000000000000004
 40
0.5625000000000004
 40
0.5625000000000004
 40
0.5937500000000004
 40
0.5937500000000004
 40
0.6250000000000002
 40
0.6250000000000002
 40
0.6875000000000002
 40
0.6875000000000002
 40
0.7500000000000002
 40
0.7500000000000002
 40
0.7812500000000002
 40
0.7812500000000002
 40
0.8125000000000001
 40
0.8125000000000001
 40
0.8750000000000001
 40
0.8750000000000001
 40
0.9375000000000001
 40
0.9375000000000001
 40
1.0
 40
1.0
 40
1.0
 40
1.0
 10
8.974930897591999
 20
11.92664322987847
 30
0.0
 10
8.974930897591999
 20
11.92549403658795
 30
0.0
 10
8.970223870988156
 20
11.92429056687203
 30
0.0
 10
8.951060911891522
 20
11.92183934037707
 30
0.0
 10
8.936604250804473
 20
11.92059201677165
 30
0.0
 10
8.898725823226751
 20
11.91812634818875
 30
0.0
 10
8.875313757795998
 20
11.91690845476077
 30
0.0
 10
8.834811949009461
 20
11.91515420358185
 30
0.0
 10
8.820458580479252
 20
11.91458463415753
 30
0.0
 10
8.789597576663846
 20
11.91340586660768
 30
0.0
 10
8.773150927225451
 20
11.91280524230886
 30
0.0
 10
8.72103147581423
 20
11.91098186862972
 30
0.0
 10
8.682554756612345
 20
11.90973752356296
 30
0.0
 10
8.600261955474314
 20
11.90726314440451
 30
0.0
 10
8.556462122772048
 20
11.90603357309378
 30
0.0
 10
8.48880144314997
 20
11.90425244306148
 30
0.0
 10
8.466023276989179
 20
11.90367670948621
 30
0.0
 10
8.419685243820758
 20
11.9025170727574
 30
0.0
 10
8.39600718980099
 20
11.90192451542964
 30
0.0
 10
8.323911851146355
 20
11.90012028687346
 30
0.0
 10
8.274426035193416
 20
11.89888187501585
 30
0.0
 10
8.17543575999058
 20
11.89640458474109
 30
0.0
 10
8.125949944037639
 20
11.89516617288348
 30
0.0
 10
8.053854605383007
 20
11.8933619443273
 30
0.0
 10
8.03017655136324
 20
11.89276938699954
 30
0.0
 10
7.983838518194819
 20
11.89160975027074
 30
0.0
 10
7.961060352034024
 20
11.89103401669546
 30
0.0
 10
7.893399672411947
 20
11.88925288666316
 30
0.0
 10
7.849599839709682
 20
11.88802331535244
 30
0.0
 10
7.767307038571651
 20
11.88554893619398
 30
0.0
 10
7.728830319369764
 20
11.88430459112723
 30
0.0
 10
7.676710867958545
 20
11.88248121744808
 30
0.0
 10
7.660264218520151
 20
11.88188059314927
 30
0.0
 10
7.629403214704744
 20
11.88070182559941
 30
0.0
 10
7.615049846174533
 20
11.8801322561751
 30
0.0
 10
7.574548037387998
 20
11.87837800499618
 30
0.0
 10
7.551135971957245
 20
11.8771601115682
 30
0.0
 10
7.513257544379522
 20
11.8746944429853
 30
0.0
 10
7.498800883292474
 20
11.87344711937987
 30
0.0
 10
7.47963792419584
 20
11.87099589288491
 30
0.0
 10
7.474930897591997
 20
11.86979242316899
 30
0.0
 10
7.474930897591997
 20
11.86864322987847
 30
0.0
  0
LINE
  5
F56
330
1F
100
AcDbEntity
  8
DIM
  6
HIDDEN
 62
     7
370
     0
100
AcDbLine
 10
8.974930897591999
 20
11.53864322987847
 30
0.0
 11
8.974930897591999
 21
11.57864322987847
 31
0.0
  0
LINE
  5
F57
330
1F
100
AcDbEntity
  8
DIM
  6
HIDDEN
 62
     7
370
     0
100
AcDbLine
 10
8.769930897591997
 20
14.66733105505201
 30
0.0
 11
7.679930897591997
 21
14.66733105505201
 31
0.0
  0
SPLINE
  5
F58
330
1F
100
AcDbEntity
  8
DIM
  6
HIDDEN
 62
     7
370
     0
100
AcDbSpline
210
0.0
220
0.0
230
1.0
 70
     8
 71
     3
 72
   234
 73
   230
 74
     0
 42
0.0000000001
 43
0.0000000001
 40
0.0
 40
0.0
 40
0.0
 40
0.0
 40
0.0156250000000001
 40
0.0156250000000001
 40
0.0312500000000003
 40
0.0312500000000003
 40
0.0351562500000003
 40
0.0351562500000003
 40
0.0390625000000003
 40
0.0390625000000003
 40
0.0468750000000004
 40
0.0468750000000004
 40
0.0625000000000005
 40
0.0625000000000005
 40
0.0664062500000005
 40
0.0664062500000005
 40
0.0703125000000005
 40
0.0703125000000005
 40
0.0781250000000006
 40
0.0781250000000006
 40
0.0937500000000006
 40
0.0937500000000006
 40
0.0976562500000006
 40
0.0976562500000006
 40
0.1015625000000006
 40
0.1015625000000006
 40
0.1093750000000007
 40
0.1093750000000007
 40
0.1250000000000007
 40
0.1250000000000007
 40
0.1328125000000008
 40
0.1328125000000008
 40
0.1406250000000008
 40
0.1406250000000008
 40
0.1562500000000009
 40
0.1562500000000009
 40
0.1601562500000009
 40
0.1601562500000009
 40
0.164062500000001
 40
0.164062500000001
 40
0.171875000000001
 40
0.171875000000001
 40
0.1875000000000011
 40
0.1875000000000011
 40
0.1914062500000011
 40
0.1914062500000011
 40
0.1953125000000011
 40
0.1953125000000011
 40
0.2031250000000011
 40
0.2031250000000011
 40
0.2187500000000012
 40
0.2187500000000012
 40
0.2226562500000012
 40
0.2226562500000012
 40
0.2265625000000013
 40
0.2265625000000013
 40
0.2343750000000014
 40
0.2343750000000014
 40
0.2500000000000014
 40
0.2500000000000014
 40
0.2578125000000015
 40
0.2578125000000015
 40
0.2656250000000015
 40
0.2656250000000015
 40
0.2812500000000017
 40
0.2812500000000017
 40
0.2890625000000018
 40
0.2890625000000018
 40
0.2929687500000018
 40
0.2929687500000018
 40
0.2968750000000018
 40
0.2968750000000018
 40
0.312500000000002
 40
0.312500000000002
 40
0.320312500000002
 40
0.320312500000002
 40
0.3242187500000021
 40
0.3242187500000021
 40
0.3281250000000021
 40
0.3281250000000021
 40
0.3437500000000022
 40
0.3437500000000022
 40
0.3515625000000023
 40
0.3515625000000023
 40
0.3593750000000023
 40
0.3593750000000023
 40
0.3750000000000024
 40
0.3750000000000024
 40
0.3828125000000025
 40
0.3828125000000025
 40
0.3906250000000026
 40
0.3906250000000026
 40
0.4062500000000026
 40
0.4062500000000026
 40
0.4140625000000028
 40
0.4140625000000028
 40
0.4179687500000028
 40
0.4179687500000028
 40
0.4218750000000028
 40
0.4218750000000028
 40
0.4375000000000029
 40
0.4375000000000029
 40
0.4453125000000029
 40
0.4453125000000029
 40
0.4492187500000029
 40
0.4492187500000029
 40
0.453125000000003
 40
0.453125000000003
 40
0.468750000000003
 40
0.468750000000003
 40
0.476562500000003
 40
0.476562500000003
 40
0.4843750000000031
 40
0.4843750000000031
 40
0.5000000000000029
 40
0.5000000000000029
 40
0.5156250000000029
 40
0.5156250000000029
 40
0.5234375000000029
 40
0.5234375000000029
 40
0.5312500000000028
 40
0.5312500000000028
 40
0.5468750000000029
 40
0.5468750000000029
 40
0.5507812500000029
 40
0.5507812500000029
 40
0.5546875000000029
 40
0.5546875000000029
 40
0.5625000000000029
 40
0.5625000000000029
 40
0.5781250000000028
 40
0.5781250000000028
 40
0.5820312500000028
 40
0.5820312500000028
 40
0.5859375000000029
 40
0.5859375000000029
 40
0.5937500000000028
 40
0.5937500000000028
 40
0.6093750000000028
 40
0.6093750000000028
 40
0.6171875000000027
 40
0.6171875000000027
 40
0.6250000000000027
 40
0.6250000000000027
 40
0.6406250000000026
 40
0.6406250000000026
 40
0.6484375000000026
 40
0.6484375000000026
 40
0.6562500000000025
 40
0.6562500000000025
 40
0.6718750000000023
 40
0.6718750000000023
 40
0.6757812500000025
 40
0.6757812500000025
 40
0.6796875000000025
 40
0.6796875000000025
 40
0.6875000000000025
 40
0.6875000000000025
 40
0.7031250000000023
 40
0.7031250000000023
 40
0.7070312500000023
 40
0.7070312500000023
 40
0.7109375000000023
 40
0.7109375000000023
 40
0.7187500000000023
 40
0.7187500000000023
 40
0.7343750000000023
 40
0.7343750000000023
 40
0.7421875000000023
 40
0.7421875000000023
 40
0.7500000000000022
 40
0.7500000000000022
 40
0.7656250000000022
 40
0.7656250000000022
 40
0.773437500000002
 40
0.773437500000002
 40
0.777343750000002
 40
0.777343750000002
 40
0.7812500000000019
 40
0.7812500000000019
 40
0.7968750000000018
 40
0.7968750000000018
 40
0.8046875000000017
 40
0.8046875000000017
 40
0.8085937500000015
 40
0.8085937500000015
 40
0.8125000000000015
 40
0.8125000000000015
 40
0.8281250000000015
 40
0.8281250000000015
 40
0.8359375000000014
 40
0.8359375000000014
 40
0.8398437500000014
 40
0.8398437500000014
 40
0.8437500000000014
 40
0.8437500000000014
 40
0.8593750000000012
 40
0.8593750000000012
 40
0.8671875000000012
 40
0.8671875000000012
 40
0.875000000000001
 40
0.875000000000001
 40
0.890625000000001
 40
0.890625000000001
 40
0.898437500000001
 40
0.898437500000001
 40
0.9023437500000008
 40
0.9023437500000008
 40
0.9062500000000008
 40
0.9062500000000008
 40
0.9218750000000007
 40
0.9218750000000007
 40
0.9296875000000007
 40
0.9296875000000007
 40
0.9335937500000007
 40
0.9335937500000007
 40
0.9375000000000005
 40
0.9375000000000005
 40
0.9531250000000003
 40
0.9531250000000003
 40
0.9609375000000003
 40
0.9609375000000003
 40
0.9648437500000003
 40
0.9648437500000003
 40
0.9687500000000003
 40
0.9687500000000003
 40
0.9843750000000001
 40
0.9843750000000001
 40
1.0
 40
1.0
 40
1.0
 40
1.0
 10
7.679930897591997
 20
14.2579995389439
 30
0.0
 10
7.679930897591997
 20
14.25978078854422
 30
0.0
 10
7.688262389974793
 20
14.26169398785539
 30
0.0
 10
7.721664399187744
 20
14.26553350559416
 30
0.0
 10
7.746701759261958
 20
14.26745576325759
 30
0.0
 10
7.785703625287172
 20
14.26970255941965
 30
0.0
 10
7.793892651087723
 20
14.2701469992693
 30
0.0
 10
7.811215413062601
 20
14.27105967217502
 30
0.0
 10
7.82032063215229
 20
14.27152280911147
 30
0.0
 10
7.848881283272051
 20
14.27292701588642
 30
0.0
 10
7.869588882608304
 20
14.27388295623018
 30
0.0
 10
7.935736777516508
 20
14.27676090203349
 30
0.0
 10
7.98524094462539
 20
14.27869108862934
 30
0.0
 10
8.049399349450959
 20
14.28095699640212
 30
0.0
 10
8.062300040014424
 20
14.28139871296209
 30
0.0
 10
8.08859103264228
 20
14.28230414552754
 30
0.0
 10
8.101947185830519
 20
14.28276411659889
 30
0.0
 10
8.142488693480188
 20
14.28416032106321
 30
0.0
 10
8.17014970779275
 20
14.28511293565279
 30
0.0
 10
8.253618258483445
 20
14.28798749976895
 30
0.0
 10
8.309861942799521
 20
14.28992446974576
 30
0.0
 10
8.376178314285859
 20
14.2922083318736
 30
0.0
 10
8.389200407360448
 20
14.29265354967454
 30
0.0
 10
8.41498266572378
 20
14.29355128069503
 30
0.0
 10
8.427779992303241
 20
14.29400784204277
 30
0.0
 10
8.465713324241777
 20
14.2953952818045
 30
0.0
 10
8.490387907589447
 20
14.29634402092101
 30
0.0
 10
8.56119414019127
 20
14.29921352077873
 30
0.0
 10
8.603986382513571
 20
14.30115611471676
 30
0.0
 10
8.657485627387123
 20
14.30391686626681
 30
0.0
 10
8.673493952601532
 20
14.30479486488946
 30
0.0
 10
8.702467965526706
 20
14.3066321037393
 30
0.0
 10
8.715314330338784
 20
14.30757642524161
 30
0.0
 10
8.748058967136344
 20
14.31043918815829
 30
0.0
 10
8.762007799890671
 20
14.31238623509282
 30
0.0
 10
8.768693699372493
 20
14.31470240431432
 30
0.0
 10
8.769504953811805
 20
14.31515984061535
 30
0.0
 10
8.770098692209458
 20
14.31605953950772
 30
0.0
 10
8.769886503098485
 20
14.31650329860207
 30
0.0
 10
8.767695718214937
 20
14.31787098892069
 30
0.0
 10
8.76414496097664
 20
14.3188103592586
 30
0.0
 10
8.747141768172363
 20
14.32166472567347
 30
0.0
 10
8.727200774180232
 20
14.32361504546829
 30
0.0
 10
8.693422127841852
 20
14.32594550735336
 30
0.0
 10
8.686234139811805
 20
14.32640629299122
 30
0.0
 10
8.671078132580781
 20
14.32731357941023
 30
0.0
 10
8.663140990400131
 20
14.32775539324288
 30
0.0
 10
8.637934750240589
 20
14.32911213546473
 30
0.0
 10
8.619319767291042
 20
14.33004603065719
 30
0.0
 10
8.558775775425372
 20
14.33289035731088
 30
0.0
 10
8.51207236162511
 20
14.33484276307192
 30
0.0
 10
8.449837012943413
 20
14.33718624044469
 30
0.0
 10
8.437202888609222
 20
14.33765013004096
 30
0.0
 10
8.411678326416907
 20
14.33856453939785
 30
0.0
 10
8.398830430033383
 20
14.33901063232415
 30
0.0
 10
8.359772698010429
 20
14.340355737205
 30
0.0
 10
8.3328291288836
 20
14.34128364377978
 30
0.0
 10
8.250577257069252
 20
14.3441163068277
 30
0.0
 10
8.193859383767822
 20
14.34606960734613
 30
0.0
 10
8.111794331142688
 20
14.34889583654881
 30
0.0
 10
8.084943196190554
 20
14.34982055979334
 30
0.0
 10
8.033101248626453
 20
14.35160593884865
 30
0.0
 10
8.007564654505841
 20
14.35252339925527
 30
0.0
 10
7.933177558954785
 20
14.35534279730253
 30
0.0
 10
7.886795514018183
 20
14.35729579951701
 30
0.0
 10
7.82685744204268
 20
14.36013449601541
 30
0.0
 10
7.808464219072755
 20
14.36106546039068
 30
0.0
 10
7.783607367810823
 20
14.36241646880383
 30
0.0
 10
7.775768520374798
 20
14.36285964435801
 30
0.0
 10
7.760815063594748
 20
14.36377055115452
 30
0.0
 10
7.753734121284454
 20
14.36423291981756
 30
0.0
 10
7.720515851471398
 20
14.36657005068949
 30
0.0
 10
7.701105818527155
 20
14.36852156215639
 30
0.0
 10
7.684917908830271
 20
14.37137111295678
 30
0.0
 10
7.681641582336727
 20
14.37230781058434
 30
0.0
 10
7.679852402108506
 20
14.37367011428754
 30
0.0
 10
7.679770892461521
 20
14.3741121226628
 30
0.0
 10
7.680630266801545
 20
14.37501567254597
 30
0.0
 10
7.681576312019151
 20
14.37547481380769
 30
0.0
 10
7.688940458829391
 20
14.37779828737711
 30
0.0
 10
7.703445288644127
 20
14.37974711873815
 30
0.0
 10
7.73693097510176
 20
14.38260588990399
 30
0.0
 10
7.750008928894393
 20
14.3835478019423
 30
0.0
 10
7.779401184467509
 20
14.3853783347384
 30
0.0
 10
7.795625502741035
 20
14.38625746302559
 30
0.0
 10
7.849796536128781
 20
14.3890277257542
 30
0.0
 10
7.892976825689236
 20
14.39097269319043
 30
0.0
 10
7.964191362650455
 20
14.39383903291805
 30
0.0
 10
7.988973661630366
 20
14.39478563048153
 30
0.0
 10
8.039705322005531
 20
14.39662933262887
 30
0.0
 10
8.065464917369853
 20
14.39750770782066
 30
0.0
 10
8.145341884308967
 20
14.40025858178422
 30
0.0
 10
8.201671450744091
 20
14.40219850944576
 30
0.0
 10
8.285072567506569
 20
14.40507075121238
 30
0.0
 10
8.312679298094243
 20
14.40602149633081
 30
0.0
 10
8.353096293843739
 20
14.40741341274368
 30
0.0
 10
8.366403816956017
 20
14.40787170904926
 30
0.0
 10
8.392584644037563
 20
14.40877334763573
 30
0.0
 10
8.405453494055986
 20
14.40921603688135
 30
0.0
 10
8.469463827030477
 20
14.41149106859002
 30
0.0
 10
8.518722847055316
 20
14.41342479099084
 30
0.0
 10
8.584350300326455
 20
14.41630125676254
 30
0.0
 10
8.604859912103005
 20
14.41725560337724
 30
0.0
 10
8.633098185383447
 20
14.41865590527437
 30
0.0
 10
8.642091747984784
 20
14.4191174901406
 30
0.0
 10
8.659184992321762
 20
14.42002660137289
 30
0.0
 10
8.667256655056068
 20
14.42046890155521
 30
0.0
 10
8.705769115014385
 20
14.42272539605052
 30
0.0
 10
8.7303165293473
 20
14.42465176041814
 30
0.0
 10
8.754575347516739
 20
14.42753076390487
 30
0.0
 10
8.760597023920526
 20
14.42848815889785
 30
0.0
 10
8.768392724100834
 20
14.43036538189237
 30
0.0
 10
8.770168624872734
 20
14.43127758981247
 30
0.0
 10
8.76937909340819
 20
14.43396177041099
 30
0.0
 10
8.760483785581051
 20
14.43587963898096
 30
0.0
 10
8.726029612364662
 20
14.43971943890685
 30
0.0
 10
8.700507201981611
 20
14.44163730747683
 30
0.0
 10
8.653126919877568
 20
14.44432148807534
 30
0.0
 10
8.635568232782665
 20
14.44523369599544
 30
0.0
 10
8.59706192495029
 20
14.44711091898996
 30
0.0
 10
8.576159089010861
 20
14.44806831398294
 30
0.0
 10
8.509500245405321
 20
14.45094731746967
 30
0.0
 10
8.459758926772439
 20
14.45287368183729
 30
0.0
 10
8.395462280461371
 20
14.4551301763326
 30
0.0
 10
8.382516193014289
 20
14.45557247651492
 30
0.0
 10
8.356118383151809
 20
14.45648158774721
 30
0.0
 10
8.342715370295488
 20
14.45694317261344
 30
0.0
 10
8.302054885728084
 20
14.45834347451057
 30
0.0
 10
8.274343578703462
 20
14.45929782112527
 30
0.0
 10
8.190819809751669
 20
14.46217428689697
 30
0.0
 10
8.134670425110154
 20
14.46410800929779
 30
0.0
 10
8.068610461990605
 20
14.46638304100647
 30
0.0
 10
8.055650891718556
 20
14.46682573025208
 30
0.0
 10
8.029919022830052
 20
14.46772736883856
 30
0.0
 10
8.017154506638467
 20
14.46818566514413
 30
0.0
 10
7.979342481821291
 20
14.469577581557
 30
0.0
 10
7.954779497761057
 20
14.47052832667543
 30
0.0
 10
7.884392389297072
 20
14.47340056844205
 30
0.0
 10
7.841994200892848
 20
14.47534049610359
 30
0.0
 10
7.789172152246624
 20
14.47809137006714
 30
0.0
 10
7.773372406306958
 20
14.47896974525894
 30
0.0
 10
7.744822327302156
 20
14.48081344740628
 30
0.0
 10
7.732210023509599
 20
14.48176004496976
 30
0.0
 10
7.700212221813318
 20
14.48462638469737
 30
0.0
 10
7.686820951739642
 20
14.48657135213361
 30
0.0
 10
7.679610335892419
 20
14.48934161486222
 30
0.0
 10
7.679285136573151
 20
14.49022074314942
 30
0.0
 10
7.682743287402681
 20
14.49205127594551
 30
0.0
 10
7.686568714592846
 20
14.49299318798382
 30
0.0
 10
7.70438601205894
 20
14.49585195914966
 30
0.0
 10
7.724854553033667
 20
14.4978007905107
 30
0.0
 10
7.759187037490518
 20
14.50012426408012
 30
0.0
 10
7.766480657290665
 20
14.50058340534184
 30
0.0
 10
7.781836223721116
 20
14.50148695522501
 30
0.0
 10
7.789879917348931
 20
14.50192896360027
 30
0.0
 10
7.815433344372557
 20
14.50329126730347
 30
0.0
 10
7.834268029626027
 20
14.50422796493103
 30
0.0
 10
7.895410224958995
 20
14.50707751573142
 30
0.0
 10
7.94242775251987
 20
14.50902902719832
 30
0.0
 10
8.004899495029157
 20
14.51136615807025
 30
0.0
 10
8.017573341420167
 20
14.51182852673329
 30
0.0
 10
8.043162052549776
 20
14.5127394335298
 30
0.0
 10
8.056025044301817
 20
14.51318260908398
 30
0.0
 10
8.095254196848031
 20
14.51453361749713
 30
0.0
 10
8.122286555149335
 20
14.5154645818724
 30
0.0
 10
8.204713619913798
 20
14.5183032783708
 30
0.0
 10
8.261422831380524
 20
14.52025628058527
 30
0.0
 10
8.343289528144198
 20
14.52307567863254
 30
0.0
 10
8.370007078981068
 20
14.52399313903917
 30
0.0
 10
8.421686555007488
 20
14.52577851809447
 30
0.0
 10
8.447188778378199
 20
14.526703241339
 30
0.0
 10
8.521268947374712
 20
14.52952947054168
 30
0.0
 10
8.567322464375619
 20
14.53148277106012
 30
0.0
 10
8.62664709741953
 20
14.53431543410803
 30
0.0
 10
8.644816576498733
 20
14.53524334068281
 30
0.0
 10
8.669321949407111
 20
14.53658844556366
 30
0.0
 10
8.677070401870244
 20
14.53703453848996
 30
0.0
 10
8.691818359847768
 20
14.53794894784684
 30
0.0
 10
8.698790867270343
 20
14.53841283744312
 30
0.0
 10
8.731442360860519
 20
14.5407563148159
 30
0.0
 10
8.750318179497083
 20
14.54270872057693
 30
0.0
 10
8.765689868894854
 20
14.54555304723062
 30
0.0
 10
8.768692083737965
 20
14.54648694242308
 30
0.0
 10
8.770080992229436
 20
14.54784368464493
 30
0.0
 10
8.770032093212007
 20
14.54828549847758
 30
0.0
 10
8.768906104484432
 20
14.54919278489659
 30
0.0
 10
8.767824917823745
 20
14.54965357053445
 30
0.0
 10
8.75978152186199
 20
14.55198403241952
 30
0.0
 10
8.744722433904355
 20
14.55393435221434
 30
0.0
 10
8.710501689639334
 20
14.55678871862922
 30
0.0
 10
8.697194678784839
 20
14.55772808896712
 30
0.0
 10
8.674841143623726
 20
14.55909577928575
 30
0.0
 10
8.667025621435691
 20
14.55953953838009
 30
0.0
 10
8.650512839330801
 20
14.56043923727246
 30
0.0
 10
8.641802388408409
 20
14.56089667357349
 30
0.0
 10
8.596104726506638
 20
14.56321284279499
 30
0.0
 10
8.552542525963071
 20
14.56515988972952
 30
0.0
 10
8.4809306083195
 20
14.5680226526462
 30
0.0
 10
8.456044497451014
 20
14.56896697414851
 30
0.0
 10
8.405166820657461
 20
14.57080421299836
 30
0.0
 10
8.379329821135211
 20
14.571682211621
 30
0.0
 10
8.299166039292718
 20
14.57444296317105
 30
0.0
 10
8.242759052342542
 20
14.57638555710908
 30
0.0
 10
8.159437552229109
 20
14.5792550569668
 30
0.0
 10
8.131889069802106
 20
14.58020379608331
 30
0.0
 10
8.091602062310791
 20
14.58159123584504
 30
0.0
 10
8.078344917068275
 20
14.58204779719278
 30
0.0
 10
8.052277553752432
 20
14.58294552821327
 30
0.0
 10
8.039427129343788
 20
14.5833907460142
 30
0.0
 10
7.975574707890103
 20
14.58567460814205
 30
0.0
 10
7.926568775206501
 20
14.58761157811886
 30
0.0
 10
7.861471097120348
 20
14.59048614223502
 30
0.0
 10
7.841162159004637
 20
14.5914387568246
 30
0.0
 10
7.813249455739423
 20
14.59283496128892
 30
0.0
 10
7.804368475647567
 20
14.59329493236027
 30
0.0
 10
7.787506310508849
 20
14.59420036492572
 30
0.0
 10
7.779543318316443
 20
14.5946420814857
 30
0.0
 10
7.741527870569299
 20
14.59690798925847
 30
0.0
 10
7.717475161280864
 20
14.59883817585432
 30
0.0
 10
7.694012363578597
 20
14.60171612165763
 30
0.0
 10
7.688264348069923
 20
14.60267206200139
 30
0.0
 10
7.682826114094082
 20
14.60407626877634
 30
0.0
 10
7.68154164036081
 20
14.60453940571279
 30
0.0
 10
7.680014052672756
 20
14.60545207861851
 30
0.0
 10
7.679769100626048
 20
14.60589651846816
 30
0.0
 10
7.681087827154499
 20
14.60814331463022
 30
0.0
 10
7.690546951157944
 20
14.61006557229365
 30
0.0
 10
7.726048224299344
 20
14.61390509003242
 30
0.0
 10
7.752050656463248
 20
14.61581828934359
 30
0.0
 10
7.78401663565765
 20
14.61759953894391
 30
0.0
  0
LINE
  5
F59
330
1F
100
AcDbEntity
  8
DIM
  6
HIDDEN
 62
     7
370
     0
100
AcDbLine
 10
7.78401663565765
 20
14.65759953894391
 30
0.0
 11
7.78401663565765
 21
14.61759953894391
 31
0.0
  0
SPLINE
  5
F5A
330
1F
100
AcDbEntity
  8
DIM
  6
HIDDEN
 62
     7
370
     0
100
AcDbSpline
210
0.0
220
0.0
230
1.0
 70
     8
 71
     3
 72
   234
 73
   230
 74
     0
 42
0.0000000001
 43
0.0000000001
 40
0.0
 40
0.0
 40
0.0
 40
0.0
 40
0.0156250000000001
 40
0.0156250000000001
 40
0.0312500000000002
 40
0.0312500000000002
 40
0.0351562500000002
 40
0.0351562500000002
 40
0.0390625000000002
 40
0.0390625000000002
 40
0.0468750000000003
 40
0.0468750000000003
 40
0.0625000000000004
 40
0.0625000000000004
 40
0.0664062500000004
 40
0.0664062500000004
 40
0.0703125000000005
 40
0.0703125000000005
 40
0.0781250000000005
 40
0.0781250000000005
 40
0.0937500000000006
 40
0.0937500000000006
 40
0.0976562500000006
 40
0.0976562500000006
 40
0.1015625000000005
 40
0.1015625000000005
 40
0.1093750000000006
 40
0.1093750000000006
 40
0.1250000000000007
 40
0.1250000000000007
 40
0.1328125000000007
 40
0.1328125000000007
 40
0.1406250000000007
 40
0.1406250000000007
 40
0.1562500000000008
 40
0.1562500000000008
 40
0.1601562500000008
 40
0.1601562500000008
 40
0.1640625000000008
 40
0.1640625000000008
 40
0.1718750000000009
 40
0.1718750000000009
 40
0.1875000000000009
 40
0.1875000000000009
 40
0.1914062500000009
 40
0.1914062500000009
 40
0.1953125000000009
 40
0.1953125000000009
 40
0.2031250000000009
 40
0.2031250000000009
 40
0.218750000000001
 40
0.218750000000001
 40
0.222656250000001
 40
0.222656250000001
 40
0.2265625000000011
 40
0.2265625000000011
 40
0.2343750000000011
 40
0.2343750000000011
 40
0.2500000000000011
 40
0.2500000000000011
 40
0.2578125000000011
 40
0.2578125000000011
 40
0.2656250000000011
 40
0.2656250000000011
 40
0.2812500000000012
 40
0.2812500000000012
 40
0.2890625000000013
 40
0.2890625000000013
 40
0.2929687500000013
 40
0.2929687500000013
 40
0.2968750000000013
 40
0.2968750000000013
 40
0.3125000000000013
 40
0.3125000000000013
 40
0.3203125000000013
 40
0.3203125000000013
 40
0.3242187500000013
 40
0.3242187500000013
 40
0.3281250000000013
 40
0.3281250000000013
 40
0.3437500000000014
 40
0.3437500000000014
 40
0.3515625000000013
 40
0.3515625000000013
 40
0.3593750000000013
 40
0.3593750000000013
 40
0.3750000000000013
 40
0.3750000000000013
 40
0.3828125000000013
 40
0.3828125000000013
 40
0.3906250000000013
 40
0.3906250000000013
 40
0.4062500000000014
 40
0.4062500000000014
 40
0.4140625000000014
 40
0.4140625000000014
 40
0.4179687500000014
 40
0.4179687500000014
 40
0.4218750000000015
 40
0.4218750000000015
 40
0.4375000000000015
 40
0.4375000000000015
 40
0.4453125000000015
 40
0.4453125000000015
 40
0.4492187500000015
 40
0.4492187500000015
 40
0.4531250000000015
 40
0.4531250000000015
 40
0.4687500000000015
 40
0.4687500000000015
 40
0.4765625000000015
 40
0.4765625000000015
 40
0.4843750000000015
 40
0.4843750000000015
 40
0.5000000000000014
 40
0.5000000000000014
 40
0.5156250000000014
 40
0.5156250000000014
 40
0.5234375000000013
 40
0.5234375000000013
 40
0.5312500000000011
 40
0.5312500000000011
 40
0.5468750000000011
 40
0.5468750000000011
 40
0.5507812500000011
 40
0.5507812500000011
 40
0.5546875000000013
 40
0.5546875000000013
 40
0.5625000000000013
 40
0.5625000000000013
 40
0.5781250000000013
 40
0.5781250000000013
 40
0.5820312500000013
 40
0.5820312500000013
 40
0.5859375000000013
 40
0.5859375000000013
 40
0.5937500000000013
 40
0.5937500000000013
 40
0.6093750000000013
 40
0.6093750000000013
 40
0.6171875000000013
 40
0.6171875000000013
 40
0.6250000000000014
 40
0.6250000000000014
 40
0.6406250000000013
 40
0.6406250000000013
 40
0.6484375000000014
 40
0.6484375000000014
 40
0.6562500000000014
 40
0.6562500000000014
 40
0.6718750000000014
 40
0.6718750000000014
 40
0.6757812500000014
 40
0.6757812500000014
 40
0.6796875000000014
 40
0.6796875000000014
 40
0.6875000000000014
 40
0.6875000000000014
 40
0.7031250000000013
 40
0.7031250000000013
 40
0.7070312500000014
 40
0.7070312500000014
 40
0.7109375000000014
 40
0.7109375000000014
 40
0.7187500000000013
 40
0.7187500000000013
 40
0.7343750000000011
 40
0.7343750000000011
 40
0.742187500000001
 40
0.742187500000001
 40
0.7500000000000009
 40
0.7500000000000009
 40
0.7656250000000008
 40
0.7656250000000008
 40
0.7734375000000008
 40
0.7734375000000008
 40
0.7773437500000008
 40
0.7773437500000008
 40
0.7812500000000008
 40
0.7812500000000008
 40
0.7968750000000007
 40
0.7968750000000007
 40
0.8046875000000005
 40
0.8046875000000005
 40
0.8085937500000005
 40
0.8085937500000005
 40
0.8125000000000005
 40
0.8125000000000005
 40
0.8281250000000003
 40
0.8281250000000003
 40
0.8359375000000003
 40
0.8359375000000003
 40
0.8398437500000003
 40
0.8398437500000003
 40
0.8437500000000003
 40
0.8437500000000003
 40
0.8593750000000003
 40
0.8593750000000003
 40
0.8671875000000003
 40
0.8671875000000003
 40
0.8750000000000003
 40
0.8750000000000003
 40
0.8906250000000003
 40
0.8906250000000003
 40
0.8984375000000003
 40
0.8984375000000003
 40
0.9023437500000003
 40
0.9023437500000003
 40
0.9062500000000003
 40
0.9062500000000003
 40
0.9218750000000003
 40
0.9218750000000003
 40
0.9296875000000003
 40
0.9296875000000003
 40
0.9335937500000003
 40
0.9335937500000003
 40
0.9375000000000003
 40
0.9375000000000003
 40
0.9531250000000003
 40
0.9531250000000003
 40
0.9609375000000001
 40
0.9609375000000001
 40
0.9648437500000001
 40
0.9648437500000001
 40
0.9687500000000003
 40
0.9687500000000003
 40
0.9843750000000001
 40
0.9843750000000001
 40
1.0
 40
1.0
 40
1.0
 40
1.0
 10
7.679930897591997
 20
14.29799953894391
 30
0.0
 10
7.679930897591997
 20
14.29978078854422
 30
0.0
 10
7.688262389974793
 20
14.3016939878554
 30
0.0
 10
7.721664399187744
 20
14.30553350559416
 30
0.0
 10
7.746701759261958
 20
14.30745576325759
 30
0.0
 10
7.785703625287172
 20
14.30970255941965
 30
0.0
 10
7.793892651087723
 20
14.3101469992693
 30
0.0
 10
7.811215413062601
 20
14.31105967217502
 30
0.0
 10
7.82032063215229
 20
14.31152280911147
 30
0.0
 10
7.848881283272051
 20
14.31292701588642
 30
0.0
 10
7.869588882608304
 20
14.31388295623018
 30
0.0
 10
7.935736777516508
 20
14.3167609020335
 30
0.0
 10
7.98524094462539
 20
14.31869108862934
 30
0.0
 10
8.049399349450959
 20
14.32095699640211
 30
0.0
 10
8.062300040014424
 20
14.32139871296209
 30
0.0
 10
8.08859103264228
 20
14.32230414552754
 30
0.0
 10
8.101947185830519
 20
14.32276411659889
 30
0.0
 10
8.142488693480188
 20
14.32416032106321
 30
0.0
 10
8.17014970779275
 20
14.32511293565279
 30
0.0
 10
8.253618258483445
 20
14.32798749976895
 30
0.0
 10
8.309861942799521
 20
14.32992446974576
 30
0.0
 10
8.376178314285859
 20
14.33220833187361
 30
0.0
 10
8.389200407360448
 20
14.33265354967454
 30
0.0
 10
8.41498266572378
 20
14.33355128069503
 30
0.0
 10
8.427779992303241
 20
14.33400784204277
 30
0.0
 10
8.465713324241777
 20
14.3353952818045
 30
0.0
 10
8.490387907589447
 20
14.33634402092101
 30
0.0
 10
8.56119414019127
 20
14.33921352077873
 30
0.0
 10
8.603986382513571
 20
14.34115611471676
 30
0.0
 10
8.657485627387123
 20
14.34391686626681
 30
0.0
 10
8.673493952601532
 20
14.34479486488945
 30
0.0
 10
8.702467965526706
 20
14.3466321037393
 30
0.0
 10
8.715314330338784
 20
14.34757642524161
 30
0.0
 10
8.748058967136344
 20
14.3504391881583
 30
0.0
 10
8.762007799890671
 20
14.35238623509282
 30
0.0
 10
8.768693699372493
 20
14.35470240431432
 30
0.0
 10
8.769504953811805
 20
14.35515984061535
 30
0.0
 10
8.770098692209458
 20
14.35605953950772
 30
0.0
 10
8.769886503098485
 20
14.35650329860207
 30
0.0
 10
8.767695718214937
 20
14.35787098892069
 30
0.0
 10
8.764144960976638
 20
14.35881035925859
 30
0.0
 10
8.747141768172363
 20
14.36166472567347
 30
0.0
 10
8.727200774180234
 20
14.3636150454683
 30
0.0
 10
8.693422127841852
 20
14.36594550735336
 30
0.0
 10
8.686234139811805
 20
14.36640629299122
 30
0.0
 10
8.671078132580781
 20
14.36731357941023
 30
0.0
 10
8.663140990400131
 20
14.36775539324288
 30
0.0
 10
8.637934750240589
 20
14.36911213546473
 30
0.0
 10
8.619319767291042
 20
14.37004603065719
 30
0.0
 10
8.558775775425372
 20
14.37289035731088
 30
0.0
 10
8.51207236162511
 20
14.37484276307191
 30
0.0
 10
8.449837012943413
 20
14.37718624044469
 30
0.0
 10
8.437202888609222
 20
14.37765013004096
 30
0.0
 10
8.411678326416907
 20
14.37856453939785
 30
0.0
 10
8.398830430033383
 20
14.37901063232415
 30
0.0
 10
8.359772698010429
 20
14.380355737205
 30
0.0
 10
8.3328291288836
 20
14.38128364377979
 30
0.0
 10
8.250577257069252
 20
14.3841163068277
 30
0.0
 10
8.193859383767822
 20
14.38606960734613
 30
0.0
 10
8.111794331142688
 20
14.38889583654881
 30
0.0
 10
8.084943196190554
 20
14.38982055979335
 30
0.0
 10
8.033101248626451
 20
14.39160593884865
 30
0.0
 10
8.007564654505841
 20
14.39252339925527
 30
0.0
 10
7.933177558954785
 20
14.39534279730254
 30
0.0
 10
7.886795514018183
 20
14.39729579951701
 30
0.0
 10
7.82685744204268
 20
14.40013449601542
 30
0.0
 10
7.808464219072755
 20
14.40106546039068
 30
0.0
 10
7.783607367810823
 20
14.40241646880383
 30
0.0
 10
7.775768520374798
 20
14.40285964435802
 30
0.0
 10
7.760815063594748
 20
14.40377055115452
 30
0.0
 10
7.753734121284454
 20
14.40423291981757
 30
0.0
 10
7.720515851471398
 20
14.40657005068949
 30
0.0
 10
7.701105818527155
 20
14.40852156215639
 30
0.0
 10
7.684917908830271
 20
14.41137111295678
 30
0.0
 10
7.681641582336727
 20
14.41230781058434
 30
0.0
 10
7.679852402108506
 20
14.41367011428754
 30
0.0
 10
7.679770892461521
 20
14.4141121226628
 30
0.0
 10
7.680630266801545
 20
14.41501567254597
 30
0.0
 10
7.681576312019151
 20
14.41547481380769
 30
0.0
 10
7.688940458829391
 20
14.41779828737711
 30
0.0
 10
7.703445288644127
 20
14.41974711873815
 30
0.0
 10
7.73693097510176
 20
14.42260588990399
 30
0.0
 10
7.750008928894393
 20
14.4235478019423
 30
0.0
 10
7.779401184467509
 20
14.4253783347384
 30
0.0
 10
7.795625502741035
 20
14.42625746302559
 30
0.0
 10
7.849796536128781
 20
14.4290277257542
 30
0.0
 10
7.892976825689236
 20
14.43097269319044
 30
0.0
 10
7.964191362650455
 20
14.43383903291806
 30
0.0
 10
7.988973661630366
 20
14.43478563048154
 30
0.0
 10
8.039705322005531
 20
14.43662933262887
 30
0.0
 10
8.065464917369853
 20
14.43750770782067
 30
0.0
 10
8.145341884308967
 20
14.44025858178422
 30
0.0
 10
8.201671450744093
 20
14.44219850944576
 30
0.0
 10
8.285072567506569
 20
14.44507075121238
 30
0.0
 10
8.312679298094241
 20
14.44602149633081
 30
0.0
 10
8.353096293843739
 20
14.44741341274368
 30
0.0
 10
8.366403816956017
 20
14.44787170904926
 30
0.0
 10
8.392584644037565
 20
14.44877334763573
 30
0.0
 10
8.405453494055986
 20
14.44921603688135
 30
0.0
 10
8.469463827030477
 20
14.45149106859002
 30
0.0
 10
8.518722847055318
 20
14.45342479099084
 30
0.0
 10
8.584350300326457
 20
14.45630125676254
 30
0.0
 10
8.604859912103005
 20
14.45725560337723
 30
0.0
 10
8.633098185383447
 20
14.45865590527437
 30
0.0
 10
8.642091747984784
 20
14.4591174901406
 30
0.0
 10
8.659184992321762
 20
14.46002660137289
 30
0.0
 10
8.667256655056068
 20
14.46046890155521
 30
0.0
 10
8.705769115014385
 20
14.46272539605052
 30
0.0
 10
8.7303165293473
 20
14.46465176041814
 30
0.0
 10
8.754575347516739
 20
14.46753076390487
 30
0.0
 10
8.760597023920526
 20
14.46848815889786
 30
0.0
 10
8.768392724100834
 20
14.47036538189237
 30
0.0
 10
8.770168624872734
 20
14.47127758981247
 30
0.0
 10
8.76937909340819
 20
14.47396177041099
 30
0.0
 10
8.760483785581051
 20
14.47587963898096
 30
0.0
 10
8.726029612364662
 20
14.47971943890685
 30
0.0
 10
8.700507201981611
 20
14.48163730747683
 30
0.0
 10
8.653126919877568
 20
14.48432148807534
 30
0.0
 10
8.635568232782665
 20
14.48523369599544
 30
0.0
 10
8.59706192495029
 20
14.48711091898996
 30
0.0
 10
8.576159089010861
 20
14.48806831398294
 30
0.0
 10
8.509500245405323
 20
14.49094731746967
 30
0.0
 10
8.459758926772439
 20
14.49287368183729
 30
0.0
 10
8.395462280461371
 20
14.4951301763326
 30
0.0
 10
8.382516193014289
 20
14.49557247651492
 30
0.0
 10
8.356118383151809
 20
14.49648158774721
 30
0.0
 10
8.342715370295488
 20
14.49694317261345
 30
0.0
 10
8.302054885728084
 20
14.49834347451058
 30
0.0
 10
8.274343578703462
 20
14.49929782112527
 30
0.0
 10
8.190819809751671
 20
14.50217428689697
 30
0.0
 10
8.134670425110154
 20
14.50410800929779
 30
0.0
 10
8.068610461990605
 20
14.50638304100646
 30
0.0
 10
8.055650891718556
 20
14.50682573025208
 30
0.0
 10
8.029919022830052
 20
14.50772736883856
 30
0.0
 10
8.017154506638467
 20
14.50818566514413
 30
0.0
 10
7.979342481821289
 20
14.509577581557
 30
0.0
 10
7.954779497761057
 20
14.51052832667543
 30
0.0
 10
7.884392389297072
 20
14.51340056844205
 30
0.0
 10
7.84199420089285
 20
14.51534049610359
 30
0.0
 10
7.789172152246624
 20
14.51809137006715
 30
0.0
 10
7.773372406306958
 20
14.51896974525894
 30
0.0
 10
7.744822327302154
 20
14.52081344740627
 30
0.0
 10
7.732210023509599
 20
14.52176004496976
 30
0.0
 10
7.700212221813318
 20
14.52462638469738
 30
0.0
 10
7.686820951739642
 20
14.52657135213361
 30
0.0
 10
7.679610335892419
 20
14.52934161486222
 30
0.0
 10
7.679285136573151
 20
14.53022074314941
 30
0.0
 10
7.682743287402681
 20
14.53205127594551
 30
0.0
 10
7.686568714592846
 20
14.53299318798382
 30
0.0
 10
7.704386012058938
 20
14.53585195914966
 30
0.0
 10
7.724854553033665
 20
14.5378007905107
 30
0.0
 10
7.759187037490518
 20
14.54012426408012
 30
0.0
 10
7.766480657290665
 20
14.54058340534184
 30
0.0
 10
7.781836223721116
 20
14.54148695522501
 30
0.0
 10
7.789879917348931
 20
14.54192896360027
 30
0.0
 10
7.815433344372557
 20
14.54329126730347
 30
0.0
 10
7.834268029626027
 20
14.54422796493103
 30
0.0
 10
7.895410224958995
 20
14.54707751573142
 30
0.0
 10
7.94242775251987
 20
14.54902902719832
 30
0.0
 10
8.004899495029157
 20
14.55136615807025
 30
0.0
 10
8.017573341420167
 20
14.55182852673329
 30
0.0
 10
8.043162052549774
 20
14.55273943352979
 30
0.0
 10
8.056025044301817
 20
14.55318260908398
 30
0.0
 10
8.095254196848031
 20
14.55453361749713
 30
0.0
 10
8.122286555149335
 20
14.5554645818724
 30
0.0
 10
8.204713619913798
 20
14.5583032783708
 30
0.0
 10
8.261422831380524
 20
14.56025628058528
 30
0.0
 10
8.343289528144198
 20
14.56307567863254
 30
0.0
 10
8.370007078981068
 20
14.56399313903916
 30
0.0
 10
8.421686555007488
 20
14.56577851809447
 30
0.0
 10
8.447188778378199
 20
14.566703241339
 30
0.0
 10
8.521268947374712
 20
14.56952947054168
 30
0.0
 10
8.567322464375617
 20
14.57148277106012
 30
0.0
 10
8.62664709741953
 20
14.57431543410803
 30
0.0
 10
8.644816576498733
 20
14.57524334068281
 30
0.0
 10
8.669321949407111
 20
14.57658844556366
 30
0.0
 10
8.677070401870244
 20
14.57703453848996
 30
0.0
 10
8.691818359847768
 20
14.57794894784685
 30
0.0
 10
8.698790867270343
 20
14.57841283744312
 30
0.0
 10
8.731442360860519
 20
14.5807563148159
 30
0.0
 10
8.750318179497083
 20
14.58270872057693
 30
0.0
 10
8.765689868894854
 20
14.58555304723062
 30
0.0
 10
8.768692083737965
 20
14.58648694242308
 30
0.0
 10
8.770080992229436
 20
14.58784368464493
 30
0.0
 10
8.770032093212007
 20
14.58828549847758
 30
0.0
 10
8.768906104484432
 20
14.5891927848966
 30
0.0
 10
8.767824917823745
 20
14.58965357053445
 30
0.0
 10
8.75978152186199
 20
14.59198403241952
 30
0.0
 10
8.744722433904355
 20
14.59393435221434
 30
0.0
 10
8.710501689639334
 20
14.59678871862922
 30
0.0
 10
8.697194678784839
 20
14.59772808896713
 30
0.0
 10
8.674841143623728
 20
14.59909577928575
 30
0.0
 10
8.667025621435691
 20
14.59953953838009
 30
0.0
 10
8.650512839330801
 20
14.60043923727246
 30
0.0
 10
8.641802388408409
 20
14.60089667357349
 30
0.0
 10
8.596104726506638
 20
14.60321284279499
 30
0.0
 10
8.552542525963071
 20
14.60515988972952
 30
0.0
 10
8.4809306083195
 20
14.6080226526462
 30
0.0
 10
8.456044497451014
 20
14.60896697414852
 30
0.0
 10
8.405166820657461
 20
14.61080421299836
 30
0.0
 10
8.379329821135213
 20
14.611682211621
 30
0.0
 10
8.299166039292718
 20
14.61444296317105
 30
0.0
 10
8.242759052342538
 20
14.61638555710908
 30
0.0
 10
8.159437552229109
 20
14.6192550569668
 30
0.0
 10
8.131889069802106
 20
14.62020379608332
 30
0.0
 10
8.091602062310791
 20
14.62159123584504
 30
0.0
 10
8.078344917068275
 20
14.62204779719278
 30
0.0
 10
8.052277553752432
 20
14.62294552821327
 30
0.0
 10
8.039427129343788
 20
14.6233907460142
 30
0.0
 10
7.975574707890102
 20
14.62567460814205
 30
0.0
 10
7.926568775206499
 20
14.62761157811886
 30
0.0
 10
7.861471097120348
 20
14.63048614223502
 30
0.0
 10
7.841162159004637
 20
14.6314387568246
 30
0.0
 10
7.813249455739423
 20
14.63283496128893
 30
0.0
 10
7.804368475647567
 20
14.63329493236027
 30
0.0
 10
7.787506310508849
 20
14.63420036492572
 30
0.0
 10
7.779543318316443
 20
14.6346420814857
 30
0.0
 10
7.741527870569299
 20
14.63690798925847
 30
0.0
 10
7.717475161280864
 20
14.63883817585432
 30
0.0
 10
7.694012363578597
 20
14.64171612165763
 30
0.0
 10
7.688264348069921
 20
14.6426720620014
 30
0.0
 10
7.682826114094082
 20
14.64407626877634
 30
0.0
 10
7.68154164036081
 20
14.64453940571279
 30
0.0
 10
7.680014052672756
 20
14.64545207861851
 30
0.0
 10
7.679769100626048
 20
14.64589651846816
 30
0.0
 10
7.681087827154499
 20
14.64814331463023
 30
0.0
 10
7.690546951157944
 20
14.65006557229365
 30
0.0
 10
7.726048224299344
 20
14.65390509003242
 30
0.0
 10
7.752050656463248
 20
14.6558182893436
 30
0.0
 10
7.784016635657648
 20
14.65759953894391
 30
0.0
  0
LINE
  5
F5B
330
1F
100
AcDbEntity
  8
DIM
  6
HIDDEN
 62
     7
370
     0
100
AcDbLine
 10
7.679930897591997
 20
14.29799953894391
 30
0.0
 11
7.679930897591997
 21
14.2579995389439
 31
0.0
  0
LWPOLYLINE
  5
F5C
330
1F
100
AcDbEntity
  8
DIM
  6
HIDDEN
 62
     7
370
     0
100
AcDbPolyline
 90
        9
 70
   128
 43
0.0
 10
7.78401663565765
 20
14.61759953894391
 10
7.790208583662632
 20
14.61912194829368
 10
7.795457863714005
 20
14.62345740332017
 10
7.798965320508786
 20
14.6299458702966
 10
7.80019697554515
 20
14.6375995389439
 10
7.798965320508786
 20
14.64525320759121
 10
7.795457863714005
 20
14.65174167456764
 10
7.790208583662632
 20
14.65607712959413
 10
7.78401663565765
 20
14.65759953894391
  0
ARC
  5
F5D
330
1F
100
AcDbEntity
  8
DIM
  6
HIDDEN
 62
     7
370
     0
100
AcDbCircle
 10
7.679930897591997
 20
14.27799953894391
 30
0.0
 40
0.0200000000000031
100
AcDbArc
 50
270.0000000000008
 51
90.0
  0
LINE
  5
F5E
330
1F
100
AcDbEntity
  8
DIM
  6
HIDDEN
 62
     7
370
     0
100
AcDbLine
 10
8.305266937479082
 20
15.87799953894391
 30
0.0
 11
8.144594857704914
 21
15.87799953894391
 31
0.0
  0
LINE
  5
F5F
330
1F
100
AcDbEntity
  8
DIM
  6
HIDDEN
 62
     7
370
     0
100
AcDbLine
 10
9.224930897591997
 20
6.176643229878474
 30
0.0
 11
9.224930897591997
 21
11.48664322987847
 31
0.0
  0
LINE
  5
F60
330
1F
100
AcDbEntity
  8
DIM
  6
HIDDEN
 62
     7
370
     0
100
AcDbLine
 10
7.224930897591999
 20
11.48664322987847
 30
0.0
 11
7.224930897591999
 21
6.176643229878474
 31
0.0
  0
SPLINE
  5
F61
330
1F
100
AcDbEntity
  8
DIM
  6
HIDDEN
 62
     7
370
     0
100
AcDbSpline
210
0.0
220
0.0
230
1.0
 70
     8
 71
     3
 72
    10
 73
     6
 74
     0
 42
0.0000000001
 43
0.0000000001
 40
0.0
 40
0.0
 40
0.0
 40
0.0
 40
0.2814432298782941
 40
0.7505439012163313
 40
1.0
 40
1.0
 40
1.0
 40
1.0
 10
8.908521667379021
 20
11.7635847495052
 30
0.0
 10
8.9159224559301
 20
11.76409871712444
 30
0.0
 10
8.935658644694013
 20
11.76546934971067
 30
0.0
 10
8.957697553300519
 20
11.76780391364239
 30
0.0
 10
8.967994653387727
 20
11.77150745888886
 30
0.0
 10
8.971569422318097
 20
11.77279319160654
 30
0.0
  0
SPLINE
  5
F62
330
1F
100
AcDbEntity
  8
DIM
  6
HIDDEN
 62
     7
370
     0
100
AcDbSpline
210
0.0
220
0.0
230
1.0
 70
     8
 71
     3
 72
    10
 73
     6
 74
     0
 42
0.0000000001
 43
0.0000000001
 40
0.0
 40
0.0
 40
0.0
 40
0.0
 40
0.2814432298782865
 40
0.7505439012163249
 40
1.0
 40
1.0
 40
1.0
 40
1.0
 10
8.908521667379025
 20
11.6475847495052
 30
0.0
 10
8.9159224559301
 20
11.64809871712444
 30
0.0
 10
8.935658644694013
 20
11.64946934971067
 30
0.0
 10
8.957697553300519
 20
11.65180391364239
 30
0.0
 10
8.967994653387727
 20
11.65550745888886
 30
0.0
 10
8.971569422318097
 20
11.65679319160654
 30
0.0
  0
SPLINE
  5
F63
330
1F
100
AcDbEntity
  8
DIM
  6
HIDDEN
 62
     7
370
     0
100
AcDbSpline
210
0.0
220
0.0
230
1.0
 70
     8
 71
     3
 72
    10
 73
     6
 74
     0
 42
0.0000000001
 43
0.0000000001
 40
0.0
 40
0.0
 40
0.0
 40
0.0
 40
0.1722159196895922
 40
0.9574144574997623
 40
1.0
 40
1.0
 40
1.0
 40
1.0
 10
7.502557106590135
 20
11.7565889935451
 30
0.0
 10
7.50066827380114
 20
11.75640710951206
 30
0.0
 10
7.490167526696904
 20
11.75539594629821
 30
0.0
 10
7.481522984879468
 20
11.75428887954535
 30
0.0
 10
7.476656909931406
 20
11.7525036634901
 30
0.0
 10
7.476406573585927
 20
11.75241182263933
 30
0.0
  0
SPLINE
  5
F64
330
1F
100
AcDbEntity
  8
DIM
  6
HIDDEN
 62
     7
370
     0
100
AcDbSpline
210
0.0
220
0.0
230
1.0
 70
     8
 71
     3
 72
    10
 73
     6
 74
     0
 42
0.0000000001
 43
0.0000000001
 40
0.0
 40
0.0
 40
0.0
 40
0.0
 40
0.172215919689599
 40
0.9574144574997603
 40
1.0
 40
1.0
 40
1.0
 40
1.0
 10
7.502557106590135
 20
11.6405889935451
 30
0.0
 10
7.50066827380114
 20
11.64040710951206
 30
0.0
 10
7.490167526696904
 20
11.63939594629821
 30
0.0
 10
7.481522984879466
 20
11.63828887954535
 30
0.0
 10
7.476656909931406
 20
11.6365036634901
 30
0.0
 10
7.476406573585927
 20
11.63641182263933
 30
0.0
  0
SPLINE
  5
F65
330
1F
100
AcDbEntity
  8
DIM
  6
HIDDEN
 62
     7
370
     0
100
AcDbSpline
210
0.0
220
0.0
230
1.0
 70
     8
 71
     3
 72
    10
 73
     6
 74
     0
 42
0.0000000001
 43
0.0000000001
 40
0.0
 40
0.0
 40
0.0
 40
0.0
 40
0.1722159196895966
 40
0.9574144574997644
 40
1.0
 40
1.0
 40
1.0
 40
1.0
 10
7.502557106590135
 20
11.8725889935451
 30
0.0
 10
7.50066827380114
 20
11.87240710951206
 30
0.0
 10
7.490167526696904
 20
11.87139594629821
 30
0.0
 10
7.481522984879463
 20
11.87028887954535
 30
0.0
 10
7.476656909931406
 20
11.8685036634901
 30
0.0
 10
7.476406573585927
 20
11.86841182263933
 30
0.0
  0
SPLINE
  5
F66
330
1F
100
AcDbEntity
  8
DIM
  6
HIDDEN
 62
     7
370
     0
100
AcDbSpline
210
0.0
220
0.0
230
1.0
 70
     8
 71
     3
 72
    10
 73
     6
 74
     0
 42
0.0000000001
 43
0.0000000001
 40
0.0
 40
0.0
 40
0.0
 40
0.0
 40
0.2814432298782867
 40
0.7505439012163292
 40
1.0
 40
1.0
 40
1.0
 40
1.0
 10
8.908521667379025
 20
11.8795847495052
 30
0.0
 10
8.9159224559301
 20
11.88009871712444
 30
0.0
 10
8.935658644694013
 20
11.88146934971067
 30
0.0
 10
8.957697553300519
 20
11.88380391364239
 30
0.0
 10
8.967994653387727
 20
11.88750745888886
 30
0.0
 10
8.971569422318097
 20
11.88879319160654
 30
0.0
  0
ARC
  5
F67
330
1F
100
AcDbEntity
  8
DIM
  6
HIDDEN
 62
     7
370
     0
100
AcDbCircle
 10
7.484930897591999
 20
11.94664322987847
 30
0.0
 40
0.0099999999999998
100
AcDbArc
 50
0.0
 51
90.0
  0
ARC
  5
F68
330
1F
100
AcDbEntity
  8
DIM
  6
HIDDEN
 62
     7
370
     0
100
AcDbCircle
 10
8.964930897591997
 20
11.94664322987847
 30
0.0
 40
0.0099999999999998
100
AcDbArc
 50
90.0
 51
180.0
  0
LINE
  5
F69
330
1F
100
AcDbEntity
  8
DIM
  6
HIDDEN
 62
     7
370
     0
100
AcDbLine
 10
7.494930897591997
 20
11.94664322987847
 30
0.0
 11
7.494930897591997
 21
11.48664322987847
 31
0.0
  0
LINE
  5
F6A
330
1F
100
AcDbEntity
  8
DIM
  6
HIDDEN
 62
     7
370
     0
100
AcDbLine
 10
8.954930897591998
 20
11.48664322987847
 30
0.0
 11
8.954930897591998
 21
11.94664322987847
 31
0.0
  0
LINE
  5
F6B
330
1F
100
AcDbEntity
  8
DIM
  6
HIDDEN
 62
     7
370
     0
100
AcDbLine
 10
8.769930897591997
 20
14.58800271752492
 30
0.0
 11
8.769930897591997
 21
14.66733105505201
 31
0.0
  0
LINE
  5
F6C
330
1F
100
AcDbEntity
  8
DIM
  6
HIDDEN
 62
     7
370
     0
100
AcDbLine
 10
8.769930897591997
 20
14.47200147911383
 30
0.0
 11
8.769930897591997
 21
14.54800271752492
 31
0.0
  0
LINE
  5
F6D
330
1F
100
AcDbEntity
  8
DIM
  6
HIDDEN
 62
     7
370
     0
100
AcDbLine
 10
8.769930897591997
 20
14.35600019117255
 30
0.0
 11
8.769930897591997
 21
14.43200147911383
 31
0.0
  0
LINE
  5
F6E
330
1F
100
AcDbEntity
  8
DIM
  6
HIDDEN
 62
     7
370
     0
100
AcDbLine
 10
8.769930897591997
 20
14.22799953894391
 30
0.0
 11
8.769930897591997
 21
14.31600019117255
 31
0.0
  0
LINE
  5
F6F
330
1F
100
AcDbEntity
  8
DIM
  6
HIDDEN
 62
     7
370
     0
100
AcDbLine
 10
7.679930897591997
 20
14.2579995389439
 30
0.0
 11
7.679930897591997
 21
14.22799953894391
 31
0.0
  0
LINE
  5
F70
330
1F
100
AcDbEntity
  8
DIM
  6
HIDDEN
 62
     7
370
     0
100
AcDbLine
 10
7.679930897591997
 20
14.37399720130231
 30
0.0
 11
7.679930897591997
 21
14.29799953894391
 31
0.0
  0
LINE
  5
F71
330
1F
100
AcDbEntity
  8
DIM
  6
HIDDEN
 62
     7
370
     0
100
AcDbLine
 10
7.679930897591997
 20
14.48999532482952
 30
0.0
 11
7.679930897591997
 21
14.41399720130231
 31
0.0
  0
LINE
  5
F72
330
1F
100
AcDbEntity
  8
DIM
  6
HIDDEN
 62
     7
370
     0
100
AcDbLine
 10
7.679930897591997
 20
14.60599387989703
 30
0.0
 11
7.679930897591997
 21
14.52999532482952
 31
0.0
  0
LINE
  5
F73
330
1F
100
AcDbEntity
  8
DIM
  6
HIDDEN
 62
     7
370
     0
100
AcDbLine
 10
7.679930897591997
 20
14.66733105505201
 30
0.0
 11
7.679930897591997
 21
14.64599387989703
 31
0.0
  0
SPLINE
  5
F74
330
1F
100
AcDbEntity
  8
DIM
  6
HIDDEN
 62
     7
370
     0
100
AcDbSpline
210
0.0
220
0.0
230
1.0
 70
     8
 71
     3
 72
    15
 73
    11
 74
     0
 42
0.0000000001
 43
0.0000000001
 40
0.0
 40
0.0
 40
0.0
 40
0.0
 40
0.1468220517875793
 40
0.2248086682538378
 40
0.3230128081030954
 40
0.4477023891727273
 40
0.6015045550512809
 40
0.7211871757715385
 40
0.8543434328174805
 40
0.9999999999999998
 40
0.9999999999999998
 40
0.9999999999999998
 40
0.9999999999999998
 10
7.739243012805976
 20
14.63616650128522
 30
0.0
 10
7.728873490124524
 20
14.63681091490383
 30
0.0
 10
7.712996048309326
 20
14.63779761796131
 30
0.0
 10
7.702228436617879
 20
14.63759224778642
 30
0.0
 10
7.697132655735469
 20
14.6361064382572
 30
0.0
 10
7.698632379000239
 20
14.63197692164568
 30
0.0
 10
7.708082510638108
 20
14.62601036106854
 30
0.0
 10
7.725457378641038
 20
14.62101045608202
 30
0.0
 10
7.749660373860535
 20
14.61821534513691
 30
0.0
 10
7.775400778467881
 20
14.61841016392022
 30
0.0
 10
7.78884800415906
 20
14.61851194057012
 30
0.0
  0
SPLINE
  5
F75
330
1F
100
AcDbEntity
  8
DIM
  6
HIDDEN
 62
     7
370
     0
100
AcDbSpline
210
0.0
220
0.0
230
1.0
 70
     8
 71
     3
 72
    13
 73
     9
 74
     0
 42
0.0000000001
 43
0.0000000001
 40
0.0
 40
0.0
 40
0.0
 40
0.0
 40
0.1155111610515705
 40
0.2667254182849086
 40
0.3947087893968681
 40
0.5872972054284507
 40
0.7956959211274625
 40
1.0
 40
1.0
 40
1.0
 40
1.0
 10
7.718463045121312
 20
14.52190547934156
 30
0.0
 10
7.714252508718264
 20
14.52213272634048
 30
0.0
 10
7.704530010276705
 20
14.52265745962415
 30
0.0
 10
7.700912431925353
 20
14.52139711037101
 30
0.0
 10
7.701304127922623
 20
14.50773238839003
 30
0.0
 10
7.695857748330491
 20
14.49791346331386
 30
0.0
 10
7.702309849644837
 20
14.49749857808556
 30
0.0
 10
7.717907761822548
 20
14.49835925685763
 30
0.0
 10
7.725629340454236
 20
14.49878532662514
 30
0.0
  0
SPLINE
  5
F76
330
1F
100
AcDbEntity
  8
DIM
  6
HIDDEN
 62
     7
370
     0
100
AcDbSpline
210
0.0
220
0.0
230
1.0
 70
     8
 71
     3
 72
    20
 73
    16
 74
     0
 42
0.0000000001
 43
0.0000000001
 40
0.0
 40
0.0
 40
0.0
 40
0.0
 40
0.1654677581294843
 40
0.2551961999653631
 40
0.3250444284365334
 40
0.3753777937563092
 40
0.3935670189317321
 40
0.4074296784558192
 40
0.4301177865410985
 40
0.4720845078681312
 40
0.5387425144416086
 40
0.6311190703605947
 40
0.7331703605367077
 40
0.8333205804667523
 40
0.9999999999999998
 40
0.9999999999999998
 40
0.9999999999999998
 40
0.9999999999999998
 10
7.747989478045942
 20
14.40354500343975
 30
0.0
 10
7.734312061691685
 20
14.40447226914208
 30
0.0
 10
7.713217772880328
 20
14.40590236456531
 30
0.0
 10
7.700223550250326
 20
14.40728785996929
 30
0.0
 10
7.696121884432294
 20
14.4071329119605
 30
0.0
 10
7.696492047475489
 20
14.40564814559692
 30
0.0
 10
7.697900804654501
 20
14.40280541809578
 30
0.0
 10
7.699436747282186
 20
14.39944374228107
 30
0.0
 10
7.700312582987333
 20
14.3897106216564
 30
0.0
 10
7.698565697033233
 20
14.38700403176711
 30
0.0
 10
7.699902432462975
 20
14.38358853855064
 30
0.0
 10
7.706679911457442
 20
14.38346783124039
 30
0.0
 10
7.72137866960789
 20
14.38370585740308
 30
0.0
 10
7.747014372168242
 20
14.38489165780872
 30
0.0
 10
7.776589249614058
 20
14.38627851201733
 30
0.0
 10
7.795063671778519
 20
14.38714483277139
 30
0.0
  0
SPLINE
  5
F77
330
1F
100
AcDbEntity
  8
DIM
  6
HIDDEN
 62
     7
370
     0
100
AcDbSpline
210
0.0
220
0.0
230
1.0
 70
     8
 71
     3
 72
    10
 73
     6
 74
     0
 42
0.0000000001
 43
0.0000000001
 40
0.0
 40
0.0
 40
0.0
 40
0.0
 40
0.3764191011538845
 40
0.7260651153596744
 40
1.0
 40
1.0
 40
1.0
 40
1.0
 10
7.699930897591999
 20
14.27799953894391
 30
0.0
 10
7.701463931907923
 20
14.27500356583004
 30
0.0
 10
7.704420962340307
 20
14.26922471040568
 30
0.0
 10
7.730533735298715
 20
14.26842959343816
 30
0.0
 10
7.761803375268007
 20
14.26968567074457
 30
0.0
 10
7.775539917284579
 20
14.27023745703671
 30
0.0
  0
SPLINE
  5
F78
330
1F
100
AcDbEntity
  8
DIM
  6
HIDDEN
 62
     7
370
     0
100
AcDbSpline
210
0.0
220
0.0
230
1.0
 70
     8
 71
     3
 72
    19
 73
    15
 74
     0
 42
0.0000000001
 43
0.0000000001
 40
0.0
 40
0.0
 40
0.0
 40
0.0
 40
0.055998910421632
 40
0.2392199357328849
 40
0.3242067772409181
 40
0.3909339041194819
 40
0.4396943018646314
 40
0.4715531985899613
 40
0.4948187545342697
 40
0.5353224095972307
 40
0.597976293448332
 40
0.683769235573142
 40
0.871289845921604
 40
1.0
 40
1.0
 40
1.0
 40
1.0
 10
8.673049987468926
 20
14.32802165604138
 30
0.0
 10
8.680018639763957
 20
14.32766360537135
 30
0.0
 10
8.70978780029959
 20
14.32613406028504
 30
0.0
 10
8.733296026314006
 20
14.32410005892631
 30
0.0
 10
8.749685462014735
 20
14.32238475734434
 30
0.0
 10
8.753965954551157
 20
14.32225484238965
 30
0.0
 10
8.754086829723952
 20
14.32386186484278
 30
0.0
 10
8.751050784228873
 20
14.32757781923379
 30
0.0
 10
8.749351685713437
 20
14.33957397145886
 30
0.0
 10
8.751297331304304
 20
14.34299263751294
 30
0.0
 10
8.750136366302962
 20
14.34636831657163
 30
0.0
 10
8.740886892073321
 20
14.34673859511658
 30
0.0
 10
8.717256496958185
 20
14.34587950756454
 30
0.0
 10
8.681067639207689
 20
14.34413398791395
 30
0.0
 10
8.666338289691587
 20
14.34342353805122
 30
0.0
  0
SPLINE
  5
F79
330
1F
100
AcDbEntity
  8
DIM
  6
HIDDEN
 62
     7
370
     0
100
AcDbSpline
210
0.0
220
0.0
230
1.0
 70
     8
 71
     3
 72
    16
 73
    12
 74
     0
 42
0.0000000001
 43
0.0000000001
 40
0.0
 40
0.0
 40
0.0
 40
0.0
 40
0.0315040097177512
 40
0.2411927169231952
 40
0.3787888088289117
 40
0.5103957966759144
 40
0.6184286471095363
 40
0.7017313905625981
 40
0.7678432632678544
 40
0.8489439586476482
 40
0.9999999999999998
 40
0.9999999999999998
 40
0.9999999999999998
 40
0.9999999999999998
 10
8.685415159071185
 20
14.44336962957808
 30
0.0
 10
8.687953514930148
 20
14.4432398158369
 30
0.0
 10
8.707387007733977
 20
14.4422459699992
 30
0.0
 10
8.72624422198475
 20
14.44109922414043
 30
0.0
 10
8.743861730163613
 20
14.44058107118874
 30
0.0
 10
8.750930045059138
 20
14.44094985640305
 30
0.0
 10
8.751655263932002
 20
14.44403537878048
 30
0.0
 10
8.748919621891612
 20
14.45092064910343
 30
0.0
 10
8.751615677104728
 20
14.46313744654968
 30
0.0
 10
8.753639673959801
 20
14.4662248627259
 30
0.0
 10
8.747042467289332
 20
14.46568469898069
 30
0.0
 10
8.742749902112668
 20
14.46533323385338
 30
0.0
  0
SPLINE
  5
F7A
330
1F
100
AcDbEntity
  8
DIM
  6
HIDDEN
 62
     7
370
     0
100
AcDbSpline
210
0.0
220
0.0
230
1.0
 70
     8
 71
     3
 72
    14
 73
    10
 74
     0
 42
0.0000000001
 43
0.0000000001
 40
0.0
 40
0.0
 40
0.0
 40
0.0
 40
0.0772029047031009
 40
0.2047476530406477
 40
0.3189505859843345
 40
0.4223680511316108
 40
0.6178656861866539
 40
0.8116037455101348
 40
1.0
 40
1.0
 40
1.0
 40
1.0
 10
8.72671051198502
 20
14.55646528616338
 30
0.0
 10
8.729869806000648
 20
14.55627884335771
 30
0.0
 10
8.738248480837464
 20
14.55578438363455
 30
0.0
 10
8.745001477222844
 20
14.55633185521295
 30
0.0
 10
8.747845917984463
 20
14.55958700900071
 30
0.0
 10
8.74883964628662
 20
14.57074276073788
 30
0.0
 10
8.753961081784566
 20
14.57983963199655
 30
0.0
 10
8.749278396881358
 20
14.58087399865954
 30
0.0
 10
8.735917856538558
 20
14.58006609559726
 30
0.0
 10
8.729330968976888
 20
14.57966779085093
 30
0.0
  0
ARC
  5
F7B
330
1F
100
AcDbEntity
  8
DIM
  6
HIDDEN
 62
     7
370
     0
100
AcDbCircle
 10
8.378185912494153
 20
14.07367400714752
 30
0.0
 40
0.7112614314554065
100
AcDbArc
 50
56.57980541137757
 51
78.7091285237869
  0
ARC
  5
F7C
330
1F
100
AcDbEntity
  8
DIM
  6
HIDDEN
 62
     7
370
     0
100
AcDbCircle
 10
8.071675882689843
 20
14.07367400714752
 30
0.0
 40
0.7112614314554065
100
AcDbArc
 50
101.2908714762131
 51
123.4201945886225
  0
ARC
  5
F7D
330
1F
100
AcDbEntity
  8
DIM
  6
HIDDEN
 62
     7
370
     0
100
AcDbCircle
 10
8.525275318657454
 20
14.81039542327912
 30
0.0
 40
0.0399999999999991
100
AcDbArc
 50
189.5413217173887
 51
258.7091285237865
  0
ARC
  5
F7E
330
1F
100
AcDbEntity
  8
DIM
  6
HIDDEN
 62
     7
370
     0
100
AcDbCircle
 10
7.92458647652654
 20
14.81039542327912
 30
0.0
 40
0.0399999999999999
100
AcDbArc
 50
281.2908714762175
 51
350.4586782826133
  0
LINE
  5
F7F
330
1F
100
AcDbEntity
  8
DIM
  6
HIDDEN
 62
     7
370
     0
100
AcDbLine
 10
8.48582866614895
 20
14.80376506839622
 30
0.0
 11
8.431683234444774
 21
15.12589805631004
 31
0.0
  0
LINE
  5
F80
330
1F
100
AcDbEntity
  8
DIM
  6
HIDDEN
 62
     7
370
     0
100
AcDbLine
 10
8.018178560739222
 20
15.12589805631004
 30
0.0
 11
7.964033129035046
 21
14.80376506839622
 31
0.0
  0
LINE
  5
F81
330
1F
100
AcDbEntity
  8
DIM
  6
HIDDEN
 62
     7
370
     0
100
AcDbLine
 10
8.429575256440175
 20
15.13843926674472
 30
0.0
 11
8.355099341046129
 21
15.58152649309796
 31
0.0
  0
LINE
  5
F82
330
1F
100
AcDbEntity
  8
DIM
  6
HIDDEN
 62
     7
370
     0
100
AcDbLine
 10
8.094762454137866
 20
15.58152649309796
 30
0.0
 11
8.020286538743821
 21
15.13843926674472
 31
0.0
  0
LINE
  5
F83
330
1F
100
AcDbEntity
  8
DIM
  6
HIDDEN
 62
     7
370
     0
100
AcDbLine
 10
8.353424365566894
 20
15.59149159705641
 30
0.0
 11
8.305266937479082
 21
15.87799953894391
 31
0.0
  0
LINE
  5
F84
330
1F
100
AcDbEntity
  8
DIM
  6
HIDDEN
 62
     7
370
     0
100
AcDbLine
 10
8.144594857704914
 20
15.87799953894391
 30
0.0
 11
8.0964374296171
 21
15.59149159705641
 31
0.0
  0
LINE
  5
F85
330
1F
100
AcDbEntity
  8
DIM
  6
HIDDEN
 62
     7
370
     0
100
AcDbLine
 10
8.954930897591998
 20
11.94664322987847
 30
0.0
 11
7.494930897591997
 21
11.94664322987847
 31
0.0
  0
LINE
  5
F86
330
1F
100
AcDbEntity
  8
DIM
  6
HIDDEN
 62
     7
370
     0
100
AcDbLine
 10
7.932418072826028
 20
14.7711695886876
 30
0.0
 11
8.517443722357969
 21
14.7711695886876
 31
0.0
  0
LINE
  5
F87
330
1F
100
AcDbEntity
  8
DIM
  6
HIDDEN
 62
     7
370
     0
100
AcDbLine
 10
7.964033129035046
 20
14.80376506839622
 30
0.0
 11
8.48582866614895
 21
14.80376506839622
 31
0.0
  0
LINE
  5
F88
330
1F
100
AcDbEntity
  8
DIM
  6
Continuous
 62
     7
370
    15
100
AcDbLine
 10
30.6229337931177
 20
6.206643229878474
 30
0.0
 11
30.6229337931177
 21
11.50664322987847
 31
0.0
  0
LINE
  5
F89
330
1F
100
AcDbEntity
  8
DIM
  6
Continuous
 62
     7
370
    15
100
AcDbLine
 10
28.5829337931177
 20
11.50664322987847
 30
0.0
 11
28.5829337931177
 21
6.206643229878474
 31
0.0
  0
ARC
  5
F8A
330
1F
100
AcDbEntity
  8
DIM
  6
Continuous
 62
     7
370
    15
100
AcDbCircle
 10
30.5729337931177
 20
6.206643229878474
 30
0.0
 40
0.0499999999999998
100
AcDbArc
 50
270.0000000000008
 51
0.0000000000002036
  0
ARC
  5
F8B
330
1F
100
AcDbEntity
  8
DIM
  6
Continuous
 62
     7
370
    15
100
AcDbCircle
 10
28.6329337931177
 20
6.206643229878474
 30
0.0
 40
0.0500000000000007
100
AcDbArc
 50
179.9999999999998
 51
270.0000000000008
  0
SPLINE
  5
F8C
330
1F
100
AcDbEntity
  8
DIM
  6
Continuous
 62
     7
370
    15
100
AcDbSpline
210
0.0
220
0.0
230
1.0
 70
     8
 71
     3
 72
    14
 73
    10
 74
     0
 42
0.0000000001
 43
0.0000000001
 40
0.0
 40
0.0
 40
0.0
 40
0.0
 40
0.1819057188976046
 40
0.3461028889803734
 40
0.4675565028998082
 40
0.5924721893797484
 40
0.7637708197423417
 40
0.9793212067305415
 40
1.0
 40
1.0
 40
1.0
 40
1.0
 10
30.35131559889666
 20
11.74181573832423
 30
0.0
 10
30.35590539429599
 20
11.74322346726005
 30
0.0
 10
30.36463816782922
 20
11.74590188251022
 30
0.0
 10
30.37270087634758
 20
11.75161926512653
 30
0.0
 10
30.37310040029924
 20
11.77046633897281
 30
0.0
 10
30.36007725058043
 20
11.78138757641477
 30
0.0
 10
30.34758445220104
 20
11.78348389610745
 30
0.0
 10
30.33757791440148
 20
11.78512264127953
 30
0.0
 10
30.32705726476692
 20
11.78586711940259
 30
0.0
 10
30.32613631868136
 20
11.78593228878253
 30
0.0
  0
SPLINE
  5
F8D
330
1F
100
AcDbEntity
  8
DIM
  6
Continuous
 62
     7
370
    15
100
AcDbSpline
210
0.0
220
0.0
230
1.0
 70
     8
 71
     3
 72
    14
 73
    10
 74
     0
 42
0.0000000001
 43
0.0000000001
 40
0.0
 40
0.0
 40
0.0
 40
0.0
 40
0.1819057188976063
 40
0.3461028889803726
 40
0.4675565028998089
 40
0.5924721893797546
 40
0.7637708197423497
 40
0.9793212067305436
 40
1.0
 40
1.0
 40
1.0
 40
1.0
 10
30.35131559889666
 20
11.62581573832422
 30
0.0
 10
30.35590539429599
 20
11.62722346726005
 30
0.0
 10
30.36463816782922
 20
11.62990188251022
 30
0.0
 10
30.37270087634758
 20
11.63561926512653
 30
0.0
 10
30.37310040029924
 20
11.65446633897281
 30
0.0
 10
30.36007725058043
 20
11.66538757641477
 30
0.0
 10
30.34758445220104
 20
11.66748389610745
 30
0.0
 10
30.33757791440149
 20
11.66912264127953
 30
0.0
 10
30.32705726476692
 20
11.66986711940259
 30
0.0
 10
30.32613631868136
 20
11.66993228878253
 30
0.0
  0
SPLINE
  5
F8E
330
1F
100
AcDbEntity
  8
DIM
  6
Continuous
 62
     7
370
    15
100
AcDbSpline
210
0.0
220
0.0
230
1.0
 70
     8
 71
     3
 72
     9
 73
     5
 74
     0
 42
0.0000000001
 43
0.0000000001
 40
0.0
 40
0.0
 40
0.0
 40
0.0
 40
0.500910030511461
 40
1.0
 40
1.0
 40
1.0
 40
1.0
 10
29.60293379311671
 20
11.77144322987849
 30
0.0
 10
29.60900208708374
 20
11.77105443466512
 30
0.0
 10
29.62111662581803
 20
11.77027825692922
 30
0.0
 10
29.63322247560117
 20
11.76994036438093
 30
0.0
 10
29.63926438380006
 20
11.76977172559932
 30
0.0
  0
SPLINE
  5
F8F
330
1F
100
AcDbEntity
  8
DIM
  6
Continuous
 62
     7
370
    15
100
AcDbSpline
210
0.0
220
0.0
230
1.0
 70
     8
 71
     3
 72
     9
 73
     5
 74
     0
 42
0.0000000001
 43
0.0000000001
 40
0.0
 40
0.0
 40
0.0
 40
0.0
 40
0.500910030511461
 40
1.0
 40
1.0
 40
1.0
 40
1.0
 10
29.60293379311671
 20
11.65544322987849
 30
0.0
 10
29.60900208708374
 20
11.65505443466512
 30
0.0
 10
29.62111662581803
 20
11.65427825692922
 30
0.0
 10
29.63322247560117
 20
11.65394036438093
 30
0.0
 10
29.63926438380006
 20
11.65377172559932
 30
0.0
  0
SPLINE
  5
F90
330
1F
100
AcDbEntity
  8
DIM
  6
Continuous
 62
     7
370
    15
100
AcDbSpline
210
0.0
220
0.0
230
1.0
 70
     8
 71
     3
 72
    14
 73
    10
 74
     0
 42
0.0000000001
 43
0.0000000001
 40
0.0
 40
0.0
 40
0.0
 40
0.0
 40
0.1819057188955018
 40
0.3461028889752163
 40
0.4675565029029614
 40
0.592472189393845
 40
0.7637708197622307
 40
0.9793212067511291
 40
1.0
 40
1.0
 40
1.0
 40
1.0
 10
28.85455198733788
 20
11.72347072143271
 30
0.0
 10
28.84996219193874
 20
11.7220629924969
 30
0.0
 10
28.84122941840588
 20
11.71938457724677
 30
0.0
 10
28.83316670988748
 20
11.71366719462964
 30
0.0
 10
28.8327671859365
 20
11.69482012078351
 30
0.0
 10
28.84579033565597
 20
11.68389888334196
 30
0.0
 10
28.85828313403692
 20
11.68180256364902
 30
0.0
 10
28.86828967183653
 20
11.6801638184771
 30
0.0
 10
28.87881032147052
 20
11.67941934035411
 30
0.0
 10
28.87973126755519
 20
11.67935417097424
 30
0.0
  0
SPLINE
  5
F91
330
1F
100
AcDbEntity
  8
DIM
  6
Continuous
 62
     7
370
    15
100
AcDbSpline
210
0.0
220
0.0
230
1.0
 70
     8
 71
     3
 72
    14
 73
    10
 74
     0
 42
0.0000000001
 43
0.0000000001
 40
0.0
 40
0.0
 40
0.0
 40
0.0
 40
0.1819057188955057
 40
0.346102888975216
 40
0.4675565029029613
 40
0.5924721893938408
 40
0.763770819762231
 40
0.9793212067511252
 40
1.0
 40
1.0
 40
1.0
 40
1.0
 10
28.85455198733788
 20
11.60747072143271
 30
0.0
 10
28.84996219193874
 20
11.6060629924969
 30
0.0
 10
28.84122941840588
 20
11.60338457724677
 30
0.0
 10
28.83316670988748
 20
11.59766719462964
 30
0.0
 10
28.8327671859365
 20
11.57882012078351
 30
0.0
 10
28.84579033565597
 20
11.56789888334197
 30
0.0
 10
28.85828313403692
 20
11.56580256364902
 30
0.0
 10
28.86828967183653
 20
11.56416381847711
 30
0.0
 10
28.87881032147052
 20
11.56341934035411
 30
0.0
 10
28.87973126755519
 20
11.56335417097424
 30
0.0
  0
SPLINE
  5
F92
330
1F
100
AcDbEntity
  8
DIM
  6
Continuous
 62
     7
370
    15
100
AcDbSpline
210
0.0
220
0.0
230
1.0
 70
     8
 71
     3
 72
     9
 73
     5
 74
     0
 42
0.0000000001
 43
0.0000000001
 40
0.0
 40
0.0
 40
0.0
 40
0.0
 40
0.5009100305110909
 40
1.0
 40
1.0
 40
1.0
 40
1.0
 10
29.60293379313095
 20
11.69384322987816
 30
0.0
 10
29.59686549916306
 20
11.69423202509155
 30
0.0
 10
29.58475096042705
 20
11.69500820282749
 30
0.0
 10
29.57264511064222
 20
11.69534609537582
 30
0.0
 10
29.56660320244246
 20
11.69551473415745
 30
0.0
  0
SPLINE
  5
F93
330
1F
100
AcDbEntity
  8
DIM
  6
Continuous
 62
     7
370
    15
100
AcDbSpline
210
0.0
220
0.0
230
1.0
 70
     8
 71
     3
 72
     9
 73
     5
 74
     0
 42
0.0000000001
 43
0.0000000001
 40
0.0
 40
0.0
 40
0.0
 40
0.0
 40
0.5009100303348472
 40
1.0
 40
1.0
 40
1.0
 40
1.0
 10
29.6029337931177
 20
11.57784322987847
 30
0.0
 10
29.59686549915426
 20
11.57823202509175
 30
0.0
 10
29.58475096042287
 20
11.57900820282775
 30
0.0
 10
29.57264511064225
 20
11.57934609537587
 30
0.0
 10
29.56660320244246
 20
11.57951473415745
 30
0.0
  0
SPLINE
  5
F94
330
1F
100
AcDbEntity
  8
DIM
  6
Continuous
 62
     7
370
    15
100
AcDbSpline
210
0.0
220
0.0
230
1.0
 70
     8
 71
     3
 72
     9
 73
     5
 74
     0
 42
0.0000000001
 43
0.0000000001
 40
0.0
 40
0.0
 40
0.0
 40
0.0
 40
0.5009100305110799
 40
1.0
 40
1.0
 40
1.0
 40
1.0
 10
29.60293379313095
 20
11.80984322987816
 30
0.0
 10
29.59686549916306
 20
11.81023202509155
 30
0.0
 10
29.58475096042705
 20
11.81100820282749
 30
0.0
 10
29.57264511064222
 20
11.81134609537582
 30
0.0
 10
29.56660320244246
 20
11.81151473415745
 30
0.0
  0
SPLINE
  5
F95
330
1F
100
AcDbEntity
  8
DIM
  6
Continuous
 62
     7
370
    15
100
AcDbSpline
210
0.0
220
0.0
230
1.0
 70
     8
 71
     3
 72
    14
 73
    10
 74
     0
 42
0.0000000001
 43
0.0000000001
 40
0.0
 40
0.0
 40
0.0
 40
0.0
 40
0.1819057188955018
 40
0.3461028889752174
 40
0.4675565029029624
 40
0.592472189393842
 40
0.7637708197622321
 40
0.9793212067511259
 40
1.0
 40
1.0
 40
1.0
 40
1.0
 10
28.85455198733788
 20
11.83947072143271
 30
0.0
 10
28.84996219193874
 20
11.8380629924969
 30
0.0
 10
28.84122941840588
 20
11.83538457724677
 30
0.0
 10
28.83316670988748
 20
11.82966719462964
 30
0.0
 10
28.8327671859365
 20
11.81082012078351
 30
0.0
 10
28.84579033565597
 20
11.79989888334197
 30
0.0
 10
28.85828313403692
 20
11.79780256364902
 30
0.0
 10
28.86828967183653
 20
11.79616381847711
 30
0.0
 10
28.87881032147052
 20
11.79541934035411
 30
0.0
 10
28.87973126755519
 20
11.79535417097424
 30
0.0
  0
SPLINE
  5
F96
330
1F
100
AcDbEntity
  8
DIM
  6
Continuous
 62
     7
370
    15
100
AcDbSpline
210
0.0
220
0.0
230
1.0
 70
     8
 71
     3
 72
     9
 73
     5
 74
     0
 42
0.0000000001
 43
0.0000000001
 40
0.0
 40
0.0
 40
0.0
 40
0.0
 40
0.5009100304982129
 40
1.0
 40
1.0
 40
1.0
 40
1.0
 10
29.6029337931177
 20
11.88744322987847
 30
0.0
 10
29.60900208708439
 20
11.8870544346651
 30
0.0
 10
29.62111662581835
 20
11.8862782569292
 30
0.0
 10
29.63322247560116
 20
11.88594036438093
 30
0.0
 10
29.63926438380006
 20
11.88577172559932
 30
0.0
  0
SPLINE
  5
F97
330
1F
100
AcDbEntity
  8
DIM
  6
Continuous
 62
     7
370
    15
100
AcDbSpline
210
0.0
220
0.0
230
1.0
 70
     8
 71
     3
 72
    14
 73
    10
 74
     0
 42
0.0000000001
 43
0.0000000001
 40
0.0
 40
0.0
 40
0.0
 40
0.0
 40
0.1819057188976038
 40
0.3461028889803724
 40
0.4675565028998059
 40
0.5924721893797479
 40
0.7637708197423415
 40
0.9793212067305386
 40
1.0
 40
1.0
 40
1.0
 40
1.0
 10
30.35131559889666
 20
11.85781573832422
 30
0.0
 10
30.35590539429599
 20
11.85922346726005
 30
0.0
 10
30.36463816782922
 20
11.86190188251022
 30
0.0
 10
30.37270087634758
 20
11.86761926512652
 30
0.0
 10
30.37310040029924
 20
11.88646633897281
 30
0.0
 10
30.36007725058043
 20
11.89738757641477
 30
0.0
 10
30.34758445220104
 20
11.89948389610745
 30
0.0
 10
30.33757791440149
 20
11.90112264127954
 30
0.0
 10
30.32705726476692
 20
11.90186711940259
 30
0.0
 10
30.32613631868136
 20
11.90193228878253
 30
0.0
  0
LINE
  5
F98
330
1F
100
AcDbEntity
  8
DIM
  6
Continuous
 62
     7
370
    15
100
AcDbLine
 10
28.8529337931177
 20
11.56764322987847
 30
0.0
 11
28.8529337931177
 21
11.50664322987847
 31
0.0
  0
LINE
  5
F99
330
1F
100
AcDbEntity
  8
DIM
  6
Continuous
 62
     7
370
    15
100
AcDbLine
 10
28.8529337931177
 20
11.68364322987847
 30
0.0
 11
28.8529337931177
 21
11.60764322987847
 31
0.0
  0
LINE
  5
F9A
330
1F
100
AcDbEntity
  8
DIM
  6
Continuous
 62
     7
370
    15
100
AcDbLine
 10
28.8529337931177
 20
11.79964322987847
 30
0.0
 11
28.8529337931177
 21
11.72364322987847
 31
0.0
  0
LINE
  5
F9B
330
1F
100
AcDbEntity
  8
DIM
  6
Continuous
 62
     7
370
    15
100
AcDbLine
 10
28.8529337931177
 20
11.94664322987847
 30
0.0
 11
28.8529337931177
 21
11.83964322987847
 31
0.0
  0
LINE
  5
F9C
330
1F
100
AcDbEntity
  8
DIM
  6
Continuous
 62
     7
370
    15
100
AcDbLine
 10
30.3529337931177
 20
11.89764322987847
 30
0.0
 11
30.3529337931177
 21
11.94664322987847
 31
0.0
  0
LINE
  5
F9D
330
1F
100
AcDbEntity
  8
DIM
  6
Continuous
 62
     7
370
    15
100
AcDbLine
 10
30.3529337931177
 20
11.78164322987847
 30
0.0
 11
30.3529337931177
 21
11.85764322987847
 31
0.0
  0
LINE
  5
F9E
330
1F
100
AcDbEntity
  8
DIM
  6
Continuous
 62
     7
370
    15
100
AcDbLine
 10
30.3529337931177
 20
11.66564322987847
 30
0.0
 11
30.3529337931177
 21
11.74164322987847
 31
0.0
  0
LINE
  5
F9F
330
1F
100
AcDbEntity
  8
DIM
  6
Continuous
 62
     7
370
    15
100
AcDbLine
 10
30.3529337931177
 20
11.50664322987847
 30
0.0
 11
30.3529337931177
 21
11.62564322987847
 31
0.0
  0
ARC
  5
FA0
330
1F
100
AcDbEntity
  8
DIM
  6
Continuous
 62
     7
370
    15
100
AcDbCircle
 10
28.8629337931177
 20
11.94664322987847
 30
0.0
 40
0.0100000000000016
100
AcDbArc
 50
90.0
 51
179.9999999999998
  0
ARC
  5
FA1
330
1F
100
AcDbEntity
  8
DIM
  6
Continuous
 62
     7
370
    15
100
AcDbCircle
 10
30.3429337931177
 20
11.94664322987847
 30
0.0
 40
0.0099999999999998
100
AcDbArc
 50
0.0000000000002036
 51
90.0
  0
ARC
  5
FA2
330
1F
100
AcDbEntity
  8
DIM
  6
Continuous
 62
     7
370
    15
100
AcDbCircle
 10
29.75618880801985
 20
14.07367400714752
 30
0.0
 40
0.7312614314554057
100
AcDbArc
 50
55.7322300289488
 51
78.7091285237868
  0
ARC
  5
FA3
330
1F
100
AcDbEntity
  8
DIM
  6
Continuous
 62
     7
370
    15
100
AcDbCircle
 10
29.44967877821555
 20
14.07367400714752
 30
0.0
 40
0.7312614314554057
100
AcDbArc
 50
101.2908714762132
 51
124.2677699710512
  0
LINE
  5
FA4
330
1F
100
AcDbEntity
  8
DIM
  6
Continuous
 62
     7
370
    15
100
AcDbLine
 10
30.1679337931177
 20
14.22799953894391
 30
0.0
 11
30.1679337931177
 21
14.6779995389439
 31
0.0
  0
LINE
  5
FA5
330
1F
100
AcDbEntity
  8
DIM
  6
Continuous
 62
     7
370
    15
100
AcDbLine
 10
29.0379337931177
 20
14.6779995389439
 30
0.0
 11
29.0379337931177
 21
14.22799953894391
 31
0.0
  0
ARC
  5
FA6
330
1F
100
AcDbEntity
  8
DIM
  6
Continuous
 62
     7
370
    15
100
AcDbCircle
 10
29.90327821418316
 20
14.81039542327912
 30
0.0
 40
0.0200000000000016
100
AcDbArc
 50
189.5413217173915
 51
258.7091285237826
  0
ARC
  5
FA7
330
1F
100
AcDbEntity
  8
DIM
  6
Continuous
 62
     7
370
    15
100
AcDbCircle
 10
29.30258937205225
 20
14.81039542327912
 30
0.0
 40
0.0200000000000009
100
AcDbArc
 50
281.2908714762091
 51
350.45867828261
  0
LINE
  5
FA8
330
1F
100
AcDbEntity
  8
DIM
  6
Continuous
 62
     7
370
    15
100
AcDbLine
 10
29.88355488792891
 20
14.80708024583767
 30
0.0
 11
29.82996668482434
 21
15.12589805631004
 31
0.0
  0
LINE
  5
FA9
330
1F
100
AcDbEntity
  8
DIM
  6
Continuous
 62
     7
370
    15
100
AcDbLine
 10
29.37590090141106
 20
15.12589805631004
 30
0.0
 11
29.3223126983065
 21
14.80708024583767
 31
0.0
  0
LINE
  5
FAA
330
1F
100
AcDbEntity
  8
DIM
  6
Continuous
 62
     7
370
    15
100
AcDbLine
 10
29.83251878413808
 20
15.12589805631004
 30
0.0
 11
29.83059448608478
 21
15.13843926674472
 31
0.0
  0
LINE
  5
FAB
330
1F
100
AcDbEntity
  8
DIM
  6
Continuous
 62
     7
370
    15
100
AcDbLine
 10
29.37527310015063
 20
15.13843926674472
 30
0.0
 11
29.37334880209732
 21
15.12589805631004
 31
0.0
  0
LINE
  5
FAC
330
1F
100
AcDbEntity
  8
DIM
  6
Continuous
 62
     7
370
    15
100
AcDbLine
 10
29.82785870681974
 20
15.13843926674472
 30
0.0
 11
29.75338279142569
 21
15.58152649309796
 31
0.0
  0
LINE
  5
FAD
330
1F
100
AcDbEntity
  8
DIM
  6
Continuous
 62
     7
370
    15
100
AcDbLine
 10
29.45248479480971
 20
15.58152649309796
 30
0.0
 11
29.37800887941566
 21
15.13843926674472
 31
0.0
  0
LINE
  5
FAE
330
1F
100
AcDbEntity
  8
DIM
  6
Continuous
 62
     7
370
    15
100
AcDbLine
 10
29.75476134924676
 20
15.58152649309796
 30
0.0
 11
29.75323232377924
 21
15.59149159705641
 31
0.0
  0
LINE
  5
FAF
330
1F
100
AcDbEntity
  8
DIM
  6
Continuous
 62
     7
370
    15
100
AcDbLine
 10
29.45263526245616
 20
15.59149159705641
 30
0.0
 11
29.45110623698864
 21
15.58152649309796
 31
0.0
  0
LINE
  5
FB0
330
1F
100
AcDbEntity
  8
DIM
  6
Continuous
 62
     7
370
    15
100
AcDbLine
 10
29.75170781594646
 20
15.59149159705641
 30
0.0
 11
29.70299315925904
 21
15.88131471638536
 31
0.0
  0
LINE
  5
FB1
330
1F
100
AcDbEntity
  8
DIM
  6
Continuous
 62
     7
370
    15
100
AcDbLine
 10
29.50287442697637
 20
15.88131471638536
 30
0.0
 11
29.45415977028894
 21
15.59149159705641
 31
0.0
  0
ARC
  5
FB2
330
1F
100
AcDbEntity
  8
DIM
  6
Continuous
 62
     7
370
    15
100
AcDbCircle
 10
29.68326983300478
 20
15.87799953894391
 30
0.0
 40
0.0199999999999984
100
AcDbArc
 50
9.541321717390788
 51
90.0
  0
ARC
  5
FB3
330
1F
100
AcDbEntity
  8
DIM
  6
Continuous
 62
     7
370
    15
100
AcDbCircle
 10
29.52259775323062
 20
15.87799953894391
 30
0.0
 40
0.0199999999999984
100
AcDbArc
 50
90.0
 51
170.4586782826092
  0
LINE
  5
FB4
330
1F
100
AcDbEntity
  8
DIM
  6
Continuous
 62
     7
370
    15
100
AcDbLine
 10
29.6029337931177
 20
11.50664322987847
 30
0.0
 11
30.6229337931177
 21
11.50664322987847
 31
0.0
  0
LINE
  5
FB5
330
1F
100
AcDbEntity
  8
DIM
  6
Continuous
 62
     7
370
    15
100
AcDbLine
 10
28.5829337931177
 20
11.50664322987847
 30
0.0
 11
29.6029337931177
 21
11.50664322987847
 31
0.0
  0
LINE
  5
FB6
330
1F
100
AcDbEntity
  8
DIM
  6
Continuous
 62
     7
370
    15
100
AcDbLine
 10
30.5729337931177
 20
6.156643229878474
 30
0.0
 11
28.6329337931177
 21
6.156643229878474
 31
0.0
  0
LINE
  5
FB7
330
1F
100
AcDbEntity
  8
DIM
  6
Continuous
 62
     7
370
    15
100
AcDbLine
 10
29.6029337931177
 20
11.53864322987847
 30
0.0
 11
29.6029337931177
 21
11.57785493411223
 31
0.0
  0
SPLINE
  5
FB8
330
1F
100
AcDbEntity
  8
DIM
  6
Continuous
 62
     7
370
    15
100
AcDbSpline
210
0.0
220
0.0
230
1.0
 70
     8
 71
     3
 72
    16
 73
    12
 74
     0
 42
0.0000000001
 43
0.0000000001
 40
0.0
 40
0.0
 40
0.0
 40
0.0
 40
0.1226084173609556
 40
0.2467470476924654
 40
0.3708856780239751
 40
0.4934940953849324
 40
0.6161025127458895
 40
0.7402411430773991
 40
0.8643797734089087
 40
0.9869881907698642
 40
0.9999999999999998
 40
0.9999999999999998
 40
0.9999999999999998
 40
0.9999999999999998
 10
29.6029337931177
 20
11.53864322987847
 30
0.0
 10
29.56390797500035
 20
11.53958585808526
 30
0.0
 10
29.48536927748262
 20
11.54148287895955
 30
0.0
 10
29.370202475596
 20
11.54444322642595
 30
0.0
 10
29.26082322567008
 20
11.54740359452236
 30
0.0
 10
29.16027908604867
 20
11.55024318247526
 30
0.0
 10
29.0706748768657
 20
11.55308305603067
 30
0.0
 10
28.99333078485581
 20
11.55604255661137
 30
0.0
 10
28.93295824590883
 20
11.55900608019642
 30
0.0
 10
28.89748800567166
 20
11.56099491192176
 30
0.0
 10
28.88767902335225
 20
11.56204453406259
 30
0.0
 10
28.8867379203185
 20
11.56214523794286
 30
0.0
  0
SPLINE
  5
FB9
330
1F
100
AcDbEntity
  8
DIM
  6
Continuous
 62
     7
370
    15
100
AcDbSpline
210
0.0
220
0.0
230
1.0
 70
     8
 71
     3
 72
    26
 73
    22
 74
     0
 42
0.0000000001
 43
0.0000000001
 40
0.0
 40
0.0
 40
0.0
 40
0.0
 40
0.0555744603003919
 40
0.1104638738932754
 40
0.1653532874861574
 40
0.2209277477865485
 40
0.2765022080869412
 40
0.3313916216798239
 40
0.3862810352727066
 40
0.4418554955730979
 40
0.497429955873489
 40
0.5523193694663724
 40
0.6072087830592553
 40
0.6627832433596466
 40
0.7183577036600378
 40
0.7732471172529211
 40
0.8281365308458038
 40
0.8837109911461949
 40
0.9392854514465861
 40
0.9941748650394696
 40
1.0
 40
1.0
 40
1.0
 40
1.0
 10
30.3529337931177
 20
11.62564322987847
 30
0.0
 10
30.3511287242717
 20
11.62663408510896
 30
0.0
 10
30.34754083702466
 20
11.62860358164813
 30
0.0
 10
30.31890866340109
 20
11.63144322987847
 30
0.0
 10
30.27411463400615
 20
11.63428287810884
 30
0.0
 10
30.21221201891111
 20
11.63724322987838
 30
0.0
 10
30.13527853860695
 20
11.64020358164846
 30
0.0
 10
30.04556563238246
 20
11.64304322987721
 30
0.0
 10
29.94505057334793
 20
11.64588287811354
 30
0.0
 10
29.83566343652221
 20
11.64884322986058
 30
0.0
 10
29.72049875116645
 20
11.65180358171451
 30
0.0
 10
29.60293367524378
 20
11.65464322963412
 30
0.0
 10
29.4853693095069
 20
11.65748287902593
 30
0.0
 10
29.37020246696663
 20
11.66044322640806
 30
0.0
 10
29.26082322795054
 20
11.66340359452709
 30
0.0
 10
29.16027908544106
 20
11.666243182474
 30
0.0
 10
29.07067487703082
 20
11.66908305603101
 30
0.0
 10
28.99333078481115
 20
11.67204255661128
 30
0.0
 10
28.93295824592124
 20
11.67500608019644
 30
0.0
 10
28.89748800567142
 20
11.67699491192175
 30
0.0
 10
28.88767902335223
 20
11.67804453406259
 30
0.0
 10
28.88673792031851
 20
11.67814523794286
 30
0.0
  0
SPLINE
  5
FBA
330
1F
100
AcDbEntity
  8
DIM
  6
Continuous
 62
     7
370
    15
100
AcDbSpline
210
0.0
220
0.0
230
1.0
 70
     8
 71
     3
 72
    26
 73
    22
 74
     0
 42
0.0000000001
 43
0.0000000001
 40
0.0
 40
0.0
 40
0.0
 40
0.0
 40
0.0555744603003927
 40
0.1104638738932754
 40
0.165353287486158
 40
0.2209277477865491
 40
0.2765022080869409
 40
0.331391621679824
 40
0.3862810352727071
 40
0.4418554955730987
 40
0.4974299558734903
 40
0.5523193694663727
 40
0.6072087830592557
 40
0.6627832433596473
 40
0.7183577036600388
 40
0.7732471172529211
 40
0.8281365308458042
 40
0.8837109911461952
 40
0.9392854514465865
 40
0.9941748650394696
 40
1.0
 40
1.0
 40
1.0
 40
1.0
 10
30.3529337931177
 20
11.74164322987847
 30
0.0
 10
30.3511287242717
 20
11.74263408510896
 30
0.0
 10
30.34754083702466
 20
11.74460358164813
 30
0.0
 10
30.31890866340109
 20
11.74744322987846
 30
0.0
 10
30.27411463400615
 20
11.75028287810884
 30
0.0
 10
30.21221201891111
 20
11.75324322987838
 30
0.0
 10
30.13527853860695
 20
11.75620358164847
 30
0.0
 10
30.04556563238246
 20
11.75904322987721
 30
0.0
 10
29.94505057334793
 20
11.76188287811354
 30
0.0
 10
29.83566343652221
 20
11.76484322986058
 30
0.0
 10
29.72049875116645
 20
11.76780358171451
 30
0.0
 10
29.60293367524377
 20
11.77064322963412
 30
0.0
 10
29.4853693095069
 20
11.77348287902593
 30
0.0
 10
29.37020246696663
 20
11.77644322640806
 30
0.0
 10
29.26082322795054
 20
11.77940359452709
 30
0.0
 10
29.16027908544106
 20
11.782243182474
 30
0.0
 10
29.07067487703081
 20
11.78508305603101
 30
0.0
 10
28.99333078481115
 20
11.78804255661128
 30
0.0
 10
28.93295824592124
 20
11.79100608019644
 30
0.0
 10
28.89748800567142
 20
11.79299491192176
 30
0.0
 10
28.88767902335223
 20
11.79404453406259
 30
0.0
 10
28.88673792031851
 20
11.79414523794285
 30
0.0
  0
SPLINE
  5
FBB
330
1F
100
AcDbEntity
  8
DIM
  6
Continuous
 62
     7
370
    15
100
AcDbSpline
210
0.0
220
0.0
230
1.0
 70
     8
 71
     3
 72
    17
 73
    13
 74
     0
 42
0.0000000001
 43
0.0000000001
 40
0.0
 40
0.0
 40
0.0
 40
0.0
 40
0.10301252073525
 40
0.2047552425776174
 40
0.3064979644199849
 40
0.4095104851552321
 40
0.5125230058904793
 40
0.6142657277328469
 40
0.7160084495752143
 40
0.8190209703104615
 40
0.9220334910457086
 40
1.0
 40
1.0
 40
1.0
 40
1.0
 10
30.3529337931177
 20
11.85764322987847
 30
0.0
 10
30.35112872483962
 20
11.8586340851304
 30
0.0
 10
30.34754083872141
 20
11.86060358171217
 30
0.0
 10
30.31890865671156
 20
11.86344322962595
 30
0.0
 10
30.27411465923452
 20
11.86628287906115
 30
0.0
 10
30.21221192341249
 20
11.86924322627354
 30
0.0
 10
30.13527889301869
 20
11.87220359502663
 30
0.0
 10
30.0455643278732
 20
11.87504318063521
 30
0.0
 10
29.94505546953508
 20
11.87788306293249
 30
0.0
 10
29.8356449090855
 20
11.88084253049569
 30
0.0
 10
29.72945766838293
 20
11.8835772243078
 30
0.0
 10
29.66007372282808
 20
11.88525528543409
 30
0.0
 10
29.63018283424466
 20
11.88597820105615
 30
0.0
  0
LINE
  5
FBC
330
1F
100
AcDbEntity
  8
DIM
  6
Continuous
 62
     7
370
    15
100
AcDbLine
 10
29.6029337931177
 20
11.92664322987847
 30
0.0
 11
29.6029337931177
 21
11.88743152564472
 31
0.0
  0
SPLINE
  5
FBD
330
1F
100
AcDbEntity
  8
DIM
  6
Continuous
 62
     7
370
    15
100
AcDbSpline
210
0.0
220
0.0
230
1.0
 70
     8
 71
     3
 72
    17
 73
    13
 74
     0
 42
0.0000000001
 43
0.0000000001
 40
0.0
 40
0.0
 40
0.0
 40
0.0
 40
0.0779665089639635
 40
0.1809790296981301
 40
0.2839915504322966
 40
0.385734272273598
 40
0.4874769941148993
 40
0.5904895148490656
 40
0.6935020355832322
 40
0.7952447574245321
 40
0.896987479265832
 40
0.9999999999999998
 40
0.9999999999999998
 40
0.9999999999999998
 40
0.9999999999999998
 10
29.57568475200277
 20
11.57930825870049
 30
0.0
 10
29.54579386341532
 20
11.58003117432265
 30
0.0
 10
29.47640991785644
 20
11.58170923544904
 30
0.0
 10
29.3702226771499
 20
11.58444392926125
 30
0.0
 10
29.26081211670033
 20
11.58740339682445
 30
0.0
 10
29.1603032583622
 20
11.59024327912173
 30
0.0
 10
29.07058869321672
 20
11.59308286473031
 30
0.0
 10
28.99365566282292
 20
11.5960432334834
 30
0.0
 10
28.93175292700088
 20
11.59900358069579
 30
0.0
 10
28.88695892952385
 20
11.60184323013099
 30
0.0
 10
28.85832674751399
 20
11.60468287804477
 30
0.0
 10
28.85473886139578
 20
11.60665237462654
 30
0.0
 10
28.8529337931177
 20
11.60764322987847
 30
0.0
  0
SPLINE
  5
FBE
330
1F
100
AcDbEntity
  8
DIM
  6
Continuous
 62
     7
370
    15
100
AcDbSpline
210
0.0
220
0.0
230
1.0
 70
     8
 71
     3
 72
    26
 73
    22
 74
     0
 42
0.0000000001
 43
0.0000000001
 40
0.0
 40
0.0
 40
0.0
 40
0.0
 40
0.005825134962838
 40
0.0607145485555926
 40
0.1162890088558548
 40
0.1718634691561185
 40
0.2267528827488737
 40
0.2816422963416292
 40
0.3372167566418914
 40
0.3927912169421536
 40
0.4476806305349098
 40
0.5025700441276653
 40
0.5581445044279275
 40
0.6137189647281899
 40
0.6686083783209459
 40
0.7234977919137014
 40
0.7790722522139636
 40
0.8346467125142256
 40
0.8895361261069817
 40
0.9444255396997363
 40
1.0
 40
1.0
 40
1.0
 40
1.0
 10
30.31912966591805
 20
11.67114122181397
 30
0.0
 10
30.31818856288396
 20
11.67124192569427
 30
0.0
 10
30.3083795805645
 20
11.67229154783515
 30
0.0
 10
30.27290934031424
 20
11.6742803795605
 30
0.0
 10
30.21253680142423
 20
11.67724390314566
 30
0.0
 10
30.1351927092046
 20
11.68020340372593
 30
0.0
 10
30.04558850079434
 20
11.68304327728295
 30
0.0
 10
29.94504435828487
 20
11.68588286522985
 30
0.0
 10
29.83566511926877
 20
11.68884323334888
 30
0.0
 10
29.7204982767285
 20
11.69180358073101
 30
0.0
 10
29.60293391099162
 20
11.69464323012282
 30
0.0
 10
29.48536883506895
 20
11.69748287804243
 30
0.0
 10
29.37020414971319
 20
11.70044322989636
 30
0.0
 10
29.26081701288747
 20
11.7034035816434
 30
0.0
 10
29.16030195385294
 20
11.70624322987973
 30
0.0
 10
29.07058904762845
 20
11.70908287810848
 30
0.0
 10
28.9936555673243
 20
11.71204322987857
 30
0.0
 10
28.93175295222926
 20
11.7150035816481
 30
0.0
 10
28.88695892283431
 20
11.71784322987848
 30
0.0
 10
28.85832674921075
 20
11.72068287810882
 30
0.0
 10
28.8547388619637
 20
11.72265237464798
 30
0.0
 10
28.8529337931177
 20
11.72364322987847
 30
0.0
  0
SPLINE
  5
FBF
330
1F
100
AcDbEntity
  8
DIM
  6
Continuous
 62
     7
370
    15
100
AcDbSpline
210
0.0
220
0.0
230
1.0
 70
     8
 71
     3
 72
    26
 73
    22
 74
     0
 42
0.0000000001
 43
0.0000000001
 40
0.0
 40
0.0
 40
0.0
 40
0.0
 40
0.0058251349628357
 40
0.0607145485555912
 40
0.1162890088558534
 40
0.1718634691561164
 40
0.2267528827488721
 40
0.2816422963416281
 40
0.3372167566418907
 40
0.3927912169421535
 40
0.4476806305349088
 40
0.5025700441276647
 40
0.5581445044279274
 40
0.6137189647281902
 40
0.6686083783209455
 40
0.7234977919137013
 40
0.7790722522139637
 40
0.8346467125142257
 40
0.8895361261069819
 40
0.944425539699737
 40
1.0
 40
1.0
 40
1.0
 40
1.0
 10
30.31912966591805
 20
11.78714122181397
 30
0.0
 10
30.31818856288396
 20
11.78724192569427
 30
0.0
 10
30.3083795805645
 20
11.78829154783515
 30
0.0
 10
30.27290934031424
 20
11.7902803795605
 30
0.0
 10
30.21253680142423
 20
11.79324390314566
 30
0.0
 10
30.1351927092046
 20
11.79620340372593
 30
0.0
 10
30.04558850079434
 20
11.79904327728295
 30
0.0
 10
29.94504435828487
 20
11.80188286522985
 30
0.0
 10
29.83566511926877
 20
11.80484323334888
 30
0.0
 10
29.7204982767285
 20
11.80780358073101
 30
0.0
 10
29.60293391099162
 20
11.81064323012282
 30
0.0
 10
29.48536883506895
 20
11.81348287804243
 30
0.0
 10
29.37020414971319
 20
11.81644322989636
 30
0.0
 10
29.26081701288747
 20
11.8194035816434
 30
0.0
 10
29.16030195385294
 20
11.82224322987973
 30
0.0
 10
29.07058904762845
 20
11.82508287810848
 30
0.0
 10
28.9936555673243
 20
11.82804322987856
 30
0.0
 10
28.93175295222926
 20
11.8310035816481
 30
0.0
 10
28.88695892283431
 20
11.83384322987848
 30
0.0
 10
28.85832674921075
 20
11.83668287810881
 30
0.0
 10
28.8547388619637
 20
11.83865237464798
 30
0.0
 10
28.8529337931177
 20
11.83964322987847
 30
0.0
  0
SPLINE
  5
FC0
330
1F
100
AcDbEntity
  8
DIM
  6
Continuous
 62
     7
370
    15
100
AcDbSpline
210
0.0
220
0.0
230
1.0
 70
     8
 71
     3
 72
    16
 73
    12
 74
     0
 42
0.0000000001
 43
0.0000000001
 40
0.0
 40
0.0
 40
0.0
 40
0.0
 40
0.01301180923525
 40
0.1356202265955705
 40
0.2597588569264374
 40
0.3838974872573043
 40
0.5065059046176249
 40
0.6291143219779455
 40
0.7532529523088123
 40
0.8773915826396793
 40
1.0
 40
1.0
 40
1.0
 40
1.0
 10
30.31912966591805
 20
11.90314122181397
 30
0.0
 10
30.31818856288394
 20
11.90324192569427
 30
0.0
 10
30.30837958056426
 20
11.90429154783515
 30
0.0
 10
30.27290934032666
 20
11.90628037956052
 30
0.0
 10
30.21253680137958
 20
11.90924390314557
 30
0.0
 10
30.13519270936971
 20
11.91220340372627
 30
0.0
 10
30.04558850018674
 20
11.91504327728169
 30
0.0
 10
29.94504436056532
 20
11.91788286523458
 30
0.0
 10
29.83566511063941
 20
11.92084323333099
 30
0.0
 10
29.72049830875278
 20
11.9238035807974
 30
0.0
 10
29.64195961123505
 20
11.92570060167168
 30
0.0
 10
29.6029337931177
 20
11.92664322987847
 30
0.0
  0
LINE
  5
FC1
330
1F
100
AcDbEntity
  8
DIM
  6
Continuous
 62
     7
370
    15
100
AcDbLine
 10
29.6029337931177
 20
11.95664322987847
 30
0.0
 11
30.3429337931177
 21
11.95664322987847
 31
0.0
  0
LINE
  5
FC2
330
1F
100
AcDbEntity
  8
DIM
  6
Continuous
 62
     7
370
    15
100
AcDbLine
 10
28.8629337931177
 20
11.95664322987847
 30
0.0
 11
29.6029337931177
 21
11.95664322987847
 31
0.0
  0
LINE
  5
FC3
330
1F
100
AcDbEntity
  8
DIM
  6
Continuous
 62
     7
370
    15
100
AcDbLine
 10
30.1679337931177
 20
14.6779995389439
 30
0.0
 11
29.0379337931177
 21
14.6779995389439
 31
0.0
  0
LINE
  5
FC4
330
1F
100
AcDbEntity
  8
DIM
  6
Continuous
 62
     7
370
    15
100
AcDbLine
 10
30.1679337931177
 20
14.22799953894391
 30
0.0
 11
29.0379337931177
 21
14.22799953894391
 31
0.0
  0
LINE
  5
FC5
330
1F
100
AcDbEntity
  8
DIM
  6
Continuous
 62
     7
370
    15
100
AcDbLine
 10
29.6029337931177
 20
15.13843926674472
 30
0.0
 11
29.83059448608478
 21
15.13843926674472
 31
0.0
  0
LINE
  5
FC6
330
1F
100
AcDbEntity
  8
DIM
  6
Continuous
 62
     7
370
    15
100
AcDbLine
 10
29.37527310015063
 20
15.13843926674472
 30
0.0
 11
29.6029337931177
 21
15.13843926674472
 31
0.0
  0
LINE
  5
FC7
330
1F
100
AcDbEntity
  8
DIM
  6
Continuous
 62
     7
370
    15
100
AcDbLine
 10
29.6029337931177
 20
15.12589805631004
 30
0.0
 11
29.83251878413808
 21
15.12589805631004
 31
0.0
  0
LINE
  5
FC8
330
1F
100
AcDbEntity
  8
DIM
  6
Continuous
 62
     7
370
    15
100
AcDbLine
 10
29.37334880209732
 20
15.12589805631004
 30
0.0
 11
29.6029337931177
 21
15.12589805631004
 31
0.0
  0
LINE
  5
FC9
330
1F
100
AcDbEntity
  8
DIM
  6
Continuous
 62
     7
370
    15
100
AcDbLine
 10
29.6029337931177
 20
15.58152649309796
 30
0.0
 11
29.75476134924676
 21
15.58152649309796
 31
0.0
  0
LINE
  5
FCA
330
1F
100
AcDbEntity
  8
DIM
  6
Continuous
 62
     7
370
    15
100
AcDbLine
 10
29.45110623698864
 20
15.58152649309796
 30
0.0
 11
29.6029337931177
 21
15.58152649309796
 31
0.0
  0
LINE
  5
FCB
330
1F
100
AcDbEntity
  8
DIM
  6
Continuous
 62
     7
370
    15
100
AcDbLine
 10
29.6029337931177
 20
15.59149159705641
 30
0.0
 11
29.75323232377924
 21
15.59149159705641
 31
0.0
  0
LINE
  5
FCC
330
1F
100
AcDbEntity
  8
DIM
  6
Continuous
 62
     7
370
    15
100
AcDbLine
 10
29.45263526245616
 20
15.59149159705641
 30
0.0
 11
29.6029337931177
 21
15.59149159705641
 31
0.0
  0
LINE
  5
FCD
330
1F
100
AcDbEntity
  8
DIM
  6
Continuous
 62
     7
370
    15
100
AcDbLine
 10
29.52259775323062
 20
15.89799953894391
 30
0.0
 11
29.68326983300478
 21
15.89799953894391
 31
0.0
  0
LINE
  5
FCE
330
1F
100
AcDbEntity
  8
DIM
  6
Continuous
 62
     8
370
    15
100
AcDbLine
 10
28.5829337931177
 20
6.206643229878474
 30
0.0
 11
30.6229337931177
 21
6.206643229878474
 31
0.0
  0
LINE
  5
FCF
330
1F
100
AcDbEntity
  8
DIM
  6
Continuous
 62
     8
370
    15
100
AcDbLine
 10
29.6029337931177
 20
11.94664322987847
 30
0.0
 11
28.8529337931177
 21
11.94664322987847
 31
0.0
  0
LINE
  5
FD0
330
1F
100
AcDbEntity
  8
DIM
  6
Continuous
 62
     8
370
    15
100
AcDbLine
 10
30.3529337931177
 20
11.94664322987847
 30
0.0
 11
29.6029337931177
 21
11.94664322987847
 31
0.0
  0
LINE
  5
FD1
330
1F
100
AcDbEntity
  8
DIM
  6
Continuous
 62
     8
370
    15
100
AcDbLine
 10
29.89936241603341
 20
14.79078250598336
 30
0.0
 11
29.30650517020199
 21
14.79078250598336
 31
0.0
  0
LINE
  5
FD2
330
1F
100
AcDbEntity
  8
DIM
  6
Continuous
 62
     8
370
    15
100
AcDbLine
 10
29.88355488792891
 20
14.80708024583767
 30
0.0
 11
29.3223126983065
 21
14.80708024583767
 31
0.0
  0
LINE
  5
FD3
330
1F
100
AcDbEntity
  8
DIM
  6
Continuous
 62
     8
370
    15
100
AcDbLine
 10
29.6029337931177
 20
15.88131471638536
 30
0.0
 11
29.50287442697637
 21
15.88131471638536
 31
0.0
  0
LINE
  5
FD4
330
1F
100
AcDbEntity
  8
DIM
  6
Continuous
 62
     8
370
    15
100
AcDbLine
 10
29.70299315925904
 20
15.88131471638536
 30
0.0
 11
29.6029337931177
 21
15.88131471638536
 31
0.0
  0
LINE
  5
FD5
330
1F
100
AcDbEntity
  8
DIM
  6
HIDDEN
 62
     7
370
     0
100
AcDbLine
 10
28.6029337931177
 20
11.48664322987847
 30
0.0
 11
30.60293379311771
 21
11.48664322987847
 31
0.0
  0
LINE
  5
FD6
330
1F
100
AcDbEntity
  8
DIM
  6
HIDDEN
 62
     7
370
     0
100
AcDbLine
 10
30.60293379311771
 20
6.176643229878474
 30
0.0
 11
28.6029337931177
 21
6.176643229878474
 31
0.0
  0
LINE
  5
FD7
330
1F
100
AcDbEntity
  8
DIM
  6
HIDDEN
 62
     7
370
     0
100
AcDbLine
 10
29.6029337931177
 20
11.57785493411223
 30
0.0
 11
29.6029337931177
 21
11.57864322987847
 31
0.0
  0
LWPOLYLINE
  5
FD8
330
1F
100
AcDbEntity
  8
DIM
  6
HIDDEN
 62
     7
370
     0
100
AcDbPolyline
 90
       24
 70
   128
 43
0.0
 10
28.88673792031851
 20
11.56214523794286
 10
28.86228227656764
 20
11.56468900867446
 10
28.8529337931177
 20
11.56764322987847
 10
28.86228227656764
 20
11.57059745108248
 10
28.88964140589634
 20
11.57344322987847
 10
28.93434725404386
 20
11.57628900867446
 10
28.99617104733649
 20
11.57924322987847
 10
29.07312100459439
 20
11.58219745108248
 10
29.16209485389835
 20
11.58504322987847
 10
29.26178956502563
 20
11.58788900867446
 10
29.37117104733649
 20
11.59084322987847
 10
29.48633021016268
 20
11.59379745108248
 10
29.6029337931177
 20
11.59664322987847
 10
29.71953737607272
 20
11.59948900867446
 10
29.83469653889891
 20
11.60244322987847
 10
29.94407802120978
 20
11.60539745108248
 10
30.04377273233706
 20
11.60824322987847
 10
30.13274658164102
 20
11.61108900867446
 10
30.20969653889891
 20
11.61404322987847
 10
30.27152033219155
 20
11.61699745108248
 10
30.31622618033907
 20
11.61984322987847
 10
30.34358530966777
 20
11.62268900867446
 10
30.3529337931177
 20
11.62564322987847
 10
30.3529337931177
 20
11.62564322987847
  0
LWPOLYLINE
  5
FD9
330
1F
100
AcDbEntity
  8
DIM
  6
HIDDEN
 62
     7
370
     0
100
AcDbPolyline
 90
       24
 70
   128
 43
0.0
 10
28.88673792031851
 20
11.67814523794286
 10
28.86228227656764
 20
11.68068900867446
 10
28.8529337931177
 20
11.68364322987847
 10
28.86228227656764
 20
11.68659745108248
 10
28.88964140589634
 20
11.68944322987847
 10
28.93434725404386
 20
11.69228900867446
 10
28.99617104733649
 20
11.69524322987847
 10
29.07312100459439
 20
11.69819745108248
 10
29.16209485389835
 20
11.70104322987847
 10
29.26178956502563
 20
11.70388900867446
 10
29.37117104733649
 20
11.70684322987847
 10
29.48633021016268
 20
11.70979745108248
 10
29.6029337931177
 20
11.71264322987847
 10
29.71953737607272
 20
11.71548900867446
 10
29.83469653889891
 20
11.71844322987847
 10
29.94407802120978
 20
11.72139745108248
 10
30.04377273233706
 20
11.72424322987847
 10
30.13274658164102
 20
11.72708900867446
 10
30.20969653889891
 20
11.73004322987847
 10
30.27152033219155
 20
11.73299745108248
 10
30.31622618033907
 20
11.73584322987847
 10
30.34358530966777
 20
11.73868900867446
 10
30.3529337931177
 20
11.74164322987847
 10
30.3529337931177
 20
11.74164322987847
  0
LWPOLYLINE
  5
FDA
330
1F
100
AcDbEntity
  8
DIM
  6
HIDDEN
 62
     7
370
     0
100
AcDbPolyline
 90
       24
 70
   128
 43
0.0
 10
28.88673792031851
 20
11.79414523794286
 10
28.86228227656764
 20
11.79668900867446
 10
28.8529337931177
 20
11.79964322987847
 10
28.86228227656764
 20
11.80259745108248
 10
28.88964140589634
 20
11.80544322987847
 10
28.93434725404386
 20
11.80828900867446
 10
28.99617104733649
 20
11.81124322987847
 10
29.07312100459439
 20
11.81419745108248
 10
29.16209485389835
 20
11.81704322987847
 10
29.26178956502563
 20
11.81988900867446
 10
29.37117104733649
 20
11.82284322987847
 10
29.48633021016268
 20
11.82579745108248
 10
29.6029337931177
 20
11.82864322987847
 10
29.71953737607272
 20
11.83148900867446
 10
29.83469653889891
 20
11.83444322987847
 10
29.94407802120978
 20
11.83739745108248
 10
30.04377273233706
 20
11.84024322987847
 10
30.13274658164102
 20
11.84308900867446
 10
30.20969653889891
 20
11.84604322987847
 10
30.27152033219155
 20
11.84899745108248
 10
30.31622618033907
 20
11.85184322987847
 10
30.34358530966777
 20
11.85468900867446
 10
30.3529337931177
 20
11.85764322987847
 10
30.3529337931177
 20
11.85764322987847
  0
LINE
  5
FDB
330
1F
100
AcDbEntity
  8
DIM
  6
HIDDEN
 62
     7
370
     0
100
AcDbLine
 10
29.63018283424466
 20
11.88597820105616
 30
0.0
 11
29.6029337931177
 21
11.88664322987847
 31
0.0
  0
LINE
  5
FDC
330
1F
100
AcDbEntity
  8
DIM
  6
HIDDEN
 62
     7
370
     0
100
AcDbLine
 10
29.6029337931177
 20
11.88743152564472
 30
0.0
 11
29.6029337931177
 21
11.88664322987847
 31
0.0
  0
LINE
  5
FDD
330
1F
100
AcDbEntity
  8
DIM
  6
HIDDEN
 62
     7
370
     0
100
AcDbLine
 10
29.6029337931177
 20
11.57864322987847
 30
0.0
 11
29.57568475200277
 21
11.57930825870049
 31
0.0
  0
SPLINE
  5
FDE
330
1F
100
AcDbEntity
  8
DIM
  6
HIDDEN
 62
     7
370
     0
100
AcDbSpline
210
0.0
220
0.0
230
1.0
 70
     8
 71
     3
 72
    29
 73
    25
 74
     0
 42
0.0000000001
 43
0.0000000001
 40
0.0
 40
0.0
 40
0.0
 40
0.0
 40
0.0459567479902075
 40
0.0913470034093973
 40
0.1367372588285871
 40
0.1826940068187946
 40
0.2286507548090026
 40
0.2740410102281924
 40
0.3194312656473822
 40
0.3653880136375896
 40
0.4113447616277972
 40
0.4567350170469876
 40
0.5021252724661781
 40
0.5480820204563857
 40
0.594038768446593
 40
0.6394290238657829
 40
0.6848192792849731
 40
0.7307760272751805
 40
0.7767327752653878
 40
0.8221230306845781
 40
0.8675132861037672
 40
0.9134700340939751
 40
0.9594267820841826
 40
1.0
 40
1.0
 40
1.0
 40
1.0
 10
28.8529337931177
 20
11.60764322987847
 30
0.0
 10
28.85473886196395
 20
11.60863408510896
 30
0.0
 10
28.8583267492115
 20
11.61060358164813
 30
0.0
 10
28.88695892283134
 20
11.61344322987847
 30
0.0
 10
28.93175295224047
 20
11.61628287810882
 30
0.0
 10
28.99365556728183
 20
11.61924322987847
 30
0.0
 10
29.07058904778605
 20
11.62220358164812
 30
0.0
 10
29.16030195327287
 20
11.62504322987847
 30
0.0
 10
29.26081701506462
 20
11.62788287810883
 30
0.0
 10
29.37020414147474
 20
11.63084322987843
 30
0.0
 10
29.48536886564251
 20
11.63380358164827
 30
0.0
 10
29.60293379845751
 20
11.63664322987792
 30
0.0
 10
29.72049869910037
 20
11.63948287811089
 30
0.0
 10
29.83566352099078
 20
11.64244322987064
 30
0.0
 10
29.94505028962213
 20
11.64540358167718
 30
0.0
 10
30.04556666892476
 20
11.64824322977151
 30
0.0
 10
30.13527465029047
 20
11.65108287851029
 30
0.0
 10
30.21222673193048
 20
11.65404322835928
 30
0.0
 10
30.2740600329695
 20
11.65700358728598
 30
0.0
 10
30.31910963704671
 20
11.65984320912683
 30
0.0
 10
30.34678652698019
 20
11.66268295599549
 30
0.0
 10
30.35578814305544
 20
11.6656429351511
 30
0.0
 10
30.34801659171029
 20
11.66850076845605
 30
0.0
 10
30.32835080027397
 20
11.67029835001275
 30
0.0
 10
30.31912966591805
 20
11.67114122181397
 30
0.0
  0
SPLINE
  5
FDF
330
1F
100
AcDbEntity
  8
DIM
  6
HIDDEN
 62
     7
370
     0
100
AcDbSpline
210
0.0
220
0.0
230
1.0
 70
     8
 71
     3
 72
    29
 73
    25
 74
     0
 42
0.0000000001
 43
0.0000000001
 40
0.0
 40
0.0
 40
0.0
 40
0.0
 40
0.0459567479902074
 40
0.0913470034093971
 40
0.1367372588285868
 40
0.1826940068187942
 40
0.2286507548090022
 40
0.2740410102281918
 40
0.3194312656473816
 40
0.3653880136375889
 40
0.4113447616277963
 40
0.4567350170469867
 40
0.5021252724661768
 40
0.5480820204563846
 40
0.5940387684465922
 40
0.6394290238657816
 40
0.6848192792849717
 40
0.7307760272751793
 40
0.776732775265387
 40
0.8221230306845763
 40
0.8675132861037671
 40
0.9134700340939742
 40
0.9594267820841814
 40
1.0
 40
1.0
 40
1.0
 40
1.0
 10
28.8529337931177
 20
11.72364322987847
 30
0.0
 10
28.85473886196395
 20
11.72463408510896
 30
0.0
 10
28.8583267492115
 20
11.72660358164812
 30
0.0
 10
28.88695892283134
 20
11.72944322987847
 30
0.0
 10
28.93175295224047
 20
11.73228287810882
 30
0.0
 10
28.99365556728183
 20
11.73524322987847
 30
0.0
 10
29.07058904778605
 20
11.73820358164813
 30
0.0
 10
29.16030195327287
 20
11.74104322987847
 30
0.0
 10
29.26081701506462
 20
11.74388287810883
 30
0.0
 10
29.37020414147474
 20
11.74684322987843
 30
0.0
 10
29.48536886564251
 20
11.74980358164827
 30
0.0
 10
29.60293379845751
 20
11.75264322987792
 30
0.0
 10
29.72049869910037
 20
11.75548287811089
 30
0.0
 10
29.83566352099078
 20
11.75844322987064
 30
0.0
 10
29.94505028962213
 20
11.76140358167718
 30
0.0
 10
30.04556666892476
 20
11.76424322977151
 30
0.0
 10
30.13527465029047
 20
11.76708287851029
 30
0.0
 10
30.21222673193048
 20
11.77004322835927
 30
0.0
 10
30.2740600329695
 20
11.77300358728598
 30
0.0
 10
30.31910963704671
 20
11.77584320912683
 30
0.0
 10
30.34678652698019
 20
11.77868295599549
 30
0.0
 10
30.35578814305544
 20
11.7816429351511
 30
0.0
 10
30.34801659171029
 20
11.78450076845605
 30
0.0
 10
30.32835080027397
 20
11.78629835001276
 30
0.0
 10
30.31912966591805
 20
11.78714122181397
 30
0.0
  0
SPLINE
  5
FE0
330
1F
100
AcDbEntity
  8
DIM
  6
HIDDEN
 62
     7
370
     0
100
AcDbSpline
210
0.0
220
0.0
230
1.0
 70
     8
 71
     3
 72
    29
 73
    25
 74
     0
 42
0.0000000001
 43
0.0000000001
 40
0.0
 40
0.0
 40
0.0
 40
0.0
 40
0.0459567479902076
 40
0.0913470034093975
 40
0.1367372588285874
 40
0.182694006818795
 40
0.2286507548090027
 40
0.2740410102281924
 40
0.3194312656473824
 40
0.3653880136375899
 40
0.4113447616277976
 40
0.4567350170469874
 40
0.5021252724661773
 40
0.5480820204563849
 40
0.5940387684465926
 40
0.6394290238657824
 40
0.6848192792849723
 40
0.7307760272751798
 40
0.7767327752653874
 40
0.8221230306845772
 40
0.8675132861037671
 40
0.9134700340939748
 40
0.9594267820841821
 40
1.0
 40
1.0
 40
1.0
 40
1.0
 10
28.8529337931177
 20
11.83964322987847
 30
0.0
 10
28.85473886196395
 20
11.84063408510896
 30
0.0
 10
28.8583267492115
 20
11.84260358164813
 30
0.0
 10
28.88695892283134
 20
11.84544322987847
 30
0.0
 10
28.93175295224047
 20
11.84828287810882
 30
0.0
 10
28.99365556728183
 20
11.85124322987847
 30
0.0
 10
29.07058904778605
 20
11.85420358164812
 30
0.0
 10
29.16030195327287
 20
11.85704322987847
 30
0.0
 10
29.26081701506462
 20
11.85988287810883
 30
0.0
 10
29.37020414147474
 20
11.86284322987843
 30
0.0
 10
29.48536886564251
 20
11.86580358164827
 30
0.0
 10
29.60293379845751
 20
11.86864322987792
 30
0.0
 10
29.72049869910037
 20
11.87148287811089
 30
0.0
 10
29.83566352099078
 20
11.87444322987064
 30
0.0
 10
29.94505028962213
 20
11.87740358167719
 30
0.0
 10
30.04556666892476
 20
11.88024322977151
 30
0.0
 10
30.13527465029047
 20
11.88308287851029
 30
0.0
 10
30.21222673193048
 20
11.88604322835927
 30
0.0
 10
30.2740600329695
 20
11.88900358728598
 30
0.0
 10
30.31910963704671
 20
11.89184320912684
 30
0.0
 10
30.34678652698019
 20
11.89468295599549
 30
0.0
 10
30.35578814305544
 20
11.8976429351511
 30
0.0
 10
30.34801659171029
 20
11.90050076845605
 30
0.0
 10
30.32835080027397
 20
11.90229835001276
 30
0.0
 10
30.31912966591805
 20
11.90314122181397
 30
0.0
  0
LINE
  5
FE1
330
1F
100
AcDbEntity
  8
DIM
  6
HIDDEN
 62
     7
370
     0
100
AcDbLine
 10
30.1479337931177
 20
14.66733105505201
 30
0.0
 11
29.0579337931177
 21
14.66733105505201
 31
0.0
  0
SPLINE
  5
FE2
330
1F
100
AcDbEntity
  8
DIM
  6
HIDDEN
 62
     7
370
     0
100
AcDbSpline
210
0.0
220
0.0
230
1.0
 70
     8
 71
     3
 72
   234
 73
   230
 74
     0
 42
0.0000000001
 43
0.0000000001
 40
0.0
 40
0.0
 40
0.0
 40
0.0
 40
0.0156250000000001
 40
0.0156250000000001
 40
0.0312500000000003
 40
0.0312500000000003
 40
0.0351562500000003
 40
0.0351562500000003
 40
0.0390625000000003
 40
0.0390625000000003
 40
0.0468750000000004
 40
0.0468750000000004
 40
0.0625000000000005
 40
0.0625000000000005
 40
0.0664062500000005
 40
0.0664062500000005
 40
0.0703125000000005
 40
0.0703125000000005
 40
0.0781250000000006
 40
0.0781250000000006
 40
0.0937500000000006
 40
0.0937500000000006
 40
0.0976562500000006
 40
0.0976562500000006
 40
0.1015625000000006
 40
0.1015625000000006
 40
0.1093750000000007
 40
0.1093750000000007
 40
0.1250000000000007
 40
0.1250000000000007
 40
0.1328125000000008
 40
0.1328125000000008
 40
0.1406250000000008
 40
0.1406250000000008
 40
0.1562500000000009
 40
0.1562500000000009
 40
0.1601562500000009
 40
0.1601562500000009
 40
0.164062500000001
 40
0.164062500000001
 40
0.171875000000001
 40
0.171875000000001
 40
0.1875000000000011
 40
0.1875000000000011
 40
0.1914062500000011
 40
0.1914062500000011
 40
0.1953125000000011
 40
0.1953125000000011
 40
0.2031250000000011
 40
0.2031250000000011
 40
0.2187500000000012
 40
0.2187500000000012
 40
0.2226562500000012
 40
0.2226562500000012
 40
0.2265625000000013
 40
0.2265625000000013
 40
0.2343750000000014
 40
0.2343750000000014
 40
0.2500000000000014
 40
0.2500000000000014
 40
0.2578125000000015
 40
0.2578125000000015
 40
0.2656250000000015
 40
0.2656250000000015
 40
0.2812500000000017
 40
0.2812500000000017
 40
0.2890625000000018
 40
0.2890625000000018
 40
0.2929687500000018
 40
0.2929687500000018
 40
0.2968750000000018
 40
0.2968750000000018
 40
0.312500000000002
 40
0.312500000000002
 40
0.320312500000002
 40
0.320312500000002
 40
0.3242187500000021
 40
0.3242187500000021
 40
0.3281250000000021
 40
0.3281250000000021
 40
0.3437500000000022
 40
0.3437500000000022
 40
0.3515625000000023
 40
0.3515625000000023
 40
0.3593750000000023
 40
0.3593750000000023
 40
0.3750000000000024
 40
0.3750000000000024
 40
0.3828125000000025
 40
0.3828125000000025
 40
0.3906250000000026
 40
0.3906250000000026
 40
0.4062500000000026
 40
0.4062500000000026
 40
0.4140625000000028
 40
0.4140625000000028
 40
0.4179687500000028
 40
0.4179687500000028
 40
0.4218750000000028
 40
0.4218750000000028
 40
0.4375000000000029
 40
0.4375000000000029
 40
0.4453125000000029
 40
0.4453125000000029
 40
0.4492187500000029
 40
0.4492187500000029
 40
0.453125000000003
 40
0.453125000000003
 40
0.468750000000003
 40
0.468750000000003
 40
0.476562500000003
 40
0.476562500000003
 40
0.4843750000000031
 40
0.4843750000000031
 40
0.5000000000000029
 40
0.5000000000000029
 40
0.5156250000000029
 40
0.5156250000000029
 40
0.5234375000000029
 40
0.5234375000000029
 40
0.5312500000000028
 40
0.5312500000000028
 40
0.5468750000000029
 40
0.5468750000000029
 40
0.5507812500000029
 40
0.5507812500000029
 40
0.5546875000000029
 40
0.5546875000000029
 40
0.5625000000000029
 40
0.5625000000000029
 40
0.5781250000000028
 40
0.5781250000000028
 40
0.5820312500000028
 40
0.5820312500000028
 40
0.5859375000000029
 40
0.5859375000000029
 40
0.5937500000000028
 40
0.5937500000000028
 40
0.6093750000000028
 40
0.6093750000000028
 40
0.6171875000000027
 40
0.6171875000000027
 40
0.6250000000000027
 40
0.6250000000000027
 40
0.6406250000000026
 40
0.6406250000000026
 40
0.6484375000000026
 40
0.6484375000000026
 40
0.6562500000000025
 40
0.6562500000000025
 40
0.6718750000000023
 40
0.6718750000000023
 40
0.6757812500000025
 40
0.6757812500000025
 40
0.6796875000000025
 40
0.6796875000000025
 40
0.6875000000000025
 40
0.6875000000000025
 40
0.7031250000000023
 40
0.7031250000000023
 40
0.7070312500000023
 40
0.7070312500000023
 40
0.7109375000000023
 40
0.7109375000000023
 40
0.7187500000000023
 40
0.7187500000000023
 40
0.7343750000000023
 40
0.7343750000000023
 40
0.7421875000000023
 40
0.7421875000000023
 40
0.7500000000000022
 40
0.7500000000000022
 40
0.7656250000000022
 40
0.7656250000000022
 40
0.773437500000002
 40
0.773437500000002
 40
0.777343750000002
 40
0.777343750000002
 40
0.7812500000000019
 40
0.7812500000000019
 40
0.7968750000000018
 40
0.7968750000000018
 40
0.8046875000000017
 40
0.8046875000000017
 40
0.8085937500000015
 40
0.8085937500000015
 40
0.8125000000000015
 40
0.8125000000000015
 40
0.8281250000000015
 40
0.8281250000000015
 40
0.8359375000000014
 40
0.8359375000000014
 40
0.8398437500000014
 40
0.8398437500000014
 40
0.8437500000000014
 40
0.8437500000000014
 40
0.8593750000000012
 40
0.8593750000000012
 40
0.8671875000000012
 40
0.8671875000000012
 40
0.875000000000001
 40
0.875000000000001
 40
0.890625000000001
 40
0.890625000000001
 40
0.898437500000001
 40
0.898437500000001
 40
0.9023437500000008
 40
0.9023437500000008
 40
0.9062500000000008
 40
0.9062500000000008
 40
0.9218750000000007
 40
0.9218750000000007
 40
0.9296875000000007
 40
0.9296875000000007
 40
0.9335937500000007
 40
0.9335937500000007
 40
0.9375000000000005
 40
0.9375000000000005
 40
0.9531250000000003
 40
0.9531250000000003
 40
0.9609375000000003
 40
0.9609375000000003
 40
0.9648437500000003
 40
0.9648437500000003
 40
0.9687500000000003
 40
0.9687500000000003
 40
0.9843750000000001
 40
0.9843750000000001
 40
1.0
 40
1.0
 40
1.0
 40
1.0
 10
29.6029337931177
 20
14.2579995389439
 30
0.0
 10
29.65731756520067
 20
14.25978078854421
 30
0.0
 10
29.71302286056558
 20
14.26169398785539
 30
0.0
 10
29.81939515554421
 20
14.26553350559416
 30
0.0
 10
29.86994894824635
 20
14.26745576325759
 30
0.0
 10
29.92587396308295
 20
14.26970255941965
 30
0.0
 10
29.93672845282801
 20
14.2701469992693
 30
0.0
 10
29.95797230181952
 20
14.27105967217502
 30
0.0
 10
29.96831928351746
 20
14.27152280911147
 30
0.0
 10
29.99837757110048
 20
14.27292701588642
 30
0.0
 10
30.01710002836551
 20
14.27388295623018
 30
0.0
 10
30.06822749933112
 20
14.27676090203349
 30
0.0
 10
30.09544322672924
 20
14.27869108862934
 30
0.0
 10
30.11907395246548
 20
14.28095699640212
 30
0.0
 10
30.12328277822788
 20
14.28139871296209
 30
0.0
 10
30.13078159634047
 20
14.28230414552754
 30
0.0
 10
30.13405553832761
 20
14.28276411659888
 30
0.0
 10
30.14236820929358
 20
14.28416032106321
 30
0.0
 10
30.14588870004548
 20
14.28511293565279
 30
0.0
 10
30.15002251917243
 20
14.28798749976895
 30
0.0
 10
30.14406143690306
 20
14.28992446974576
 30
0.0
 10
30.12670586379848
 20
14.2922083318736
 30
0.0
 10
30.12276678945128
 20
14.29265354967454
 30
0.0
 10
30.11390457637903
 20
14.29355128069503
 30
0.0
 10
30.10896418267939
 20
14.29400784204277
 30
0.0
 10
30.09263458396568
 20
14.2953952818045
 30
0.0
 10
30.07972795668977
 20
14.29634402092101
 30
0.0
 10
30.03542937225041
 20
14.29921352077873
 30
0.0
 10
29.9983625428275
 20
14.30115611471675
 30
0.0
 10
29.93561516458056
 20
14.30391686626681
 30
0.0
 10
29.91369220492472
 20
14.30479486488945
 30
0.0
 10
29.86701323869541
 20
14.3066321037393
 30
0.0
 10
29.8423559623125
 20
14.30757642524161
 30
0.0
 10
29.76559161713077
 20
14.31043918815829
 30
0.0
 10
29.71067809613354
 20
14.31238623509282
 30
0.0
 10
29.64213494122933
 20
14.31470240431432
 30
0.0
 10
29.62843243293601
 20
14.31515984061535
 30
0.0
 10
29.60115642084069
 20
14.31605953950772
 30
0.0
 10
29.58756780705074
 20
14.31650329860207
 30
0.0
 10
29.54652234483673
 20
14.31787098892069
 30
0.0
 10
29.51899590768971
 20
14.31881035925859
 30
0.0
 10
29.43737321298072
 20
14.32166472567347
 30
0.0
 10
29.38430673868531
 20
14.32361504546829
 30
0.0
 10
29.32413017801365
 20
14.32594550735336
 30
0.0
 10
29.31239733663075
 20
14.32640629299122
 30
0.0
 10
29.28962123584882
 20
14.32731357941023
 30
0.0
 10
29.27861350487376
 20
14.32775539324288
 30
0.0
 10
29.2462830438971
 20
14.32911213546473
 30
0.0
 10
29.22576939088174
 20
14.33004603065719
 30
0.0
 10
29.16858961510858
 20
14.33289035731088
 30
0.0
 10
29.13642134149261
 20
14.33484276307191
 30
0.0
 10
29.10631177158567
 20
14.33718624044469
 30
0.0
 10
29.10078472942162
 20
14.33765013004096
 30
0.0
 10
29.09074390824242
 20
14.33856453939785
 30
0.0
 10
29.08624275064653
 20
14.33901063232414
 30
0.0
 10
29.07417542498249
 20
14.340355737205
 30
0.0
 10
29.06800254769548
 20
14.34128364377978
 30
0.0
 10
29.05572165251328
 20
14.3441163068277
 30
0.0
 10
29.05600712006217
 20
14.34606960734613
 30
0.0
 10
29.0690869766059
 20
14.3488958365488
 30
0.0
 10
29.07551653376379
 20
14.34982055979334
 30
0.0
 10
29.09208459052871
 20
14.35160593884864
 30
0.0
 10
29.10239109650383
 20
14.35252339925527
 30
0.0
 10
29.13928598662926
 20
14.35534279730253
 30
0.0
 10
29.17192605169439
 20
14.35729579951701
 30
0.0
 10
29.22966167162337
 20
14.36013449601541
 30
0.0
 10
29.2503357669497
 20
14.36106546039068
 30
0.0
 10
29.28286386692174
 20
14.36241646880383
 30
0.0
 10
29.29395844769686
 20
14.36285964435801
 30
0.0
 10
29.31691089575043
 20
14.36377055115452
 30
0.0
 10
29.32872685012953
 20
14.36423291981756
 30
0.0
 10
29.38928910065887
 20
14.36657005068949
 30
0.0
 10
29.44256447789141
 20
14.36852156215639
 30
0.0
 10
29.52430504742322
 20
14.37137111295678
 30
0.0
 10
29.55183905134378
 20
14.37230781058434
 30
0.0
 10
29.59285054273282
 20
14.37367011428754
 30
0.0
 10
29.60642310330164
 20
14.3741121226628
 30
0.0
 10
29.6337303805997
 20
14.37501567254597
 30
0.0
 10
29.64744114729077
 20
14.37547481380769
 30
0.0
 10
29.71598693713199
 20
14.37779828737711
 30
0.0
 10
29.77077428450039
 20
14.37974711873815
 30
0.0
 10
29.8471759749196
 20
14.38260588990399
 30
0.0
 10
29.87168443953974
 20
14.3835478019423
 30
0.0
 10
29.91802276630954
 20
14.3853783347384
 30
0.0
 10
29.93980036252557
 20
14.38625746302559
 30
0.0
 10
30.00209296109539
 20
14.3890277257542
 30
0.0
 10
30.03874294154105
 20
14.39097269319043
 30
0.0
 10
30.08232343093233
 20
14.39383903291805
 30
0.0
 10
30.09497600636335
 20
14.39478563048153
 30
0.0
 10
30.11622985093131
 20
14.39662933262887
 30
0.0
 10
30.12480475895876
 20
14.39750770782066
 30
0.0
 10
30.14487973535639
 20
14.40025858178422
 30
0.0
 10
30.15027862570824
 20
14.40219850944576
 30
0.0
 10
30.14532071354231
 20
14.40507075121238
 30
0.0
 10
30.14152907391375
 20
14.40602149633081
 30
0.0
 10
30.1328286371908
 20
14.40741341274368
 30
0.0
 10
30.1294285793756
 20
14.40787170904926
 30
0.0
 10
30.1216857262928
 20
14.40877334763573
 30
0.0
 10
30.11735004093978
 20
14.40921603688134
 30
0.0
 10
30.09306478391451
 20
14.41149106859002
 30
0.0
 10
30.06533696962928
 20
14.41342479099084
 30
0.0
 10
30.01356628664734
 20
14.41630125676254
 30
0.0
 10
29.99465005405049
 20
14.41725560337724
 30
0.0
 10
29.96434095472852
 20
14.41865590527437
 30
0.0
 10
29.95391696425246
 20
14.4191174901406
 30
0.0
 10
29.93253316012359
 20
14.42002660137289
 30
0.0
 10
29.92161765127552
 20
14.42046890155521
 30
0.0
 10
29.86523751655735
 20
14.42272539605052
 30
0.0
 10
29.81439914803237
 20
14.42465176041814
 30
0.0
 10
29.73438174837905
 20
14.42753076390487
 30
0.0
 10
29.7071078463347
 20
14.42848815889785
 30
0.0
 10
29.65232686335177
 20
14.43036538189237
 30
0.0
 10
29.62489855832501
 20
14.43127758981247
 30
0.0
 10
29.54320371094805
 20
14.43396177041098
 30
0.0
 10
29.48753905203089
 20
14.43587963898096
 30
0.0
 10
29.38150001033582
 20
14.43971943890685
 30
0.0
 10
29.33123782453036
 20
14.44163730747683
 30
0.0
 10
29.26468122969846
 20
14.44432148807534
 30
0.0
 10
29.24353511308816
 20
14.44523369599544
 30
0.0
 10
29.20379856448369
 20
14.44711091898996
 30
0.0
 10
29.18527296681111
 20
14.44806831398294
 30
0.0
 10
29.13479650620392
 20
14.45094731746967
 30
0.0
 10
29.10809601022772
 20
14.45287368183729
 30
0.0
 10
29.08512057908857
 20
14.4551301763326
 30
0.0
 10
29.08103415124494
 20
14.45557247651492
 30
0.0
 10
29.0737814472354
 20
14.45648158774721
 30
0.0
 10
29.0706345452537
 20
14.45694317261344
 30
0.0
 10
29.06271200940248
 20
14.45834347451057
 30
0.0
 10
29.05946370309458
 20
14.45929782112527
 30
0.0
 10
29.05615518993008
 20
14.46217428689697
 30
0.0
 10
29.06267664246944
 20
14.46410800929779
 30
0.0
 10
29.08065378653996
 20
14.46638304100646
 30
0.0
 10
29.08471026366191
 20
14.46682573025208
 30
0.0
 10
29.09383486798432
 20
14.46772736883855
 30
0.0
 10
29.09890612925991
 20
14.46818566514413
 30
0.0
 10
29.11562384213608
 20
14.469577581557
 30
0.0
 10
29.12878317034347
 20
14.47052832667543
 30
0.0
 10
29.17379408160233
 20
14.47340056844205
 30
0.0
 10
29.21127156406634
 20
14.47534049610359
 30
0.0
 10
29.27446306429836
 20
14.47809137006714
 30
0.0
 10
29.29654142087793
 20
14.47896974525894
 30
0.0
 10
29.34355546412205
 20
14.48081344740628
 30
0.0
 10
29.36835828252665
 20
14.48176004496976
 30
0.0
 10
29.44547449364202
 20
14.48462638469737
 30
0.0
 10
29.50050568805942
 20
14.48657135213361
 30
0.0
 10
29.58274239345294
 20
14.48934161486222
 30
0.0
 10
29.60989725389803
 20
14.49022074314941
 30
0.0
 10
29.66466208210317
 20
14.49205127594551
 30
0.0
 10
29.69217687485638
 20
14.49299318798382
 30
0.0
 10
29.77366953346719
 20
14.49585195914966
 30
0.0
 10
29.82651915361705
 20
14.4978007905107
 30
0.0
 10
29.88630239938223
 20
14.50012426408012
 30
0.0
 10
29.89795071406813
 20
14.50058340534184
 30
0.0
 10
29.92054789303564
 20
14.50148695522501
 30
0.0
 10
29.93148041502458
 20
14.50192896360027
 30
0.0
 10
29.96360775477113
 20
14.50329126730347
 30
0.0
 10
29.98395745547145
 20
14.50422796493103
 30
0.0
 10
30.0405719507673
 20
14.50707751573142
 30
0.0
 10
30.07226370521902
 20
14.50902902719832
 30
0.0
 10
30.10173438601207
 20
14.51136615807024
 30
0.0
 10
30.10713162044719
 20
14.51182852673329
 30
0.0
 10
30.11691111961893
 20
14.51273943352979
 30
0.0
 10
30.1212792650936
 20
14.51318260908398
 30
0.0
 10
30.13298456017552
 20
14.51453361749713
 30
0.0
 10
30.138898989434
 20
14.51546458187239
 30
0.0
 10
30.15037737237927
 20
14.5183032783708
 30
0.0
 10
30.14952105772957
 20
14.52025628058527
 30
0.0
 10
30.13564601312085
 20
14.52307567863254
 30
0.0
 10
30.12897411818947
 20
14.52399313903917
 30
0.0
 10
30.11190602544777
 20
14.52577851809447
 30
0.0
 10
30.10132494532263
 20
14.526703241339
 30
0.0
 10
30.06367014388883
 20
14.52952947054168
 30
0.0
 10
30.03056316251925
 20
14.53148277106011
 30
0.0
 10
29.97228127238479
 20
14.53431543410803
 30
0.0
 10
29.95145027717853
 20
14.53524334068281
 30
0.0
 10
29.91873004676858
 20
14.53658844556366
 30
0.0
 10
29.90753672976193
 20
14.53703453848996
 30
0.0
 10
29.88441057356261
 20
14.53794894784684
 30
0.0
 10
29.872512950564
 20
14.53841283744312
 30
0.0
 10
29.81157277668959
 20
14.5407563148159
 30
0.0
 10
29.75809651879106
 20
14.54270872057693
 30
0.0
 10
29.67625024292247
 20
14.54555304723062
 30
0.0
 10
29.64871273656692
 20
14.54648694242308
 30
0.0
 10
29.6077409879693
 20
14.54784368464493
 30
0.0
 10
29.59417021142183
 20
14.54828549847758
 30
0.0
 10
29.56683548128962
 20
14.54919278489659
 30
0.0
 10
29.55311841986083
 20
14.54965357053445
 30
0.0
 10
29.48457996945432
 20
14.55198403241951
 30
0.0
 10
29.42992726773315
 20
14.55393435221434
 30
0.0
 10
29.35389889461466
 20
14.55678871862922
 30
0.0
 10
29.32954245642898
 20
14.55772808896712
 30
0.0
 10
29.29504826891037
 20
14.55909577928575
 30
0.0
 10
29.28393012779418
 20
14.55953953838009
 30
0.0
 10
29.26221236114415
 20
14.56043923727246
 30
0.0
 10
29.25160364246458
 20
14.56089667357349
 30
0.0
 10
29.20008093841272
 20
14.56321284279499
 30
0.0
 10
29.16385388488468
 20
14.56515988972952
 30
0.0
 10
29.12099703967188
 20
14.5680226526462
 30
0.0
 10
29.10859978782522
 20
14.56896697414851
 30
0.0
 10
29.087866208363
 20
14.57080421299836
 30
0.0
 10
29.07953961890935
 20
14.571682211621
 30
0.0
 10
29.06022199070057
 20
14.57444296317105
 30
0.0
 10
29.05538694471941
 20
14.57638555710908
 30
0.0
 10
29.06116749637495
 20
14.5792550569668
 30
0.0
 10
29.0652291717669
 20
14.58020379608331
 30
0.0
 10
29.07431490197998
 20
14.58159123584504
 30
0.0
 10
29.07784011935024
 20
14.58204779719277
 30
0.0
 10
29.08582486960378
 20
14.58294552821327
 30
0.0
 10
29.09029228577801
 20
14.5833907460142
 30
0.0
 10
29.1152311173345
 20
14.58567460814205
 30
0.0
 10
29.1434677086493
 20
14.58761157811886
 30
0.0
 10
29.19587362170089
 20
14.59048614223502
 30
0.0
 10
29.2149804948241
 20
14.5914387568246
 30
0.0
 10
29.24553528720639
 20
14.59283496128892
 30
0.0
 10
29.25603451178399
 20
14.59329493236027
 30
0.0
 10
29.27755464080958
 20
14.59420036492572
 30
0.0
 10
29.28854248803532
 20
14.5946420814857
 30
0.0
 10
29.34537151091243
 20
14.59690798925847
 30
0.0
 10
29.39648731624541
 20
14.59883817585432
 30
0.0
 10
29.47673106623324
 20
14.60171612165763
 30
0.0
 10
29.50404947383734
 20
14.60267206200139
 30
0.0
 10
29.54515466883787
 20
14.60407626877634
 30
0.0
 10
29.55887746637181
 20
14.60453940571279
 30
0.0
 10
29.58624616524968
 20
14.60545207861851
 30
0.0
 10
29.59984102051491
 20
14.60589651846816
 30
0.0
 10
29.6680100295899
 20
14.60814331463022
 30
0.0
 10
29.72362549802399
 20
14.61006557229365
 30
0.0
 10
29.82931570080468
 20
14.61390509003242
 30
0.0
 10
29.87927935978376
 20
14.61581828934359
 30
0.0
 10
29.9232767556171
 20
14.61759953894391
 30
0.0
  0
LINE
  5
FE3
330
1F
100
AcDbEntity
  8
DIM
  6
HIDDEN
 62
     7
370
     0
100
AcDbLine
 10
29.9232767556171
 20
14.65759953894391
 30
0.0
 11
29.9232767556171
 21
14.61759953894391
 31
0.0
  0
SPLINE
  5
FE4
330
1F
100
AcDbEntity
  8
DIM
  6
HIDDEN
 62
     7
370
     0
100
AcDbSpline
210
0.0
220
0.0
230
1.0
 70
     8
 71
     3
 72
   234
 73
   230
 74
     0
 42
0.0000000001
 43
0.0000000001
 40
0.0
 40
0.0
 40
0.0
 40
0.0
 40
0.0156250000000001
 40
0.0156250000000001
 40
0.0312500000000002
 40
0.0312500000000002
 40
0.0351562500000002
 40
0.0351562500000002
 40
0.0390625000000002
 40
0.0390625000000002
 40
0.0468750000000003
 40
0.0468750000000003
 40
0.0625000000000004
 40
0.0625000000000004
 40
0.0664062500000004
 40
0.0664062500000004
 40
0.0703125000000005
 40
0.0703125000000005
 40
0.0781250000000005
 40
0.0781250000000005
 40
0.0937500000000006
 40
0.0937500000000006
 40
0.0976562500000006
 40
0.0976562500000006
 40
0.1015625000000005
 40
0.1015625000000005
 40
0.1093750000000006
 40
0.1093750000000006
 40
0.1250000000000007
 40
0.1250000000000007
 40
0.1328125000000007
 40
0.1328125000000007
 40
0.1406250000000007
 40
0.1406250000000007
 40
0.1562500000000008
 40
0.1562500000000008
 40
0.1601562500000008
 40
0.1601562500000008
 40
0.1640625000000008
 40
0.1640625000000008
 40
0.1718750000000009
 40
0.1718750000000009
 40
0.1875000000000009
 40
0.1875000000000009
 40
0.1914062500000009
 40
0.1914062500000009
 40
0.1953125000000009
 40
0.1953125000000009
 40
0.2031250000000009
 40
0.2031250000000009
 40
0.218750000000001
 40
0.218750000000001
 40
0.222656250000001
 40
0.222656250000001
 40
0.2265625000000011
 40
0.2265625000000011
 40
0.2343750000000011
 40
0.2343750000000011
 40
0.2500000000000011
 40
0.2500000000000011
 40
0.2578125000000011
 40
0.2578125000000011
 40
0.2656250000000011
 40
0.2656250000000011
 40
0.2812500000000012
 40
0.2812500000000012
 40
0.2890625000000013
 40
0.2890625000000013
 40
0.2929687500000013
 40
0.2929687500000013
 40
0.2968750000000013
 40
0.2968750000000013
 40
0.3125000000000013
 40
0.3125000000000013
 40
0.3203125000000013
 40
0.3203125000000013
 40
0.3242187500000013
 40
0.3242187500000013
 40
0.3281250000000013
 40
0.3281250000000013
 40
0.3437500000000014
 40
0.3437500000000014
 40
0.3515625000000013
 40
0.3515625000000013
 40
0.3593750000000013
 40
0.3593750000000013
 40
0.3750000000000013
 40
0.3750000000000013
 40
0.3828125000000013
 40
0.3828125000000013
 40
0.3906250000000013
 40
0.3906250000000013
 40
0.4062500000000014
 40
0.4062500000000014
 40
0.4140625000000014
 40
0.4140625000000014
 40
0.4179687500000014
 40
0.4179687500000014
 40
0.4218750000000015
 40
0.4218750000000015
 40
0.4375000000000015
 40
0.4375000000000015
 40
0.4453125000000015
 40
0.4453125000000015
 40
0.4492187500000015
 40
0.4492187500000015
 40
0.4531250000000015
 40
0.4531250000000015
 40
0.4687500000000015
 40
0.4687500000000015
 40
0.4765625000000015
 40
0.4765625000000015
 40
0.4843750000000015
 40
0.4843750000000015
 40
0.5000000000000014
 40
0.5000000000000014
 40
0.5156250000000014
 40
0.5156250000000014
 40
0.5234375000000013
 40
0.5234375000000013
 40
0.5312500000000011
 40
0.5312500000000011
 40
0.5468750000000011
 40
0.5468750000000011
 40
0.5507812500000011
 40
0.5507812500000011
 40
0.5546875000000013
 40
0.5546875000000013
 40
0.5625000000000013
 40
0.5625000000000013
 40
0.5781250000000013
 40
0.5781250000000013
 40
0.5820312500000013
 40
0.5820312500000013
 40
0.5859375000000013
 40
0.5859375000000013
 40
0.5937500000000013
 40
0.5937500000000013
 40
0.6093750000000013
 40
0.6093750000000013
 40
0.6171875000000013
 40
0.6171875000000013
 40
0.6250000000000014
 40
0.6250000000000014
 40
0.6406250000000013
 40
0.6406250000000013
 40
0.6484375000000014
 40
0.6484375000000014
 40
0.6562500000000014
 40
0.6562500000000014
 40
0.6718750000000014
 40
0.6718750000000014
 40
0.6757812500000014
 40
0.6757812500000014
 40
0.6796875000000014
 40
0.6796875000000014
 40
0.6875000000000014
 40
0.6875000000000014
 40
0.7031250000000013
 40
0.7031250000000013
 40
0.7070312500000014
 40
0.7070312500000014
 40
0.7109375000000014
 40
0.7109375000000014
 40
0.7187500000000013
 40
0.7187500000000013
 40
0.7343750000000011
 40
0.7343750000000011
 40
0.742187500000001
 40
0.742187500000001
 40
0.7500000000000009
 40
0.7500000000000009
 40
0.7656250000000008
 40
0.7656250000000008
 40
0.7734375000000008
 40
0.7734375000000008
 40
0.7773437500000008
 40
0.7773437500000008
 40
0.7812500000000008
 40
0.7812500000000008
 40
0.7968750000000007
 40
0.7968750000000007
 40
0.8046875000000005
 40
0.8046875000000005
 40
0.8085937500000005
 40
0.8085937500000005
 40
0.8125000000000005
 40
0.8125000000000005
 40
0.8281250000000003
 40
0.8281250000000003
 40
0.8359375000000003
 40
0.8359375000000003
 40
0.8398437500000003
 40
0.8398437500000003
 40
0.8437500000000003
 40
0.8437500000000003
 40
0.8593750000000003
 40
0.8593750000000003
 40
0.8671875000000003
 40
0.8671875000000003
 40
0.8750000000000003
 40
0.8750000000000003
 40
0.8906250000000003
 40
0.8906250000000003
 40
0.8984375000000003
 40
0.8984375000000003
 40
0.9023437500000003
 40
0.9023437500000003
 40
0.9062500000000003
 40
0.9062500000000003
 40
0.9218750000000003
 40
0.9218750000000003
 40
0.9296875000000003
 40
0.9296875000000003
 40
0.9335937500000003
 40
0.9335937500000003
 40
0.9375000000000003
 40
0.9375000000000003
 40
0.9531250000000003
 40
0.9531250000000003
 40
0.9609375000000001
 40
0.9609375000000001
 40
0.9648437500000001
 40
0.9648437500000001
 40
0.9687500000000003
 40
0.9687500000000003
 40
0.9843750000000001
 40
0.9843750000000001
 40
1.0
 40
1.0
 40
1.0
 40
1.0
 10
29.6029337931177
 20
14.2979995389439
 30
0.0
 10
29.65731756520067
 20
14.29978078854422
 30
0.0
 10
29.71302286056558
 20
14.3016939878554
 30
0.0
 10
29.81939515554422
 20
14.30553350559416
 30
0.0
 10
29.86994894824635
 20
14.30745576325759
 30
0.0
 10
29.92587396308295
 20
14.30970255941965
 30
0.0
 10
29.93672845282801
 20
14.3101469992693
 30
0.0
 10
29.95797230181952
 20
14.31105967217502
 30
0.0
 10
29.96831928351746
 20
14.31152280911147
 30
0.0
 10
29.99837757110048
 20
14.31292701588642
 30
0.0
 10
30.01710002836551
 20
14.31388295623018
 30
0.0
 10
30.06822749933112
 20
14.3167609020335
 30
0.0
 10
30.09544322672924
 20
14.31869108862934
 30
0.0
 10
30.11907395246548
 20
14.32095699640211
 30
0.0
 10
30.12328277822788
 20
14.32139871296209
 30
0.0
 10
30.13078159634047
 20
14.32230414552754
 30
0.0
 10
30.13405553832761
 20
14.32276411659889
 30
0.0
 10
30.14236820929358
 20
14.32416032106321
 30
0.0
 10
30.14588870004548
 20
14.32511293565279
 30
0.0
 10
30.15002251917243
 20
14.32798749976895
 30
0.0
 10
30.14406143690306
 20
14.32992446974576
 30
0.0
 10
30.12670586379848
 20
14.33220833187361
 30
0.0
 10
30.12276678945128
 20
14.33265354967454
 30
0.0
 10
30.11390457637903
 20
14.33355128069503
 30
0.0
 10
30.10896418267939
 20
14.33400784204277
 30
0.0
 10
30.09263458396568
 20
14.3353952818045
 30
0.0
 10
30.07972795668977
 20
14.33634402092101
 30
0.0
 10
30.03542937225041
 20
14.33921352077873
 30
0.0
 10
29.9983625428275
 20
14.34115611471676
 30
0.0
 10
29.93561516458056
 20
14.34391686626681
 30
0.0
 10
29.91369220492472
 20
14.34479486488945
 30
0.0
 10
29.86701323869541
 20
14.3466321037393
 30
0.0
 10
29.8423559623125
 20
14.34757642524161
 30
0.0
 10
29.76559161713077
 20
14.3504391881583
 30
0.0
 10
29.71067809613354
 20
14.35238623509282
 30
0.0
 10
29.64213494122933
 20
14.35470240431432
 30
0.0
 10
29.62843243293601
 20
14.35515984061535
 30
0.0
 10
29.60115642084069
 20
14.35605953950772
 30
0.0
 10
29.58756780705074
 20
14.35650329860207
 30
0.0
 10
29.54652234483673
 20
14.35787098892069
 30
0.0
 10
29.51899590768971
 20
14.35881035925859
 30
0.0
 10
29.43737321298072
 20
14.36166472567347
 30
0.0
 10
29.38430673868531
 20
14.3636150454683
 30
0.0
 10
29.32413017801365
 20
14.36594550735336
 30
0.0
 10
29.31239733663074
 20
14.36640629299122
 30
0.0
 10
29.28962123584882
 20
14.36731357941023
 30
0.0
 10
29.27861350487376
 20
14.36775539324288
 30
0.0
 10
29.2462830438971
 20
14.36911213546473
 30
0.0
 10
29.22576939088174
 20
14.37004603065719
 30
0.0
 10
29.16858961510858
 20
14.37289035731088
 30
0.0
 10
29.13642134149262
 20
14.37484276307191
 30
0.0
 10
29.10631177158567
 20
14.37718624044469
 30
0.0
 10
29.10078472942162
 20
14.37765013004096
 30
0.0
 10
29.09074390824242
 20
14.37856453939785
 30
0.0
 10
29.08624275064653
 20
14.37901063232415
 30
0.0
 10
29.07417542498249
 20
14.380355737205
 30
0.0
 10
29.06800254769548
 20
14.38128364377978
 30
0.0
 10
29.05572165251328
 20
14.3841163068277
 30
0.0
 10
29.05600712006217
 20
14.38606960734613
 30
0.0
 10
29.0690869766059
 20
14.38889583654881
 30
0.0
 10
29.07551653376379
 20
14.38982055979334
 30
0.0
 10
29.09208459052871
 20
14.39160593884865
 30
0.0
 10
29.10239109650383
 20
14.39252339925527
 30
0.0
 10
29.13928598662926
 20
14.39534279730253
 30
0.0
 10
29.17192605169439
 20
14.39729579951701
 30
0.0
 10
29.22966167162337
 20
14.40013449601541
 30
0.0
 10
29.2503357669497
 20
14.40106546039068
 30
0.0
 10
29.28286386692174
 20
14.40241646880383
 30
0.0
 10
29.29395844769686
 20
14.40285964435801
 30
0.0
 10
29.31691089575043
 20
14.40377055115452
 30
0.0
 10
29.32872685012953
 20
14.40423291981757
 30
0.0
 10
29.38928910065887
 20
14.40657005068949
 30
0.0
 10
29.44256447789141
 20
14.40852156215639
 30
0.0
 10
29.52430504742321
 20
14.41137111295678
 30
0.0
 10
29.55183905134378
 20
14.41230781058434
 30
0.0
 10
29.59285054273282
 20
14.41367011428754
 30
0.0
 10
29.60642310330164
 20
14.4141121226628
 30
0.0
 10
29.6337303805997
 20
14.41501567254597
 30
0.0
 10
29.64744114729077
 20
14.41547481380769
 30
0.0
 10
29.71598693713199
 20
14.41779828737711
 30
0.0
 10
29.77077428450039
 20
14.41974711873815
 30
0.0
 10
29.8471759749196
 20
14.42260588990399
 30
0.0
 10
29.87168443953974
 20
14.4235478019423
 30
0.0
 10
29.91802276630954
 20
14.4253783347384
 30
0.0
 10
29.93980036252557
 20
14.42625746302559
 30
0.0
 10
30.00209296109539
 20
14.4290277257542
 30
0.0
 10
30.03874294154105
 20
14.43097269319044
 30
0.0
 10
30.08232343093233
 20
14.43383903291806
 30
0.0
 10
30.09497600636335
 20
14.43478563048154
 30
0.0
 10
30.11622985093131
 20
14.43662933262887
 30
0.0
 10
30.12480475895876
 20
14.43750770782067
 30
0.0
 10
30.14487973535639
 20
14.44025858178422
 30
0.0
 10
30.15027862570824
 20
14.44219850944576
 30
0.0
 10
30.14532071354231
 20
14.44507075121238
 30
0.0
 10
30.14152907391375
 20
14.44602149633081
 30
0.0
 10
30.1328286371908
 20
14.44741341274368
 30
0.0
 10
30.1294285793756
 20
14.44787170904926
 30
0.0
 10
30.1216857262928
 20
14.44877334763573
 30
0.0
 10
30.11735004093978
 20
14.44921603688134
 30
0.0
 10
30.09306478391451
 20
14.45149106859002
 30
0.0
 10
30.06533696962928
 20
14.45342479099084
 30
0.0
 10
30.01356628664734
 20
14.45630125676254
 30
0.0
 10
29.99465005405049
 20
14.45725560337723
 30
0.0
 10
29.96434095472852
 20
14.45865590527437
 30
0.0
 10
29.95391696425246
 20
14.4591174901406
 30
0.0
 10
29.93253316012359
 20
14.46002660137289
 30
0.0
 10
29.92161765127552
 20
14.46046890155521
 30
0.0
 10
29.86523751655735
 20
14.46272539605052
 30
0.0
 10
29.81439914803237
 20
14.46465176041814
 30
0.0
 10
29.73438174837905
 20
14.46753076390487
 30
0.0
 10
29.7071078463347
 20
14.46848815889785
 30
0.0
 10
29.65232686335177
 20
14.47036538189237
 30
0.0
 10
29.62489855832501
 20
14.47127758981247
 30
0.0
 10
29.54320371094805
 20
14.47396177041099
 30
0.0
 10
29.48753905203089
 20
14.47587963898096
 30
0.0
 10
29.38150001033582
 20
14.47971943890685
 30
0.0
 10
29.33123782453036
 20
14.48163730747683
 30
0.0
 10
29.26468122969846
 20
14.48432148807534
 30
0.0
 10
29.24353511308816
 20
14.48523369599544
 30
0.0
 10
29.20379856448369
 20
14.48711091898996
 30
0.0
 10
29.18527296681111
 20
14.48806831398294
 30
0.0
 10
29.13479650620392
 20
14.49094731746967
 30
0.0
 10
29.10809601022772
 20
14.49287368183729
 30
0.0
 10
29.08512057908857
 20
14.4951301763326
 30
0.0
 10
29.08103415124494
 20
14.49557247651492
 30
0.0
 10
29.0737814472354
 20
14.49648158774721
 30
0.0
 10
29.0706345452537
 20
14.49694317261344
 30
0.0
 10
29.06271200940248
 20
14.49834347451058
 30
0.0
 10
29.05946370309458
 20
14.49929782112526
 30
0.0
 10
29.05615518993008
 20
14.50217428689697
 30
0.0
 10
29.06267664246944
 20
14.50410800929779
 30
0.0
 10
29.08065378653996
 20
14.50638304100646
 30
0.0
 10
29.08471026366191
 20
14.50682573025208
 30
0.0
 10
29.09383486798432
 20
14.50772736883855
 30
0.0
 10
29.09890612925991
 20
14.50818566514413
 30
0.0
 10
29.11562384213608
 20
14.509577581557
 30
0.0
 10
29.12878317034347
 20
14.51052832667543
 30
0.0
 10
29.17379408160233
 20
14.51340056844205
 30
0.0
 10
29.21127156406634
 20
14.51534049610359
 30
0.0
 10
29.27446306429836
 20
14.51809137006715
 30
0.0
 10
29.29654142087793
 20
14.51896974525894
 30
0.0
 10
29.34355546412205
 20
14.52081344740627
 30
0.0
 10
29.36835828252665
 20
14.52176004496976
 30
0.0
 10
29.44547449364202
 20
14.52462638469738
 30
0.0
 10
29.50050568805942
 20
14.52657135213361
 30
0.0
 10
29.58274239345294
 20
14.52934161486222
 30
0.0
 10
29.60989725389803
 20
14.53022074314941
 30
0.0
 10
29.66466208210317
 20
14.53205127594551
 30
0.0
 10
29.69217687485638
 20
14.53299318798382
 30
0.0
 10
29.77366953346718
 20
14.53585195914966
 30
0.0
 10
29.82651915361705
 20
14.5378007905107
 30
0.0
 10
29.88630239938223
 20
14.54012426408012
 30
0.0
 10
29.89795071406813
 20
14.54058340534184
 30
0.0
 10
29.92054789303564
 20
14.54148695522501
 30
0.0
 10
29.93148041502458
 20
14.54192896360027
 30
0.0
 10
29.96360775477113
 20
14.54329126730347
 30
0.0
 10
29.98395745547145
 20
14.54422796493103
 30
0.0
 10
30.0405719507673
 20
14.54707751573142
 30
0.0
 10
30.07226370521902
 20
14.54902902719832
 30
0.0
 10
30.10173438601207
 20
14.55136615807025
 30
0.0
 10
30.10713162044719
 20
14.55182852673329
 30
0.0
 10
30.11691111961893
 20
14.55273943352979
 30
0.0
 10
30.1212792650936
 20
14.55318260908398
 30
0.0
 10
30.13298456017552
 20
14.55453361749713
 30
0.0
 10
30.138898989434
 20
14.5554645818724
 30
0.0
 10
30.15037737237927
 20
14.5583032783708
 30
0.0
 10
30.14952105772957
 20
14.56025628058527
 30
0.0
 10
30.13564601312085
 20
14.56307567863254
 30
0.0
 10
30.12897411818947
 20
14.56399313903916
 30
0.0
 10
30.11190602544777
 20
14.56577851809447
 30
0.0
 10
30.10132494532263
 20
14.566703241339
 30
0.0
 10
30.06367014388883
 20
14.56952947054168
 30
0.0
 10
30.03056316251925
 20
14.57148277106011
 30
0.0
 10
29.97228127238479
 20
14.57431543410803
 30
0.0
 10
29.95145027717853
 20
14.57524334068281
 30
0.0
 10
29.91873004676858
 20
14.57658844556366
 30
0.0
 10
29.90753672976193
 20
14.57703453848996
 30
0.0
 10
29.88441057356261
 20
14.57794894784685
 30
0.0
 10
29.872512950564
 20
14.57841283744312
 30
0.0
 10
29.81157277668959
 20
14.5807563148159
 30
0.0
 10
29.75809651879106
 20
14.58270872057693
 30
0.0
 10
29.67625024292247
 20
14.58555304723062
 30
0.0
 10
29.64871273656691
 20
14.58648694242308
 30
0.0
 10
29.6077409879693
 20
14.58784368464493
 30
0.0
 10
29.59417021142183
 20
14.58828549847758
 30
0.0
 10
29.56683548128962
 20
14.5891927848966
 30
0.0
 10
29.55311841986083
 20
14.58965357053445
 30
0.0
 10
29.48457996945432
 20
14.59198403241952
 30
0.0
 10
29.42992726773315
 20
14.59393435221434
 30
0.0
 10
29.35389889461466
 20
14.59678871862922
 30
0.0
 10
29.32954245642898
 20
14.59772808896713
 30
0.0
 10
29.29504826891037
 20
14.59909577928575
 30
0.0
 10
29.28393012779418
 20
14.59953953838009
 30
0.0
 10
29.26221236114415
 20
14.60043923727246
 30
0.0
 10
29.25160364246458
 20
14.60089667357349
 30
0.0
 10
29.20008093841272
 20
14.60321284279499
 30
0.0
 10
29.16385388488468
 20
14.60515988972951
 30
0.0
 10
29.12099703967188
 20
14.6080226526462
 30
0.0
 10
29.10859978782522
 20
14.60896697414851
 30
0.0
 10
29.087866208363
 20
14.61080421299836
 30
0.0
 10
29.07953961890935
 20
14.611682211621
 30
0.0
 10
29.06022199070056
 20
14.61444296317105
 30
0.0
 10
29.05538694471941
 20
14.61638555710908
 30
0.0
 10
29.06116749637495
 20
14.6192550569668
 30
0.0
 10
29.0652291717669
 20
14.62020379608332
 30
0.0
 10
29.07431490197998
 20
14.62159123584504
 30
0.0
 10
29.07784011935024
 20
14.62204779719278
 30
0.0
 10
29.08582486960378
 20
14.62294552821327
 30
0.0
 10
29.09029228577801
 20
14.6233907460142
 30
0.0
 10
29.11523111733451
 20
14.62567460814205
 30
0.0
 10
29.1434677086493
 20
14.62761157811886
 30
0.0
 10
29.19587362170089
 20
14.63048614223502
 30
0.0
 10
29.2149804948241
 20
14.6314387568246
 30
0.0
 10
29.24553528720639
 20
14.63283496128893
 30
0.0
 10
29.25603451178399
 20
14.63329493236027
 30
0.0
 10
29.27755464080958
 20
14.63420036492572
 30
0.0
 10
29.28854248803532
 20
14.6346420814857
 30
0.0
 10
29.34537151091243
 20
14.63690798925847
 30
0.0
 10
29.39648731624541
 20
14.63883817585432
 30
0.0
 10
29.47673106623324
 20
14.64171612165763
 30
0.0
 10
29.50404947383734
 20
14.64267206200139
 30
0.0
 10
29.54515466883787
 20
14.64407626877634
 30
0.0
 10
29.55887746637181
 20
14.64453940571279
 30
0.0
 10
29.58624616524968
 20
14.64545207861851
 30
0.0
 10
29.59984102051491
 20
14.64589651846816
 30
0.0
 10
29.6680100295899
 20
14.64814331463022
 30
0.0
 10
29.72362549802399
 20
14.65006557229365
 30
0.0
 10
29.82931570080468
 20
14.65390509003242
 30
0.0
 10
29.87927935978376
 20
14.6558182893436
 30
0.0
 10
29.92327675561709
 20
14.65759953894391
 30
0.0
  0
LWPOLYLINE
  5
FE5
330
1F
100
AcDbEntity
  8
DIM
  6
HIDDEN
 62
     7
370
     0
100
AcDbPolyline
 90
        9
 70
   128
 43
0.0
 10
29.9232767556171
 20
14.61759953894391
 10
29.91877804206028
 20
14.61912194829368
 10
29.91496421686155
 20
14.62345740332017
 10
29.912415900335
 20
14.6299458702966
 10
29.91152105057125
 20
14.6375995389439
 10
29.912415900335
 20
14.64525320759121
 10
29.91496421686155
 20
14.65174167456764
 10
29.91877804206028
 20
14.65607712959413
 10
29.9232767556171
 20
14.65759953894391
  0
LINE
  5
FE6
330
1F
100
AcDbEntity
  8
DIM
  6
HIDDEN
 62
     7
370
     0
100
AcDbLine
 10
29.6029337931177
 20
14.29799953894391
 30
0.0
 11
29.6029337931177
 21
14.2579995389439
 31
0.0
  0
LINE
  5
FE7
330
1F
100
AcDbEntity
  8
DIM
  6
HIDDEN
 62
     7
370
     0
100
AcDbLine
 10
29.31065819678746
 20
14.7711695886876
 30
0.0
 11
29.89520938944795
 21
14.7711695886876
 31
0.0
  0
LINE
  5
FE8
330
1F
100
AcDbEntity
  8
DIM
  6
HIDDEN
 62
     7
370
     0
100
AcDbLine
 10
29.34227110226734
 20
14.80376506839622
 30
0.0
 11
29.86359648396806
 21
14.80376506839622
 31
0.0
  0
LINE
  5
FE9
330
1F
100
AcDbEntity
  8
DIM
  6
HIDDEN
 62
     7
370
     0
100
AcDbLine
 10
29.68326983300478
 20
15.87799953894391
 30
0.0
 11
29.52259775323062
 21
15.87799953894391
 31
0.0
  0
LINE
  5
FEA
330
1F
100
AcDbEntity
  8
DIM
  6
HIDDEN
 62
     7
370
     0
100
AcDbLine
 10
30.60293379311771
 20
6.176643229878474
 30
0.0
 11
30.60293379311771
 21
11.48664322987847
 31
0.0
  0
LINE
  5
FEB
330
1F
100
AcDbEntity
  8
DIM
  6
HIDDEN
 62
     7
370
     0
100
AcDbLine
 10
28.6029337931177
 20
11.48664322987847
 30
0.0
 11
28.6029337931177
 21
6.176643229878474
 31
0.0
  0
SPLINE
  5
FEC
330
1F
100
AcDbEntity
  8
DIM
  6
HIDDEN
 62
     7
370
     0
100
AcDbSpline
210
0.0
220
0.0
230
1.0
 70
     8
 71
     3
 72
    10
 73
     6
 74
     0
 42
0.0000000001
 43
0.0000000001
 40
0.0
 40
0.0
 40
0.0
 40
0.0
 40
0.1678969326810559
 40
0.9488722504825886
 40
1.0
 40
1.0
 40
1.0
 40
1.0
 10
30.32533578156475
 20
11.73768750405724
 30
0.0
 10
30.32716144536359
 20
11.73785885553078
 30
0.0
 10
30.33747921406709
 20
11.73882725117519
 30
0.0
 10
30.34612127073209
 20
11.73992072812384
 30
0.0
 10
30.35101491383875
 20
11.74170604150997
 30
0.0
 10
30.35131559889666
 20
11.74181573832423
 30
0.0
  0
SPLINE
  5
FED
330
1F
100
AcDbEntity
  8
DIM
  6
HIDDEN
 62
     7
370
     0
100
AcDbSpline
210
0.0
220
0.0
230
1.0
 70
     8
 71
     3
 72
    10
 73
     6
 74
     0
 42
0.0000000001
 43
0.0000000001
 40
0.0
 40
0.0
 40
0.0
 40
0.0
 40
0.1678969326810385
 40
0.9488722504825787
 40
1.0
 40
1.0
 40
1.0
 40
1.0
 10
30.32533578156475
 20
11.62168750405724
 30
0.0
 10
30.32716144536359
 20
11.62185885553078
 30
0.0
 10
30.33747921406709
 20
11.62282725117519
 30
0.0
 10
30.34612127073209
 20
11.62392072812384
 30
0.0
 10
30.35101491383875
 20
11.62570604150997
 30
0.0
 10
30.35131559889666
 20
11.62581573832422
 30
0.0
  0
SPLINE
  5
FEE
330
1F
100
AcDbEntity
  8
DIM
  6
HIDDEN
 62
     7
370
     0
100
AcDbSpline
210
0.0
220
0.0
230
1.0
 70
     8
 71
     3
 72
    10
 73
     6
 74
     0
 42
0.0000000001
 43
0.0000000001
 40
0.0
 40
0.0
 40
0.0
 40
0.0
 40
0.1678969327829487
 40
0.9488722505175825
 40
1.0
 40
1.0
 40
1.0
 40
1.0
 10
28.88053180467109
 20
11.72759895569978
 30
0.0
 10
28.87870614087111
 20
11.72742760422613
 30
0.0
 10
28.86838837216706
 20
11.72645920858163
 30
0.0
 10
28.8597463155018
 20
11.72536573163295
 30
0.0
 10
28.85485267239559
 20
11.7235804182469
 30
0.0
 10
28.85455198733788
 20
11.72347072143271
 30
0.0
  0
SPLINE
  5
FEF
330
1F
100
AcDbEntity
  8
DIM
  6
HIDDEN
 62
     7
370
     0
100
AcDbSpline
210
0.0
220
0.0
230
1.0
 70
     8
 71
     3
 72
    10
 73
     6
 74
     0
 42
0.0000000001
 43
0.0000000001
 40
0.0
 40
0.0
 40
0.0
 40
0.0
 40
0.1678969327829662
 40
0.9488722505175804
 40
1.0
 40
1.0
 40
1.0
 40
1.0
 10
28.88053180467109
 20
11.61159895569978
 30
0.0
 10
28.87870614087111
 20
11.61142760422613
 30
0.0
 10
28.86838837216706
 20
11.61045920858163
 30
0.0
 10
28.8597463155018
 20
11.60936573163295
 30
0.0
 10
28.85485267239559
 20
11.60758041824689
 30
0.0
 10
28.85455198733788
 20
11.60747072143271
 30
0.0
  0
SPLINE
  5
FF0
330
1F
100
AcDbEntity
  8
DIM
  6
HIDDEN
 62
     7
370
     0
100
AcDbSpline
210
0.0
220
0.0
230
1.0
 70
     8
 71
     3
 72
    10
 73
     6
 74
     0
 42
0.0000000001
 43
0.0000000001
 40
0.0
 40
0.0
 40
0.0
 40
0.0
 40
0.1678969327829513
 40
0.9488722505175825
 40
1.0
 40
1.0
 40
1.0
 40
1.0
 10
28.88053180467109
 20
11.84359895569979
 30
0.0
 10
28.87870614087111
 20
11.84342760422613
 30
0.0
 10
28.86838837216706
 20
11.84245920858163
 30
0.0
 10
28.8597463155018
 20
11.84136573163295
 30
0.0
 10
28.85485267239559
 20
11.8395804182469
 30
0.0
 10
28.85455198733788
 20
11.83947072143271
 30
0.0
  0
SPLINE
  5
FF1
330
1F
100
AcDbEntity
  8
DIM
  6
HIDDEN
 62
     7
370
     0
100
AcDbSpline
210
0.0
220
0.0
230
1.0
 70
     8
 71
     3
 72
    10
 73
     6
 74
     0
 42
0.0000000001
 43
0.0000000001
 40
0.0
 40
0.0
 40
0.0
 40
0.0
 40
0.1678969326810459
 40
0.9488722504825865
 40
1.0
 40
1.0
 40
1.0
 40
1.0
 10
30.32533578156475
 20
11.85368750405724
 30
0.0
 10
30.32716144536359
 20
11.85385885553078
 30
0.0
 10
30.33747921406709
 20
11.85482725117519
 30
0.0
 10
30.34612127073209
 20
11.85592072812384
 30
0.0
 10
30.35101491383875
 20
11.85770604150997
 30
0.0
 10
30.35131559889666
 20
11.85781573832422
 30
0.0
  0
ARC
  5
FF2
330
1F
100
AcDbEntity
  8
DIM
  6
HIDDEN
 62
     7
370
     0
100
AcDbCircle
 10
28.8629337931177
 20
11.94664322987847
 30
0.0
 40
0.0100000000000016
100
AcDbArc
 50
0.0000000000002036
 51
90.0
  0
ARC
  5
FF3
330
1F
100
AcDbEntity
  8
DIM
  6
HIDDEN
 62
     7
370
     0
100
AcDbCircle
 10
30.3429337931177
 20
11.94664322987847
 30
0.0
 40
0.0100000000000016
100
AcDbArc
 50
90.0
 51
179.9999999999998
  0
LINE
  5
FF4
330
1F
100
AcDbEntity
  8
DIM
  6
HIDDEN
 62
     7
370
     0
100
AcDbLine
 10
28.8729337931177
 20
11.94664322987847
 30
0.0
 11
28.8729337931177
 21
11.48664322987847
 31
0.0
  0
LINE
  5
FF5
330
1F
100
AcDbEntity
  8
DIM
  6
HIDDEN
 62
     7
370
     0
100
AcDbLine
 10
30.3329337931177
 20
11.48664322987847
 30
0.0
 11
30.3329337931177
 21
11.94664322987847
 31
0.0
  0
LINE
  5
FF6
330
1F
100
AcDbEntity
  8
DIM
  6
HIDDEN
 62
     7
370
     0
100
AcDbLine
 10
30.1479337931177
 20
14.55900263599624
 30
0.0
 11
30.1479337931177
 21
14.66733105505201
 31
0.0
  0
LINE
  5
FF7
330
1F
100
AcDbEntity
  8
DIM
  6
HIDDEN
 62
     7
370
     0
100
AcDbLine
 10
30.1479337931177
 20
14.44300298905081
 30
0.0
 11
30.1479337931177
 21
14.51900263599624
 31
0.0
  0
LINE
  5
FF8
330
1F
100
AcDbEntity
  8
DIM
  6
HIDDEN
 62
     7
370
     0
100
AcDbLine
 10
30.1479337931177
 20
14.327003237241
 30
0.0
 11
30.1479337931177
 21
14.40300298905081
 31
0.0
  0
LINE
  5
FF9
330
1F
100
AcDbEntity
  8
DIM
  6
HIDDEN
 62
     7
370
     0
100
AcDbLine
 10
30.1479337931177
 20
14.22799953894391
 30
0.0
 11
30.1479337931177
 21
14.287003237241
 31
0.0
  0
LINE
  5
FFA
330
1F
100
AcDbEntity
  8
DIM
  6
HIDDEN
 62
     7
370
     0
100
AcDbLine
 10
29.0579337931177
 20
14.34499571333218
 30
0.0
 11
29.0579337931177
 21
14.22799953894391
 31
0.0
  0
LINE
  5
FFB
330
1F
100
AcDbEntity
  8
DIM
  6
HIDDEN
 62
     7
370
     0
100
AcDbLine
 10
29.0579337931177
 20
14.46099572285226
 30
0.0
 11
29.0579337931177
 21
14.38499571333218
 31
0.0
  0
LINE
  5
FFC
330
1F
100
AcDbEntity
  8
DIM
  6
HIDDEN
 62
     7
370
     0
100
AcDbLine
 10
29.0579337931177
 20
14.57699588510732
 30
0.0
 11
29.0579337931177
 21
14.50099572285226
 31
0.0
  0
LINE
  5
FFD
330
1F
100
AcDbEntity
  8
DIM
  6
HIDDEN
 62
     7
370
     0
100
AcDbLine
 10
29.0579337931177
 20
14.66733105505201
 30
0.0
 11
29.0579337931177
 21
14.61699588510732
 31
0.0
  0
SPLINE
  5
FFE
330
1F
100
AcDbEntity
  8
DIM
  6
HIDDEN
 62
     7
370
     0
100
AcDbSpline
210
0.0
220
0.0
230
1.0
 70
     8
 71
     3
 72
    17
 73
    13
 74
     0
 42
0.0000000001
 43
0.0000000001
 40
0.0
 40
0.0
 40
0.0
 40
0.0
 40
0.0609601657006286
 40
0.1526590420316887
 40
0.2231032192500467
 40
0.272853791690584
 40
0.3170442972615959
 40
0.3875115820018066
 40
0.4651397395493052
 40
0.562455962888265
 40
0.7978287824026537
 40
1.0
 40
1.0
 40
1.0
 40
1.0
 10
29.08795293602974
 20
14.60996897128248
 30
0.0
 10
29.08531215922853
 20
14.61022616110189
 30
0.0
 10
29.07869901354465
 20
14.61087022679627
 30
0.0
 10
29.07449667921665
 20
14.61115408020958
 30
0.0
 10
29.07340783800873
 20
14.61002417584293
 30
0.0
 10
29.07659205455628
 20
14.60620683850541
 30
0.0
 10
29.07867204845599
 20
14.59328130288575
 30
0.0
 10
29.07647414913635
 20
14.58961331946576
 30
0.0
 10
29.07779403996645
 20
14.58669926634148
 30
0.0
 10
29.08583165043511
 20
14.58604156695247
 30
0.0
 10
29.10821141918143
 20
14.58667746512956
 30
0.0
 10
29.14445546948945
 20
14.58859078128132
 30
0.0
 10
29.16120236388162
 20
14.58947484647989
 30
0.0
  0
SPLINE
  5
FFF
330
1F
100
AcDbEntity
  8
DIM
  6
HIDDEN
 62
     7
370
     0
100
AcDbSpline
210
0.0
220
0.0
230
1.0
 70
     8
 71
     3
 72
    15
 73
    11
 74
     0
 42
0.0000000001
 43
0.0000000001
 40
0.0
 40
0.0
 40
0.0
 40
0.0
 40
0.2039798473468476
 40
0.4967400402479928
 40
0.6327271001497828
 40
0.7411598948186964
 40
0.8224915918658048
 40
0.8821406648866709
 40
0.955773031106842
 40
1.0
 40
1.0
 40
1.0
 40
1.0
 10
29.14445444568332
 20
14.48947041307113
 30
0.0
 10
29.13219145151786
 20
14.49013310267298
 30
0.0
 10
29.10232810818005
 20
14.4917469114084
 30
0.0
 10
29.08393776080661
 20
14.49227088975425
 30
0.0
 10
29.07688306789271
 20
14.4912396942274
 30
0.0
 10
29.07667316220885
 20
14.48786036142734
 30
0.0
 10
29.07866224426685
 20
14.48237516600304
 30
0.0
 10
29.07655415682184
 20
14.47134980521213
 30
0.0
 10
29.07421528589356
 20
14.46848227301712
 30
0.0
 10
29.07511687433233
 20
14.46809835220447
 30
0.0
 10
29.07545519733236
 20
14.46795428509411
 30
0.0
  0
LINE
  5
1000
330
1F
100
AcDbEntity
  8
DIM
  6
HIDDEN
 62
     7
370
     0
100
AcDbLine
 10
29.07627306550906
 20
14.46716463884279
 30
0.0
 11
29.08115568163312
 21
14.46739472841132
 31
0.0
  0
SPLINE
  5
1001
330
1F
100
AcDbEntity
  8
DIM
  6
HIDDEN
 62
     7
370
     0
100
AcDbSpline
210
0.0
220
0.0
230
1.0
 70
     8
 71
     3
 72
    25
 73
    21
 74
     0
 42
0.0000000001
 43
0.0000000001
 40
0.0
 40
0.0
 40
0.0
 40
0.0
 40
0.1620131882947248
 40
0.248613475619967
 40
0.3333020920253816
 40
0.4031030059176178
 40
0.4548655571133591
 40
0.4885828221248622
 40
0.4988304450334506
 40
0.5023887321962402
 40
0.5050039650489095
 40
0.5076244202300391
 40
0.5133835285961417
 40
0.5215625497719102
 40
0.5557415938443578
 40
0.6082884007999497
 40
0.6791828552922686
 40
0.7651861699202053
 40
0.8530444032949
 40
1.0
 40
1.0
 40
1.0
 40
1.0
 10
29.17023240852988
 20
14.37185750415634
 30
0.0
 10
29.15075721204024
 20
14.37281490042904
 30
0.0
 10
29.12087201356576
 20
14.37428405005449
 30
0.0
 10
29.09651616103781
 20
14.37514775503213
 30
0.0
 10
29.08409560985645
 20
14.37520527890123
 30
0.0
 10
29.07835092749957
 20
14.37447045211512
 30
0.0
 10
29.07691995790795
 20
14.37262881605924
 30
0.0
 10
29.07732161688396
 20
14.37037341705677
 30
0.0
 10
29.07776947339017
 20
14.36769805913488
 30
0.0
 10
29.0779033575684
 20
14.366264549904
 30
0.0
 10
29.07794667633107
 20
14.36499941423441
 30
0.0
 10
29.07789263182037
 20
14.36343838765652
 30
0.0
 10
29.07774606946636
 20
14.36220156573074
 30
0.0
 10
29.07732330918527
 20
14.35955016710934
 30
0.0
 10
29.07694840697327
 20
14.35741100969701
 30
0.0
 10
29.07848511642185
 20
14.35555762957474
 30
0.0
 10
29.08446389459875
 20
14.35485890603429
 30
0.0
 10
29.0973619696528
 20
14.35493821106882
 30
0.0
 10
29.1210554742228
 20
14.35578757663028
 30
0.0
 10
29.14956765575641
 20
14.35717260826101
 30
0.0
 10
29.16741168414781
 20
14.35803941474205
 30
0.0
  0
LINE
  5
1002
330
1F
100
AcDbEntity
  8
DIM
  6
HIDDEN
 62
     7
370
     0
100
AcDbLine
 10
29.62891422207449
 20
14.25898896210877
 30
0.0
 11
29.64390674381918
 21
14.25935795349449
 31
0.0
  0
SPLINE
  5
1003
330
1F
100
AcDbEntity
  8
DIM
  6
HIDDEN
 62
     7
370
     0
100
AcDbSpline
210
0.0
220
0.0
230
1.0
 70
     8
 71
     3
 72
     9
 73
     5
 74
     0
 42
0.0000000001
 43
0.0000000001
 40
0.0
 40
0.0
 40
0.0
 40
0.0
 40
0.7840347100286148
 40
1.0
 40
1.0
 40
1.0
 40
1.0
 10
29.6029337931177
 20
14.2587995389439
 30
0.0
 10
29.60970315591861
 20
14.25875734218651
 30
0.0
 10
29.61833716499285
 20
14.25870352217466
 30
0.0
 10
29.6270356510178
 20
14.25893826566319
 30
0.0
 10
29.62891422207449
 20
14.25898896210876
 30
0.0
  0
SPLINE
  5
1004
330
1F
100
AcDbEntity
  8
DIM
  6
HIDDEN
 62
     7
370
     0
100
AcDbSpline
210
0.0
220
0.0
230
1.0
 70
     8
 71
     3
 72
    17
 73
    13
 74
     0
 42
0.0000000001
 43
0.0000000001
 40
0.0
 40
0.0
 40
0.0
 40
0.0
 40
0.0472856210083971
 40
0.1423305533942149
 40
0.2172432362226707
 40
0.2724279156769954
 40
0.3161638754481007
 40
0.3775596001517507
 40
0.4613999233217501
 40
0.568106707316349
 40
0.7990665443622961
 40
1.0
 40
1.0
 40
1.0
 40
1.0
 10
30.11714973008545
 20
14.2940049229555
 30
0.0
 10
30.11930404467646
 20
14.29380247374413
 30
0.0
 10
30.12578856959934
 20
14.29319309804655
 30
0.0
 10
30.13040238415582
 20
14.29281423180821
 30
0.0
 10
30.1321517930019
 20
14.29387647584963
 30
0.0
 10
30.12953078836489
 20
14.29718351483924
 30
0.0
 10
30.12716406390446
 20
14.30844836406877
 30
0.0
 10
30.12918903420051
 20
14.31378703570277
 30
0.0
 10
30.12887791649918
 20
14.31718321408621
 30
0.0
 10
30.12174639364623
 20
14.31819819039552
 30
0.0
 10
30.10066778836846
 20
14.31756422463953
 30
0.0
 10
30.06656012280994
 20
14.31573466756467
 30
0.0
 10
30.0506919182777
 20
14.31488348688749
 30
0.0
  0
SPLINE
  5
1005
330
1F
100
AcDbEntity
  8
DIM
  6
HIDDEN
 62
     7
370
     0
100
AcDbSpline
210
0.0
220
0.0
230
1.0
 70
     8
 71
     3
 72
    13
 73
     9
 74
     0
 42
0.0000000001
 43
0.0000000001
 40
0.0
 40
0.0
 40
0.0
 40
0.0
 40
0.1219415803943402
 40
0.2622901746029167
 40
0.3792072849331429
 40
0.5711295004893124
 40
0.7914571483960364
 40
1.0
 40
1.0
 40
1.0
 40
1.0
 10
30.112848779688
 20
14.41067677804323
 30
0.0
 10
30.11691913343327
 20
14.41047799173857
 30
0.0
 10
30.12567425856033
 20
14.410050412447
 30
0.0
 10
30.1280014532858
 20
14.41137821894504
 30
0.0
 10
30.12660279535696
 20
14.42597277616977
 30
0.0
 10
30.13186807472399
 20
14.43490063631334
 30
0.0
 10
30.12354641651971
 20
14.43508360965919
 30
0.0
 10
30.10610643328408
 20
14.43425636024393
 30
0.0
 10
30.09762605554761
 20
14.43385410139832
 30
0.0
  0
SPLINE
  5
1006
330
1F
100
AcDbEntity
  8
DIM
  6
HIDDEN
 62
     7
370
     0
100
AcDbSpline
210
0.0
220
0.0
230
1.0
 70
     8
 71
     3
 72
    25
 73
    21
 74
     0
 42
0.0000000001
 43
0.0000000001
 40
0.0
 40
0.0
 40
0.0
 40
0.0
 40
0.1629717637166473
 40
0.2524407211852733
 40
0.3401072665513149
 40
0.4123806461120132
 40
0.4659269317222404
 40
0.5007121494040261
 40
0.5112225500794521
 40
0.5148452275209228
 40
0.5174835402011962
 40
0.5201061011188975
 40
0.5258047828182797
 40
0.5338409980946223
 40
0.5672353116398106
 40
0.6184193921457361
 40
0.6873990026506101
 40
0.771105637404239
 40
0.8567857254274956
 40
1.0
 40
1.0
 40
1.0
 40
1.0
 10
30.03107784317152
 20
14.53241364876403
 30
0.0
 10
30.05109026917184
 20
14.5314504242558
 30
0.0
 10
30.08208920504254
 20
14.52995840450973
 30
0.0
 10
30.10769770391826
 20
14.5290239364443
 30
0.0
 10
30.12101504490459
 20
14.5289186189037
 30
0.0
 10
30.1272494394315
 20
14.52960425343299
 30
0.0
 10
30.12888307054553
 20
14.5314125868181
 30
0.0
 10
30.12853527539099
 20
14.53363997703167
 30
0.0
 10
30.12809589368091
 20
14.5363110607621
 30
0.0
 10
30.12796364636502
 20
14.5377417689858
 30
0.0
 10
30.12792089888742
 20
14.53900706928897
 30
0.0
 10
30.12797548196988
 20
14.5405638364823
 30
0.0
 10
30.12812395521801
 20
14.54180957261555
 30
0.0
 10
30.1285555699901
 20
14.54446032427771
 30
0.0
 10
30.1289812508828
 20
14.54663114962325
 30
0.0
 10
30.12764244557952
 20
14.54851518864924
 30
0.0
 10
30.12214604313244
 20
14.54926494861911
 30
0.0
 10
30.11012336845107
 20
14.54923168370304
 30
0.0
 10
30.08795500647774
 20
14.54846469361266
 30
0.0
 10
30.06099800268547
 20
14.54712750669112
 30
0.0
 10
30.04413158579789
 20
14.546290857624
 30
0.0
  0
ARC
  5
1007
330
1F
100
AcDbEntity
  8
DIM
  6
HIDDEN
 62
     7
370
     0
100
AcDbCircle
 10
29.75618880801985
 20
14.07367400714752
 30
0.0
 40
0.7112614314554067
100
AcDbArc
 50
56.57980541137735
 51
78.7091285237867
  0
ARC
  5
1008
330
1F
100
AcDbEntity
  8
DIM
  6
HIDDEN
 62
     7
370
     0
100
AcDbCircle
 10
29.44967877821555
 20
14.07367400714752
 30
0.0
 40
0.711261431455406
100
AcDbArc
 50
101.290871476213
 51
123.4201945886224
  0
ARC
  5
1009
330
1F
100
AcDbEntity
  8
DIM
  6
HIDDEN
 62
     7
370
     0
100
AcDbCircle
 10
29.90327821418316
 20
14.81039542327912
 30
0.0
 40
0.0399999999999999
100
AcDbArc
 50
189.5413217173882
 51
258.7091285237865
  0
ARC
  5
100A
330
1F
100
AcDbEntity
  8
DIM
  6
HIDDEN
 62
     7
370
     0
100
AcDbCircle
 10
29.30258937205225
 20
14.81039542327912
 30
0.0
 40
0.0399999999999991
100
AcDbArc
 50
281.2908714762149
 51
350.4586782826124
  0
LINE
  5
100B
330
1F
100
AcDbEntity
  8
DIM
  6
HIDDEN
 62
     7
370
     0
100
AcDbLine
 10
29.86383156167465
 20
14.80376506839622
 30
0.0
 11
29.80968612997047
 21
15.12589805631004
 31
0.0
  0
LINE
  5
100C
330
1F
100
AcDbEntity
  8
DIM
  6
HIDDEN
 62
     7
370
     0
100
AcDbLine
 10
29.39618145626493
 20
15.12589805631004
 30
0.0
 11
29.34203602456075
 21
14.80376506839622
 31
0.0
  0
LINE
  5
100D
330
1F
100
AcDbEntity
  8
DIM
  6
HIDDEN
 62
     7
370
     0
100
AcDbLine
 10
29.80757815196588
 20
15.13843926674472
 30
0.0
 11
29.73310223657183
 21
15.58152649309796
 31
0.0
  0
LINE
  5
100E
330
1F
100
AcDbEntity
  8
DIM
  6
HIDDEN
 62
     7
370
     0
100
AcDbLine
 10
29.47276534966357
 20
15.58152649309796
 30
0.0
 11
29.39828943426952
 21
15.13843926674472
 31
0.0
  0
LINE
  5
100F
330
1F
100
AcDbEntity
  8
DIM
  6
HIDDEN
 62
     7
370
     0
100
AcDbLine
 10
29.7314272610926
 20
15.59149159705641
 30
0.0
 11
29.68326983300478
 21
15.87799953894391
 31
0.0
  0
LINE
  5
1010
330
1F
100
AcDbEntity
  8
DIM
  6
HIDDEN
 62
     7
370
     0
100
AcDbLine
 10
29.52259775323062
 20
15.87799953894391
 30
0.0
 11
29.4744403251428
 21
15.59149159705641
 31
0.0
  0
LINE
  5
1011
330
1F
100
AcDbEntity
  8
DIM
  6
HIDDEN
 62
     7
370
     0
100
AcDbLine
 10
29.6029337931177
 20
6.206643229878474
 30
0.0
 11
28.5829337931177
 21
6.206643229878474
 31
0.0
  0
LINE
  5
1012
330
1F
100
AcDbEntity
  8
DIM
  6
HIDDEN
 62
     7
370
     0
100
AcDbLine
 10
28.8529337931177
 20
11.94664322987847
 30
0.0
 11
30.3529337931177
 21
11.94664322987847
 31
0.0
  0
LINE
  5
1013
330
1F
100
AcDbEntity
  8
DIM
  6
HIDDEN
 62
     7
370
     0
100
AcDbLine
 10
28.8729337931177
 20
11.94664322987847
 30
0.0
 11
30.33199684335257
 21
11.94664322987847
 31
0.0
  0
LINE
  5
1014
330
1F
100
AcDbEntity
  8
DIM
  6
HIDDEN
 62
     7
370
     0
100
AcDbLine
 10
29.6029337931177
 20
14.79078250598336
 30
0.0
 11
29.89936241603341
 21
14.79078250598336
 31
0.0
  0
LINE
  5
1015
330
1F
100
AcDbEntity
  8
DIM
  6
HIDDEN
 62
     7
370
     0
100
AcDbLine
 10
29.6029337931177
 20
14.80708024583767
 30
0.0
 11
29.88355488792891
 21
14.80708024583767
 31
0.0
  0
LINE
  5
1016
330
1F
100
AcDbEntity
  8
DIM
  6
HIDDEN
 62
     7
370
     0
100
AcDbLine
 10
29.50287442697637
 20
15.88131471638536
 30
0.0
 11
29.70299315925904
 21
15.88131471638536
 31
0.0
  0
LINE
  5
1017
330
1F
100
AcDbEntity
  8
0
100
AcDbLine
 10
30.32605973657164
 20
17.07469003442566
 30
0.0
 11
30.32605973657166
 21
21.40235633742014
 31
0.0
  0
LINE
  5
1018
330
1F
100
AcDbEntity
  8
0
100
AcDbLine
 10
28.28605973657166
 20
21.40235633742014
 30
0.0
 11
28.28605973657164
 21
17.07469003442566
 31
0.0
  0
SPLINE
  5
1019
330
1F
100
AcDbEntity
  8
0
100
AcDbSpline
210
0.0
220
0.0
230
1.0
 70
     8
 71
     3
 72
    17
 73
    13
 74
     0
 42
0.0000000001
 43
0.0000000001
 40
0.0
 40
0.0
 40
0.0
 40
0.0
 40
0.1612938859483303
 40
0.3028238015256382
 40
0.4228811561137188
 40
0.520679072586855
 40
0.596047156362455
 40
0.6509701672638926
 40
0.7355452204374195
 40
0.8342116593031178
 40
0.9474515323293283
 40
1.0
 40
1.0
 40
1.0
 40
1.0
 10
29.84603147269948
 20
21.31058776428098
 30
0.0
 10
29.87123303577332
 20
21.32565505219966
 30
0.0
 10
29.91854811588027
 20
21.35394337434772
 30
0.0
 10
29.9716688756956
 20
21.39972722942231
 30
0.0
 10
30.00910821379966
 20
21.44123538868798
 30
0.0
 10
30.03362200441892
 20
21.47686524419706
 30
0.0
 10
30.04892597199227
 20
21.50546430497044
 30
0.0
 10
30.0606266208271
 20
21.53310915468801
 30
0.0
 10
30.07032328704214
 20
21.5643971309687
 30
0.0
 10
30.07629111901858
 20
21.60384385770524
 30
0.0
 10
30.07718861583974
 20
21.63934897435935
 30
0.0
 10
30.07225511243467
 20
21.66130266540372
 30
0.0
 10
30.07069138338657
 20
21.66826113316598
 30
0.0
  0
SPLINE
  5
101A
330
1F
100
AcDbEntity
  8
0
100
AcDbSpline
210
0.0
220
0.0
230
1.0
 70
     8
 71
     3
 72
    39
 73
    35
 74
     0
 42
0.0000000001
 43
0.0000000001
 40
0.0
 40
0.0
 40
0.0
 40
0.0
 40
0.0105265997370655
 40
0.0626344704926385
 40
0.1120567567839122
 40
0.1458707971655574
 40
0.1818529363937619
 40
0.2204726551178555
 40
0.2510831881799286
 40
0.2829447295085303
 40
0.3150766663790183
 40
0.3441788410665642
 40
0.3779310323849573
 40
0.4086455501104663
 40
0.4443428065695496
 40
0.4854245046005051
 40
0.5238262645984403
 40
0.55580604259068
 40
0.5709611504905961
 40
0.5915224298647103
 40
0.6181309348240506
 40
0.6507699783470882
 40
0.6892578888946057
 40
0.733160796136413
 40
0.776200328246207
 40
0.8139660582425328
 40
0.8460020671594607
 40
0.8720983853312215
 40
0.8922095448030503
 40
0.9068651573060904
 40
0.9294330971621111
 40
0.9557611711576456
 40
0.9859780087222109
 40
1.0
 40
1.0
 40
1.0
 40
1.0
 10
28.54132682267725
 20
21.61859172798318
 30
0.0
 10
28.53987063107834
 20
21.61307920930904
 30
0.0
 10
28.53120612477887
 20
21.58027909371048
 30
0.0
 10
28.53877981231852
 20
21.51968178693525
 30
0.0
 10
28.5612186873868
 20
21.44929630601213
 30
0.0
 10
28.59614008405164
 20
21.39017374753464
 30
0.0
 10
28.63748658421837
 20
21.33929076595108
 30
0.0
 10
28.68725790513155
 20
21.29340023956602
 30
0.0
 10
28.74281594823611
 20
21.25298540547716
 30
0.0
 10
28.80086391711044
 20
21.21857662264656
 30
0.0
 10
28.86346007373563
 20
21.18849840807422
 30
0.0
 10
28.93201113201033
 20
21.16179903416639
 30
0.0
 10
29.00361161212424
 20
21.13978831606023
 30
0.0
 10
29.0837415000722
 20
21.1210910389217
 30
0.0
 10
29.1727156575309
 20
21.10661697139191
 30
0.0
 10
29.27032629976518
 20
21.0982691705375
 30
0.0
 10
29.36531368220204
 20
21.0975084340733
 30
0.0
 10
29.43747927168033
 20
21.10192246408887
 30
0.0
 10
29.49371100310674
 20
21.10797071371809
 30
0.0
 10
29.54476005520643
 20
21.11530640374454
 30
0.0
 10
29.60852780856918
 20
21.12764262087793
 30
0.0
 10
29.6834480141792
 20
21.14713897472881
 30
0.0
 10
29.76608777484955
 20
21.17604722548406
 30
0.0
 10
29.84719133739496
 20
21.21434653815571
 30
0.0
 10
29.91816309008346
 20
21.25950674765794
 30
0.0
 10
29.97175058336088
 20
21.30494862823172
 30
0.0
 10
30.00909186602048
 20
21.34652863248812
 30
0.0
 10
30.03362502078088
 20
21.38214429993708
 30
0.0
 10
30.04892547780409
 20
21.41074593288219
 30
0.0
 10
30.060626806012
 20
21.43839028482473
 30
0.0
 10
30.0703232182779
 20
21.46967844717334
 30
0.0
 10
30.07629114227879
 20
21.50912510648379
 30
0.0
 10
30.0771886133259
 20
21.54463024202248
 30
0.0
 10
30.07225511182965
 20
21.56658393166827
 30
0.0
 10
30.07069138338657
 20
21.57354239898724
 30
0.0
  0
SPLINE
  5
101B
330
1F
100
AcDbEntity
  8
0
100
AcDbSpline
210
0.0
220
0.0
230
1.0
 70
     8
 71
     3
 72
    29
 73
    25
 74
     0
 42
0.0000000001
 43
0.0000000001
 40
0.0
 40
0.0
 40
0.0
 40
0.0
 40
0.0143578322690104
 40
0.0854307415551325
 40
0.1528406283795123
 40
0.1989615346801193
 40
0.2480396351705968
 40
0.3007152813970239
 40
0.3424667405906996
 40
0.3859245216078153
 40
0.4297511105908114
 40
0.4694452334095902
 40
0.5154817802305625
 40
0.5573750700621883
 40
0.606064602627834
 40
0.662098283435291
 40
0.7144766432720121
 40
0.7580956940464027
 40
0.7787666136862526
 40
0.8068113202262296
 40
0.8431041840833145
 40
0.8876224448731296
 40
0.9401183103785067
 40
1.0
 40
1.0
 40
1.0
 40
1.0
 10
28.54132682267725
 20
21.52387299380444
 30
0.0
 10
28.53987063107834
 20
21.5183604751303
 30
0.0
 10
28.53120612477887
 20
21.48556035953174
 30
0.0
 10
28.53877981231851
 20
21.42496305275651
 30
0.0
 10
28.56121868738682
 20
21.35457757183337
 30
0.0
 10
28.59614008405158
 20
21.29545501335593
 30
0.0
 10
28.63748658421858
 20
21.24457203177217
 30
0.0
 10
28.68725790513074
 20
21.19868150538787
 30
0.0
 10
28.74281594823846
 20
21.15826667129669
 30
0.0
 10
28.80086391710113
 20
21.12385788847463
 30
0.0
 10
28.86346007376925
 20
21.09377967387084
 30
0.0
 10
28.93201113189047
 20
21.06708030007546
 30
0.0
 10
29.00361161263332
 20
21.04506958150849
 30
0.0
 10
29.08374149825327
 20
21.02637230607568
 30
0.0
 10
29.17271566610163
 20
21.01189823093342
 30
0.0
 10
29.27032626360042
 20
21.00355046285659
 30
0.0
 10
29.36531379805377
 20
21.00278961501027
 30
0.0
 10
29.43747899548853
 20
21.00720393227518
 30
0.0
 10
29.4937115189546
 20
21.01325160157885
 30
0.0
 10
29.54475691371356
 20
21.02058997133014
 30
0.0
 10
29.60854479758286
 20
21.0329114388893
 30
0.0
 10
29.68336314882322
 20
21.05248242119436
 30
0.0
 10
29.7664879976272
 20
21.08103524902483
 30
0.0
 10
29.81838014000867
 20
21.10720528652211
 30
0.0
 10
29.84603147270027
 20
21.12115029592391
 30
0.0
  0
SPLINE
  5
101C
330
1F
100
AcDbEntity
  8
0
100
AcDbSpline
210
0.0
220
0.0
230
1.0
 70
     8
 71
     3
 72
    19
 73
    15
 74
     0
 42
0.0000000001
 43
0.0000000001
 40
0.0
 40
0.0
 40
0.0
 40
0.0
 40
0.1268563425109933
 40
0.2381684814716905
 40
0.3325926241177885
 40
0.4095098979260821
 40
0.4687862889294271
 40
0.5119827947470351
 40
0.5785003930446007
 40
0.6561007527210464
 40
0.7451630010151165
 40
0.8426103428657597
 40
0.9292093721535948
 40
0.9999999999999998
 40
0.9999999999999998
 40
0.9999999999999998
 40
0.9999999999999998
 10
29.84603147270019
 20
21.40530649846011
 30
0.0
 10
29.87123302045683
 20
21.42037378521751
 30
0.0
 10
29.91854807180645
 20
21.44866210518539
 30
0.0
 10
29.97166901764974
 20
21.49444597436256
 30
0.0
 10
30.00910780328055
 20
21.53595409174538
 30
0.0
 10
30.03362311416558
 20
21.57158406250543
 30
0.0
 10
30.04892320126101
 20
21.60018282910072
 30
0.0
 10
30.06063556417049
 20
21.62782856685944
 30
0.0
 10
30.07026451914713
 20
21.65911140996767
 30
0.0
 10
30.07656398338436
 20
21.69858327766494
 30
0.0
 10
30.0762038739835
 20
21.74355436643559
 30
0.0
 10
30.06693807423713
 20
21.7897189636594
 30
0.0
 10
30.05088944762313
 20
21.83187806096373
 30
0.0
 10
30.03601655441769
 20
21.85684429453712
 30
0.0
 10
30.02932703321868
 20
21.86807359245797
 30
0.0
  0
SPLINE
  5
101D
330
1F
100
AcDbEntity
  8
0
100
AcDbSpline
210
0.0
220
0.0
230
1.0
 70
     8
 71
     3
 72
    30
 73
    26
 74
     0
 42
0.0000000001
 43
0.0000000001
 40
0.0
 40
0.0
 40
0.0
 40
0.0
 40
0.0025927314951186
 40
0.0703623606053699
 40
0.1373968826421889
 40
0.2009765164184948
 40
0.2444768168961318
 40
0.2907662827685589
 40
0.3404488805858786
 40
0.3798280074501034
 40
0.4208165023425142
 40
0.4621528494048249
 40
0.4995915384574378
 40
0.5430122727902034
 40
0.5825251714265524
 40
0.6284481479378215
 40
0.6812979756516416
 40
0.7307001789945775
 40
0.7718407802409649
 40
0.7913371710885739
 40
0.8177883677182469
 40
0.8520190585179271
 40
0.8940077763561388
 40
0.9435208086550604
 40
1.0
 40
1.0
 40
1.0
 40
1.0
 10
28.5590319060685
 20
21.78266924426722
 30
0.0
 10
28.55847012572997
 20
21.78166533798328
 30
0.0
 10
28.54322435468287
 20
21.75442101434311
 30
0.0
 10
28.53494205884867
 20
21.69693004695012
 30
0.0
 10
28.53710287509432
 20
21.61462025190259
 30
0.0
 10
28.56150557534451
 20
21.54397744897023
 30
0.0
 10
28.59607120087249
 20
21.48490150754638
 30
0.0
 10
28.6375072206389
 20
21.43400679611854
 30
0.0
 10
28.68725351336271
 20
21.38811954920319
 30
0.0
 10
28.74281705650823
 20
21.34770399443647
 30
0.0
 10
28.80086361138061
 20
21.31329539689099
 30
0.0
 10
28.86346014702478
 20
21.28321713262959
 30
0.0
 10
28.93201110964947
 20
21.25651777134721
 30
0.0
 10
29.00361161830094
 20
21.23450704912335
 30
0.0
 10
29.08374149653596
 20
21.2158097746582
 30
0.0
 10
29.17271566667434
 20
21.20133569921586
 30
0.0
 10
29.27032626344843
 20
21.192987931234
 30
0.0
 10
29.36531379808686
 20
21.19222708336343
 30
0.0
 10
29.43747899548505
 20
21.19664140063314
 30
0.0
 10
29.4937115189555
 20
21.20268906993623
 30
0.0
 10
29.5447569137132
 20
21.21002743968768
 30
0.0
 10
29.60854479758299
 20
21.22234890724678
 30
0.0
 10
29.68336314882317
 20
21.24191988955186
 30
0.0
 10
29.76648799763103
 20
21.27047271738361
 30
0.0
 10
29.81838014001518
 20
21.29664275488295
 30
0.0
 10
29.84603147270974
 20
21.31058776428661
 30
0.0
  0
LINE
  5
101E
330
1F
100
AcDbEntity
  8
0
100
AcDbLine
 10
28.55605973657166
 20
21.76163429464987
 30
0.0
 11
28.55605973657166
 21
21.68613369402432
 31
0.0
  0
LINE
  5
101F
330
1F
100
AcDbEntity
  8
0
100
AcDbLine
 10
30.05605973657166
 20
21.73349306111369
 30
0.0
 11
30.05605973657166
 21
21.76163429464987
 31
0.0
  0
LINE
  5
1020
330
1F
100
AcDbEntity
  8
0
100
AcDbLine
 10
30.05605973657166
 20
21.40235633742014
 30
0.0
 11
30.05605973657166
 21
21.42836298688171
 31
0.0
  0
SPLINE
  5
1021
330
1F
100
AcDbEntity
  8
0
100
AcDbSpline
210
0.0
220
0.0
230
1.0
 70
     8
 71
     3
 72
     9
 73
     5
 74
     0
 42
0.0000000001
 43
0.0000000001
 40
0.0
 40
0.0
 40
0.0
 40
0.0
 40
0.5850646531564669
 40
0.9999999999999998
 40
0.9999999999999998
 40
0.9999999999999998
 40
0.9999999999999998
 10
29.89518043502551
 20
21.515960446268
 30
0.0
 10
29.88226705480692
 20
21.50621529682531
 30
0.0
 10
29.86019533991367
 20
21.48955876256007
 30
0.0
 10
29.8348399913409
 20
21.47448034875948
 30
0.0
 10
29.82431916098652
 20
21.46822378189928
 30
0.0
  0
SPLINE
  5
1022
330
1F
100
AcDbEntity
  8
0
100
AcDbSpline
210
0.0
220
0.0
230
1.0
 70
     8
 71
     3
 72
     9
 73
     5
 74
     0
 42
0.0000000001
 43
0.0000000001
 40
0.0
 40
0.0
 40
0.0
 40
0.0
 40
0.6582420272194895
 40
1.0
 40
1.0
 40
1.0
 40
1.0
 10
29.90384290427512
 20
21.52306090257914
 30
0.0
 10
29.90211541531312
 20
21.52143418854935
 30
0.0
 10
29.89949101746162
 20
21.51896288777773
 30
0.0
 10
29.89627837962114
 20
21.51672519545867
 30
0.0
 10
29.89518043502551
 20
21.515960446268
 30
0.0
  0
LINE
  5
1023
330
1F
100
AcDbEntity
  8
0
100
AcDbLine
 10
29.82431916098652
 20
21.46822378189928
 30
0.0
 11
29.81792273049765
 21
21.46471015144429
 31
0.0
  0
SPLINE
  5
1024
330
1F
100
AcDbEntity
  8
0
100
AcDbSpline
210
0.0
220
0.0
230
1.0
 70
     8
 71
     3
 72
    47
 73
    43
 74
     0
 42
0.0000000001
 43
0.0000000001
 40
0.0
 40
0.0
 40
0.0
 40
0.0
 40
0.0127464909453827
 40
0.0377301946093914
 40
0.0627630851230965
 40
0.0879468094306205
 40
0.1133469410135659
 40
0.1389839362183451
 40
0.1648376984819584
 40
0.1908622198802274
 40
0.217002969042082
 40
0.2432102417531353
 40
0.2694457691828118
 40
0.2956790154678779
 40
0.3218962830681794
 40
0.3480919997406949
 40
0.3742650283219369
 40
0.4004169638451631
 40
0.4265510032141263
 40
0.4526712409146163
 40
0.4787822543088365
 40
0.50488887420971
 40
0.5309960669047337
 40
0.5571076168969802
 40
0.583228197743326
 40
0.6093629068243475
 40
0.6355167648791481
 40
0.6616945465948686
 40
0.6879004606345627
 40
0.7141375843384097
 40
0.7404069201758541
 40
0.7667059051727297
 40
0.793026207574851
 40
0.8193448352762185
 40
0.845626129914579
 40
0.8718220197817647
 40
0.897872915924575
 40
0.9237183487974032
 40
0.949315303384728
 40
0.9746582242800887
 40
0.9997904184829771
 40
1.0
 40
1.0
 40
1.0
 40
1.0
 10
28.28705766243928
 20
17.06339347149244
 30
0.0
 10
28.287159983447
 20
17.05495190653082
 30
0.0
 10
28.28746285829709
 20
17.02996448919578
 30
0.0
 10
28.29513060282508
 20
16.98868021381736
 30
0.0
 10
28.30951265050521
 20
16.94001824906914
 30
0.0
 10
28.33063686381208
 20
16.8923239502774
 30
0.0
 10
28.35798584332907
 20
16.84582456535693
 30
0.0
 10
28.39156928599697
 20
16.80078858417802
 30
0.0
 10
28.43118878583864
 20
16.7575128415738
 30
0.0
 10
28.47661162608882
 20
16.7163085500683
 30
0.0
 10
28.52752166759223
 20
16.6774779192096
 30
0.0
 10
28.5835489458347
 20
16.6412970528066
 30
0.0
 10
28.64428059147472
 20
16.60800995115671
 30
0.0
 10
28.70927976204463
 20
16.57782494644204
 30
0.0
 10
28.77809457424804
 20
16.55091846222971
 30
0.0
 10
28.8502663050481
 20
16.52743882613641
 30
0.0
 10
28.92532486149948
 20
16.50751232757244
 30
0.0
 10
29.002788182544
 20
16.49124509245244
 30
0.0
 10
29.08216318276639
 20
16.47872348824142
 30
0.0
 10
29.16294731223032
 20
16.47001399095104
 30
0.0
 10
29.2446306864174
 20
16.46516283864048
 30
0.0
 10
29.32669866107148
 20
16.46419569044104
 30
0.0
 10
29.40863339461176
 20
16.46711737981277
 30
0.0
 10
29.48991782610297
 20
16.47391166414519
 30
0.0
 10
29.57003935474888
 20
16.48454145869831
 30
0.0
 10
29.6484941964511
 20
16.4989497353002
 30
0.0
 10
29.72478928103831
 20
16.51706043159958
 30
0.0
 10
29.7984442540944
 20
16.53877944831608
 30
0.0
 10
29.86899337510702
 20
16.56399577535669
 30
0.0
 10
29.93598667721953
 20
16.59258249478862
 30
0.0
 10
29.99899022564657
 20
16.62439728433321
 30
0.0
 10
30.05758532072143
 20
16.65928181311354
 30
0.0
 10
30.11136311876904
 20
16.69705633035771
 30
0.0
 10
30.15992434889918
 20
16.73751265904167
 30
0.0
 10
30.20288648701559
 20
16.78040522888382
 30
0.0
 10
30.23988614514359
 20
16.82544335348043
 30
0.0
 10
30.27062886037378
 20
16.87228496002796
 30
0.0
 10
30.29478651928318
 20
16.9205360176066
 30
0.0
 10
30.31248095648977
 20
16.96977609612336
 30
0.0
 10
30.32259619562219
 20
17.01956005661404
 30
0.0
 10
30.32690686634314
 20
17.0531330807151
 30
0.0
 10
30.32601065366456
 20
17.06989473647235
 30
0.0
 10
30.32600324180775
 20
17.07003335869363
 30
0.0
  0
LINE
  5
1025
330
1F
100
AcDbEntity
  8
0
100
AcDbLine
 10
29.45377956526699
 20
25.22110300130109
 30
0.0
 11
29.40541009454897
 21
25.45441350995281
 31
0.0
  0
LINE
  5
1026
330
1F
100
AcDbEntity
  8
0
100
AcDbLine
 10
29.20670937859437
 20
25.45441350995281
 30
0.0
 11
29.15833990787634
 21
25.22110300130109
 31
0.0
  0
SPLINE
  5
1027
330
1F
100
AcDbEntity
  8
0
100
AcDbSpline
210
0.0
220
0.0
230
1.0
 70
     8
 71
     3
 72
    17
 73
    13
 74
     0
 42
0.0000000001
 43
0.0000000001
 40
0.0
 40
0.0
 40
0.0
 40
0.0
 40
0.025885213602573
 40
0.1309522328459176
 40
0.2389315779212245
 40
0.3546852917559159
 40
0.4759506795091618
 40
0.5978182196346679
 40
0.7194387012675662
 40
0.8416438436704643
 40
0.9653008093171568
 40
1.0
 40
1.0
 40
1.0
 40
1.0
 10
29.40477026907666
 20
25.45448205150582
 30
0.0
 10
29.40466298356214
 20
25.45589750791191
 30
0.0
 10
29.40412023054902
 20
25.46305824375594
 30
0.0
 10
29.39687192882894
 20
25.47481422354581
 30
0.0
 10
29.38408034256858
 20
25.48844175545672
 30
0.0
 10
29.36590414396264
 20
25.49947075956016
 30
0.0
 10
29.34357878131606
 20
25.50738336866454
 30
0.0
 10
29.31841971659798
 20
25.51144175341253
 30
0.0
 10
29.29237651261897
 20
25.51134292382197
 30
0.0
 10
29.26715893248106
 20
25.50701658618145
 30
0.0
 10
29.24972097171474
 20
25.50071342147123
 30
0.0
 10
29.2411356226415
 20
25.49599146838307
 30
0.0
 10
29.23925439066748
 20
25.49495678836558
 30
0.0
  0
SPLINE
  5
1028
330
1F
100
AcDbEntity
  8
0
100
AcDbSpline
210
0.0
220
0.0
230
1.0
 70
     8
 71
     3
 72
    11
 73
     7
 74
     0
 42
0.0000000001
 43
0.0000000001
 40
0.0
 40
0.0
 40
0.0
 40
0.0
 40
0.2138594003604521
 40
0.5693901522633493
 40
0.901538832007917
 40
1.0
 40
1.0
 40
1.0
 40
1.0
 10
29.23925439066748
 20
25.49495678836558
 30
0.0
 10
29.23577279590011
 20
25.49276900345906
 30
0.0
 10
29.22650322078967
 20
25.48694413357285
 30
0.0
 10
29.21540834983427
 20
25.47508026196331
 30
0.0
 10
29.20801216611027
 20
25.46288012043492
 30
0.0
 10
29.20736205982052
 20
25.45544427535255
 30
0.0
 10
29.20721340965624
 20
25.45374403093021
 30
0.0
  0
LINE
  5
1029
330
1F
100
AcDbEntity
  8
0
100
AcDbLine
 10
29.52939086044414
 20
24.8563913458762
 30
0.0
 11
29.45786847638061
 21
25.20138010755033
 31
0.0
  0
LINE
  5
102A
330
1F
100
AcDbEntity
  8
0
100
AcDbLine
 10
29.15425099676271
 20
25.20138010755033
 30
0.0
 11
29.08272861269919
 21
24.8563913458762
 31
0.0
  0
LINE
  5
102B
330
1F
100
AcDbEntity
  8
0
100
AcDbLine
 10
29.45699131220271
 20
25.21226799510625
 30
0.0
 11
29.45547130997862
 21
25.22030915575409
 31
0.0
  0
LINE
  5
102C
330
1F
100
AcDbEntity
  8
0
100
AcDbLine
 10
29.15664816316472
 20
25.22030915575409
 30
0.0
 11
29.15512816094063
 21
25.21226799510625
 31
0.0
  0
LINE
  5
102D
330
1F
100
AcDbEntity
  8
0
100
AcDbLine
 10
29.87105973657167
 20
24.09754997418871
 30
0.0
 11
29.87105973657167
 21
24.4649933395373
 31
0.0
  0
LINE
  5
102E
330
1F
100
AcDbEntity
  8
0
100
AcDbLine
 10
28.74105973657167
 20
24.4649933395373
 30
0.0
 11
28.74105973657167
 21
24.09754997418871
 31
0.0
  0
LINE
  5
102F
330
1F
100
AcDbEntity
  8
0
100
AcDbLine
 10
29.58469238537432
 20
24.58964402118671
 30
0.0
 11
29.53554053982065
 21
24.82672832078862
 31
0.0
  0
LINE
  5
1030
330
1F
100
AcDbEntity
  8
0
100
AcDbLine
 10
29.07657893332268
 20
24.82672832078863
 30
0.0
 11
29.027427087769
 21
24.58964402118671
 31
0.0
  0
LINE
  5
1031
330
1F
100
AcDbEntity
  8
0
100
AcDbLine
 10
29.5342898768664
 20
24.84509824969414
 30
0.0
 11
29.53237693468006
 21
24.85521815293288
 31
0.0
  0
LINE
  5
1032
330
1F
100
AcDbEntity
  8
0
100
AcDbLine
 10
29.07974253846327
 20
24.85521815293288
 30
0.0
 11
29.07782959627694
 21
24.84509824969414
 31
0.0
  0
LWPOLYLINE
  5
1033
330
1F
100
AcDbEntity
  8
0
100
AcDbPolyline
 90
       19
 70
   128
 43
0.0
 10
30.02730865338194
 20
20.98598820039056
 10
30.08587652706249
 20
21.02279865615768
 10
30.1388258028981
 20
21.06234383371583
 10
30.18577498014304
 20
21.10433880915454
 10
30.22638578889941
 20
21.14848100771347
 10
30.26036562735955
 20
21.19445238384047
 10
30.28746967000869
 20
21.24192171271711
 10
30.30750263159845
 20
21.2905469767411
 10
30.32032017418154
 20
21.33997782977088
 10
30.32582994706992
 20
21.38985812137768
 10
30.32399225222369
 20
21.43982846291746
 10
30.31482033027631
 20
21.48952881693436
 10
30.29838026513559
 20
21.5386010912388
 10
30.2747905078476
 20
21.58669171896994
 10
30.24422102315415
 20
21.63345420605298
 10
30.20689206489296
 20
21.67855162769692
 10
30.16307258906369
 20
21.72165905594543
 10
30.1130783159938
 20
21.76246590079014
 10
30.06334114097735
 20
21.79682800748781
  0
LWPOLYLINE
  5
1034
330
1F
100
AcDbEntity
  8
0
100
AcDbPolyline
 90
       38
 70
   128
 43
0.0
 10
28.55959813013134
 20
21.80364192375445
 10
28.52624294608082
 20
21.78191401868261
 10
28.47329367024521
 20
21.74236884112445
 10
28.42634449300027
 20
21.70037386568574
 10
28.3857336842439
 20
21.65623166712682
 10
28.35175384578376
 20
21.61026029099982
 10
28.32464980313463
 20
21.56279096212317
 10
28.30461684154486
 20
21.51416569809919
 10
28.29179929896178
 20
21.4647348450694
 10
28.28628952607339
 20
21.41485455346261
 10
28.28812722091963
 20
21.36488421192282
 10
28.297299142867
 20
21.31518385790593
 10
28.31373920800772
 20
21.26611158360148
 10
28.33732896529572
 20
21.21802095587034
 10
28.36789844998916
 20
21.1712584687873
 10
28.40522740825035
 20
21.12616104714335
 10
28.44904688407963
 20
21.08305361889486
 10
28.49904115714951
 20
21.04224677405014
 10
28.55485001757692
 20
21.00403452686139
 10
28.61607136124361
 20
20.96869219744524
 10
28.68226408696559
 20
20.93647442809501
 10
28.75295127463722
 20
20.90761334857711
 10
28.82762362145155
 20
20.88231690363084
 10
28.90574311143866
 20
20.8607673547217
 10
28.98674689188308
 20
20.84311996684339
 10
29.07005132869052
 20
20.82950188982995
 10
29.15505621148486
 20
20.82001124223833
 10
29.24114907813769
 20
20.8147164044019
 10
29.32770962757196
 20
20.81365552574861
 10
29.41411418904547
 20
20.81683624993345
 10
29.49974021571284
 20
20.82423565976581
 10
29.58397077008983
 20
20.83580044232826
 10
29.66619896910199
 20
20.85144727309745
 10
29.74583235669121
 20
20.87106341629914
 10
29.82229717247509
 20
20.89450753717205
 10
29.89504248570375
 20
20.92161072028808
 10
29.9635441647284
 20
20.9521776865918
 10
30.02730865338194
 20
20.98598820039056
  0
LWPOLYLINE
  5
1035
330
1F
100
AcDbEntity
  8
0
100
AcDbPolyline
 90
        9
 70
   128
 43
0.0
 10
29.83638982246157
 20
21.09620329548663
 10
29.88655831777133
 20
21.12820763783864
 10
29.93095755738099
 20
21.16293659313366
 10
29.96914628170011
 20
21.20004500941131
 10
30.00074495402939
 20
21.23916408655897
 10
30.0254395325669
 20
21.27990504161293
 10
30.04298459149663
 20
21.32186297265822
 10
30.05320576014047
 20
21.36462088292571
 10
30.05605973657166
 20
21.40235633742014
  0
LWPOLYLINE
  5
1036
330
1F
100
AcDbEntity
  8
0
100
AcDbPolyline
 90
       24
 70
   128
 43
0.0
 10
28.55954294175638
 20
21.36067682402116
 10
28.56588775242911
 20
21.33249394807292
 10
28.58161536685486
 20
21.29029654662659
 10
28.60454283489738
 20
21.24921284572618
 10
28.63444229307868
 20
21.20965115364888
 10
28.67101658715045
 20
21.1720046522644
 10
28.71390222534648
 20
21.13664748941691
 10
28.76267299092721
 20
21.10393106047568
 10
28.81684417811307
 20
21.07418051601001
 10
28.87587740930838
 20
21.0476915302968
 10
28.9391859857397
 20
21.02472736277675
 10
29.00614071833186
 20
21.00551624166378
 10
29.07607618087166
 20
20.99024909571047
 10
29.14829732331254
 20
20.97907765667236
 10
29.22208637949418
 20
20.97211295132959
 10
29.29671000062511
 20
20.96942419805289
 10
29.3714265436324
 20
20.97103811888029
 10
29.44549344194385
 20
20.97693867394154
 10
29.51817458544804
 20
20.98706722086949
 10
29.58874763628742
 20
21.00132309761432
 10
29.65651120777646
 20
21.01956462286823
 10
29.72079183509762
 20
21.04161050415788
 10
29.78095066849727
 20
21.06724163961049
 10
29.83638982246157
 20
21.09620329548663
  0
LINE
  5
1037
330
1F
100
AcDbEntity
  8
0
100
AcDbLine
 10
28.28605973657164
 20
17.07469003442566
 30
0.0
 11
28.28621587787521
 21
17.06438736710452
 31
0.0
  0
LINE
  5
1038
330
1F
100
AcDbEntity
  8
0
100
AcDbLine
 10
30.32603303913646
 20
17.07042974282716
 30
0.0
 11
30.32605973657164
 21
17.07469003442566
 31
0.0
  0
LWPOLYLINE
  5
1039
330
1F
100
AcDbEntity
  8
0
100
AcDbPolyline
 90
        8
 70
   128
 43
0.0
 10
29.84603578854174
 20
21.12115245089126
 10
29.84638982246157
 20
21.12134290967983
 10
29.84945545211033
 20
21.12487125744662
 10
29.8505319580853
 20
21.13049933658646
 10
29.84945545211033
 20
21.13737032306897
 10
29.84638982246157
 20
21.14443817148783
 10
29.84180178346303
 20
21.15062686599149
 10
29.83638982246157
 20
21.1549942339424
  0
LWPOLYLINE
  5
103A
330
1F
100
AcDbEntity
  8
0
100
AcDbPolyline
 90
        9
 70
   128
 43
0.0
 10
29.83638982246157
 20
21.43915043647864
 10
29.84180178346303
 20
21.43478306852772
 10
29.84638982246157
 20
21.42859437402407
 10
29.84945545211033
 20
21.42152652560521
 10
29.8505319580853
 20
21.4146555391227
 10
29.84945545211033
 20
21.40902745998286
 10
29.84638982246157
 20
21.40549911221607
 10
29.84180178346303
 20
21.40460765478527
 10
29.83638982246157
 20
21.40648880400322
  0
SPLINE
  5
103B
330
1F
100
AcDbEntity
  8
0
100
AcDbSpline
210
0.0
220
0.0
230
1.0
 70
     8
 71
     3
 72
    22
 73
    18
 74
     0
 42
0.0000000001
 43
0.0000000001
 40
0.0
 40
0.0
 40
0.0
 40
0.0
 40
0.0684829592298445
 40
0.1378206192602624
 40
0.2071582792906803
 40
0.2756412385205256
 40
0.344124197750371
 40
0.4134618577807888
 40
0.4827995178112066
 40
0.5512824770410511
 40
0.6197654362708955
 40
0.6891030963013142
 40
0.7584407563317319
 40
0.8269237155615764
 40
0.8954066747914207
 40
0.9647443348218386
 40
1.0
 40
1.0
 40
1.0
 40
1.0
 10
29.83638982246157
 20
21.1549942339424
 30
0.0
 10
29.80754715173069
 20
21.14055334734824
 30
0.0
 10
29.74950183964205
 20
21.11149134483758
 30
0.0
 10
29.64781525655011
 20
21.07858950686351
 30
0.0
 10
29.53858393077596
 20
21.05476044035391
 30
0.0
 10
29.42385192517711
 20
21.04125001183598
 30
0.0
 10
29.3063102403287
 20
21.03818614664022
 30
0.0
 10
29.18824349241776
 20
21.04593606454898
 30
0.0
 10
29.07310702688865
 20
21.06434459472793
 30
0.0
 10
28.96418032131998
 20
21.09274573327837
 30
0.0
 10
28.86360746783823
 20
21.13060576583319
 30
0.0
 10
28.77350536724772
 20
21.17739606115255
 30
0.0
 10
28.69669413135169
 20
21.2318219911134
 30
0.0
 10
28.6349272606536
 20
21.29219392832434
 30
0.0
 10
28.59049771389501
 20
21.35742569020407
 30
0.0
 10
28.56498241516052
 20
21.41487721680853
 30
0.0
 10
28.56170378203093
 20
21.45045538535612
 30
0.0
 10
28.5605986408412
 20
21.46244785232726
 30
0.0
  0
SPLINE
  5
103C
330
1F
100
AcDbEntity
  8
0
100
AcDbSpline
210
0.0
220
0.0
230
1.0
 70
     8
 71
     3
 72
    27
 73
    23
 74
     0
 42
0.0000000001
 43
0.0000000001
 40
0.0
 40
0.0
 40
0.0
 40
0.0
 40
0.0273430298752363
 40
0.0795602408106026
 40
0.1324291480583374
 40
0.1852980553060721
 40
0.2375152662414392
 40
0.2897324771768055
 40
0.3426013844245404
 40
0.3954702916722752
 40
0.4476875026076423
 40
0.4999047135430085
 40
0.5527736207907433
 40
0.6056425280384779
 40
0.6578597389738449
 40
0.7100769499092105
 40
0.7629458571569466
 40
0.8158147644046813
 40
0.8680319753400477
 40
0.920249186275414
 40
0.9731180935231487
 40
1.0
 40
1.0
 40
1.0
 40
1.0
 10
30.05166096505281
 20
21.51269210021108
 30
0.0
 10
30.05051956418571
 20
21.50131578256411
 30
0.0
 10
30.04719842061593
 20
21.46821401675174
 30
0.0
 10
30.02178912298357
 20
21.41452798321679
 30
0.0
 10
29.97725877108044
 20
21.35374102067578
 30
0.0
 10
29.91513615375002
 20
21.29789387721338
 30
0.0
 10
29.83855903309044
 20
21.24846658578213
 30
0.0
 10
29.74891250304006
 20
21.20654869930645
 30
0.0
 10
29.64797406116314
 20
21.17321699528567
 30
0.0
 10
29.5385419639824
 20
21.14950328776058
 30
0.0
 10
29.42386310654668
 20
21.13596232143734
 30
0.0
 10
29.30630720254609
 20
21.13290662626432
 30
0.0
 10
29.18824431098883
 20
21.14065432839418
 30
0.0
 10
29.07310681056746
 20
21.15906345320024
 30
0.0
 10
28.96418037895525
 20
21.18746443434112
 30
0.0
 10
28.86360745217973
 20
21.22532450900898
 30
0.0
 10
28.77350537146714
 20
21.27211479290691
 30
0.0
 10
28.69669413023653
 20
21.32654072593289
 30
0.0
 10
28.63492726095108
 20
21.38691266233216
 30
0.0
 10
28.5904977138128
 20
21.45214442443005
 30
0.0
 10
28.56498241516989
 20
21.50959595098189
 30
0.0
 10
28.56170378203329
 20
21.54517411953351
 30
0.0
 10
28.5605986408412
 20
21.55716658650601
 30
0.0
  0
SPLINE
  5
103D
330
1F
100
AcDbEntity
  8
0
100
AcDbSpline
210
0.0
220
0.0
230
1.0
 70
     8
 71
     3
 72
    27
 73
    23
 74
     0
 42
0.0000000001
 43
0.0000000001
 40
0.0
 40
0.0
 40
0.0
 40
0.0
 40
0.0266589206817055
 40
0.0775696826161965
 40
0.1291158357410295
 40
0.1806619888658627
 40
0.231572750800353
 40
0.2824835127348439
 40
0.3340296658596771
 40
0.3855758189845103
 40
0.4364865809190006
 40
0.4873973428534914
 40
0.5389434959783241
 40
0.5904896491031569
 40
0.6414004110376479
 40
0.6923111729721382
 40
0.7438573260969717
 40
0.7954034792218047
 40
0.8463142411562953
 40
0.8972250030907861
 40
0.948771156215619
 40
1.0
 40
1.0
 40
1.0
 40
1.0
 10
30.05166096505281
 20
21.60741083438983
 30
0.0
 10
30.05051956418571
 20
21.59603451674286
 30
0.0
 10
30.04719842061597
 20
21.56293275093049
 30
0.0
 10
30.02178912298331
 20
21.50924671739552
 30
0.0
 10
29.97725877108143
 20
21.4484597548546
 30
0.0
 10
29.91513615374637
 20
21.39261261139187
 30
0.0
 10
29.83855903310386
 20
21.34318531996183
 30
0.0
 10
29.74891250298964
 20
21.30126743348163
 30
0.0
 10
29.64797406135392
 20
21.26793572947792
 30
0.0
 10
29.53854196327439
 20
21.24422202188923
 30
0.0
 10
29.42386310915268
 20
21.23068105580049
 30
0.0
 10
29.30630719276506
 20
21.22762535975093
 30
0.0
 10
29.18824434800076
 20
21.23537306519198
 30
0.0
 10
29.07310667321323
 20
21.25378217765949
 30
0.0
 10
28.96418088452413
 20
21.28218320429505
 30
0.0
 10
28.86360555463891
 20
21.32004310891348
 30
0.0
 10
28.77351255186406
 20
21.36683403518664
 30
0.0
 10
28.69666748321009
 20
21.42125757450832
 30
0.0
 10
28.63502534244268
 20
21.48163833697708
 30
0.0
 10
28.59012958666294
 20
21.5468371091066
 30
0.0
 10
28.5614102788544
 20
21.61558460995301
 30
0.0
 10
28.55787774560583
 20
21.66266750912788
 30
0.0
 10
28.55611693218432
 20
21.68613627642812
 30
0.0
  0
SPLINE
  5
103E
330
1F
100
AcDbEntity
  8
0
100
AcDbSpline
210
0.0
220
0.0
230
1.0
 70
     8
 71
     3
 72
    13
 73
     9
 74
     0
 42
0.0000000001
 43
0.0000000001
 40
0.0
 40
0.0
 40
0.0
 40
0.0
 40
0.0012388029397993
 40
0.1999987936227009
 40
0.3987587843056026
 40
0.5999993968113504
 40
0.8012400093170983
 40
1.0
 40
1.0
 40
1.0
 40
1.0
 10
30.056002540959
 20
21.7334904787099
 30
0.0
 10
30.05602159519747
 20
21.73335558501273
 30
0.0
 10
30.05909781061824
 20
21.71157764452376
 30
0.0
 10
30.04841701647174
 20
21.66778529855198
 30
0.0
 10
30.02279329349109
 20
21.6039295145564
 30
0.0
 10
29.9768419295923
 20
21.54327290560886
 30
0.0
 10
29.91578907267999
 20
21.48699194396587
 30
0.0
 10
29.86274659075121
 20
21.45503153767291
 30
0.0
 10
29.83638982246157
 20
21.43915043647864
 30
0.0
  0
LINE
  5
103F
330
1F
100
AcDbEntity
  8
0
100
AcDbLine
 10
29.83638982246157
 20
21.40648880400322
 30
0.0
 11
29.83638982246157
 21
21.43915043647864
 31
0.0
  0
LWPOLYLINE
  5
1040
330
1F
100
AcDbEntity
  8
0
100
AcDbPolyline
 90
       64
 70
   128
 43
0.0
 10
29.82364044710074
 20
21.44829402790686
 10
29.78095066849726
 20
21.42651959684021
 10
29.72079183509761
 20
21.40088846138761
 10
29.65651120777645
 20
21.37884258009796
 10
29.58874763628741
 20
21.36060105484405
 10
29.51817458544803
 20
21.34634517809922
 10
29.44549344194384
 20
21.33621663117127
 10
29.3714265436324
 20
21.33031607611003
 10
29.29671000062509
 20
21.32870215528262
 10
29.22208637949418
 20
21.33139090855932
 10
29.14829732331254
 20
21.33835561390209
 10
29.07607618087165
 20
21.3495270529402
 10
29.00614071833185
 20
21.36479419889352
 10
28.93918598573969
 20
21.38400532000649
 10
28.87587740930837
 20
21.40696948752653
 10
28.81684417811306
 20
21.43345847323975
 10
28.7626729909272
 20
21.46320901770542
 10
28.71390222534648
 20
21.49592544664665
 10
28.67101658715044
 20
21.53128260949413
 10
28.63444229307868
 20
21.56892911087862
 10
28.60454283489738
 20
21.60849080295592
 10
28.58161536685485
 20
21.64957450385633
 10
28.56588775242911
 20
21.69177190530266
 10
28.55751629971826
 20
21.73466363056134
 10
28.55658420798036
 20
21.77782340239682
 10
28.56310074076187
 20
21.82082227960625
 10
28.57700113383233
 20
21.86323292002984
 10
28.59814723884039
 20
21.90463382766927
 10
28.62632889629417
 20
21.94461354170427
 10
28.66126602422077
 20
21.9827747257751
 10
28.70261140174666
 20
22.01873811688983
 10
28.74995411993479
 20
22.05214629471031
 10
28.80282366558218
 20
22.0826672337561
 10
28.86069459739154
 20
22.10999760322283
 10
28.9229917680429
 20
22.13386578162007
 10
28.98909604026614
 20
22.15403455626765
 10
29.05835044010529
 20
22.17030348082193
 10
29.13006668622088
 20
22.18251086740155
 10
29.20353203033911
 20
22.19053539351428
 10
29.27801634086442
 20
22.19429730781445
 10
29.3527793592553
 20
22.19375922270762
 10
29.42707805704627
 20
22.18892648592534
 10
29.50017402039856
 20
22.17984712737694
 10
29.57134078878861
 20
22.16661138180676
 10
29.63987107489911
 20
22.14935079200067
 10
29.70508379395817
 20
22.12823690145484
 10
29.7663308326657
 20
22.10347954949932
 10
29.82300349043463
 20
22.07532478582056
 10
29.87453852893075
 20
22.04405242510908
 10
29.92042376978841
 20
22.00997326613533
 10
29.96020318486912
 20
21.97342600289189
 10
29.99348142847415
 20
21.93477385850047
 10
30.01992776646766
 20
21.89440097533722
 10
30.03927936326114
 20
21.85270859725332
 10
30.05134389399159
 20
21.81011108183326
 10
30.05600145593239
 20
21.76703178232306
 10
30.05320576014047
 20
21.72389884015544
 10
30.04298459149663
 20
21.68114092988794
 10
30.0254395325669
 20
21.63918299884266
 10
30.00074495402938
 20
21.59844204378869
 10
29.96914628170011
 20
21.55932296664104
 10
29.93095755738099
 20
21.52221455036338
 10
29.88655831777132
 20
21.48748559506837
 10
29.84613942479417
 20
21.4612150059648
  0
ARC
  5
1041
330
1F
100
AcDbEntity
  8
0
100
AcDbCircle
 10
29.3077182188513
 20
21.07349623801696
 30
0.0
 40
1.126759405547133
100
AcDbArc
 50
62.85044533472758
 51
119.0323827268332
  0
LWPOLYLINE
  5
1042
330
1F
100
AcDbEntity
  8
0
100
AcDbPolyline
 90
       20
 70
   128
 43
0.0
 10
28.65649556290936
 20
21.56515435642467
 10
28.67948382914273
 20
21.54251937341506
 10
28.72179765882949
 20
21.50763363940555
 10
28.7699181475358
 20
21.47535342951686
 10
28.82336705222585
 20
21.4459995589774
 10
28.88161317367189
 20
21.41986375974037
 10
28.94407763575079
 20
21.3972057811206
 10
29.01013963857506
 20
21.37825080828912
 10
29.079142628281
 20
21.36318722428185
 10
29.150400822156
 20
21.35216473776425
 10
29.22320602425521
 20
21.34529289515938
 10
29.29683466377106
 20
21.34263999192637
 10
29.37055498620493
 20
21.34423239380941
 10
29.44363432587222
 20
21.35005427480318
 10
29.51534638746302
 20
21.36004777443876
 10
29.58497846429121
 20
21.37411357282699
 10
29.65183852149373
 20
21.39211187774418
 10
29.71526207378394
 20
21.41386381394997
 10
29.77461878940493
 20
21.43915320092987
 10
29.82271565104298
 20
21.4639643180156
  0
LWPOLYLINE
  5
1043
330
1F
100
AcDbEntity
  8
0
100
AcDbPolyline
 90
       15
 70
   128
 43
0.0
 10
29.90243671646357
 20
21.51860062586998
 10
29.91558915964731
 20
21.52972992218346
 10
29.95310256043419
 20
21.5665182350834
 10
29.98397642625941
 20
21.60530870278871
 10
30.00789394948057
 20
21.64570328260884
 10
30.02460970394386
 20
21.68728747149224
 10
30.03395216338844
 20
21.72963455938856
 10
30.03582546153805
 20
21.77231000787122
 10
30.0302103758187
 20
21.81487590908968
 10
30.01716452460829
 20
21.85689547929658
 10
29.9968217759941
 20
21.89793754084002
 10
29.96939087410505
 20
21.93758094662978
 10
29.93515329711445
 20
21.97541890167638
 10
29.89446036889308
 20
22.01106313735808
 10
29.8894942486505
 20
22.01492099381366
  0
LWPOLYLINE
  5
1044
330
1F
100
AcDbEntity
  8
0
100
AcDbPolyline
 90
       16
 70
   128
 43
0.0
 10
28.75928753482151
 20
22.04085312539786
 10
28.74029831098873
 20
22.02794732733797
 10
28.696530313496
 20
21.99353866711629
 10
28.65901691270912
 20
21.95675035421635
 10
28.6281430468839
 20
21.91795988651104
 10
28.60422552366274
 20
21.87756530669091
 10
28.58750976919946
 20
21.83598111780751
 10
28.57816730975488
 20
21.79363402991119
 10
28.57629401160526
 20
21.75095858142853
 10
28.58190909732462
 20
21.70839268021006
 10
28.59495494853502
 20
21.66637311000317
 10
28.61529769714922
 20
21.62533104845973
 10
28.64272859903827
 20
21.58568764266997
 10
28.67696617602887
 20
21.54784968762337
 10
28.71765910425024
 20
21.51220545194167
 10
28.74265620530951
 20
21.49366055909328
  0
ARC
  5
1045
330
1F
100
AcDbEntity
  8
0
100
AcDbCircle
 10
29.04092075341677
 20
21.23049669329155
 30
0.0
 40
0.5183666352694597
100
AcDbArc
 50
118.9671265482287
 51
138.5216774813988
  0
LWPOLYLINE
  5
1046
330
1F
100
AcDbEntity
  8
0
100
AcDbPolyline
 90
       20
 70
   128
 43
0.0
 10
29.95956230233453
 20
21.57382990791615
 10
29.93515329711445
 20
21.59981012820893
 10
29.89446036889308
 20
21.63545436389064
 10
29.84772965395082
 20
21.668539122115
 10
29.79544067265974
 20
21.69872490849181
 10
29.73812998072617
 20
21.72570197600495
 10
29.67638566340313
 20
21.74919350343593
 10
29.61084130093975
 20
21.76895843592418
 10
29.54216946719059
 20
21.78479395851615
 10
29.47107482809777
 20
21.79653757732117
 10
29.39828691086481
 20
21.80406878691864
 10
29.32455261802028
 20
21.80731030690672
 10
29.25062856318722
 20
21.80622887490388
 10
29.17727330720345
 20
21.80083558786586
 10
29.10523957426088
 20
21.79118578821597
 10
29.03526652793672
 20
21.77737849595688
 10
28.96807218637491
 20
21.7595553925914
 10
28.90434605444835
 20
21.73789936727859
 10
28.84474204850585
 20
21.71263264014345
 10
28.78987178630548
 20
21.68401448199772
  0
LWPOLYLINE
  5
1047
330
1F
100
AcDbEntity
  8
0
100
AcDbPolyline
 90
       18
 70
   128
 43
0.0
 10
29.45377956526699
 20
25.22110300130109
 10
29.45389829957154
 20
25.22051300184379
 10
29.45389829957154
 20
25.20128077079556
 10
29.44648505670265
 20
25.1825307319331
 10
29.43203030191732
 20
25.16520309049833
 10
29.41125885697828
 20
25.15016672678672
 10
29.38521228886879
 20
25.13817562686116
 10
29.35519668127485
 20
25.12983107454238
 10
29.32271714209547
 20
25.12555150052746
 10
29.28940233104786
 20
25.12555150052746
 10
29.25692279186849
 20
25.12983107454238
 10
29.22690718427454
 20
25.13817562686116
 10
29.20086061616505
 20
25.15016672678672
 10
29.18008917122602
 20
25.16520309049834
 10
29.16563441644068
 20
25.1825307319331
 10
29.15822117357179
 20
25.20128077079556
 10
29.15822117357179
 20
25.22051300184379
 10
29.15833990787634
 20
25.22110300130109
  0
LWPOLYLINE
  5
1048
330
1F
100
AcDbEntity
  8
0
100
AcDbPolyline
 90
       21
 70
   128
 43
0.0
 10
29.24925357799384
 20
25.49396662735568
 10
29.23447980090482
 20
25.4822278513779
 10
29.22671276664561
 20
25.4684280925785
 10
29.22671276664561
 20
25.45391816749733
 10
29.23447980090482
 20
25.44011840869793
 10
29.24925357799384
 20
25.42837963272015
 10
29.26958793767624
 20
25.41985091274557
 10
29.29349241114848
 20
25.41536709930838
 10
29.31862706199486
 20
25.41536709930838
 10
29.3425315354671
 20
25.41985091274557
 10
29.3628658951495
 20
25.42837963272015
 10
29.37763967223851
 20
25.44011840869793
 10
29.38540670649773
 20
25.45391816749733
 10
29.38540670649773
 20
25.4684280925785
 10
29.37763967223851
 20
25.4822278513779
 10
29.3628658951495
 20
25.49396662735568
 10
29.3425315354671
 20
25.50249534733026
 10
29.31862706199485
 20
25.50697916076745
 10
29.29349241114848
 20
25.50697916076745
 10
29.26958793767623
 20
25.50249534733026
 10
29.24925357799384
 20
25.49396662735568
  0
LWPOLYLINE
  5
1049
330
1F
100
AcDbEntity
  8
0
100
AcDbPolyline
 90
       20
 70
   128
 43
0.0
 10
29.52939086044414
 20
24.8563913458762
 10
29.53074464972321
 20
24.83496441337177
 10
29.52501020694303
 20
24.81123276657037
 10
29.51181966849649
 20
24.78851348484822
 10
29.49162222235009
 20
24.76758024609559
 10
29.46510566830818
 20
24.74914590665155
 10
29.43317299581554
 20
24.7338382258363
 10
29.39691163373491
 20
24.72217848836047
 10
29.35755641926123
 20
24.7145637525995
 10
29.31644754702201
 20
24.71125332924684
 10
29.27498493035673
 20
24.71235995079936
 10
29.23458052894696
 20
24.71784593258733
 10
29.19661026622299
 20
24.72752445608068
 10
29.16236717394157
 20
24.74106593076994
 10
29.13301735954029
 20
24.7580092179758
 10
29.10956029574736
 20
24.77777733437367
 10
29.0927947847366
 20
24.79969710046888
 10
29.08329175587746
 20
24.82302206491691
 10
29.08137482342012
 20
24.84695792402869
 10
29.08272861269919
 20
24.8563913458762
  0
ARC
  5
104A
330
1F
100
AcDbEntity
  8
0
100
AcDbCircle
 10
29.23522564570075
 20
24.11339356906479
 30
0.0
 40
0.6686022923615446
100
AcDbArc
 50
104.9621203472611
 51
119.4454404518337
  0
LWPOLYLINE
  5
104B
330
1F
100
AcDbEntity
  8
0
100
AcDbPolyline
 90
       47
 70
   128
 43
0.0
 10
29.54951382884349
 20
24.75932805526866
 10
29.56256436892451
 20
24.75561076109543
 10
29.61827780964787
 20
24.73683693697885
 10
29.66992101031267
 20
24.71451921583842
 10
29.71682072282016
 20
24.68894854329977
 10
29.75836553769393
 20
24.66045827218473
 10
29.7940138547375
 20
24.62941981674753
 10
29.82330094362113
 20
24.59623781072202
 10
29.8458450023524
 20
24.56134483230206
 10
29.86135213464903
 20
24.5251957648233
 10
29.86962018132646
 20
24.48826186666318
 10
29.87054135575189
 20
24.45102462766737
 10
29.86410364900792
 20
24.41396949219316
 10
29.85039098644717
 20
24.3775795306
 10
29.82958213359694
 20
24.34232914168853
 10
29.80194836567716
 20
24.30867786818674
 10
29.76784993111308
 20
24.2770644059077
 10
29.72773135514606
 20
24.24790088467879
 10
29.6821156447673
 20
24.22156749559908
 10
29.63159747052181
 20
24.19840753466694
 10
29.57683541406849
 20
24.17872292739175
 10
29.51854338256097
 20
24.16277029273304
 10
29.45748130177612
 20
24.15075759768
 10
29.39444520931939
 20
24.14284144608371
 10
29.33025687705724
 20
24.13912503708641
 10
29.26575309806409
 20
24.1396568197629
 10
29.20177477774496
 20
24.14442986151272
 10
29.13915597134742
 20
24.15338193843726
 10
29.07871301077598
 20
24.16639634652335
 10
29.02123386245731
 20
24.18330342305863
 10
28.96746785499275
 20
24.20388275844441
 10
28.91811591051411
 20
24.22786606957191
 10
28.87382140709176
 20
24.25494069730283
 10
28.83516179131751
 20
24.28475368245939
 10
28.80264105040523
 20
24.31691636718699
 10
28.77668314194679
 20
24.35100946170372
 10
28.75762646697646
 20
24.38658851038388
 10
28.74571945839588
 20
24.42318968591679
 10
28.74111734227133
 20
24.4603358360051
 10
28.74388011422454
 20
24.49754270377468
 10
28.75397175729796
 20
24.53432524080359
 10
28.77126071149096
 20
24.57020393047001
 10
28.7955215888456
 20
24.60471103918477
 10
28.82643811172331
 20
24.63739671401393
 10
28.86360723596766
 20
24.66783484719982
 10
28.90654440520127
 20
24.69562863112721
 10
28.90654440520127
 20
24.69562863112721
  0
ARC
  5
104C
330
1F
100
AcDbEntity
  8
0
100
AcDbCircle
 10
29.38576591483517
 20
25.20666093748696
 30
0.0
 40
0.0714457579238138
100
AcDbArc
 50
292.770227134849
 51
4.501197036911639
  0
LWPOLYLINE
  5
104D
330
1F
100
AcDbEntity
  8
0
100
AcDbPolyline
 90
       12
 70
   128
 43
0.0
 10
29.15512816094063
 20
25.21226799510625
 10
29.15518684024796
 20
25.19294648940685
 10
29.16275223725999
 20
25.17381161274166
 10
29.1775036706875
 20
25.1561283276997
 10
29.19870144206182
 20
25.14078334803192
 10
29.22528260661208
 20
25.12854613509392
 10
29.25591427375442
 20
25.12003031384057
 10
29.28906044379163
 20
25.11566290310848
 10
29.32305902935171
 20
25.11566290310848
 10
29.35620519938892
 20
25.12003031384057
 10
29.38683686653126
 20
25.12854613509392
 10
29.41341803108151
 20
25.14078334803192
  0
ARC
  5
104E
330
1F
100
AcDbEntity
  8
0
100
AcDbCircle
 10
29.38991476646254
 20
25.21088476308728
 30
0.0
 40
0.0653099364995373
100
AcDbArc
 50
290.0791573323795
 51
20.11229473761722
  0
LWPOLYLINE
  5
104F
330
1F
100
AcDbEntity
  8
0
100
AcDbPolyline
 90
       13
 70
   128
 43
0.0
 10
29.16087733832121
 20
25.23334231628573
 10
29.15670625152428
 20
25.22061153949948
 10
29.15670625152428
 20
25.20118223313986
 10
29.1641954589104
 20
25.18224006005553
 10
29.17879833355208
 20
25.16473485990058
 10
29.19978262633852
 20
25.14954441650611
 10
29.22609609720661
 20
25.1374304421337
 10
29.25641927885154
 20
25.12900038204193
 10
29.28923164032705
 20
25.12467695464466
 10
29.32288783281629
 20
25.12467695464466
 10
29.3557001942918
 20
25.12900038204193
 10
29.38602337593673
 20
25.1374304421337
 10
29.41233684680481
 20
25.14954441650611
  0
LWPOLYLINE
  5
1050
330
1F
100
AcDbEntity
  8
0
100
AcDbPolyline
 90
       30
 70
   128
 43
0.0
 10
29.87105973657167
 20
24.09754997418871
 10
29.87054135575188
 20
24.08358126231878
 10
29.86410364900791
 20
24.04652612684457
 10
29.85039098644717
 20
24.01013616525141
 10
29.82958213359694
 20
23.97488577633994
 10
29.80194836567716
 20
23.94123450283815
 10
29.76784993111308
 20
23.90962104055911
 10
29.72773135514606
 20
23.8804575193302
 10
29.6821156447673
 20
23.85412413025049
 10
29.63159747052181
 20
23.83096416931836
 10
29.57683541406849
 20
23.81127956204316
 10
29.51854338256097
 20
23.79532692738445
 10
29.45748130177612
 20
23.78331423233142
 10
29.39444520931939
 20
23.77539808073512
 10
29.33025687705723
 20
23.77168167173782
 10
29.26575309806409
 20
23.77221345441431
 10
29.20177477774495
 20
23.77698649616414
 10
29.13915597134741
 20
23.78593857308867
 10
29.07871301077598
 20
23.79895298117476
 10
29.02123386245731
 20
23.81586005771004
 10
28.96746785499275
 20
23.83643939309582
 10
28.91811591051411
 20
23.86042270422332
 10
28.87382140709176
 20
23.88749733195424
 10
28.83516179131751
 20
23.9173103171108
 10
28.80264105040523
 20
23.9494730018384
 10
28.77668314194679
 20
23.98356609635513
 10
28.75762646697646
 20
24.01914514503529
 10
28.74571945839587
 20
24.05574632056821
 10
28.74111734227133
 20
24.09289247065651
 10
28.74105973657167
 20
24.09754997418871
  0
LINE
  5
1051
330
1F
100
AcDbEntity
  8
0
100
AcDbLine
 10
29.02620572973459
 20
24.58236297476387
 30
0.0
 11
29.027427087769
 21
24.58964402118671
 31
0.0
  0
ARC
  5
1052
330
1F
100
AcDbEntity
  8
0
100
AcDbCircle
 10
29.42744716935043
 20
24.83609519143286
 30
0.0
 40
0.1072213561162127
100
AcDbArc
 50
292.4547967810844
 51
4.81662739068264
  0
LWPOLYLINE
  5
1053
330
1F
100
AcDbEntity
  8
0
100
AcDbPolyline
 90
       15
 70
   128
 43
0.0
 10
29.07782959627694
 20
24.84509824969414
 10
29.07653254702975
 20
24.82774689392777
 10
29.08114096902179
 20
24.80413532055032
 10
29.09297846526665
 20
24.78137822502476
 10
29.11166456889511
 20
24.76020703912586
 10
29.13659869316157
 20
24.74130222218813
 10
29.16697943479624
 20
24.72527139058288
 10
29.20183033176563
 20
24.71262978842812
 10
29.24003124756572
 20
24.70378372721866
 10
29.28035437333089
 20
24.69901752664031
 10
29.32150369062106
 20
24.69848437630131
 10
29.36215662652075
 20
24.70220141209224
 10
29.4010065622208
 20
24.71004916542439
 10
29.43680482882199
 20
24.72177540304851
 10
29.46840084058083
 20
24.73700323403898
  0
ARC
  5
1054
330
1F
100
AcDbEntity
  8
0
100
AcDbCircle
 10
29.43104274904481
 20
24.84174896627887
 30
0.0
 40
0.1003953047306263
100
AcDbArc
 50
291.0115833425721
 51
20.2885353030797
  0
LWPOLYLINE
  5
1055
330
1F
100
AcDbEntity
  8
0
100
AcDbPolyline
 90
       16
 70
   128
 43
0.0
 10
29.0869101110792
 20
24.87656083500816
 10
29.08120192451628
 20
24.86152068099087
 10
29.07845636061204
 20
24.83801222993185
 10
29.08302615648384
 20
24.81459856019124
 10
29.09476443513229
 20
24.79203220637933
 10
29.11329391862336
 20
24.77103846967531
 10
29.13801905411154
 20
24.75229210605053
 10
29.16814515539831
 20
24.73639563905646
 10
29.20270394480049
 20
24.72385999422195
 10
29.24058467439163
 20
24.71508807748634
 10
29.2805698263543
 20
24.71036182547106
 10
29.32137424500452
 20
24.70983314380467
 10
29.36168644275288
 20
24.71351902475092
 10
29.40021075239478
 20
24.72130100106344
 10
29.4357089709204
 20
24.73292895362053
 10
29.46704015637831
 20
24.74802915045948
  0
LWPOLYLINE
  5
1056
330
1F
100
AcDbEntity
  8
0
100
AcDbPolyline
 90
       39
 70
   128
 43
0.0
 10
28.28621587787521
 20
17.06438736710452
 10
28.28812722091961
 20
17.03721790892834
 10
28.297299142867
 20
16.98751755491145
 10
28.31373920800771
 20
16.938445280607
 10
28.3373289652957
 20
16.89035465287586
 10
28.36789844998915
 20
16.84359216579282
 10
28.40522740825035
 20
16.79849474414888
 10
28.44904688407961
 20
16.75538731590038
 10
28.4990411571495
 20
16.71458047105566
 10
28.5548500175769
 20
16.67636822386691
 10
28.6160713612436
 20
16.64102589445076
 10
28.68226408696557
 20
16.60880812510052
 10
28.75295127463721
 20
16.57994704558263
 10
28.82762362145154
 20
16.55465060063637
 10
28.90574311143864
 20
16.53310105172722
 10
28.98674689188306
 20
16.51545366384891
 10
29.0700513286905
 20
16.50183558683547
 10
29.15505621148484
 20
16.49234493924385
 10
29.24114907813767
 20
16.48705010140742
 10
29.32770962757194
 20
16.48598922275413
 10
29.41411418904545
 20
16.48916994693897
 10
29.49974021571282
 20
16.49656935677132
 10
29.58397077008981
 20
16.50813413933377
 10
29.66619896910197
 20
16.52378097010296
 10
29.74583235669119
 20
16.54339711330465
 10
29.82229717247508
 20
16.56684123417756
 10
29.89504248570373
 20
16.59394441729359
 10
29.96354416472837
 20
16.62451138359731
 10
30.02730865338193
 20
16.65832189739608
 10
30.08587652706248
 20
16.69513235316319
 10
30.13882580289809
 20
16.73467753072135
 10
30.18577498014303
 20
16.77667250616006
 10
30.22638578889941
 20
16.82081470471899
 10
30.26036562735953
 20
16.86678608084599
 10
30.28746967000867
 20
16.91425540972263
 10
30.30750263159844
 20
16.96288067374662
 10
30.32032017418153
 20
17.0123115267764
 10
30.32582994706991
 20
17.0621918183832
 10
30.32603303913646
 20
17.07042974282716
  0
LWPOLYLINE
  5
1057
330
1F
100
AcDbEntity
  8
0
100
AcDbPolyline
 90
        3
 70
   128
 43
0.0
 10
29.84613942479417
 20
21.4612150059648
 10
29.83638982246157
 20
21.45548125271636
 10
29.82364044710074
 20
21.44829402790686
  0
LWPOLYLINE
  5
1058
330
1F
100
AcDbEntity
  8
0
100
AcDbPolyline
 90
       17
 70
   128
 43
0.0
 10
29.8293187546497
 20
21.46772870139433
 10
29.87881833668867
 20
21.49930631918165
 10
29.92262558643687
 20
21.5335722217394
 10
29.96030512776507
 20
21.57018585913335
 10
29.99148248446328
 20
21.6087833485857
 10
30.01584780195363
 20
21.64898109090561
 10
30.03315892676429
 20
21.6903795828703
 10
30.04324381315955
 20
21.73256738766756
 10
30.04600223300758
 20
21.77512522393961
 10
30.04140677189266
 20
21.81763013278969
 10
30.02950310157194
 20
21.85965968133747
 10
30.01040952606904
 20
21.90079616104692
 10
29.98431580591544
 20
21.94063073910132
 10
29.95148127222515
 20
21.97876752156753
 10
29.91223224934551
 20
22.01482748796771
 10
29.86695881169929
 20
22.04845225815515
 10
29.82187507051416
 20
22.07610757341921
  0
LWPOLYLINE
  5
1059
330
1F
100
AcDbEntity
  8
0
100
AcDbPolyline
 90
       15
 70
   128
 43
0.0
 10
28.76089752452097
 20
22.0586733217136
 10
28.75736886148994
 20
22.05643820949502
 10
28.71065737954432
 20
22.02347547404548
 10
28.66986327371877
 20
21.98799159481229
 10
28.63539197416453
 20
21.95033922652906
 10
28.60758607214346
 20
21.91089257534787
 10
28.58672191520218
 20
21.87004367981029
 10
28.573006860706
 20
21.82819851459235
 10
28.56657721502824
 20
21.78577295574572
 10
28.5674968788763
 20
21.74318864753471
 10
28.57575671221768
 20
21.70086881194614
 10
28.59127462511775
 20
21.65923404251909
 10
28.61389639358637
 20
21.61869812429735
 10
28.64339719232526
 20
21.57966392144775
 10
28.65649556290936
 20
21.56515435642467
  0
LINE
  5
105A
330
1F
100
AcDbEntity
  8
0
100
AcDbLine
 10
29.82271565104298
 20
21.4639643180156
 30
0.0
 11
29.8293187546497
 21
21.46772870139433
 31
0.0
  0
LWPOLYLINE
  5
105B
330
1F
100
AcDbEntity
  8
0
100
AcDbPolyline
 90
       19
 70
   128
 43
0.0
 10
29.8894942486505
 20
22.01492099381366
 10
29.84772965395082
 20
22.04414789558244
 10
29.79544067265974
 20
22.07433368195926
 10
29.73812998072618
 20
22.10131074947239
 10
29.67638566340313
 20
22.12480227690337
 10
29.61084130093976
 20
22.14456720939162
 10
29.5421694671906
 20
22.1604027319836
 10
29.47107482809779
 20
22.17214635078861
 10
29.39828691086481
 20
22.17967756038608
 10
29.32455261802028
 20
22.18291908037417
 10
29.25062856318723
 20
22.18183764837133
 10
29.17727330720346
 20
22.17644436133332
 10
29.10523957426089
 20
22.16679456168342
 10
29.03526652793673
 20
22.15298726942432
 10
28.96807218637492
 20
22.13516416605885
 10
28.90434605444836
 20
22.11350814074604
 10
28.84474204850585
 20
22.08824141361089
 10
28.78987178630548
 20
22.05962325546516
 10
28.75928753482151
 20
22.04085312539786
  0
LWPOLYLINE
  5
105C
330
1F
100
AcDbEntity
  8
0
100
AcDbPolyline
 90
       11
 70
   128
 43
0.0
 10
29.37681239289144
 20
25.40670465238898
 10
29.35509985424189
 20
25.39719953065799
 10
29.32975023440836
 20
25.39142862035232
 10
29.3026435987271
 20
25.3898199234892
 10
29.27579032236198
 20
25.39249274975564
 10
29.25118198997543
 20
25.39924886785486
 10
29.23064368900495
 20
25.40958720741459
 10
29.21569865127702
 20
25.42274102108446
 10
29.20745528187094
 20
25.43773475067927
 10
29.20652495378464
 20
25.45345637986672
 10
29.20670937859437
 20
25.45441350995281
  0
ARC
  5
105D
330
1F
100
AcDbEntity
  8
0
100
AcDbCircle
 10
29.36026011826761
 20
25.44905190046157
 30
0.0
 40
0.0454672103228702
100
AcDbArc
 50
291.3490441373111
 51
6.772222293830936
  0
LWPOLYLINE
  5
105E
330
1F
100
AcDbEntity
  8
0
100
AcDbPolyline
 90
       26
 70
   128
 43
0.0
 10
29.57706849874245
 20
24.62641789614507
 10
29.59238779909726
 20
24.60137554096945
 10
29.60098689962016
 20
24.57428702347694
 10
29.60194754153821
 20
24.54675298869883
 10
29.59524484473035
 20
24.51948655367292
 10
29.58105240552312
 20
24.49319390474397
 10
29.55973780063704
 20
24.46855600770836
 10
29.53185306714263
 20
24.44621097115761
 10
29.49812040499021
 20
24.42673751980109
 10
29.45941347241057
 20
24.41064000579999
 10
29.41673475862572
 20
24.3983353463113
 10
29.37118961990458
 20
24.39014222555244
 10
29.32395765141627
 20
24.38627284104743
 10
29.27626213633483
 20
24.38682740782244
 10
29.22933836344757
 20
24.3917915628893
 10
29.18440163382433
 20
24.40103673723932
 10
29.14261578515819
 20
24.41432348571313
 10
29.1050630489805
 20
24.43130768850444
 10
29.07271602143273
 20
24.45154946368236
 10
29.04641247353723
 20
24.47452455990228
 10
29.0268336533679
 20
24.49963793424038
 10
29.01448664208284
 20
24.52623916349276
 10
29.00969122078874
 20
24.55363928979475
 10
29.0125715883782
 20
24.58112866426776
 10
29.02305314484364
 20
24.60799532655244
 10
29.03505097440088
 20
24.62641789614507
  0
LWPOLYLINE
  5
105F
330
1F
100
AcDbEntity
  8
0
100
AcDbPolyline
 90
       22
 70
   128
 43
0.0
 10
29.58469238537432
 20
24.58964402118671
 10
29.58644111316628
 20
24.57708761378338
 10
29.58452582406117
 20
24.55035490859034
 10
29.57501470599624
 20
24.52416879042492
 10
29.5581671974787
 20
24.49924354832858
 10
29.53444285462272
 20
24.47625907793043
 10
29.50448881565666
 20
24.4558423356669
 10
29.46912214867916
 20
24.43855023704446
 10
29.42930756417135
 20
24.4248544654364
 10
29.38613110020974
 20
24.41512860578997
 10
29.34077049817855
 20
24.4096379542029
 10
29.29446307705492
 20
24.40853228133742
 10
29.24847198257267
 20
24.41184174706704
 10
29.20405173189944
 20
24.41947607779378
 10
29.16241399367865
 20
24.43122702887663
 10
29.12469453686748
 20
24.44677406500249
 10
29.09192224992045
 20
24.46569310355396
 10
29.06499107539449
 20
24.48746808247759
 10
29.04463562552635
 20
24.51150503711149
 10
29.03141114392574
 20
24.5371483019929
 10
29.02567835997705
 20
24.56369839570287
 10
29.02620572973459
 20
24.58236297476387
  0
TEXT
  5
1065
330
1F
100
AcDbEntity
  8
0
 62
     7
100
AcDbText
 10
29.10932135898558
 20
4.468936471768
 30
0.0
 40
0.4456250000000001
  1
SIDE
100
AcDbText
  0
TEXT
  5
106B
330
1F
100
AcDbEntity
  8
0
 62
     7
100
AcDbText
 10
7.310393372341302
 20
4.527394246221766
 30
0.0
 40
0.4456250000000001
  1
FRONT
100
AcDbText
  0
DIMENSION
  5
106E
330
1F
100
AcDbEntity
  8
DIM
100
AcDbDimension
  2
*D5
 10
2.637141106835245
 20
11.95664322987847
 30
0.0
 11
2.281828394394727
 21
9.056643229878476
 31
0.0
 70
    32
 71
     5
 42
5.8
 73
     0
 74
     0
 75
     0
  3
Standard
100
AcDbAlignedDimension
 13
7.254930897591998
 23
6.156643229878474
 33
0.0
 14
7.484930897591999
 24
11.95664322987847
 34
0.0
 50
90.0
100
AcDbRotatedDimension
  0
DIMENSION
  5
107C
330
1F
100
AcDbEntity
  8
DIM
100
AcDbDimension
  2
*D6
 10
4.908330480288313
 20
11.50664322987847
 30
0.0
 11
4.553017767847794
 21
8.831643229878475
 31
0.0
 70
    32
 71
     5
 42
5.35
 73
     0
 74
     0
 75
     0
  3
Standard
100
AcDbAlignedDimension
 13
7.254930897591999
 23
6.156643229878473
 33
0.0
 14
7.204930897591998
 24
11.50664322987847
 34
0.0
 50
90.0
100
AcDbRotatedDimension
  0
DIMENSION
  5
108A
330
1F
100
AcDbEntity
  8
DIM
100
AcDbDimension
  2
*D7
 10
32.14555192864029
 20
14.6779995389439
 30
0.0
 11
32.14555192864029
 21
12.33679716302745
 31
0.0
 70
   160
 71
     5
 42
0.4499999999999958
 73
     0
 74
     0
 75
     0
  3
Standard
100
AcDbAlignedDimension
 13
30.1679337931177
 23
14.22799953894391
 33
0.0
 14
30.1679337931177
 24
14.6779995389439
 34
0.0
 50
90.0
100
AcDbRotatedDimension
  0
DIMENSION
  5
10A5
330
1F
100
AcDbEntity
  8
DIM
100
AcDbDimension
  2
*D8
 10
10.85208125512504
 20
14.22799953894391
 30
0.0
 11
10.49676854268452
 21
15.06299953894391
 31
0.0
 70
    32
 71
     5
 42
1.669999999999998
 73
     0
 74
     0
 75
     0
  3
Standard
100
AcDbAlignedDimension
 13
8.305266937479082
 23
15.89799953894391
 33
0.0
 14
8.789930897591998
 24
14.22799953894391
 34
0.0
 50
90.0
100
AcDbRotatedDimension
  0
DIMENSION
  5
10C5
330
1F
100
AcDbEntity
  8
DIM
100
AcDbDimension
  2
*D9
 10
30.6229337931177
 20
5.19099410571674
 30
0.0
 11
29.6029337931177
 21
5.546306818157257
 31
0.0
 70
    32
 71
     5
 42
2.040000000000002
 73
     0
 74
     0
 75
     0
  3
Standard
100
AcDbAlignedDimension
 13
28.5829337931177
 23
6.206643229878474
 33
0.0
 14
30.6229337931177
 24
6.206643229878474
 34
0.0
100
AcDbRotatedDimension
  0
ENDSEC
  0
SECTION
  2
OBJECTS
  0
DICTIONARY
  5
C
330
0
100
AcDbDictionary
281
     1
  3
ACAD_COLOR
350
FC
  3
ACAD_GROUP
350
D
  3
ACAD_LAYOUT
350
1A
  3
ACAD_MATERIAL
350
E7
  3
ACAD_MLINESTYLE
350
17
  3
ACAD_PLOTSETTINGS
350
19
  3
ACAD_PLOTSTYLENAME
350
E
  3
ACAD_TABLESTYLE
350
FD
  3
ACAD_VISUALSTYLE
350
EB
  3
AcDbVariableDictionary
350
3CB
  0
DICTIONARY
  5
4DC
330
8
100
AcDbDictionary
280
     1
281
     1
  0
DICTIONARY
  5
61E
330
2
100
AcDbDictionary
280
     1
281
     1
  3
ACAD_LAYERFILTERS
360
622
  3
ACLYDICTIONARY
360
621
  0
DICTIONARY
  5
40A
330
409
100
AcDbDictionary
280
     1
281
     1
  3
ACAD_SORTENTS
360
40B
  0
DICTIONARY
  5
FC
102
{ACAD_REACTORS
330
C
102
}
330
C
100
AcDbDictionary
281
     1
  0
DICTIONARY
  5
D
102
{ACAD_REACTORS
330
C
102
}
330
C
100
AcDbDictionary
281
     1
  0
DICTIONARY
  5
1A
102
{ACAD_REACTORS
330
C
102
}
330
C
100
AcDbDictionary
281
     1
  3
Layout1
350
1E
  3
Layout2
350
26
  3
Model
350
22
  0
DICTIONARY
  5
E7
102
{ACAD_REACTORS
330
C
102
}
330
C
100
AcDbDictionary
281
     1
  3
ByBlock
350
E9
  3
ByLayer
350
E8
  3
Global
350
EA
  0
DICTIONARY
  5
17
102
{ACAD_REACTORS
330
C
102
}
330
C
100
AcDbDictionary
281
     1
  3
Standard
350
18
  0
DICTIONARY
  5
19
102
{ACAD_REACTORS
330
C
102
}
330
C
100
AcDbDictionary
281
     1
  3
jpg
350
D93
  3
pdf
350
D8A
  0
ACDBDICTIONARYWDFLT
  5
E
102
{ACAD_REACTORS
330
C
102
}
330
C
100
AcDbDictionary
281
     1
  3
Normal
350
F
100
AcDbDictionaryWithDefault
340
F
  0
DICTIONARY
  5
FD
102
{ACAD_REACTORS
330
C
102
}
330
C
100
AcDbDictionary
281
     1
  3
Standard
350
FE
  0
DICTIONARY
  5
EB
102
{ACAD_REACTORS
330
C
102
}
330
C
100
AcDbDictionary
281
     1
  3
2dWireframe
350
F1
  3
3D Hidden
350
F3
  3
3dWireframe
350
F2
  3
Basic
350
F0
  3
Brighten
350
F7
  3
ColorChange
350
FB
  3
Conceptual
350
F4
  3
Dim
350
F6
  3
Facepattern
350
FA
  3
Flat
350
EC
  3
FlatWithEdges
350
ED
  3
Gouraud
350
EE
  3
GouraudWithEdges
350
EF
  3
Linepattern
350
F9
  3
Realistic
350
F5
  3
Thicken
350
F8
  0
DICTIONARY
  5
3CB
102
{ACAD_REACTORS
330
C
102
}
330
C
100
AcDbDictionary
281
     1
  3
CTABLESTYLE
350
3CC
  0
DICTIONARY
  5
622
102
{ACAD_REACTORS
330
61E
102
}
330
61E
100
AcDbDictionary
281
     1
  0
DICTIONARY
  5
621
102
{ACAD_REACTORS
330
61E
102
}
330
61E
100
AcDbDictionary
281
     1
1001
ACAD
1000
<All
  0
SORTENTSTABLE
  5
40B
102
{ACAD_REACTORS
330
40A
102
}
330
40A
100
AcDbSortentsTable
330
409
331
40E
  5
6B
331
40F
  5
6D
331
40D
  5
6A
331
410
  5
69
  0
LAYOUT
  5
1E
102
{ACAD_REACTORS
330
1A
102
}
330
1A
100
AcDbPlotSettings
  1

  2
none_device
  4

  6

 40
0.0
 41
0.0
 42
0.0
 43
0.0
 44
0.0
 45
0.0
 46
0.0
 47
0.0
 48
0.0
 49
0.0
140
0.0
141
0.0
142
1.0
143
1.0
 70
   688
 72
     0
 73
     0
 74
     5
  7

 75
    16
147
1.0
 76
     0
 77
     2
 78
   300
148
0.0
149
0.0
100
AcDbLayout
  1
Layout1
 70
     1
 71
     1
 10
0.0
 20
0.0
 11
12.0
 21
9.0
 12
0.0
 22
0.0
 32
0.0
 14
1.000000000000000E+20
 24
1.000000000000000E+20
 34
1.000000000000000E+20
 15
-1.000000000000000E+20
 25
-1.000000000000000E+20
 35
-1.000000000000000E+20
146
0.0
 13
0.0
 23
0.0
 33
0.0
 16
1.0
 26
0.0
 36
0.0
 17
0.0
 27
1.0
 37
0.0
 76
     0
330
1B
  0
LAYOUT
  5
26
102
{ACAD_REACTORS
330
1A
102
}
330
1A
100
AcDbPlotSettings
  1

  2
none_device
  4

  6

 40
0.0
 41
0.0
 42
0.0
 43
0.0
 44
0.0
 45
0.0
 46
0.0
 47
0.0
 48
0.0
 49
0.0
140
0.0
141
0.0
142
1.0
143
1.0
 70
   688
 72
     0
 73
     0
 74
     5
  7

 75
    16
147
1.0
 76
     0
 77
     2
 78
   300
148
0.0
149
0.0
100
AcDbLayout
  1
Layout2
 70
     1
 71
     2
 10
0.0
 20
0.0
 11
0.0
 21
0.0
 12
0.0
 22
0.0
 32
0.0
 14
0.0
 24
0.0
 34
0.0
 15
0.0
 25
0.0
 35
0.0
146
0.0
 13
0.0
 23
0.0
 33
0.0
 16
1.0
 26
0.0
 36
0.0
 17
0.0
 27
1.0
 37
0.0
 76
     0
330
23
  0
LAYOUT
  5
22
102
{ACAD_REACTORS
330
1A
102
}
330
1A
100
AcDbPlotSettings
  1

  2
none_device
  4
Letter_(8.50_x_11.00_Inches)
  6

 40
6.349999904632568
 41
6.349999904632568
 42
6.350006103515625
 43
6.350006103515625
 44
215.8999938964844
 45
279.3999938964844
 46
0.0
 47
0.0
 48
0.0
 49
0.0
140
0.0
141
0.0
142
1.0
143
2.383658744906425
 70
 11952
 72
     0
 73
     1
 74
     0
  7

 75
     0
147
0.4195231394329716
 76
     0
 77
     2
 78
   300
148
135.2900774710282
149
-27.52084133435472
100
AcDbLayout
  1
Model
 70
     1
 71
     0
 10
0.0
 20
0.0
 11
16.53543307086614
 21
11.69291338582677
 12
0.0
 22
0.0
 32
0.0
 14
0.0
 24
0.0
 34
0.0
 15
16.53543307086614
 25
11.69291338582677
 35
0.0
146
0.0
 13
0.0
 23
0.0
 33
0.0
 16
1.0
 26
0.0
 36
0.0
 17
0.0
 27
1.0
 37
0.0
 76
     0
330
1F
331
29
1001
ACAD_PSEXT
1000
None
1000
None
1000
Not applicable
1000
The layout will not be plotted unless a new plotter configuration name is selected.
1070
     0
  0
MATERIAL
  5
E9
102
{ACAD_REACTORS
330
E7
102
}
330
E7
100
AcDbMaterial
  1
ByBlock
  0
MATERIAL
  5
E8
102
{ACAD_REACTORS
330
E7
102
}
330
E7
100
AcDbMaterial
  1
ByLayer
  0
MATERIAL
  5
EA
102
{ACAD_REACTORS
330
E7
102
}
330
E7
100
AcDbMaterial
  1
Global
  0
MLINESTYLE
  5
18
102
{ACAD_REACTORS
330
17
102
}
330
17
100
AcDbMlineStyle
  2
STANDARD
 70
     0
  3

 62
   256
 51
90.0
 52
90.0
 71
     2
 49
0.5
 62
   256
  6
BYLAYER
 49
-0.5
 62
   256
  6
BYLAYER
  0
PLOTSETTINGS
  5
D93
102
{ACAD_REACTORS
330
19
102
}
330
19
100
AcDbPlotSettings
  1
jpg
  2
PublishToWeb JPG.pc3
  4
User-1
  6

 40
75.0
 41
75.0
 42
75.000244140625
 43
75.000244140625
 44
2550.0
 45
3300.0
 46
7.281523769336445
 47
0.0
 48
0.0
 49
0.0
140
35.9606480338857
141
27.23233540430192
142
1.0
143
0.0114160796257189
 70
 11956
 72
     2
 73
     1
 74
     4
  7

 75
     0
147
87.59574501803003
 76
     0
 77
     2
 78
   300
148
0.0
149
0.0
1001
ACAD_PSEXT
1000
PublishToWeb JPG.pc3
1000
Independent JPEG Group JFIF (JPEG Compression)
1000
File
1000

1070
     0
  0
PLOTSETTINGS
  5
D8A
102
{ACAD_REACTORS
330
19
102
}
330
19
100
AcDbPlotSettings
  1
pdf
  2
DWG To PDF.pc3
  4
ISO_expand_A1_(841.00_x_594.00_MM)
  6

 40
5.793749809265136
 41
10.79374980926513
 42
5.79376220703125
 43
10.79376220703125
 44
841.0
 45
594.0
 46
36.76722948979278
 47
0.0
 48
0.0
 49
0.0
140
35.9606480338857
141
27.23233540430192
142
1.0
143
0.0475746703224917
 70
 11956
 72
     1
 73
     0
 74
     4
  7

 75
     0
147
21.01958864289249
 76
     0
 77
     2
 78
   300
148
0.0
149
0.0
1001
ACAD_PSEXT
1000
DWG To PDF.pc3
1000
PDF
1000
File
1000

1070
     0
  0
ACDBPLACEHOLDER
  5
F
102
{ACAD_REACTORS
330
E
102
}
330
E
  0
TABLESTYLE
  5
FE
102
{ACAD_REACTORS
330
FD
102
}
330
FD
100
AcDbTableStyle
  3
Standard
 70
     0
 71
     0
 40
0.06
 41
0.06
280
     0
281
     0
  7
Standard
140
0.18
170
     2
 62
     0
 63
     7
283
     0
 90
      512
 91
        0
  1

274
    -2
284
     1
 64
     0
275
    -2
285
     1
 65
     0
276
    -2
286
     1
 66
     0
277
    -2
287
     1
 67
     0
278
    -2
288
     1
 68
     0
279
    -2
289
     1
 69
     0
  7
Standard
140
0.25
170
     5
 62
     0
 63
     7
283
     0
 90
      512
 91
        0
  1

274
    -2
284
     1
 64
     0
275
    -2
285
     1
 65
     0
276
    -2
286
     1
 66
     0
277
    -2
287
     1
 67
     0
278
    -2
288
     1
 68
     0
279
    -2
289
     1
 69
     0
  7
Standard
140
0.18
170
     5
 62
     0
 63
     7
283
     0
 90
      512
 91
        0
  1

274
    -2
284
     1
 64
     0
275
    -2
285
     1
 65
     0
276
    -2
286
     1
 66
     0
277
    -2
287
     1
 67
     0
278
    -2
288
     1
 68
     0
279
    -2
289
     1
 69
     0
  0
VISUALSTYLE
  5
F1
102
{ACAD_REACTORS
330
EB
102
}
330
EB
100
AcDbVisualStyle
  2
2dWireframe
 70
     4
 71
     0
 72
     2
 73
     0
 90
        0
 40
-0.6
 41
-30.0
 62
     5
 63
     7
421
 16777215
 74
     1
 91
        4
 64
     7
 65
   257
 75
     1
175
     1
 42
1.0
 92
        0
 66
   257
 43
1.0
 76
     1
 77
     6
 78
     2
 67
     7
 79
     5
170
     0
171
     0
290
     0
174
     0
 93
        1
 44
0.0
173
     0
291
     0
 45
0.0
  0
VISUALSTYLE
  5
F3
102
{ACAD_REACTORS
330
EB
102
}
330
EB
100
AcDbVisualStyle
  2
3D Hidden
 70
     6
 71
     1
 72
     2
 73
     2
 90
        0
 40
-0.6
 41
-30.0
 62
     5
 63
     7
421
 16777215
 74
     2
 91
        2
 64
     7
 65
   257
 75
     2
175
     1
 42
40.0
 92
        0
 66
   257
 43
1.0
 76
     1
 77
     6
 78
     2
 67
     7
 79
     3
170
     0
171
     0
290
     0
174
     0
 93
        1
 44
0.0
173
     0
291
     0
 45
0.0
  0
VISUALSTYLE
  5
F2
102
{ACAD_REACTORS
330
EB
102
}
330
EB
100
AcDbVisualStyle
  2
3dWireframe
 70
     5
 71
     0
 72
     2
 73
     0
 90
        0
 40
-0.6
 41
-30.0
 62
     5
 63
     7
421
 16777215
 74
     1
 91
        4
 64
     7
 65
   257
 75
     1
175
     1
 42
1.0
 92
        0
 66
   257
 43
1.0
 76
     1
 77
     6
 78
     2
 67
     7
 79
     5
170
     0
171
     0
290
     0
174
     0
 93
        1
 44
0.0
173
     0
291
     0
 45
0.0
  0
VISUALSTYLE
  5
F0
102
{ACAD_REACTORS
330
EB
102
}
330
EB
100
AcDbVisualStyle
  2
Basic
 70
     7
 71
     1
 72
     0
 73
     1
 90
        0
 40
-0.6
 41
-30.0
 62
     5
 63
     7
421
 16777215
 74
     0
 91
        4
 64
     7
 65
   257
 75
     1
175
     1
 42
1.0
 92
        8
 66
     7
 43
1.0
 76
     1
 77
     6
 78
     2
 67
     7
 79
     5
170
     0
171
     0
290
     0
174
     0
 93
        1
 44
0.0
173
     0
291
     1
 45
0.0
  0
VISUALSTYLE
  5
F7
102
{ACAD_REACTORS
330
EB
102
}
330
EB
100
AcDbVisualStyle
  2
Brighten
 70
    12
 71
     2
 72
     2
 73
     0
 90
        0
 40
-0.6
 41
-30.0
 62
     5
 63
     7
421
 16777215
 74
     1
 91
        4
 64
     7
 65
   257
 75
     1
175
     1
 42
1.0
 92
        8
 66
     7
 43
1.0
 76
     1
 77
     6
 78
     2
 67
     7
 79
     5
170
     0
171
     0
290
     0
174
     0
 93
        1
 44
50.0
173
     0
291
     1
 45
0.0
  0
VISUALSTYLE
  5
FB
102
{ACAD_REACTORS
330
EB
102
}
330
EB
100
AcDbVisualStyle
  2
ColorChange
 70
    16
 71
     2
 72
     2
 73
     3
 90
        0
 40
-0.6
 41
-30.0
 62
     5
 63
     8
421
  8421504
 74
     1
 91
        4
 64
     7
 65
   257
 75
     1
175
     1
 42
1.0
 92
        8
 66
     8
424
  8421504
 43
1.0
 76
     1
 77
     6
 78
     2
 67
     7
 79
     5
170
     0
171
     0
290
     0
174
     0
 93
        1
 44
0.0
173
     0
291
     1
 45
0.0
  0
VISUALSTYLE
  5
F4
102
{ACAD_REACTORS
330
EB
102
}
330
EB
100
AcDbVisualStyle
  2
Conceptual
 70
     9
 71
     3
 72
     2
 73
     0
 90
        0
 40
-0.6
 41
-30.0
 62
     5
 63
     7
421
 16777215
 74
     2
 91
        2
 64
     7
 65
   257
 75
     1
175
     1
 42
40.0
 92
        8
 66
     7
 43
1.0
 76
     1
 77
     6
 78
     2
 67
     7
 79
     3
170
     0
171
     0
290
     0
174
     0
 93
        1
 44
0.0
173
     0
291
     0
 45
0.0
  0
VISUALSTYLE
  5
F6
102
{ACAD_REACTORS
330
EB
102
}
330
EB
100
AcDbVisualStyle
  2
Dim
 70
    11
 71
     2
 72
     2
 73
     0
 90
        0
 40
-0.6
 41
-30.0
 62
     5
 63
     7
421
 16777215
 74
     1
 91
        4
 64
     7
 65
   257
 75
     1
175
     1
 42
1.0
 92
        8
 66
     7
 43
1.0
 76
     1
 77
     6
 78
     2
 67
     7
 79
     5
170
     0
171
     0
290
     0
174
     0
 93
        1
 44
-50.0
173
     0
291
     1
 45
0.0
  0
VISUALSTYLE
  5
FA
102
{ACAD_REACTORS
330
EB
102
}
330
EB
100
AcDbVisualStyle
  2
Facepattern
 70
    15
 71
     2
 72
     2
 73
     0
 90
        0
 40
-0.6
 41
-30.0
 62
     5
 63
     7
421
 16777215
 74
     1
 91
        4
 64
     7
 65
   257
 75
     1
175
     1
 42
1.0
 92
        8
 66
     7
 43
1.0
 76
     1
 77
     6
 78
     2
 67
     7
 79
     5
170
     0
171
     0
290
     0
174
     0
 93
        1
 44
0.0
173
     0
291
     1
 45
0.0
  0
VISUALSTYLE
  5
EC
102
{ACAD_REACTORS
330
EB
102
}
330
EB
100
AcDbVisualStyle
  2
Flat
 70
     0
 71
     2
 72
     1
 73
     1
 90
        2
 40
-0.6
 41
30.0
 62
     5
 63
     7
421
 16777215
 74
     0
 91
        4
 64
     7
 65
   257
 75
     1
175
     1
 42
1.0
 92
        8
 66
     7
 43
1.0
 76
     1
 77
     6
 78
     2
 67
     7
 79
     5
170
     0
171
     0
290
     0
174
     0
 93
       13
 44
0.0
173
     0
291
     1
 45
0.0
  0
VISUALSTYLE
  5
ED
102
{ACAD_REACTORS
330
EB
102
}
330
EB
100
AcDbVisualStyle
  2
FlatWithEdges
 70
     1
 71
     2
 72
     1
 73
     1
 90
        2
 40
-0.6
 41
30.0
 62
     5
 63
     7
421
 16777215
 74
     1
 91
        4
 64
     7
 65
   257
 75
     1
175
     1
 42
1.0
 92
        0
 66
   257
 43
1.0
 76
     1
 77
     6
 78
     2
 67
     7
 79
     5
170
     0
171
     0
290
     0
174
     0
 93
       13
 44
0.0
173
     0
291
     1
 45
0.0
  0
VISUALSTYLE
  5
EE
102
{ACAD_REACTORS
330
EB
102
}
330
EB
100
AcDbVisualStyle
  2
Gouraud
 70
     2
 71
     2
 72
     2
 73
     1
 90
        2
 40
-0.6
 41
30.0
 62
     5
 63
     7
421
 16777215
 74
     0
 91
        4
 64
     7
 65
   257
 75
     1
175
     1
 42
1.0
 92
        0
 66
     7
 43
1.0
 76
     1
 77
     6
 78
     2
 67
     7
 79
     5
170
     0
171
     0
290
     0
174
     0
 93
       13
 44
0.0
173
     0
291
     1
 45
0.0
  0
VISUALSTYLE
  5
EF
102
{ACAD_REACTORS
330
EB
102
}
330
EB
100
AcDbVisualStyle
  2
GouraudWithEdges
 70
     3
 71
     2
 72
     2
 73
     1
 90
        2
 40
-0.6
 41
30.0
 62
     5
 63
     7
421
 16777215
 74
     1
 91
        4
 64
     7
 65
   257
 75
     1
175
     1
 42
1.0
 92
        0
 66
   257
 43
1.0
 76
     1
 77
     6
 78
     2
 67
     7
 79
     5
170
     0
171
     0
290
     0
174
     0
 93
       13
 44
0.0
173
     0
291
     1
 45
0.0
  0
VISUALSTYLE
  5
F9
102
{ACAD_REACTORS
330
EB
102
}
330
EB
100
AcDbVisualStyle
  2
Linepattern
 70
    14
 71
     2
 72
     2
 73
     0
 90
        0
 40
-0.6
 41
-30.0
 62
     5
 63
     7
421
 16777215
 74
     1
 91
        4
 64
     7
 65
   257
 75
     7
175
     7
 42
1.0
 92
        8
 66
     7
 43
1.0
 76
     1
 77
     6
 78
     2
 67
     7
 79
     5
170
     0
171
     0
290
     0
174
     0
 93
        1
 44
0.0
173
     0
291
     1
 45
0.0
  0
VISUALSTYLE
  5
F5
102
{ACAD_REACTORS
330
EB
102
}
330
EB
100
AcDbVisualStyle
  2
Realistic
 70
     8
 71
     2
 72
     2
 73
     0
 90
        0
 40
-0.6
 41
-30.0
 62
     5
 63
     7
421
 16777215
 74
     1
 91
        0
 64
     7
 65
   257
 75
     1
175
     1
 42
1.0
 92
        8
 66
     8
424
  7895160
 43
1.0
 76
     1
 77
     6
 78
     2
 67
     7
 79
     5
170
     0
171
     0
290
     0
174
     0
 93
       13
 44
0.0
173
     0
291
     0
 45
0.0
  0
VISUALSTYLE
  5
F8
102
{ACAD_REACTORS
330
EB
102
}
330
EB
100
AcDbVisualStyle
  2
Thicken
 70
    13
 71
     2
 72
     2
 73
     0
 90
        0
 40
-0.6
 41
-30.0
 62
     5
 63
     7
421
 16777215
 74
     1
 91
        4
 64
     7
 65
   257
 75
     1
175
     1
 42
1.0
 92
       12
 66
     7
 43
1.0
 76
     1
 77
     6
 78
     2
 67
     7
 79
     5
170
     0
171
     0
290
     0
174
     0
 93
        1
 44
0.0
173
     0
291
     1
 45
0.0
  0
DICTIONARYVAR
  5
3CC
102
{ACAD_REACTORS
330
3CB
102
}
330
3CB
100
DictionaryVariables
280
     0
  1
STANDARD
  0
ENDSEC
  0
EOF
