  0
SECTION
  2
HEADER
  9
$ACADVER
  1
AC1021
  9
$ACADMAINTVER
 70
     1
  9
$DWGCODEPAGE
  3
ANSI_1252
  9
$AUTHOR
  1
‘Created by Cad / Cam Services, Inc. for Amazon Services LLC on November, 2012’
  9
$LASTSAVEDBY
  1
AE23
  9
$INSBASE
 10
0.0
 20
0.0
 30
0.0
  9
$EXTMIN
 10
-0.0005298830190625
 20
-0.000356458240951
 30
-0.0000000000000129
  9
$EXTMAX
 10
0.9382493949434547
 20
0.7107002551588977
 30
0.0000000000000023
  9
$LIMMIN
 10
0.0
 20
0.0
  9
$LIMMAX
 10
16.53543307086614
 20
11.69291338582677
  9
$ORTHOMODE
 70
     1
  9
$REGENMODE
 70
     1
  9
$FILLMODE
 70
     1
  9
$QTEXTMODE
 70
     0
  9
$MIRRTEXT
 70
     1
  9
$LTSCALE
 40
1.0
  9
$ATTMODE
 70
     1
  9
$TEXTSIZE
 40
0.2
  9
$TRACEWID
 40
0.05
  9
$TEXTSTYLE
  7
SLDTEXTSTYLE0
  9
$CLAYER
  8
DIM
  9
$CELTYPE
  6
ByLayer
  9
$CECOLOR
 62
   256
  9
$CELTSCALE
 40
1.0
  9
$DISPSILH
 70
     0
  9
$DIMSCALE
 40
1.0
  9
$DIMASZ
 40
0.009
  9
$DIMEXO
 40
0.01
  9
$DIMDLI
 40
0.38
  9
$DIMRND
 40
0.0
  9
$DIMDLE
 40
0.0
  9
$DIMEXE
 40
0.01
  9
$DIMTP
 40
0.0
  9
$DIMTM
 40
0.0
  9
$DIMTXT
 40
0.009
  9
$DIMCEN
 40
0.09
  9
$DIMTSZ
 40
0.0
  9
$DIMTOL
 70
     0
  9
$DIMLIM
 70
     0
  9
$DIMTIH
 70
     0
  9
$DIMTOH
 70
     0
  9
$DIMSE1
 70
     0
  9
$DIMSE2
 70
     0
  9
$DIMTAD
 70
     1
  9
$DIMZIN
 70
     0
  9
$DIMBLK
  1

  9
$DIMASO
 70
     1
  9
$DIMSHO
 70
     1
  9
$DIMPOST
  1

  9
$DIMAPOST
  1

  9
$DIMALT
 70
     0
  9
$DIMALTD
 70
     2
  9
$DIMALTF
 40
25.4
  9
$DIMLFAC
 40
1.0
  9
$DIMTOFL
 70
     1
  9
$DIMTVP
 40
0.0
  9
$DIMTIX
 70
     0
  9
$DIMSOXD
 70
     0
  9
$DIMSAH
 70
     0
  9
$DIMBLK1
  1

  9
$DIMBLK2
  1

  9
$DIMSTYLE
  2
Standard
  9
$DIMCLRD
 70
     0
  9
$DIMCLRE
 70
     0
  9
$DIMCLRT
 70
     0
  9
$DIMTFAC
 40
1.0
  9
$DIMGAP
 40
0.005
  9
$DIMJUST
 70
     0
  9
$DIMSD1
 70
     0
  9
$DIMSD2
 70
     0
  9
$DIMTOLJ
 70
     1
  9
$DIMTZIN
 70
     0
  9
$DIMALTZ
 70
     0
  9
$DIMALTTZ
 70
     0
  9
$DIMUPT
 70
     0
  9
$DIMDEC
 70
     2
  9
$DIMTDEC
 70
     2
  9
$DIMALTU
 70
     2
  9
$DIMALTTD
 70
     2
  9
$DIMTXSTY
  7
Standard
  9
$DIMAUNIT
 70
     0
  9
$DIMADEC
 70
     0
  9
$DIMALTRND
 40
0.0
  9
$DIMAZIN
 70
     0
  9
$DIMDSEP
 70
    46
  9
$DIMATFIT
 70
     3
  9
$DIMFRAC
 70
     0
  9
$DIMLDRBLK
  1

  9
$DIMLUNIT
 70
     2
  9
$DIMLWD
 70
    -2
  9
$DIMLWE
 70
    -2
  9
$DIMTMOVE
 70
     0
  9
$DIMFXL
 40
1.0
  9
$DIMFXLON
 70
     0
  9
$DIMJOGANG
 40
0.7853981633974483
  9
$DIMTFILL
 70
     0
  9
$DIMTFILLCLR
 70
     0
  9
$DIMARCSYM
 70
     0
  9
$DIMLTYPE
  6

  9
$DIMLTEX1
  6

  9
$DIMLTEX2
  6

  9
$LUNITS
 70
     2
  9
$LUPREC
 70
     2
  9
$SKETCHINC
 40
0.1
  9
$FILLETRAD
 40
0.5
  9
$AUNITS
 70
     0
  9
$AUPREC
 70
     2
  9
$MENU
  1
.
  9
$ELEVATION
 40
0.0
  9
$PELEVATION
 40
0.0
  9
$THICKNESS
 40
0.0
  9
$LIMCHECK
 70
     0
  9
$CHAMFERA
 40
0.5
  9
$CHAMFERB
 40
0.5
  9
$CHAMFERC
 40
1.0
  9
$CHAMFERD
 40
0.0
  9
$SKPOLY
 70
     0
  9
$TDCREATE
 40
2456563.484586760
  9
$TDUCREATE
 40
2456563.255420093
  9
$TDUPDATE
 40
2456563.485794989
  9
$TDUUPDATE
 40
2456563.256628322
  9
$TDINDWG
 40
0.0012084144
  9
$TDUSRTIMER
 40
0.0012084144
  9
$USRTIMER
 70
     1
  9
$ANGBASE
 50
0.0
  9
$ANGDIR
 70
     0
  9
$PDMODE
 70
     0
  9
$PDSIZE
 40
-1.0
  9
$PLINEWID
 40
0.0
  9
$SPLFRAME
 70
     0
  9
$SPLINETYPE
 70
     6
  9
$SPLINESEGS
 70
     8
  9
$HANDSEED
  5
E96
  9
$SURFTAB1
 70
     6
  9
$SURFTAB2
 70
     6
  9
$SURFTYPE
 70
     6
  9
$SURFU
 70
     6
  9
$SURFV
 70
     6
  9
$UCSBASE
  2

  9
$UCSNAME
  2

  9
$UCSORG
 10
0.0
 20
0.0
 30
0.0
  9
$UCSXDIR
 10
1.0
 20
0.0
 30
0.0
  9
$UCSYDIR
 10
0.0
 20
1.0
 30
0.0
  9
$UCSORTHOREF
  2

  9
$UCSORTHOVIEW
 70
     0
  9
$UCSORGTOP
 10
0.0
 20
0.0
 30
0.0
  9
$UCSORGBOTTOM
 10
0.0
 20
0.0
 30
0.0
  9
$UCSORGLEFT
 10
0.0
 20
0.0
 30
0.0
  9
$UCSORGRIGHT
 10
0.0
 20
0.0
 30
0.0
  9
$UCSORGFRONT
 10
0.0
 20
0.0
 30
0.0
  9
$UCSORGBACK
 10
0.0
 20
0.0
 30
0.0
  9
$PUCSBASE
  2

  9
$PUCSNAME
  2

  9
$PUCSORG
 10
0.0
 20
0.0
 30
0.0
  9
$PUCSXDIR
 10
1.0
 20
0.0
 30
0.0
  9
$PUCSYDIR
 10
0.0
 20
1.0
 30
0.0
  9
$PUCSORTHOREF
  2

  9
$PUCSORTHOVIEW
 70
     0
  9
$PUCSORGTOP
 10
0.0
 20
0.0
 30
0.0
  9
$PUCSORGBOTTOM
 10
0.0
 20
0.0
 30
0.0
  9
$PUCSORGLEFT
 10
0.0
 20
0.0
 30
0.0
  9
$PUCSORGRIGHT
 10
0.0
 20
0.0
 30
0.0
  9
$PUCSORGFRONT
 10
0.0
 20
0.0
 30
0.0
  9
$PUCSORGBACK
 10
0.0
 20
0.0
 30
0.0
  9
$USERI1
 70
     0
  9
$USERI2
 70
     0
  9
$USERI3
 70
     0
  9
$USERI4
 70
     0
  9
$USERI5
 70
     0
  9
$USERR1
 40
0.0
  9
$USERR2
 40
0.0
  9
$USERR3
 40
0.0
  9
$USERR4
 40
0.0
  9
$USERR5
 40
0.0
  9
$WORLDVIEW
 70
     1
  9
$SHADEDGE
 70
     3
  9
$SHADEDIF
 70
    70
  9
$TILEMODE
 70
     1
  9
$MAXACTVP
 70
    64
  9
$PINSBASE
 10
0.0
 20
0.0
 30
0.0
  9
$PLIMCHECK
 70
     0
  9
$PEXTMIN
 10
1.000000000000000E+20
 20
1.000000000000000E+20
 30
1.000000000000000E+20
  9
$PEXTMAX
 10
-1.000000000000000E+20
 20
-1.000000000000000E+20
 30
-1.000000000000000E+20
  9
$PLIMMIN
 10
0.0
 20
0.0
  9
$PLIMMAX
 10
12.0
 20
9.0
  9
$UNITMODE
 70
     0
  9
$VISRETAIN
 70
     1
  9
$PLINEGEN
 70
     0
  9
$PSLTSCALE
 70
     1
  9
$TREEDEPTH
 70
  3020
  9
$CMLSTYLE
  2
Standard
  9
$CMLJUST
 70
     0
  9
$CMLSCALE
 40
1.0
  9
$PROXYGRAPHICS
 70
     1
  9
$MEASUREMENT
 70
     0
  9
$CELWEIGHT
370
    -1
  9
$ENDCAPS
280
     0
  9
$JOINSTYLE
280
     0
  9
$LWDISPLAY
290
     1
  9
$INSUNITS
 70
     1
  9
$HYPERLINKBASE
  1

  9
$STYLESHEET
  1

  9
$XEDIT
290
     1
  9
$CEPSNTYPE
380
     0
  9
$PSTYLEMODE
290
     1
  9
$FINGERPRINTGUID
  2
{5EAD57BF-5598-4689-9643-704AFC68379E}
  9
$VERSIONGUID
  2
{B079F55F-F00C-436E-86C2-B040E51B5163}
  9
$EXTNAMES
290
     1
  9
$PSVPSCALE
 40
0.0
  9
$OLESTARTUP
290
     0
  9
$SORTENTS
280
   127
  9
$INDEXCTL
280
     0
  9
$HIDETEXT
280
     0
  9
$XCLIPFRAME
290
     0
  9
$HALOGAP
280
     0
  9
$OBSCOLOR
 70
   257
  9
$OBSLTYPE
280
     0
  9
$INTERSECTIONDISPLAY
280
     0
  9
$INTERSECTIONCOLOR
 70
   257
  9
$DIMASSOC
280
     1
  9
$PROJECTNAME
  1

  9
$CAMERADISPLAY
290
     0
  9
$LENSLENGTH
 40
50.0
  9
$CAMERAHEIGHT
 40
0.0
  9
$STEPSPERSEC
 40
2.0
  9
$STEPSIZE
 40
6.0
  9
$3DDWFPREC
 40
2.0
  9
$PSOLWIDTH
 40
0.25
  9
$PSOLHEIGHT
 40
4.0
  9
$LOFTANG1
 40
1.570796326794896
  9
$LOFTANG2
 40
1.570796326794896
  9
$LOFTMAG1
 40
0.0
  9
$LOFTMAG2
 40
0.0
  9
$LOFTPARAM
 70
     7
  9
$LOFTNORMALS
280
     1
  9
$LATITUDE
 40
37.795
  9
$LONGITUDE
 40
-122.394
  9
$NORTHDIRECTION
 40
0.0
  9
$TIMEZONE
 70
 -8000
  9
$LIGHTGLYPHDISPLAY
280
     1
  9
$TILEMODELIGHTSYNCH
280
     1
  9
$CMATERIAL
347
E8
  9
$SOLIDHIST
280
     1
  9
$SHOWHIST
280
     1
  9
$DWFFRAME
280
     2
  9
$DGNFRAME
280
     0
  9
$REALWORLDSCALE
290
     1
  9
$INTERFERECOLOR
 62
     1
  9
$INTERFEREOBJVS
345
F5
  9
$INTERFEREVPVS
346
F2
  9
$CSHADOW
280
     0
  9
$SHADOWPLANELOCATION
 40
0.0
  0
ENDSEC
  0
SECTION
  2
CLASSES
  0
CLASS
  1
ACDBDICTIONARYWDFLT
  2
AcDbDictionaryWithDefault
  3
ObjectDBX Classes
 90
        0
 91
        1
280
     0
281
     0
  0
CLASS
  1
VISUALSTYLE
  2
AcDbVisualStyle
  3
ObjectDBX Classes
 90
     4095
 91
       16
280
     0
281
     0
  0
CLASS
  1
MATERIAL
  2
AcDbMaterial
  3
ObjectDBX Classes
 90
     1024
 91
        3
280
     0
281
     0
  0
CLASS
  1
TABLESTYLE
  2
AcDbTableStyle
  3
ObjectDBX Classes
 90
     4095
 91
        1
280
     0
281
     0
  0
CLASS
  1
DICTIONARYVAR
  2
AcDbDictionaryVar
  3
ObjectDBX Classes
 90
        0
 91
        1
280
     0
281
     0
  0
CLASS
  1
SORTENTSTABLE
  2
AcDbSortentsTable
  3
ObjectDBX Classes
 90
        0
 91
        1
280
     0
281
     0
  0
CLASS
  1
PLOTSETTINGS
  2
AcDbPlotSettings
  3
ObjectDBX Classes
 90
        0
 91
        2
280
     0
281
     0
  0
ENDSEC
  0
SECTION
  2
TABLES
  0
TABLE
  2
VPORT
  5
8
102
{ACAD_XDICTIONARY
360
4DC
102
}
330
0
100
AcDbSymbolTable
 70
     1
  0
VPORT
  5
29
330
8
100
AcDbSymbolTableRecord
100
AcDbViewportTableRecord
  2
*Active
 70
     0
 10
0.0
 20
0.0
 11
1.0
 21
1.0
 12
0.4688597559621961
 22
0.3551718984589734
 13
0.0
 23
0.0
 14
0.5
 24
0.5
 15
0.5
 25
0.5
 16
0.0
 26
0.0
 36
1.0
 17
0.0
 27
0.0
 37
0.0
 40
0.7182150024609211
 41
1.796638655462184
 42
50.0
 43
0.0
 44
0.0
 50
0.0
 51
0.0
 71
     0
 72
  2000
 73
     1
 74
     3
 75
     0
 76
     0
 77
     0
 78
     0
281
     0
 65
     1
110
0.0
120
0.0
130
0.0
111
1.0
121
0.0
131
0.0
112
0.0
122
1.0
132
0.0
 79
     0
146
0.0
348
F1
 60
     3
 61
     5
292
     1
282
     1
141
0.0
142
0.0
 63
   250
421
  3355443
  0
ENDTAB
  0
TABLE
  2
LTYPE
  5
5
330
0
100
AcDbSymbolTable
 70
     2
  0
LTYPE
  5
14
330
5
100
AcDbSymbolTableRecord
100
AcDbLinetypeTableRecord
  2
ByBlock
 70
     0
  3

 72
    65
 73
     0
 40
0.0
  0
LTYPE
  5
15
330
5
100
AcDbSymbolTableRecord
100
AcDbLinetypeTableRecord
  2
ByLayer
 70
     0
  3

 72
    65
 73
     0
 40
0.0
  0
LTYPE
  5
16
330
5
100
AcDbSymbolTableRecord
100
AcDbLinetypeTableRecord
  2
Continuous
 70
     0
  3
Solid line
 72
    65
 73
     0
 40
0.0
  0
LTYPE
  5
C8B
330
5
100
AcDbSymbolTableRecord
100
AcDbLinetypeTableRecord
  2
HIDDEN
 70
     0
  3
Hidden __ __ __ __ __ __ __ __ __ __ __ __ __ __
 72
    65
 73
     2
 40
0.075
 49
0.05
 74
     0
 49
-0.025
 74
     0
  0
ENDTAB
  0
TABLE
  2
LAYER
  5
2
102
{ACAD_XDICTIONARY
360
61E
102
}
330
0
100
AcDbSymbolTable
 70
     4
  0
LAYER
  5
10
330
2
100
AcDbSymbolTableRecord
100
AcDbLayerTableRecord
  2
0
 70
     0
 62
     7
  6
Continuous
370
    -3
390
F
347
EA
  0
LAYER
  5
44
330
2
100
AcDbSymbolTableRecord
100
AcDbLayerTableRecord
  2
FORMAT
 70
     0
 62
     7
  6
Continuous
370
    -3
390
F
347
EA
  0
LAYER
  5
125
330
2
100
AcDbSymbolTableRecord
100
AcDbLayerTableRecord
  2
Defpoints
 70
     0
 62
     7
  6
Continuous
290
     0
370
    -3
390
F
347
EA
  0
LAYER
  5
61C
330
2
100
AcDbSymbolTableRecord
100
AcDbLayerTableRecord
  2
DIM
 70
     0
 62
     8
  6
Continuous
370
    -3
390
F
347
EA
1001
AcAecLayerStandard
1000

1000

  0
ENDTAB
  0
TABLE
  2
STYLE
  5
3
330
0
100
AcDbSymbolTable
 70
     5
  0
STYLE
  5
11
330
3
100
AcDbSymbolTableRecord
100
AcDbTextStyleTableRecord
  2
Standard
 70
     0
 40
0.0
 41
1.0
 50
0.0
 71
     0
 42
0.2
  3
GOTHIC.TTF
  4

1001
ACAD
1000
Century Gothic
1071
       34
  0
STYLE
  5
66
330
3
100
AcDbSymbolTableRecord
100
AcDbTextStyleTableRecord
  2
SLDTEXTSTYLE0
 70
     0
 40
0.0
 41
0.75
 50
0.0
 71
     0
 42
0.2
  3
GOTHIC.TTF
  4

1001
ACAD
1000
Century Gothic
1071
       34
  0
STYLE
  5
6A
330
3
100
AcDbSymbolTableRecord
100
AcDbTextStyleTableRecord
  2
SLDTEXTSTYLE1
 70
     0
 40
0.0
 41
0.6875
 50
0.0
 71
     0
 42
0.2
  3
GOTHIC.TTF
  4

1001
ACAD
1000
Century Gothic
1071
       34
  0
STYLE
  5
412
330
3
100
AcDbSymbolTableRecord
100
AcDbTextStyleTableRecord
  2
style2
 70
     0
 40
0.0
 41
1.0
 50
0.0
 71
     0
 42
0.2
  3

  4

1001
ACAD
1000
Euphemia
1071
       34
  0
STYLE
  5
B37
330
3
100
AcDbSymbolTableRecord
100
AcDbTextStyleTableRecord
  2
style1
 70
     0
 40
0.0
 41
1.0
 50
0.0
 71
     0
 42
0.2
  3

  4

1001
ACAD
1000
@MS PGothic
1071
    32802
  0
ENDTAB
  0
TABLE
  2
VIEW
  5
6
330
0
100
AcDbSymbolTable
 70
     0
  0
ENDTAB
  0
TABLE
  2
UCS
  5
7
330
0
100
AcDbSymbolTable
 70
     0
  0
ENDTAB
  0
TABLE
  2
APPID
  5
9
330
0
100
AcDbSymbolTable
 70
     5
  0
APPID
  5
12
330
9
100
AcDbSymbolTableRecord
100
AcDbRegAppTableRecord
  2
ACAD
 70
     0
  0
APPID
  5
3B8
330
9
100
AcDbSymbolTableRecord
100
AcDbRegAppTableRecord
  2
ACAD_EXEMPT_FROM_CAD_STANDARDS
 70
     0
  0
APPID
  5
413
330
9
100
AcDbSymbolTableRecord
100
AcDbRegAppTableRecord
  2
ACAD_PSEXT
 70
     0
  0
APPID
  5
61D
330
9
100
AcDbSymbolTableRecord
100
AcDbRegAppTableRecord
  2
AcAecLayerStandard
 70
     0
  0
APPID
  5
B19
330
9
100
AcDbSymbolTableRecord
100
AcDbRegAppTableRecord
  2
PE_URL
 70
     0
  0
ENDTAB
  0
TABLE
  2
DIMSTYLE
  5
A
330
0
100
AcDbSymbolTable
 70
     1
100
AcDbDimStyleTable
 71
     1
340
27
  0
DIMSTYLE
105
27
102
{ACAD_REACTORS
330
E54
330
E61
330
E6E
330
E7B
102
}
330
A
100
AcDbSymbolTableRecord
100
AcDbDimStyleTableRecord
  2
Standard
 70
     0
 41
0.009
 42
0.01
 44
0.01
 73
     0
 74
     0
 77
     1
140
0.009
147
0.005
172
     1
271
     2
272
     2
340
11
  0
ENDTAB
  0
TABLE
  2
BLOCK_RECORD
  5
1
330
0
100
AcDbSymbolTable
 70
    13
  0
BLOCK_RECORD
  5
1F
330
1
100
AcDbSymbolTableRecord
100
AcDbBlockTableRecord
  2
*Model_Space
340
22
 70
     0
280
     1
281
     0
  0
BLOCK_RECORD
  5
1B
330
1
100
AcDbSymbolTableRecord
100
AcDbBlockTableRecord
  2
*Paper_Space
340
1E
 70
     0
280
     1
281
     0
  0
BLOCK_RECORD
  5
23
330
1
100
AcDbSymbolTableRecord
100
AcDbBlockTableRecord
  2
*Paper_Space0
340
26
 70
     0
280
     1
281
     0
  0
BLOCK_RECORD
  5
3F9
330
1
100
AcDbSymbolTableRecord
100
AcDbBlockTableRecord
  2
Block3
340
0
102
{BLKREFS
331
407
102
}
 70
     0
280
     1
281
     0
  0
BLOCK_RECORD
  5
405
330
1
100
AcDbSymbolTableRecord
100
AcDbBlockTableRecord
  2
Block2
340
0
102
{BLKREFS
331
44A
102
}
 70
     0
280
     1
281
     0
  0
BLOCK_RECORD
  5
409
102
{ACAD_XDICTIONARY
360
40A
102
}
330
1
100
AcDbSymbolTableRecord
100
AcDbBlockTableRecord
  2
amazon
340
0
310
2800000020000000200000000100080000000000000400000000000000000000000000000000000000000000000080000080000000808000800000008000800080800000C0C0C000C0DCC000F0CAA6000020400000206000002080000020A0000020C0000020E00000400000004020000040400000406000004080000040A0
310
000040C0000040E00000600000006020000060400000606000006080000060A0000060C0000060E00000800000008020000080400000806000008080000080A0000080C0000080E00000A0000000A0200000A0400000A0600000A0800000A0A00000A0C00000A0E00000C0000000C0200000C0400000C0600000C0800000C0
310
A00000C0C00000C0E00000E0000000E0200000E0400000E0600000E0800000E0A00000E0C00000E0E00040000000400020004000400040006000400080004000A0004000C0004000E00040200000402020004020400040206000402080004020A0004020C0004020E000404000004040200040404000404060004040800040
310
40A0004040C0004040E00040600000406020004060400040606000406080004060A0004060C0004060E00040800000408020004080400040806000408080004080A0004080C0004080E00040A0000040A0200040A0400040A0600040A0800040A0A00040A0C00040A0E00040C0000040C0200040C0400040C0600040C08000
310
40C0A00040C0C00040C0E00040E0000040E0200040E0400040E0600040E0800040E0A00040E0C00040E0E00080000000800020008000400080006000800080008000A0008000C0008000E00080200000802020008020400080206000802080008020A0008020C0008020E00080400000804020008040400080406000804080
310
008040A0008040C0008040E00080600000806020008060400080606000806080008060A0008060C0008060E00080800000808020008080400080806000808080008080A0008080C0008080E00080A0000080A0200080A0400080A0600080A0800080A0A00080A0C00080A0E00080C0000080C0200080C0400080C0600080C0
310
800080C0A00080C0C00080C0E00080E0000080E0200080E0400080E0600080E0800080E0A00080E0C00080E0E000C0000000C0002000C0004000C0006000C0008000C000A000C000C000C000E000C0200000C0202000C0204000C0206000C0208000C020A000C020C000C020E000C0400000C0402000C0404000C0406000C0
310
408000C040A000C040C000C040E000C0600000C0602000C0604000C0606000C0608000C060A000C060C000C060E000C0800000C0802000C0804000C0806000C0808000C080A000C080C000C080E000C0A00000C0A02000C0A04000C0A06000C0A08000C0A0A000C0A0C000C0A0E000C0C00000C0C02000C0C04000C0C06000
310
C0C08000C0C0A000F0FBFF00A4A0A000808080000000FF0000FF000000FFFF00FF000000FF00FF00FFFF0000FFFFFF0000000000000000000000000000000000000000000000000000000000000000000000000000000000000000000000000000000000000000000000000000000000000000000000000000000000000000
310
00000000000000000000000000000000000000000000000000000000000000000000000000000000000000000000000000000000000000000000000000000000000000000000000000000000000000000000000000000000000000000000000000000000000000000000000000000000000000000000000000000000000000
310
00000000000000000000000000000000000000000000000000000000000000000000000000000000000000000000000000000000000000000000000000000000000000000000000000000000000000000000000000000000000000000000000000000000000000000000000000000000000000000000000000000000000000
310
0000000000000000000000000000000000000000000000000000000000000000000000000000000000000000000000000000000000000000000000000000000000000000000000000000000000000000000000000000000000FFFFFFFFFF00000000000000000000000000000000000000000000000000FFFFFFFFFFFFFFFF
310
00000000000000000000FC00FC0000FCFC00000000FFFFFFFFFFFFFFFFFFFFFFFFFFFFFFFFFCFCFCFCFCFCFCFCFCFCFCFCFC00000000FFFFFFFFFFFFFFFFFFFFFFFFFFFFFFFCFCFC00FCFCFCFC00FCFCFCFC00000000FFFFFFFFFFFFFFFFFFFFFFFFFFFFFFFCFCFC00FCFCFCFCFCFCFCFCFC00000000000000000000000000
310
00000000000000000000000000000000FC0000000000000000000000000000000000000000000000000000000000000000000000000000000000000000000000000000000000000000000000000000000000000000000000000000000000000000000000000000000000000000000000000000000000000000000000000000
310
00000000000000000000000000000000000000000000000000000000000000000000000000000000000000000000000000000000000000000000000000000000000000000000000000000000000000000000000000000000000000000000000000000000000000000000000000000000000000000000000000000000000000
310
00000000000000000000000000000000000000000000000000000000000000000000000000000000000000000000000000000000000000000000000000000000000000000000000000000000000000000000000000000000000000000000000000000000000000000000000000000000000000000000000000000000000000
310
0000000000000000000000000000000000000000000000000000000000000000000000000000000000000000000000000000000000000000
 70
     1
280
     1
281
     0
  0
BLOCK_RECORD
  5
B30
330
1
100
AcDbSymbolTableRecord
100
AcDbBlockTableRecord
  2
amazon block
340
0
310
2800000020000000200000000100080000000000000400000000000000000000000000000000000000000000000080000080000000808000800000008000800080800000C0C0C000C0DCC000F0CAA6000020400000206000002080000020A0000020C0000020E00000400000004020000040400000406000004080000040A0
310
000040C0000040E00000600000006020000060400000606000006080000060A0000060C0000060E00000800000008020000080400000806000008080000080A0000080C0000080E00000A0000000A0200000A0400000A0600000A0800000A0A00000A0C00000A0E00000C0000000C0200000C0400000C0600000C0800000C0
310
A00000C0C00000C0E00000E0000000E0200000E0400000E0600000E0800000E0A00000E0C00000E0E00040000000400020004000400040006000400080004000A0004000C0004000E00040200000402020004020400040206000402080004020A0004020C0004020E000404000004040200040404000404060004040800040
310
40A0004040C0004040E00040600000406020004060400040606000406080004060A0004060C0004060E00040800000408020004080400040806000408080004080A0004080C0004080E00040A0000040A0200040A0400040A0600040A0800040A0A00040A0C00040A0E00040C0000040C0200040C0400040C0600040C08000
310
40C0A00040C0C00040C0E00040E0000040E0200040E0400040E0600040E0800040E0A00040E0C00040E0E00080000000800020008000400080006000800080008000A0008000C0008000E00080200000802020008020400080206000802080008020A0008020C0008020E00080400000804020008040400080406000804080
310
008040A0008040C0008040E00080600000806020008060400080606000806080008060A0008060C0008060E00080800000808020008080400080806000808080008080A0008080C0008080E00080A0000080A0200080A0400080A0600080A0800080A0A00080A0C00080A0E00080C0000080C0200080C0400080C0600080C0
310
800080C0A00080C0C00080C0E00080E0000080E0200080E0400080E0600080E0800080E0A00080E0C00080E0E000C0000000C0002000C0004000C0006000C0008000C000A000C000C000C000E000C0200000C0202000C0204000C0206000C0208000C020A000C020C000C020E000C0400000C0402000C0404000C0406000C0
310
408000C040A000C040C000C040E000C0600000C0602000C0604000C0606000C0608000C060A000C060C000C060E000C0800000C0802000C0804000C0806000C0808000C080A000C080C000C080E000C0A00000C0A02000C0A04000C0A06000C0A08000C0A0A000C0A0C000C0A0E000C0C00000C0C02000C0C04000C0C06000
310
C0C08000C0C0A000F0FBFF00A4A0A000808080000000FF0000FF000000FFFF00FF000000FF00FF00FFFF0000FFFFFF0000000000000000000000000000000000000000000000000000000000000000000000000000000000000000000000000000000000000000000000000000000000000000000000000000000000000000
310
00000000000000000000000000000000000000000000000000000000000000000000000000000000000000000000000000000000000000000000000000000000000000000000000000000000000000000000000000000000000000000000000000000000000000000000000000000000000000000000000000000000000000
310
00000000000000000000000000000000000000000000000000000000000000000000000000000000000000000000000000000000000000000000000000000000000000000000000000000000000000000000000000000000000000000000000000000000000000000000000000000000000000000000000000000000000000
310
0000000000000000000000000000000000000000000000000000000000000000000000000000000000000000000000000000000000000000000000000000000000000000000000000000000000000000000000000000000000FFFFFFFFFF00000000000000000000000000000000000000000000000000FFFFFFFFFFFFFFFF
310
00000000000000000000E000E0E000E0E0E0000000FFFFFFFFFFFFFFFFFFFFFFFFFFFFFFFFE0E0E0E0E0E0E0E0E0E0E0E0E000000000FFFFFFFFFFFFFFFFFFFFFFFFFFFFFFE0E0E0E0E0E0E0E0E0E0E0E0E000000000FFFFFFFFFFFFFFFFFFFFFFFFFFFFFFE0E0E0E0E0E0E0E0E0E0E0E0E0E0000000000000000000000000
310
00000000000000000000000000000000E00000000000000000000000000000000000000000000000000000000000000000000000000000000000000000000000000000000000000000000000000000000000000000000000000000000000000000000000000000000000000000000000000000000000000000000000000000
310
00000000000000000000000000000000000000000000000000000000000000000000000000000000000000000000000000000000000000000000000000000000000000000000000000000000000000000000000000000000000000000000000000000000000000000000000000000000000000000000000000000000000000
310
00000000000000000000000000000000000000000000000000000000000000000000000000000000000000000000000000000000000000000000000000000000000000000000000000000000000000000000000000000000000000000000000000000000000000000000000000000000000000000000000000000000000000
310
0000000000000000000000000000000000000000000000000000000000000000000000000000000000000000000000000000000000000000
102
{BLKREFS
331
B40
102
}
 70
     1
280
     1
281
     0
  0
BLOCK_RECORD
  5
E55
330
1
100
AcDbSymbolTableRecord
100
AcDbBlockTableRecord
  2
*D7
340
0
 70
     0
280
     1
281
     0
  0
BLOCK_RECORD
  5
E62
330
1
100
AcDbSymbolTableRecord
100
AcDbBlockTableRecord
  2
*D8
340
0
 70
     0
280
     1
281
     0
  0
BLOCK_RECORD
  5
E6F
330
1
100
AcDbSymbolTableRecord
100
AcDbBlockTableRecord
  2
*D9
340
0
 70
     0
280
     1
281
     0
  0
BLOCK_RECORD
  5
E7C
330
1
100
AcDbSymbolTableRecord
100
AcDbBlockTableRecord
  2
*D10
340
0
 70
     0
280
     1
281
     0
  0
ENDTAB
  0
ENDSEC
  0
SECTION
  2
BLOCKS
  0
BLOCK
  5
20
330
1F
100
AcDbEntity
  8
0
100
AcDbBlockBegin
  2
*Model_Space
 70
     0
 10
0.0
 20
0.0
 30
0.0
  3
*Model_Space
  1

  0
ENDBLK
  5
21
330
1F
100
AcDbEntity
  8
0
100
AcDbBlockEnd
  0
BLOCK
  5
1C
330
1B
100
AcDbEntity
 67
     1
  8
0
100
AcDbBlockBegin
  2
*Paper_Space
 70
     0
 10
0.0
 20
0.0
 30
0.0
  3
*Paper_Space
  1

  0
ENDBLK
  5
1D
330
1B
100
AcDbEntity
 67
     1
  8
0
100
AcDbBlockEnd
  0
BLOCK
  5
24
330
23
100
AcDbEntity
 67
     1
  8
0
100
AcDbBlockBegin
  2
*Paper_Space0
 70
     0
 10
0.0
 20
0.0
 30
0.0
  3
*Paper_Space0
  1

  0
ENDBLK
  5
25
330
23
100
AcDbEntity
 67
     1
  8
0
100
AcDbBlockEnd
  0
BLOCK
  5
3FA
330
3F9
100
AcDbEntity
  8
0
100
AcDbBlockBegin
  2
Block3
 70
     0
 10
0.0
 20
0.0
 30
0.0
  3
Block3
  1

  0
CIRCLE
  5
3FB
330
3F9
100
AcDbEntity
  8
FORMAT
 62
     7
370
    15
100
AcDbCircle
 10
9.623096090023436
 20
2.115622186524885
 30
0.0
 40
0.0998031496062924
  0
CIRCLE
  5
3FC
330
3F9
100
AcDbEntity
  8
FORMAT
 62
     7
370
    15
100
AcDbCircle
 10
9.623096090023436
 20
2.115622186524885
 30
0.0
 40
0.1996062992125948
  0
LINE
  5
3FD
330
3F9
100
AcDbEntity
  8
FORMAT
 62
     7
370
    15
100
AcDbLine
 10
10.05890680910872
 20
2.020396293772344
 30
0.0
 11
10.05890680910872
 21
2.210848079277426
 31
0.0
  0
LINE
  5
3FE
330
3F9
100
AcDbEntity
  8
FORMAT
 62
     7
370
    15
100
AcDbLine
 10
10.05890680910872
 20
2.210848079277426
 30
0.0
 11
10.55986477488565
 21
2.315228485737483
 31
0.0
  0
LINE
  5
3FF
330
3F9
100
AcDbEntity
  8
FORMAT
 62
     7
370
    15
100
AcDbLine
 10
10.55986477488565
 20
2.315228485737483
 30
0.0
 11
10.55986477488565
 21
1.916015887312285
 31
0.0
  0
LINE
  5
400
330
3F9
100
AcDbEntity
  8
FORMAT
 62
     7
370
    15
100
AcDbLine
 10
10.55986477488565
 20
1.916015887312285
 30
0.0
 11
10.05890680910872
 21
2.020396293772344
 31
0.0
  0
LINE
  5
401
330
3F9
100
AcDbEntity
  8
FORMAT
 62
     7
370
    15
100
AcDbLine
 10
9.987169396213419
 20
2.115622186524885
 30
0.0
 11
10.59626953693931
 21
2.115622186524885
 31
0.0
  0
LINE
  5
402
330
3F9
100
AcDbEntity
  8
FORMAT
 62
     7
370
    15
100
AcDbLine
 10
9.368122674365656
 20
2.115622186524885
 30
0.0
 11
9.87806950568121
 21
2.115622186524885
 31
0.0
  0
LINE
  5
403
330
3F9
100
AcDbEntity
  8
FORMAT
 62
     7
370
    15
100
AcDbLine
 10
9.623096090023436
 20
1.872691387914879
 30
0.0
 11
9.623096090023436
 21
2.382638219230431
 31
0.0
  0
ENDBLK
  5
404
330
3F9
100
AcDbEntity
  8
0
100
AcDbBlockEnd
  0
BLOCK
  5
406
330
405
100
AcDbEntity
  8
0
100
AcDbBlockBegin
  2
Block2
 70
     0
 10
0.0
 20
0.0
 30
0.0
  3
Block2
  1

  0
INSERT
  5
407
330
405
100
AcDbEntity
  8
0
  6
Continuous
 62
     7
100
AcDbBlockReference
  2
Block3
 10
-0.0282699124868556
 20
0.0201145539810274
 30
0.0
  0
ENDBLK
  5
408
330
405
100
AcDbEntity
  8
0
100
AcDbBlockEnd
  0
BLOCK
  5
40C
330
409
100
AcDbEntity
  8
0
100
AcDbBlockBegin
  2
amazon
 70
     0
 10
0.0
 20
0.0
 30
0.0
  3
amazon
  1

  0
HATCH
  5
40D
330
409
100
AcDbEntity
  8
0
100
AcDbHatch
 10
0.0
 20
0.0
 30
0.0
210
0.0
220
0.0
230
0.9999999999999998
  2
SOLID
 70
     1
 71
     0
 91
        1
 92
        5
 93
        1
 72
     4
 94
        3
 73
     0
 74
     0
 95
       18
 96
       14
 40
0.0
 40
0.0
 40
0.0
 40
0.0
 40
0.0596755466403443
 40
0.1035834707990989
 40
0.1695571134872838
 40
0.2000964637947284
 40
0.2237461165360023
 40
0.2565225897680324
 40
0.2756876256135649
 40
0.3018435697278741
 40
0.3302551352352805
 40
0.3457181605243852
 40
0.3618589112597388
 40
0.3618589112597388
 40
0.3618589112597388
 40
0.3618589112597388
 10
0.9280407135556529
 20
0.3678371450737368
 10
1.014164084729102
 20
0.3851494268204694
 10
1.144945011486449
 20
0.4024842103214663
 10
1.481904894757406
 20
0.3990648758382389
 10
1.309526957346704
 20
0.1657833910269666
 10
1.071996456892463
 20
0.0025828528301117
 10
1.213429780952147
 20
0.147260900816045
 10
1.269689397936616
 20
0.2055836989094448
 10
1.328770741103362
 20
0.3426132943554165
 10
1.182110533057802
 20
0.3629915346337151
 10
1.077363991359149
 20
0.3586993230536737
 10
1.01802908590988
 20
0.3618658313307459
 10
0.904746484263093
 20
0.3631546035627498
 10
0.9280407135556529
 20
0.3678371450737368
 97
        0
 75
     0
 76
     1
 47
0.0083360314226261
 98
        1
 10
1.350036184717041
 20
0.3275823953230534
450
        0
451
        0
460
0.0
461
0.0
452
        1
462
1.0
453
        2
463
0.0
 63
     5
421
      255
463
1.0
 63
     7
421
 16777215
470
LINEAR
1001
ACAD
1010
0.0
1020
0.0
1030
0.0
  0
HATCH
  5
40E
330
409
100
AcDbEntity
  8
0
100
AcDbHatch
 10
0.0
 20
0.0
 30
0.0
210
0.0
220
0.0
230
0.9999999999999998
  2
SOLID
 70
     1
 71
     0
 91
        9
 92
        7
 72
     1
 73
     1
 93
       20
 10
-1.397399278738596
 20
0.888299103756417
 42
0.0
 10
-1.517557092146972
 20
0.8521069912840207
 42
0.0
 10
-1.634457615432786
 20
0.8260486703038981
 42
0.113500075695427
 10
-1.796297882939342
 20
0.77249506361993
 42
0.335029435887297
 10
-1.882119182302076
 20
0.5660893728218724
 42
0.2523749963765925
 10
-1.737967057103837
 20
0.4398788302234422
 42
0.1008759599722844
 10
-1.585598263595066
 20
0.4319165654795154
 42
0.1558313267708922
 10
-1.397230403062579
 20
0.516966153393244
 42
0.0
 10
-1.397399278738596
 20
0.5017673425512395
 42
0.1600174655974661
 10
-1.372064800007926
 20
0.4395169090987201
 42
0.0
 10
-1.217886400875514
 20
0.4395169090987201
 42
-0.1096578030042886
 10
-1.250459302100694
 20
0.4735374948229208
 42
-0.1371553684281488
 10
-1.269279200586318
 20
0.540854824021424
 42
0.0
 10
-1.269279200586318
 20
0.9244912162288137
 42
0.267077244638994
 10
-1.391608540743007
 20
1.084460353356798
 42
0.1085027846705916
 10
-1.618171164820246
 20
1.110518674336923
 42
0.3343505200399534
 10
-1.854867580389672
 20
0.9063951599926172
 42
0.0
 10
-1.71371834174733
 20
0.9063951599926172
 42
-0.2815324590939715
 10
-1.623703637535193
 20
0.9970774848409384
 42
-0.1775171235246243
 10
-1.454582816445004
 20
0.984570122933
 42
-0.2483479329952881
 97
        0
 92
       22
 72
     1
 73
     1
 93
        8
 10
-1.397399278738596
 20
0.7768273973414295
 42
0.0
 10
-1.397399278738596
 20
0.658841110681435
 42
-0.2004737922071577
 10
-1.563882996111615
 20
0.5415786662708722
 42
-0.1115040980661369
 10
-1.686936178517754
 20
0.5404929028967014
 42
-0.2738586692622027
 10
-1.742672031725241
 20
0.6002098884761536
 42
-0.289643054085014
 10
-1.707203761502306
 20
0.6928616964054842
 42
-0.1190249358109779
 10
-1.625409587314685
 20
0.7261584398800891
 42
-0.0006545690929014
 10
-1.500908720409647
 20
0.7514929186107651
 42
0.031014715336947
 97
        0
 92
        7
 72
     1
 73
     1
 93
       27
 10
-1.062984159493659
 20
0.4395169090987201
 42
0.0
 10
-0.9348640813413879
 20
0.4395169090987201
 42
0.0
 10
-0.9348640813413879
 20
0.8535546757829193
 42
-0.1716644096531924
 10
-0.8769567013855592
 20
0.9534449062067299
 42
-0.1448545784781812
 10
-0.7799618399595332
 20
0.9997708101713946
 42
-0.1340090766267909
 10
-0.6862242686560336
 20
0.9885512553049524
 42
-0.2563461470910333
 10
-0.6192688605821033
 20
0.8998805797475881
 42
0.0
 10
-0.6192688605821033
 20
0.4395169090987201
 42
0.0
 10
-0.4904249401803611
 20
0.4395169090987201
 42
0.0
 10
-0.4904249401803753
 20
0.8641979875178154
 42
-0.1830801363087423
 10
-0.4212980053581035
 20
0.9621310132001053
 42
-0.1206854715101709
 10
-0.3311796453018374
 20
0.9975992834230517
 42
-0.2157527517618656
 10
-0.216674861049178
 20
0.9774303127070119
 42
-0.2679983488848178
 10
-0.1748297194210906
 20
0.9063951599927708
 42
0.0
 10
-0.1748297194210977
 20
0.4395169090987201
 42
0.0
 10
-0.0467096412688122
 20
0.4395169090987201
 42
0.0
 10
-0.0467096412688122
 20
0.9063951599926172
 42
0.0
 10
-0.0467096412688122
 20
0.9360726922199805
 42
0.2784603970195297
 10
-0.1675912969266093
 20
1.094594144849069
 42
0.1495326253440701
 10
-0.3521710705358245
 20
1.102556409592997
 42
0.1796241607690637
 10
-0.5034541006704388
 20
0.9896370186791244
 42
0.1190036376854939
 10
-0.5809052213613626
 20
1.073602719615081
 42
0.1510696384071214
 10
-0.753179676729971
 20
1.112690201085266
 42
0.122416550902687
 10
-0.8494506959065404
 20
1.081564984359008
 42
0.0903817772246913
 10
-0.9348640813413879
 20
1.001218494670287
 42
0.0
 10
-0.9348640813413879
 20
1.101108725094101
 42
0.0
 10
-1.062984159493659
 20
1.101108725094101
 42
0.0
 97
        0
 92
        7
 72
     1
 73
     1
 93
       20
 10
0.1120662149268909
 20
0.5660893728218764
 42
0.2523749963765703
 10
0.256218340125109
 20
0.4398788302234467
 42
0.100875959972303
 10
0.4085871336339224
 20
0.4319165654795159
 42
0.1558313267708855
 10
0.5969549941663886
 20
0.516966153393244
 42
0.0
 10
0.5967861184903711
 20
0.5017673425512395
 42
0.1600174655974661
 10
0.6221205972210555
 20
0.4395169090987201
 42
0.0
 10
0.7762989963534466
 20
0.4395169090987201
 42
-0.1096578030036369
 10
0.7437260951284089
 20
0.4735374948226645
 42
-0.1371553684287215
 10
0.7249061966426496
 20
0.540854824021424
 42
0.0
 10
0.7249061966426496
 20
0.9244912162288137
 42
0.2670772446390557
 10
0.6025768564859249
 20
1.084460353356814
 42
0.1085027846705556
 10
0.3760142324087567
 20
1.110518674336923
 42
0.3343505200399825
 10
0.1393178168393021
 20
0.9063951599926172
 42
0.0
 10
0.2804670554816368
 20
0.9063951599926172
 42
-0.2815324590939487
 10
0.370481759693746
 20
0.9970774848409313
 42
-0.1775171235246857
 10
0.539602580783992
 20
0.9845701229329858
 42
-0.2483479329952225
 10
0.5967861184903711
 20
0.888299103756417
 42
0.0
 10
0.4766283050820306
 20
0.8521069912840264
 42
0.0
 10
0.359727781796181
 20
0.8260486703038981
 42
0.113500075695427
 10
0.1978875142896257
 20
0.77249506361993
 42
0.335029435887291
 97
        0
 92
       22
 72
     1
 73
     1
 93
        8
 10
0.2869816357266757
 20
0.6928616964054842
 42
-0.1190249358109779
 10
0.3687758099142826
 20
0.7261584398800891
 42
-0.0006545690929014
 10
0.4932766768193205
 20
0.7514929186107651
 42
0.0310147153369478
 10
0.5967861184903711
 20
0.7768273973414419
 42
0.0
 10
0.5967861184903711
 20
0.658841110681435
 42
-0.2004737922071577
 10
0.430302401117352
 20
0.5415786662708722
 42
-0.1115040980661369
 10
0.3072492187112061
 20
0.5404929028967014
 42
-0.2738586692622027
 10
0.251513365503726
 20
0.6002098884761536
 42
-0.289643054085014
 97
        0
 92
        7
 72
     1
 73
     1
 93
       10
 10
1.490731296558529
 20
0.9717250567569255
 42
0.0
 10
1.490731296558529
 20
1.101108725094102
 42
0.0
 10
0.9246866574902696
 20
1.101108725094102
 42
0.0
 10
0.9246866574902767
 20
0.9648744605637409
 42
0.0
 10
1.298313112053691
 20
0.9648744605637409
 42
0.0
 10
0.8993521787595994
 20
0.5408548240214275
 42
0.0
 10
0.8993521787595994
 20
0.4395169090987241
 42
-0.1473109550280885
 10
1.52402804003313
 20
0.4395169090987184
 42
0.0
 10
1.52402804003313
 20
0.581774738538516
 42
0.0747823019347494
 10
1.16328520907988
 20
0.6214717791056393
 42
0.0
 97
        0
 92
        7
 72
     1
 73
     1
 93
        2
 10
1.658662698430447
 20
0.7829800564617493
 42
1.0
 10
2.353551257900427
 20
0.7829800564617493
 42
1.0
 97
        0
 92
       22
 72
     1
 73
     1
 93
        2
 10
2.212041370259932
 20
0.7829800564617493
 42
-1.0
 10
1.800172586070949
 20
0.7829800564617493
 42
-1.0
 97
        0
 92
        7
 72
     1
 73
     1
 93
       15
 10
2.520758817522896
 20
0.4395169090987201
 42
0.0
 10
2.649602737924617
 20
0.4395169090987201
 42
0.0
 10
2.649602737924617
 20
0.7753797128425455
 42
-0.1884880930389393
 10
2.726330016366098
 20
0.9404157457166672
 42
-0.0825504763720134
 10
2.808124190553712
 20
1.002666179169187
 42
-0.1879859195515259
 10
2.9333488997082
 20
1.010628443913113
 42
-0.3400688989443128
 10
3.022381496390295
 20
0.8948632846375158
 42
0.0
 10
3.022381496390295
 20
0.4395169090987201
 42
0.0
 10
3.151225416792009
 20
0.4395169090987201
 42
0.0
 10
3.151225416792023
 20
0.9382442189683235
 42
0.3709832727766776
 10
2.952118968473769
 20
1.109868265359158
 42
0.160618198198489
 10
2.773379762580219
 20
1.083012668857902
 42
0.0920112842116662
 10
2.649602737924617
 20
0.9831224384341012
 42
0.0
 10
2.649602737924631
 20
1.101108725094101
 42
0.0
 10
2.520758817522896
 20
1.1011087250941
 42
0.0
 97
        0
 75
     0
 76
     1
 47
0.0079344138681199
 98
        9
 10
-1.376638647914745
 20
0.8943652481782571
 10
-1.376638647914745
 20
0.8943652481782571
 10
-1.008011843667617
 20
0.7810537369378041
 10
0.2295103337683244
 20
0.706616395506853
 10
0.2295103337683244
 20
0.706616395506853
 10
1.173803717490862
 20
0.7215039733471374
 10
1.736822720547962
 20
0.9152585806937842
 10
1.736822720547962
 20
0.9152585806937842
 10
2.581717008623201
 20
0.8854836988984509
450
        0
451
        0
460
0.0
461
0.0
452
        1
462
1.0
453
        2
463
0.0
 63
     5
421
      255
463
1.0
 63
     7
421
 16777215
470
LINEAR
1001
ACAD
1010
0.0
1020
0.0
1030
0.0
  0
TEXT
  5
40F
330
409
100
AcDbEntity
  8
0
 62
   150
100
AcDbText
 10
3.411151618523078
 20
0.4239129498757777
 30
0.0
 40
1.05
  1
supply
 41
1.08
  7
style2
100
AcDbText
  0
HATCH
  5
410
330
409
100
AcDbEntity
  8
0
100
AcDbHatch
 10
0.0
 20
0.0
 30
0.0
210
0.0
220
0.0
230
0.9999999999999998
  2
SOLID
 70
     1
 71
     0
 91
        1
 92
        7
 72
     1
 73
     1
 93
        2
 10
-1.177902949885989
 20
0.4051926481048067
 42
0.3081272588713221
 10
1.212164975232198
 20
0.2933070771634125
 42
-0.177724595219735
 97
        0
 75
     0
 76
     1
 47
0.0009928164167271
 98
        1
 10
0.1755697210077258
 20
0.0593374821502257
450
        0
451
        0
460
0.0
461
0.0
452
        1
462
1.0
453
        2
463
0.0
 63
     5
421
      255
463
1.0
 63
     7
421
 16777215
470
LINEAR
1001
ACAD
1010
0.0
1020
0.0
1030
0.0
  0
ENDBLK
  5
411
330
409
100
AcDbEntity
  8
0
100
AcDbBlockEnd
  0
BLOCK
  5
B31
330
B30
100
AcDbEntity
  8
0
100
AcDbBlockBegin
  2
amazon block
 70
     0
 10
0.0
 20
0.0
 30
0.0
  3
amazon block
  1

  0
HATCH
  5
B32
330
B30
100
AcDbEntity
  8
0
100
AcDbHatch
 10
0.0
 20
0.0
 30
0.0
210
0.0
220
0.0
230
1.0
  2
SOLID
 70
     1
 71
     0
 91
        1
 92
        7
 72
     1
 73
     1
 93
        2
 10
0.1428560650202613
 20
0.0268249692297831
 42
0.3005568377796329
 10
0.6100026189360293
 20
0.0009915743964171
 42
-0.1486648242730099
 97
        0
 75
     0
 76
     1
 47
0.0083360314226261
 98
        1
 10
0.3681872109149253
 20
-0.0332769951503647
450
        0
451
        0
460
0.0
461
0.0
452
        1
462
1.0
453
        2
463
0.0
 63
     5
421
      255
463
1.0
 63
     7
421
 16777215
470
LINEAR
1001
ACAD
1010
0.0
1020
0.0
1030
0.0
  0
HATCH
  5
B33
330
B30
100
AcDbEntity
  8
0
100
AcDbHatch
 10
0.0
 20
0.0
 30
0.0
210
0.0
220
0.0
230
1.0
  2
SOLID
 70
     1
 71
     0
 91
        1
 92
        5
 93
        1
 72
     4
 94
        3
 73
     0
 74
     0
 95
       18
 96
       14
 40
0.0
 40
0.0
 40
0.0
 40
0.0
 40
0.3060284443094571
 40
0.531197286149225
 40
0.8695236589091486
 40
1.026135711767838
 40
1.14741598223591
 40
1.315500460348882
 40
1.413679231894078
 40
1.543957423309552
 40
1.719337158993241
 40
1.76919128251474
 40
1.852441399548553
 40
1.852441399548553
 40
1.852441399548553
 40
1.852441399548553
 10
0.5476248318910955
 20
0.0189472839500944
 10
0.5671265702171127
 20
0.0228674694218305
 10
0.5967407336623403
 20
0.0267937023518194
 10
0.6730410215606746
 20
0.0260155775369224
 10
0.6340109953118472
 20
-0.0267925718215847
 10
0.5802183818763105
 20
-0.0637796196110996
 10
0.6122605658026537
 20
-0.030937261100445
 10
0.624929189918916
 20
-0.0180757154749651
 10
0.6383573330340191
 20
0.013562833138125
 10
0.6020518241954172
 20
0.0146147000415664
 10
0.5794789444548947
 20
0.0158864032827642
 10
0.5641956865595646
 20
0.0167018526831093
 10
0.5423196975867733
 20
0.017880860532975
 10
0.5476248318910955
 20
0.0189472839500944
 97
        0
 75
     0
 76
     1
 47
0.0083360314226261
 98
        1
 10
0.644363460657651
 20
0.0075847933888076
450
        0
451
        0
460
0.0
461
0.0
452
        1
462
1.0
453
        2
463
0.0
 63
     5
421
      255
463
1.0
 63
     7
421
 16777215
470
LINEAR
1001
ACAD
1010
0.0
1020
0.0
1030
0.0
  0
HATCH
  5
B34
330
B30
100
AcDbEntity
  8
0
100
AcDbHatch
 10
0.0
 20
0.0
 30
0.0
210
0.0
220
0.0
230
1.0
  2
SOLID
 70
     1
 71
     0
 91
        9
 92
        7
 72
     1
 73
     1
 93
       20
 10
0.1000542808940033
 20
0.1169245515333142
 42
0.0
 10
0.076623507279372
 20
0.1098670896011966
 42
0.0
 10
0.0538279052386379
 20
0.1047857170100728
 42
0.113500075695427
 10
0.0222690530748579
 20
0.0943427637066989
 42
0.335029435887297
 10
0.0055338996991239
 20
0.0540936540010777
 42
0.2523749963765925
 10
0.0336435641127828
 20
0.0294825981943836
 42
0.1008759599722844
 10
0.0633554788469937
 20
0.0279299565693179
 42
0.1558313267708922
 10
0.1000872116508269
 20
0.0445146262124951
 42
0.0
 10
0.1000542808940033
 20
0.0415508580983044
 42
0.1600174655974661
 10
0.1049945042464841
 20
0.029412023575063
 42
0.0
 10
0.1350592920773046
 20
0.029412023575063
 42
-0.1096578030042886
 10
0.128707576338396
 20
0.0360460377912819
 42
-0.1371553684281488
 10
0.125037696133699
 20
0.0491729169849902
 42
0.0
 10
0.125037696133699
 20
0.1239820134654312
 42
0.267077244638994
 10
0.1011834748031433
 20
0.1551759952053882
 42
0.1085027846705916
 10
0.0570037631080815
 20
0.1602573677965124
 42
0.3343505200399534
 10
0.0108479620720452
 20
0.1204532824993727
 42
0.0
 10
0.0383720636073015
 20
0.1204532824993727
 42
-0.2815324590939715
 10
0.0559249309286685
 20
0.1381363358447958
 42
-0.1775171235246243
 10
0.0889034910412541
 20
0.1356974002727478
 42
-0.2483479329952881
 97
        0
 92
       22
 72
     1
 73
     1
 93
        8
 10
0.1000542808940033
 20
0.0951875687823911
 42
0.0
 10
0.1000542808940033
 20
0.0721802428836922
 42
-0.2004737922071577
 10
0.0675899560062661
 20
0.0493140662236327
 42
-0.1115040980661369
 10
0.0435945854370701
 20
0.0491023423656691
 42
-0.2738586692622027
 10
0.0327260940616085
 20
0.0607471545536624
 42
-0.289643054085014
 10
0.0396424067550818
 20
0.0788142570998818
 42
-0.1190249358109779
 10
0.0555922707216681
 20
0.0853071220774298
 42
-0.0006545690929014
 10
0.0798699397681482
 20
0.090247345429912
 42
0.031014715336947
 97
        0
 92
        7
 72
     1
 73
     1
 93
       27
 10
0.1652652291467689
 20
0.029412023575063
 42
0.0
 10
0.190248644386461
 20
0.029412023575063
 42
0.0
 10
0.190248644386461
 20
0.1101493880784821
 42
-0.1716644096531924
 10
0.201540583477847
 20
0.1296279830111251
 42
-0.1448545784781812
 10
0.2204545814559218
 20
0.1386615342842345
 42
-0.1340090766267909
 10
0.2387334078601029
 20
0.1364737210852782
 42
-0.2563461470910333
 10
0.251789712434519
 20
0.1191829393515924
 42
0.0
 10
0.251789712434519
 20
0.029412023575063
 42
0.0
 10
0.2769142769128621
 20
0.029412023575063
 42
0.0
 10
0.2769142769128585
 20
0.1122248338667866
 42
-0.1830801363087423
 10
0.290394029203199
 20
0.1313217738748333
 42
-0.1206854715101709
 10
0.3079671094141716
 20
0.1382380865683075
 42
-0.2157527517618656
 10
0.3302955423434426
 20
0.1343051372786799
 42
-0.2679983488848178
 10
0.33845534496092
 20
0.1204532824994029
 42
0.0
 10
0.3384553449609164
 20
0.029412023575063
 42
0.0
 10
0.3634387602006122
 20
0.029412023575063
 42
0.0
 10
0.3634387602006122
 20
0.1204532824993727
 42
0.0
 10
0.3634387602006122
 20
0.1262404012837086
 42
0.2784603970195297
 10
0.3398668373473406
 20
0.1571520845463814
 42
0.1495326253440701
 10
0.3038737814935466
 20
0.1587047261714471
 42
0.1796241607690637
 10
0.2743735906172944
 20
0.1366854449432417
 42
0.1190036376854939
 10
0.259270622082564
 20
0.1530587566257537
 42
0.1510696384071214
 10
0.2256771032856868
 20
0.1606808155124395
 42
0.122416550902687
 10
0.2069042545462558
 20
0.154611398250819
 42
0.0903817772246913
 10
0.190248644386461
 20
0.1389438327615187
 42
0.0
 10
0.190248644386461
 20
0.1584224276941626
 42
0.0
 10
0.1652652291467689
 20
0.1584224276941626
 42
0.0
 97
        0
 92
        7
 72
     1
 73
     1
 93
       20
 10
0.394400052158776
 20
0.0540936540010786
 42
0.2523749963765703
 10
0.4225097165724279
 20
0.0294825981943845
 42
0.100875959972303
 10
0.4522216313066459
 20
0.0279299565693183
 42
0.1558313267708855
 10
0.4889533641104756
 20
0.0445146262124951
 42
0.0
 10
0.4889204333536519
 20
0.0415508580983044
 42
0.1600174655974661
 10
0.4938606567061364
 20
0.029412023575063
 42
0.0
 10
0.5239254445369533
 20
0.029412023575063
 42
-0.1096578030036369
 10
0.5175737287980695
 20
0.0360460377912322
 42
-0.1371553684287215
 10
0.5139038485933476
 20
0.0491729169849902
 42
0.0
 10
0.5139038485933476
 20
0.1239820134654312
 42
0.2670772446390557
 10
0.4900496272627848
 20
0.1551759952053913
 42
0.1085027846705556
 10
0.4458699155677373
 20
0.1602573677965129
 42
0.3343505200399825
 10
0.3997141145316938
 20
0.1204532824993727
 42
0.0
 10
0.4272382160669502
 20
0.1204532824993727
 42
-0.2815324590939487
 10
0.44479108338831
 20
0.138136335844794
 42
-0.1775171235246857
 10
0.4777696435009098
 20
0.1356974002727447
 42
-0.2483479329952225
 10
0.4889204333536519
 20
0.1169245515333142
 42
0.0
 10
0.4654896597390277
 20
0.1098670896011979
 42
0.0
 10
0.4426940576982866
 20
0.1047857170100728
 42
0.113500075695427
 10
0.4111352055345066
 20
0.0943427637066989
 42
0.335029435887291
 97
        0
 92
       22
 72
     1
 73
     1
 93
        8
 10
0.428508559214734
 20
0.0788142570998818
 42
-0.1190249358109779
 10
0.4444584231813167
 20
0.0853071220774298
 42
-0.0006545690929014
 10
0.4687360922277968
 20
0.090247345429912
 42
0.0310147153369478
 10
0.4889204333536519
 20
0.0951875687823938
 42
0.0
 10
0.4889204333536519
 20
0.0721802428836922
 42
-0.2004737922071577
 10
0.4564561084659147
 20
0.0493140662236327
 42
-0.1115040980661369
 10
0.4324607378967152
 20
0.0491023423656691
 42
-0.2738586692622027
 10
0.4215922465212572
 20
0.0607471545536624
 42
-0.289643054085014
 97
        0
 92
        7
 72
     1
 73
     1
 93
       10
 10
0.663239743076943
 20
0.1331926123684131
 42
0.0
 10
0.663239743076943
 20
0.1584224276941626
 42
0.0
 10
0.5528610384586337
 20
0.1584224276941626
 42
0.0
 10
0.5528610384586337
 20
0.131856746110742
 42
0.0
 10
0.6257181970985002
 20
0.131856746110742
 42
0.0
 10
0.5479208151061528
 20
0.0491729169849911
 42
0.0
 10
0.5479208151061528
 20
0.0294120235750635
 42
-0.1473109550280885
 10
0.6697326080544919
 20
0.0294120235750626
 42
0.0
 10
0.6697326080544919
 20
0.0571523003158232
 42
0.0747823019347494
 10
0.5993877560186079
 20
0.0648932232264121
 42
0.0
 97
        0
 92
        7
 72
     1
 73
     1
 93
        2
 10
0.6959863664419679
 20
0.0963873373108535
 42
1.0
 10
0.8314896355386132
 20
0.0963873373108535
 42
1.0
 97
        0
 92
       22
 72
     1
 73
     1
 93
        2
 10
0.8038952074487184
 20
0.0963873373108535
 42
-1.0
 10
0.7235807945318662
 20
0.0963873373108535
 42
-1.0
 97
        0
 92
        7
 72
     1
 73
     1
 93
       15
 10
0.8640951096649978
 20
0.029412023575063
 42
0.0
 10
0.8892196741433302
 20
0.029412023575063
 42
0.0
 10
0.8892196741433302
 20
0.0949052703051088
 42
-0.1884880930389393
 10
0.9041814934394203
 20
0.1270872967155627
 42
-0.0825504763720134
 10
0.9201313574060066
 20
0.1392261312388041
 42
-0.1879859195515259
 10
0.9445501756911305
 20
0.1407787728638694
 42
-0.3400688989443128
 10
0.9619115320441373
 20
0.1182045668051281
 42
0.0
 10
0.9619115320441373
 20
0.029412023575063
 42
0.0
 10
0.9870360965224733
 20
0.029412023575063
 42
0.0
 10
0.9870360965224769
 20
0.1266638489996357
 42
0.3709832727766776
 10
0.9482103391004166
 20
0.1601305380458484
 42
0.160618198198489
 10
0.9133561939511736
 20
0.1548936967281036
 42
0.0920112842116662
 10
0.8892196741433302
 20
0.1354151017954623
 42
0.0
 10
0.8892196741433338
 20
0.1584224276941626
 42
0.0
 10
0.8640951096649978
 20
0.1584224276941621
 42
0.0
 97
        0
 75
     0
 76
     1
 47
0.0079344138681199
 98
        9
 10
0.1041026039046571
 20
0.1181074496955725
 10
0.1041026039046571
 20
0.1181074496955725
 10
0.175984830732844
 20
0.0960117050036842
 10
0.4173016553328531
 20
0.0814964234246487
 10
0.4173016553328531
 20
0.0814964234246487
 10
0.6014388651587482
 20
0.0843995011035044
 10
0.7112275707548826
 20
0.1221816495361003
 10
0.7112275707548826
 20
0.1221816495361003
 10
0.8759819569295572
 20
0.1163755475860104
450
        0
451
        0
460
0.0
461
0.0
452
        1
462
1.0
453
        2
463
0.0
 63
     5
421
      255
463
1.0
 63
     7
421
 16777215
470
LINEAR
1001
ACAD
1010
0.0
1020
0.0
1030
0.0
  0
HATCH
  5
B35
330
B30
100
AcDbEntity
  8
0
 62
   150
100
AcDbHatch
 10
0.0
 20
0.0
 30
0.0
210
0.0
220
0.0
230
1.0
  2
SOLID
 70
     1
 71
     0
 91
        8
 92
        7
 72
     1
 73
     1
 93
       22
 10
1.131716859301388
 20
0.0982802106585603
 42
0.0484183422992068
 10
1.088571435005292
 20
0.1135920246412381
 42
-0.1024497749852004
 10
1.063583383368957
 20
0.125237861247649
 42
-0.5197370575112227
 10
1.065952625421378
 20
0.1500864950045506
 42
-0.1784163181567931
 10
1.097462280584622
 20
0.1562497626075707
 42
-0.1611556671223822
 10
1.130948711999153
 20
0.1417059730721331
 42
0.0
 10
1.143877562730139
 20
0.1560685971400009
 42
0.0879608039459819
 10
1.125754289819187
 20
0.1671964668262178
 42
0.096844267443967
 10
1.086490181797579
 20
0.1727441735534061
 42
0.1289645081611661
 10
1.053342092127955
 20
0.1633533786648891
 42
0.2520599057044872
 10
1.037629278411372
 20
0.1399706628121899
 42
0.2998873610886212
 10
1.050463850241648
 20
0.1096908005921695
 42
0.087968247036807
 10
1.088782354168369
 20
0.0932096049078468
 42
-0.0908267507933147
 10
1.119928772767817
 20
0.0811747820304691
 42
-0.4466858316882535
 10
1.125453128485816
 20
0.0540976492614389
 42
-0.2058443735084833
 10
1.094059901125532
 20
0.0433269295271455
 42
-0.2322683613354944
 10
1.04833474053288
 20
0.0635860005622337
 42
0.0
 10
1.033442870302863
 20
0.0487121861500608
 42
0.0897498636939959
 10
1.054992265021407
 20
0.0336893058402592
 42
0.1162784600455089
 10
1.100093060274716
 20
0.0271838680846326
 42
0.1305494116801128
 10
1.134902795650507
 20
0.0379471166909786
 42
0.2700443324603339
 10
1.150563716135536
 20
0.0687356163070478
 42
0.2747552069495999
 97
        0
 92
        7
 72
     1
 73
     1
 93
       17
 10
1.204964925758659
 20
0.0711619205531866
 42
0.0
 10
1.204964925758659
 20
0.1705032481376225
 42
0.0
 10
1.182530424786222
 20
0.1705032481376221
 42
0.0
 10
1.182530424786222
 20
0.068114123580882
 42
0.231056446390574
 10
1.200275679141658
 20
0.0337787716591849
 42
0.1033983125445035
 10
1.222016181175408
 20
0.0271400549874108
 42
0.1113661879093152
 10
1.256252700835137
 20
0.0321455417860066
 42
0.060456799039856
 10
1.280359576718197
 20
0.0437750658039402
 42
0.0
 10
1.282436740080608
 20
0.0292528824702614
 42
0.0
 10
1.305008011852606
 20
0.0292528824702614
 42
0.0
 10
1.303035750365566
 20
0.045573054697837
 42
0.0
 10
1.303035750365566
 20
0.1704535782767582
 42
0.0
 10
1.280726706724607
 20
0.1704535782767582
 42
0.0
 10
1.280726706724607
 20
0.0603385752977079
 42
-0.0926529444633646
 10
1.271406905425951
 20
0.0542136206901671
 42
-0.0664344377826394
 10
1.252018117536273
 20
0.0470706779667407
 42
-0.0713593701437487
 10
1.22596399727168
 20
0.0462232117768133
 42
-0.3666103947779491
 97
        0
 92
        7
 72
     1
 73
     1
 93
       12
 10
1.34888971452673
 20
-0.0300855190343001
 42
0.0
 10
1.37158389411627
 20
-0.0300855190342997
 42
0.0
 10
1.37158389411627
 20
0.0381322242109672
 42
0.2065475696655794
 10
1.43316687203049
 20
0.0295489681525751
 42
0.2194428372319613
 10
1.471434120104095
 20
0.0681246169490031
 42
0.1323036971285341
 10
1.475462458348772
 20
0.1210354643912233
 42
0.1641390880683366
 10
1.453695611337639
 20
0.1611617476764042
 42
0.205639974219759
 10
1.404711616991345
 20
0.1717914749112652
 42
0.0657328919071964
 10
1.371062306057382
 20
0.1603071107053626
 42
0.0
 10
1.369185970032088
 20
0.1704922854774775
 42
0.0
 10
1.347893491957236
 20
0.1704922854774775
 42
0.0
 10
1.348889714526734
 20
0.1571025974974671
 42
0.0
 97
        0
 92
       22
 72
     1
 73
     1
 93
        8
 10
1.37158389411627
 20
0.1447873628418232
 42
-0.1242339830404592
 10
1.408127279067805
 20
0.1549128436768488
 42
-0.229840994742505
 10
1.439329608924591
 20
0.143501077402358
 42
-0.1934262502536381
 10
1.452032531529923
 20
0.1169919663469652
 42
-0.1013985410677669
 10
1.45007247035501
 20
0.0757878280977211
 42
-0.2083357761076617
 10
1.426144858393048
 20
0.0470888301796872
 42
-0.1496858148879605
 10
1.383365488627418
 20
0.0497243925890185
 42
-0.0899155484976542
 10
1.37158389411627
 20
0.0564933659367366
 42
0.0
 97
        0
 92
        7
 72
     1
 73
     1
 93
       12
 10
1.536384209201344
 20
0.0381322242109672
 42
0.2065475696655794
 10
1.597967187115564
 20
0.0295489681525751
 42
0.2194428372319613
 10
1.63623443518917
 20
0.0681246169490031
 42
0.1323036971285341
 10
1.640262773433846
 20
0.1210354643912233
 42
0.1641390880683366
 10
1.618495926422713
 20
0.1611617476764042
 42
0.205639974219759
 10
1.569511932076419
 20
0.1717914749112652
 42
0.0657328919071964
 10
1.535862621142456
 20
0.1603071107053626
 42
0.0
 10
1.533986285117165
 20
0.1704922854774775
 42
0.0
 10
1.51269380704231
 20
0.1704922854774775
 42
0.0
 10
1.513690029611812
 20
0.1571025974974671
 42
0.0
 10
1.513690029611804
 20
-0.0300855190343001
 42
0.0
 10
1.536384209201344
 20
-0.0300855190342997
 42
0.0
 97
        0
 92
       22
 72
     1
 73
     1
 93
        8
 10
1.53638420920134
 20
0.0564933659367348
 42
0.0
 10
1.536384209201344
 20
0.1447873628418232
 42
-0.1242339830404592
 10
1.572927594152879
 20
0.1549128436768488
 42
-0.229840994742505
 10
1.604129924009665
 20
0.143501077402358
 42
-0.1934262502536381
 10
1.616832846614997
 20
0.1169919663469652
 42
-0.1013985410677669
 10
1.614872785440084
 20
0.0757878280977211
 42
-0.2083357761076617
 10
1.590945173478122
 20
0.0470888301796872
 42
-0.1496858148879605
 10
1.548165803712493
 20
0.0497243925890185
 42
-0.0899155484976689
 97
        0
 92
        7
 72
     1
 73
     1
 93
        9
 10
1.700061888317705
 20
0.2342426883985293
 42
0.0
 10
1.677630680467434
 20
0.2342426883985293
 42
0.0
 10
1.67763068046743
 20
0.0525526462764159
 42
0.3003574180393968
 10
1.689763445472692
 20
0.0294232917661481
 42
0.1772930531369512
 10
1.716213749579594
 20
0.0296692382956376
 42
0.0
 10
1.726340843842322
 20
0.0328930300171466
 42
0.0
 10
1.722947015877874
 20
0.0450847282577249
 42
0.0
 10
1.715478639728772
 20
0.0445718860057287
 42
-0.4033750267256485
 10
1.700061888317705
 20
0.0551463102997136
 42
0.0
 97
        0
 92
        7
 72
     1
 73
     1
 93
       13
 10
1.756550300014353
 20
0.1705037737446156
 42
0.0
 10
1.733158403445031
 20
0.1705037737446147
 42
0.0
 10
1.789004390745333
 20
0.0387212794769898
 42
-0.1248046720339364
 10
1.779651976914252
 20
0.0098440558334927
 42
-0.2041270254703542
 10
1.758338890268429
 20
-0.0108879300937863
 42
-0.1582846410265598
 10
1.728104948139659
 20
-0.0088290148710986
 42
0.0
 10
1.723524002749954
 20
-0.0288461752875353
 42
0.0503996825504031
 10
1.752727303871125
 20
-0.0310194851179708
 42
0.1573307408029109
 10
1.778748174224848
 20
-0.02185783610684
 42
0.1379639421479074
 10
1.7998397718477
 20
0.0061205808064937
 42
0.0
 10
1.863932002621172
 20
0.1705037737446151
 42
0.0
 10
1.84037943355916
 20
0.1705037737446147
 42
0.0
 10
1.801429340670335
 20
0.0575527643750102
 42
0.0
 97
        0
 75
     0
 76
     1
 47
0.0008892483299936
 98
        8
 10
1.136466178840407
 20
0.0806040287034282
 10
1.218376325116423
 20
0.039698608137611
 10
1.365280380260387
 20
0.0654868019383397
 10
1.365280380260387
 20
0.0654868019383397
 10
1.532067085388874
 20
0.0510462190903649
 10
1.532067085388874
 20
0.0510462190903649
 10
1.692326025665067
 20
0.0661634458554534
 10
1.78937173321124
 20
0.0643849607353548
450
        0
451
        0
460
0.0
461
0.0
452
        1
462
1.0
453
        2
463
0.0
 63
     5
421
      255
463
1.0
 63
     7
421
 16777215
470
LINEAR
1001
ACAD
1010
0.0
1020
0.0
1030
0.0
  0
ENDBLK
  5
B36
330
B30
100
AcDbEntity
  8
0
100
AcDbBlockEnd
  0
BLOCK
  5
E5F
330
E55
100
AcDbEntity
  8
0
100
AcDbBlockBegin
  2
*D7
 70
     1
 10
0.0
 20
0.0
 30
0.0
  3
*D7
  1

  0
LINE
  5
E56
330
E55
100
AcDbEntity
  8
DIM
 62
     0
370
    -2
100
AcDbLine
 10
0.3171990125617916
 20
0.3043968722831432
 30
0.0
 11
0.3171990125617916
 21
0.407811442008584
 31
0.0
  0
LINE
  5
E57
330
E55
100
AcDbEntity
  8
DIM
 62
     0
370
    -2
100
AcDbLine
 10
0.0890106600967851
 20
0.3220378066611781
 30
0.0
 11
0.0890106600967851
 21
0.407811442008584
 31
0.0
  0
LINE
  5
E58
330
E55
100
AcDbEntity
  8
DIM
 62
     0
370
    -2
100
AcDbLine
 10
0.3081990125617916
 20
0.3978114420085839
 30
0.0
 11
0.0980106600967851
 21
0.3978114420085839
 31
0.0
  0
SOLID
  5
E59
330
E55
100
AcDbEntity
  8
DIM
 62
     0
100
AcDbTrace
 10
0.3081990125617916
 20
0.3993114420085839
 30
0.0
 11
0.3081990125617916
 21
0.3963114420085839
 31
0.0
 12
0.3171990125617916
 22
0.3978114420085839
 32
0.0
 13
0.3171990125617916
 23
0.3978114420085839
 33
0.0
  0
SOLID
  5
E5A
330
E55
100
AcDbEntity
  8
DIM
 62
     0
100
AcDbTrace
 10
0.0980106600967851
 20
0.3993114420085839
 30
0.0
 11
0.0980106600967851
 21
0.3963114420085839
 31
0.0
 12
0.0890106600967851
 22
0.3978114420085839
 32
0.0
 13
0.0890106600967851
 23
0.3978114420085839
 33
0.0
  0
MTEXT
  5
E5B
330
E55
100
AcDbEntity
  8
DIM
 62
     0
100
AcDbMText
 10
0.2031048363292883
 20
0.4075378186231318
 30
0.0
 40
0.009
 41
0.0
 46
0.0
 71
     5
 72
     1
  1
\A1;0.23
 73
     1
 44
1.0
  0
POINT
  5
E5C
330
E55
100
AcDbEntity
  8
Defpoints
 62
     0
100
AcDbPoint
 10
0.3171990125617916
 20
0.2943968722831431
 30
0.0
  0
POINT
  5
E5D
330
E55
100
AcDbEntity
  8
Defpoints
 62
     0
100
AcDbPoint
 10
0.0890106600967851
 20
0.3120378066611781
 30
0.0
  0
POINT
  5
E5E
330
E55
100
AcDbEntity
  8
Defpoints
 62
     0
100
AcDbPoint
 10
0.0890106600967851
 20
0.3978114420085839
 30
0.0
  0
ENDBLK
  5
E60
330
E55
100
AcDbEntity
  8
0
100
AcDbBlockEnd
  0
BLOCK
  5
E6C
330
E62
100
AcDbEntity
  8
0
100
AcDbBlockBegin
  2
*D8
 70
     1
 10
0.0
 20
0.0
 30
0.0
  3
*D8
  1

  0
LINE
  5
E63
330
E62
100
AcDbEntity
  8
DIM
 62
     0
370
    -2
100
AcDbLine
 10
0.3171990125617916
 20
0.3043968722831432
 30
0.0
 11
0.3171990125617916
 21
0.4568368747043326
 31
0.0
  0
LINE
  5
E64
330
E62
100
AcDbEntity
  8
DIM
 62
     0
370
    -2
100
AcDbLine
 10
0.0671990125617881
 20
0.3348254437117122
 30
0.0
 11
0.0671990125617881
 21
0.4568368747043326
 31
0.0
  0
LINE
  5
E65
330
E62
100
AcDbEntity
  8
DIM
 62
     0
370
    -2
100
AcDbLine
 10
0.3081990125617916
 20
0.4468368747043325
 30
0.0
 11
0.0761990125617881
 21
0.4468368747043325
 31
0.0
  0
SOLID
  5
E66
330
E62
100
AcDbEntity
  8
DIM
 62
     0
100
AcDbTrace
 10
0.3081990125617916
 20
0.4483368747043326
 30
0.0
 11
0.3081990125617916
 21
0.4453368747043326
 31
0.0
 12
0.3171990125617916
 22
0.4468368747043325
 32
0.0
 13
0.3171990125617916
 23
0.4468368747043325
 33
0.0
  0
SOLID
  5
E67
330
E62
100
AcDbEntity
  8
DIM
 62
     0
100
AcDbTrace
 10
0.0761990125617881
 20
0.4483368747043326
 30
0.0
 11
0.0761990125617881
 21
0.4453368747043326
 31
0.0
 12
0.0671990125617881
 22
0.4468368747043325
 32
0.0
 13
0.0671990125617881
 23
0.4468368747043325
 33
0.0
  0
MTEXT
  5
E68
330
E62
100
AcDbEntity
  8
DIM
 62
     0
100
AcDbMText
 10
0.1921990125617898
 20
0.4565632513188806
 30
0.0
 40
0.009
 41
0.0
 46
0.0
 71
     5
 72
     1
  1
\A1;0.25
 73
     1
 44
1.0
  0
POINT
  5
E69
330
E62
100
AcDbEntity
  8
Defpoints
 62
     0
100
AcDbPoint
 10
0.3171990125617916
 20
0.2943968722831431
 30
0.0
  0
POINT
  5
E6A
330
E62
100
AcDbEntity
  8
Defpoints
 62
     0
100
AcDbPoint
 10
0.0671990125617881
 20
0.3248254437117122
 30
0.0
  0
POINT
  5
E6B
330
E62
100
AcDbEntity
  8
Defpoints
 62
     0
100
AcDbPoint
 10
0.0671990125617881
 20
0.4468368747043325
 30
0.0
  0
ENDBLK
  5
E6D
330
E62
100
AcDbEntity
  8
0
100
AcDbBlockEnd
  0
BLOCK
  5
E79
330
E6F
100
AcDbEntity
  8
0
100
AcDbBlockBegin
  2
*D9
 70
     1
 10
0.0
 20
0.0
 30
0.0
  3
*D9
  1

  0
LINE
  5
E70
330
E6F
100
AcDbEntity
  8
DIM
 62
     0
370
    -2
100
AcDbLine
 10
0.2863656870572961
 20
0.3383968722831401
 30
0.0
 11
0.4003174704676481
 21
0.33839687228314
 31
0.0
  0
LINE
  5
E71
330
E6F
100
AcDbEntity
  8
DIM
 62
     0
370
    -2
100
AcDbLine
 10
0.2655323458952219
 20
0.1483968722831424
 30
0.0
 11
0.4003174704676481
 21
0.1483968722831423
 31
0.0
  0
LINE
  5
E72
330
E6F
100
AcDbEntity
  8
DIM
 62
     0
370
    -2
100
AcDbLine
 10
0.390317470467648
 20
0.32939687228314
 30
0.0
 11
0.390317470467648
 21
0.1573968722831423
 31
0.0
  0
SOLID
  5
E73
330
E6F
100
AcDbEntity
  8
DIM
 62
     0
100
AcDbTrace
 10
0.388817470467648
 20
0.32939687228314
 30
0.0
 11
0.391817470467648
 21
0.32939687228314
 31
0.0
 12
0.390317470467648
 22
0.33839687228314
 32
0.0
 13
0.390317470467648
 23
0.33839687228314
 33
0.0
  0
SOLID
  5
E74
330
E6F
100
AcDbEntity
  8
DIM
 62
     0
100
AcDbTrace
 10
0.388817470467648
 20
0.1573968722831423
 30
0.0
 11
0.391817470467648
 21
0.1573968722831423
 31
0.0
 12
0.390317470467648
 22
0.1483968722831423
 32
0.0
 13
0.390317470467648
 23
0.1483968722831423
 33
0.0
  0
MTEXT
  5
E75
330
E6F
100
AcDbEntity
  8
DIM
 62
     0
100
AcDbMText
 10
0.3805910938530999
 20
0.2433968722831413
 30
0.0
 40
0.009
 41
0.0
 46
0.0
 71
     5
 72
     1
  1
\A1;0.19
 11
0.0000000000000001
 21
1.0
 31
0.0
 73
     1
 44
1.0
  0
POINT
  5
E76
330
E6F
100
AcDbEntity
  8
Defpoints
 62
     0
100
AcDbPoint
 10
0.2763656870572961
 20
0.3383968722831401
 30
0.0
  0
POINT
  5
E77
330
E6F
100
AcDbEntity
  8
Defpoints
 62
     0
100
AcDbPoint
 10
0.2555323458952219
 20
0.1483968722831424
 30
0.0
  0
POINT
  5
E78
330
E6F
100
AcDbEntity
  8
Defpoints
 62
     0
100
AcDbPoint
 10
0.390317470467648
 20
0.1483968722831423
 30
0.0
  0
ENDBLK
  5
E7A
330
E6F
100
AcDbEntity
  8
0
100
AcDbBlockEnd
  0
BLOCK
  5
E86
330
E7C
100
AcDbEntity
  8
0
100
AcDbBlockBegin
  2
*D10
 70
     1
 10
0.0
 20
0.0
 30
0.0
  3
*D10
  1

  0
LINE
  5
E7D
330
E7C
100
AcDbEntity
  8
DIM
 62
     0
370
    -2
100
AcDbLine
 10
0.6338071449817831
 20
0.2533968722831412
 30
0.0
 11
0.6338071449817831
 21
0.3922471372670324
 31
0.0
  0
LINE
  5
E7E
330
E7C
100
AcDbEntity
  8
DIM
 62
     0
370
    -2
100
AcDbLine
 10
0.8238071449817859
 20
0.2533968722831412
 30
0.0
 11
0.8238071449817859
 21
0.3922471372670324
 31
0.0
  0
LINE
  5
E7F
330
E7C
100
AcDbEntity
  8
DIM
 62
     0
370
    -2
100
AcDbLine
 10
0.6428071449817831
 20
0.3822471372670324
 30
0.0
 11
0.8148071449817859
 21
0.3822471372670324
 31
0.0
  0
SOLID
  5
E80
330
E7C
100
AcDbEntity
  8
DIM
 62
     0
100
AcDbTrace
 10
0.6428071449817831
 20
0.3837471372670324
 30
0.0
 11
0.6428071449817831
 21
0.3807471372670324
 31
0.0
 12
0.6338071449817831
 22
0.3822471372670324
 32
0.0
 13
0.6338071449817831
 23
0.3822471372670324
 33
0.0
  0
SOLID
  5
E81
330
E7C
100
AcDbEntity
  8
DIM
 62
     0
100
AcDbTrace
 10
0.8148071449817859
 20
0.3837471372670324
 30
0.0
 11
0.8148071449817859
 21
0.3807471372670324
 31
0.0
 12
0.8238071449817859
 22
0.3822471372670324
 32
0.0
 13
0.8238071449817859
 23
0.3822471372670324
 33
0.0
  0
MTEXT
  5
E82
330
E7C
100
AcDbEntity
  8
DIM
 62
     0
100
AcDbMText
 10
0.7288071449817846
 20
0.3919735138815804
 30
0.0
 40
0.009
 41
0.0
 46
0.0
 71
     5
 72
     1
  1
\A1;0.19
 73
     1
 44
1.0
  0
POINT
  5
E83
330
E7C
100
AcDbEntity
  8
Defpoints
 62
     0
100
AcDbPoint
 10
0.6338071449817831
 20
0.2433968722831412
 30
0.0
  0
POINT
  5
E84
330
E7C
100
AcDbEntity
  8
Defpoints
 62
     0
100
AcDbPoint
 10
0.8238071449817859
 20
0.2433968722831412
 30
0.0
  0
POINT
  5
E85
330
E7C
100
AcDbEntity
  8
Defpoints
 62
     0
100
AcDbPoint
 10
0.8238071449817859
 20
0.3822471372670324
 30
0.0
  0
ENDBLK
  5
E87
330
E7C
100
AcDbEntity
  8
0
100
AcDbBlockEnd
  0
ENDSEC
  0
SECTION
  2
ENTITIES
  0
LWPOLYLINE
  5
43D
330
1F
100
AcDbEntity
  8
FORMAT
370
    15
100
AcDbPolyline
 90
        4
 70
     1
 43
0.0
 10
0.0
 20
0.0
 10
0.9381038617535399
 20
0.0
 10
0.9381038617535399
 20
0.7104087496774413
 10
0.0
 20
0.7104087496774413
  0
LINE
  5
43E
330
1F
100
AcDbEntity
  8
FORMAT
370
    15
100
AcDbLine
 10
0.3698569162021794
 20
0.1104087496774412
 30
0.0
 11
0.9381038617535399
 21
0.1104087496774412
 31
0.0
  0
LINE
  5
43F
330
1F
100
AcDbEntity
  8
FORMAT
370
    15
100
AcDbLine
 10
0.0
 20
0.1104087496774412
 30
0.0
 11
0.3698569162021794
 21
0.1104087496774412
 31
0.0
  0
LINE
  5
440
330
1F
100
AcDbEntity
  8
FORMAT
370
    15
100
AcDbLine
 10
0.5441647061007688
 20
0.0578978830066867
 30
0.0
 11
0.3698569162021794
 21
0.0578978830066867
 31
0.0
  0
LINE
  5
441
330
1F
100
AcDbEntity
  8
FORMAT
370
    15
100
AcDbLine
 10
0.5441647061007688
 20
0.1104087496774412
 30
0.0
 11
0.5441647061007688
 21
0.0
 31
0.0
  0
LINE
  5
442
330
1F
100
AcDbEntity
  8
FORMAT
370
    15
100
AcDbLine
 10
0.7994535900331471
 20
0.1104087496774412
 30
0.0
 11
0.7994535900331471
 21
0.0578978830066867
 31
0.0
  0
LINE
  5
443
330
1F
100
AcDbEntity
  8
FORMAT
370
    15
100
AcDbLine
 10
0.9381038617535399
 20
0.0345176979111005
 30
0.0
 11
0.7444010493745353
 21
0.0345176979111005
 31
0.0
  0
LINE
  5
444
330
1F
100
AcDbEntity
  8
FORMAT
370
    15
100
AcDbLine
 10
0.7444010493745353
 20
0.0
 30
0.0
 11
0.7444010493745353
 21
0.0578978830066867
 31
0.0
  0
LINE
  5
445
330
1F
100
AcDbEntity
  8
FORMAT
370
    15
100
AcDbLine
 10
0.7977780725416645
 20
0.7104087496774413
 30
0.0
 11
0.7977780725416645
 21
0.6856215558697559
 31
0.0
  0
LINE
  5
446
330
1F
100
AcDbEntity
  8
FORMAT
370
    15
100
AcDbLine
 10
0.9381038617535399
 20
0.0578978830066867
 30
0.0
 11
0.5441647061007688
 21
0.0578978830066867
 31
0.0
  0
LINE
  5
447
330
1F
100
AcDbEntity
  8
FORMAT
370
    15
100
AcDbLine
 10
0.7977780725416645
 20
0.6856215558697559
 30
0.0
 11
0.9381038617535399
 21
0.6856215558697559
 31
0.0
  0
LINE
  5
448
330
1F
100
AcDbEntity
  8
FORMAT
370
    15
100
AcDbLine
 10
0.3698569162021794
 20
0.1104087496774412
 30
0.0
 11
0.3698569162021794
 21
0.0
 31
0.0
  0
MTEXT
  5
449
330
1F
100
AcDbEntity
  8
0
  6
Continuous
 62
   160
370
     0
100
AcDbMText
 10
0.7547000430711858
 20
0.0540978897846567
 30
0.0
 40
0.0075898370692035
 41
0.0
 46
0.0
 71
     1
 72
     1
  1
http://www.amazonsupply.com
  7
SLDTEXTSTYLE0
 73
     1
 44
1.0
1001
PE_URL
1000
http://www.amazonsupply.com/
1002
{
1000
http://www.amazonsupply.com/
1002
{
1071
        1
1002
}
1002
}
  0
INSERT
  5
44A
330
1F
100
AcDbEntity
  8
0
  6
Continuous
 62
     7
100
AcDbBlockReference
  2
Block2
 10
-0.0416175357471737
 20
-0.1101935360725216
 30
0.0
 41
0.0910780448304447
 42
0.0910780448304408
 43
0.0910780448304412
  0
TEXT
  5
44B
330
1F
100
AcDbEntity
  8
FORMAT
 62
     7
100
AcDbText
 10
0.5477261110439674
 20
0.097101982270578
 30
0.0
 40
0.0091078044830441
  1
MATERIAL :
 41
0.9
  7
SLDTEXTSTYLE1
100
AcDbText
  0
TEXT
  5
44C
330
1F
100
AcDbEntity
  8
FORMAT
 62
     7
100
AcDbText
 10
0.4009500908813245
 20
0.071982790276328
 30
0.0
 40
0.0113847556038052
  1
B000FN25UU 
 41
0.9
  7
SLDTEXTSTYLE1
100
AcDbText
  0
TEXT
  5
44D
330
1F
100
AcDbEntity
  8
FORMAT
 62
     7
100
AcDbText
 10
0.8186322083335316
 20
0.6913201757160625
 30
0.0
 40
0.0113847556038052
  1
B000FN25UU  
  7
SLDTEXTSTYLE1
100
AcDbText
  0
TEXT
  5
44E
330
1F
100
AcDbEntity
  8
FORMAT
 62
     7
100
AcDbText
 10
0.401063181297513
 20
0.0168763571618708
 30
0.0
 40
0.0113847556038052
  1
Small Parts 
 41
0.9
  7
SLDTEXTSTYLE1
100
AcDbText
  0
TEXT
  5
44F
330
1F
100
AcDbEntity
  8
FORMAT
 62
     0
100
AcDbText
 10
0.5919419904060664
 20
0.074685528388535
 30
0.0
 40
0.0113847556038053
  1
Alloy Steel 
 41
0.9
  7
SLDTEXTSTYLE1
100
AcDbText
  0
TEXT
  5
450
330
1F
100
AcDbEntity
  8
FORMAT
 62
     7
100
AcDbText
 10
0.0093811932236696
 20
0.0855399787638042
 30
0.0
 40
0.0091078044830441
  1
ITEM NAME:
 41
0.9
  7
SLDTEXTSTYLE1
100
AcDbText
  0
TEXT
  5
451
330
1F
100
AcDbEntity
  8
FORMAT
 62
     7
100
AcDbText
 10
0.3769855872773106
 20
0.0927469219748216
 30
0.0
 40
0.0091078044830441
  1
ASIN :
 41
0.9
  7
SLDTEXTSTYLE1
100
AcDbText
  0
TEXT
  5
453
330
1F
100
AcDbEntity
  8
FORMAT
 62
     0
100
AcDbText
 10
0.5512042647401634
 20
0.0425990841155209
 30
0.0
 40
0.0056923778019026
  1
# UNLESS OTHERWISE SPECIFIED
 41
0.95
  7
SLDTEXTSTYLE1
100
AcDbText
  0
TEXT
  5
454
330
1F
100
AcDbEntity
  8
FORMAT
 62
     0
100
AcDbText
 10
0.559757342943191
 20
0.0339988459496171
 30
0.0
 40
0.0056923778019026
  1
DIMENSIONS ARE IN INCHES
 41
0.95
  7
SLDTEXTSTYLE1
100
AcDbText
  0
TEXT
  5
455
330
1F
100
AcDbEntity
  8
FORMAT
 62
     0
100
AcDbText
 10
0.5512042647401634
 20
0.0172551959094696
 30
0.0
 40
0.0056923778019026
  1
# INFORMATION IN THIS DRAWING IS PROVIDED FOR
 41
0.95
  7
SLDTEXTSTYLE1
100
AcDbText
  0
TEXT
  5
456
330
1F
100
AcDbEntity
  8
FORMAT
 62
     0
100
AcDbText
 10
0.5597341245429112
 20
0.0086549577435658
 30
0.0
 40
0.0056923778019026
  1
REFERENCE ONLY
 41
0.95
  7
SLDTEXTSTYLE1
100
AcDbText
  0
TEXT
  5
457
330
1F
100
AcDbEntity
  8
FORMAT
 62
     7
100
AcDbText
 10
0.3749010087018694
 20
0.0392909188622628
 30
0.0
 40
0.0091078044830441
  1
BRAND :
 41
0.9
  7
SLDTEXTSTYLE1
100
AcDbText
  0
MTEXT
  5
50B
330
1F
100
AcDbEntity
  8
FORMAT
 62
     7
100
AcDbMText
 10
0.034693988975463
 20
0.0759264590648678
 30
0.0
 40
0.0113847556038052
 41
0.3264004553271124
 46
0.0
 71
     1
 72
     1
  1
{\fCalibri|b0|i0|c0|p34;\H0.9167x;\C256;Alloy Steel Set Screw, Black Oxide Finish, Hex Socket Drive, Meets ASME B18.3/ASTM F912, 1/4" Length, #10-24 Threads (Pack of 100)}
  7
SLDTEXTSTYLE1
 73
     1
 44
1.0
  0
INSERT
  5
B40
330
1F
100
AcDbEntity
  8
0
100
AcDbBlockReference
  2
amazon block
 10
0.7544371459535696
 20
0.0094363793976617
 30
0.0
 41
0.0926076446704687
 42
0.0926076446704687
 43
0.0926076446704687
  0
SPLINE
  5
D72
330
1F
100
AcDbEntity
  8
0
  6
Continuous
 62
     7
370
    15
100
AcDbSpline
210
0.0
220
0.0
230
1.0
 70
     8
 71
     3
 72
    16
 73
    12
 74
     0
 42
0.0000000001
 43
0.0000000001
 40
0.0
 40
0.0
 40
0.0
 40
0.0
 40
0.125
 40
0.125
 40
0.25
 40
0.25
 40
0.5
 40
0.5
 40
0.75
 40
0.75
 40
1.0
 40
1.0
 40
1.0
 40
1.0
 10
0.6912980271071865
 20
0.1828327726418901
 30
0.0
 10
0.6949623256182589
 20
0.1813059260982175
 30
0.0
 10
0.6986640056262905
 20
0.1798500091948252
 30
0.0
 10
0.7062238430810082
 20
0.1774683159410404
 30
0.0
 10
0.710042224244698
 20
0.1765285416159468
 30
0.0
 10
0.721623929728426
 20
0.1745353808356025
 30
0.0
 10
0.7296574332182706
 20
0.1743162830202525
 30
0.0
 10
0.7452408773514163
 20
0.1762929415166059
 30
0.0
 10
0.7528614470986304
 20
0.1784674496920633
 30
0.0
 10
0.7673038957641039
 20
0.1849574795118041
 30
0.0
 10
0.7738784218251374
 20
0.1892962543259979
 30
0.0
 10
0.7801995256249859
 20
0.1940636418646189
 30
0.0
  0
SPLINE
  5
D73
330
1F
100
AcDbEntity
  8
0
  6
Continuous
 62
     7
370
    15
100
AcDbSpline
210
0.0
220
0.0
230
1.0
 70
     8
 71
     3
 72
    12
 73
     8
 74
     0
 42
0.0000000001
 43
0.0000000001
 40
0.0
 40
0.0
 40
0.0
 40
0.0
 40
0.25
 40
0.25
 40
0.5000000000000001
 40
0.5000000000000001
 40
1.0
 40
1.0
 40
1.0
 40
1.0
 10
0.8096283685809373
 20
0.2533213360164861
 30
0.0
 10
0.8116223412314154
 20
0.2471390750703211
 30
0.0
 10
0.8128468888898785
 20
0.240837833781131
 30
0.0
 10
0.8138288308104248
 20
0.2280142378771248
 30
0.0
 10
0.8135746554312204
 20
0.2214584202121326
 30
0.0
 10
0.8106942547370357
 20
0.2023892649833907
 30
0.0
 10
0.8059158297174731
 20
0.1900569223175441
 30
0.0
 10
0.7987844525912946
 20
0.1791459782196429
 30
0.0
  0
SPLINE
  5
D74
330
1F
100
AcDbEntity
  8
0
  6
Continuous
 62
     7
370
    15
100
AcDbSpline
210
0.0
220
0.0
230
1.0
 70
     8
 71
     3
 72
    14
 73
    10
 74
     0
 42
0.0000000001
 43
0.0000000001
 40
0.0
 40
0.0
 40
0.0
 40
0.0
 40
0.2500000000000001
 40
0.2500000000000001
 40
0.5000000000000001
 40
0.5000000000000001
 40
0.7500000000000001
 40
0.7500000000000001
 40
1.0
 40
1.0
 40
1.0
 40
1.0
 10
0.7987844473851231
 20
0.1791459800842634
 30
0.0
 10
0.7859405313165296
 20
0.1651573401134303
 30
0.0
 10
0.7688080459403955
 20
0.1551609603724582
 30
0.0
 10
0.7318123148708429
 20
0.1465639378953607
 30
0.0
 10
0.7120274685877908
 20
0.1479815135177727
 30
0.0
 10
0.6766352982354844
 20
0.1617650976160962
 30
0.0
 10
0.6611029753949352
 20
0.1741018966444574
 30
0.0
 10
0.6396661849077879
 20
0.2054556352804215
 30
0.0
 10
0.6338071449817831
 20
0.2244061316917214
 30
0.0
 10
0.6338071449817831
 20
0.2433968722831412
 30
0.0
  0
SPLINE
  5
D75
330
1F
100
AcDbEntity
  8
0
  6
Continuous
 62
     7
370
    15
100
AcDbSpline
210
0.0
220
0.0
230
1.0
 70
     8
 71
     3
 72
    39
 73
    35
 74
     0
 42
0.0000000001
 43
0.0000000001
 40
0.0
 40
0.0
 40
0.0
 40
0.0
 40
0.0318190012347868
 40
0.0636380024695737
 40
0.0954570037043604
 40
0.1272760049391472
 40
0.159095006173934
 40
0.1909140074087207
 40
0.2227330086435075
 40
0.2545520098782943
 40
0.2863710111130811
 40
0.318190012347868
 40
0.3500090135826546
 40
0.3818280148174414
 40
0.4136470160522283
 40
0.445466017287015
 40
0.4772850185218017
 40
0.5091040197565886
 40
0.5409230209913755
 40
0.5727420222261621
 40
0.6045610234609489
 40
0.6363800246957358
 40
0.6681990259305226
 40
0.7000180271653093
 40
0.7318370284000961
 40
0.763656029634883
 40
0.7954750308696696
 40
0.8272940321044563
 40
0.8591130333392433
 40
0.8909320345740301
 40
0.9227510358088169
 40
0.9545700370436037
 40
0.9863890382783905
 40
0.9999999999999998
 40
0.9999999999999998
 40
0.9999999999999998
 40
0.9999999999999998
 10
0.6338071449817831
 20
0.2433968722831412
 30
0.0
 10
0.6338953229950084
 20
0.2465057384069549
 30
0.0
 10
0.6340716790214592
 20
0.2527234706545751
 30
0.0
 10
0.6354937146199183
 20
0.2619602487852564
 30
0.0
 10
0.6377487225597199
 20
0.2710182514524451
 30
0.0
 10
0.6408982736645426
 20
0.2798102451388533
 30
0.0
 10
0.6448897191413776
 20
0.2882515581390901
 30
0.0
 10
0.6496905989820965
 20
0.2962608959944635
 30
0.0
 10
0.6552530758084983
 20
0.3037611244030838
 30
0.0
 10
0.6615240092578594
 20
0.3106800120653321
 30
0.0
 10
0.6684428917744319
 20
0.316950926310773
 30
0.0
 10
0.6759431215618319
 20
0.3225134748071905
 30
0.0
 10
0.6839524590477657
 20
0.3273140871717668
 30
0.0
 10
0.6923937721469882
 20
0.3313065308831493
 30
0.0
 10
0.7011857658068826
 20
0.3344523565259105
 30
0.0
 10
0.7102437684811483
 20
0.3367212680794178
 30
0.0
 10
0.7194805466100354
 20
0.3380914146851086
 30
0.0
 10
0.7288071449815617
 20
0.3385496010821416
 30
0.0
 10
0.7381337433544309
 20
0.338091414685169
 30
0.0
 10
0.7473705214792714
 20
0.3367212680791762
 30
0.0
 10
0.7564285241683768
 20
0.3344523565268165
 30
0.0
 10
0.765220517772959
 20
0.3313065308797671
 30
0.0
 10
0.7736618310785835
 20
0.3273140871844002
 30
0.0
 10
0.7816711677942214
 20
0.3225134747600495
 30
0.0
 10
0.7891714004564064
 20
0.3169509264867105
 30
0.0
 10
0.7960902722441352
 20
0.3106800114087267
 30
0.0
 10
0.8023612457341
 20
0.3037611268535645
 30
0.0
 10
0.8079235731269376
 20
0.2962608868491425
 30
0.0
 10
0.8127250106613024
 20
0.2882515922698896
 30
0.0
 10
0.8167143747971072
 20
0.2798101177609726
 30
0.0
 10
0.8198716935724048
 20
0.2710187268331754
 30
0.0
 10
0.8220977121713373
 20
0.2619584746402228
 30
0.0
 10
0.8233360531432571
 20
0.2544903687524165
 30
0.0
 10
0.8234971184937789
 20
0.2500543766206806
 30
0.0
 10
0.8235453741862341
 20
0.2487253392371282
 30
0.0
  0
SPLINE
  5
D76
330
1F
100
AcDbEntity
  8
0
  6
Continuous
 62
     7
370
    15
100
AcDbSpline
210
0.0
220
0.0
230
1.0
 70
     8
 71
     3
 72
    12
 73
     8
 74
     0
 42
0.0000000001
 43
0.0000000001
 40
0.0
 40
0.0
 40
0.0
 40
0.0
 40
0.25
 40
0.25
 40
0.5000000000000001
 40
0.5000000000000001
 40
1.0
 40
1.0
 40
1.0
 40
1.0
 10
0.7801995256250072
 20
0.1940636418645336
 30
0.0
 10
0.7847942579856939
 20
0.1975289970449008
 30
0.0
 10
0.7888775402715558
 20
0.2014769617774863
 30
0.0
 10
0.7960893785084365
 20
0.2102737808339643
 30
0.0
 10
0.7992155215054622
 20
0.2151617353280339
 30
0.0
 10
0.8067292871011764
 20
0.2304569487110999
 30
0.0
 10
0.8094264735851366
 20
0.241822466510327
 30
0.0
 10
0.8096288672136848
 20
0.2533214858037371
 30
0.0
  0
ARC
  5
D77
330
1F
100
AcDbEntity
  8
0
  6
Continuous
 62
     7
370
    15
100
AcDbCircle
 10
0.7288071449817819
 20
0.2433968722831412
 30
0.0
 40
0.0814285714285716
100
AcDbArc
 50
7.001557007217475
 51
187.3984429930706
  0
ARC
  5
D78
330
1F
100
AcDbEntity
  8
0
  6
Continuous
 62
     7
370
    15
100
AcDbCircle
 10
0.7288071449817819
 20
0.2433968722831412
 30
0.0
 40
0.0950000000000041
100
AcDbArc
 50
317.4428571430964
 51
2.442857143095402
  0
SPLINE
  5
D79
330
1F
100
AcDbEntity
  8
0
  6
Continuous
 62
     7
370
    15
100
AcDbSpline
210
0.0
220
0.0
230
1.0
 70
     8
 71
     3
 72
    34
 73
    30
 74
     0
 42
0.0000000001
 43
0.0000000001
 40
0.0
 40
0.0
 40
0.0
 40
0.0
 40
0.0625000000000001
 40
0.0625000000000001
 40
0.1250000000000001
 40
0.1250000000000001
 40
0.1875000000000002
 40
0.1875000000000002
 40
0.2500000000000002
 40
0.2500000000000002
 40
0.3750000000000002
 40
0.3750000000000002
 40
0.4375000000000003
 40
0.4375000000000003
 40
0.5000000000000002
 40
0.5000000000000002
 40
0.5625000000000004
 40
0.5625000000000004
 40
0.6250000000000002
 40
0.6250000000000002
 40
0.6875000000000002
 40
0.6875000000000002
 40
0.7500000000000001
 40
0.7500000000000001
 40
0.8125000000000001
 40
0.8125000000000001
 40
0.8750000000000001
 40
0.8750000000000001
 40
1.0
 40
1.0
 40
1.0
 40
1.0
 10
0.8237208041375572
 20
0.247446055033907
 30
0.0
 10
0.8232011034856574
 20
0.2534147742620572
 30
0.0
 10
0.8221289488160357
 20
0.2592517583181706
 30
0.0
 10
0.8189008215732114
 20
0.2706667201671837
 30
0.0
 10
0.8167162488267107
 20
0.276293226749021
 30
0.0
 10
0.8113870653750998
 20
0.2868821354209448
 30
0.0
 10
0.8082455820827894
 20
0.2918821599594483
 30
0.0
 10
0.8009923993150804
 20
0.3012824311726472
 30
0.0
 10
0.7968640837550885
 20
0.3056784586977475
 30
0.0
 10
0.7835304209021201
 20
0.3173699825845506
 30
0.0
 10
0.7729966382748677
 20
0.3234781837836838
 30
0.0
 10
0.7562262545320051
 20
0.32919221016943
 30
0.0
 10
0.7504011722066215
 20
0.330557074798121
 30
0.0
 10
0.7385688152337862
 20
0.3320974730717789
 30
0.0
 10
0.732659847296584
 20
0.3322690788080134
 30
0.0
 10
0.7208566780377366
 20
0.3314330892416695
 30
0.0
 10
0.7149015427745616
 20
0.3304021213477657
 30
0.0
 10
0.703489091604765
 20
0.3271983643733509
 30
0.0
 10
0.6979910885455274
 20
0.3250359255959683
 30
0.0
 10
0.6874204812929668
 20
0.3195672093510555
 30
0.0
 10
0.6823935165526179
 20
0.3162649165633968
 30
0.0
 10
0.6732382106337225
 20
0.308793863412929
 30
0.0
 10
0.6690254240935785
 20
0.3045670032350063
 30
0.0
 10
0.6615328501531037
 20
0.2952563914090465
 30
0.0
 10
0.6583316983101595
 20
0.2902830530912854
 30
0.0
 10
0.6529982371703254
 20
0.2797133979885042
 30
0.0
 10
0.6508614862506219
 20
0.2740526869307434
 30
0.0
 10
0.6464032562128948
 20
0.2568508061381489
 30
0.0
 10
0.6459010157652357
 20
0.2447099420233971
 30
0.0
 10
0.6480565599193886
 20
0.2329098065995996
 30
0.0
  0
LINE
  5
D7A
330
1F
100
AcDbEntity
  8
0
  6
Continuous
 62
     7
370
    15
100
AcDbLine
 10
0.6818071449817813
 20
0.2705323349350539
 30
0.0
 11
0.7288071449817819
 21
0.2976677975869666
 31
0.0
  0
LINE
  5
D7B
330
1F
100
AcDbEntity
  8
0
  6
Continuous
 62
     7
370
    15
100
AcDbLine
 10
0.6818071449817813
 20
0.2162614096312285
 30
0.0
 11
0.6818071449817813
 21
0.2705323349350539
 31
0.0
  0
LINE
  5
D7C
330
1F
100
AcDbEntity
  8
0
  6
Continuous
 62
     7
370
    15
100
AcDbLine
 10
0.7288071449817819
 20
0.1891259469793158
 30
0.0
 11
0.6818071449817813
 21
0.2162614096312285
 31
0.0
  0
LINE
  5
D7D
330
1F
100
AcDbEntity
  8
0
  6
Continuous
 62
     7
370
    15
100
AcDbLine
 10
0.7758071449817825
 20
0.2162614096312285
 30
0.0
 11
0.7288071449817819
 21
0.1891259469793158
 31
0.0
  0
LINE
  5
D7E
330
1F
100
AcDbEntity
  8
0
  6
Continuous
 62
     7
370
    15
100
AcDbLine
 10
0.7758071449817825
 20
0.2705323349350539
 30
0.0
 11
0.7758071449817825
 21
0.2162614096312285
 31
0.0
  0
LINE
  5
D7F
330
1F
100
AcDbEntity
  8
0
  6
Continuous
 62
     7
370
    15
100
AcDbLine
 10
0.7288071449817819
 20
0.2976677975869666
 30
0.0
 11
0.7758071449817825
 21
0.2705323349350539
 31
0.0
  0
SPLINE
  5
D80
330
1F
100
AcDbEntity
  8
0
  6
Continuous
 62
     7
370
    15
100
AcDbSpline
210
0.0
220
0.0
230
1.0
 70
     8
 71
     3
 72
    12
 73
     8
 74
     0
 42
0.0000000001
 43
0.0000000001
 40
0.0
 40
0.0
 40
0.0
 40
0.0
 40
0.2500000000000001
 40
0.2500000000000001
 40
0.5
 40
0.5
 40
1.0
 40
1.0
 40
1.0
 40
1.0
 10
0.6480563228856964
 20
0.2329097432894318
 30
0.0
 10
0.6495863771348942
 20
0.227363155180021
 30
0.0
 10
0.6516784395446243
 20
0.2220798720861612
 30
0.0
 10
0.6569640033141609
 20
0.212029338262808
 30
0.0
 10
0.6602126075226016
 20
0.2072137471371629
 30
0.0
 10
0.6712929481220469
 20
0.1942512136422525
 30
0.0
 10
0.6806642510618906
 20
0.1872636737136293
 30
0.0
 10
0.6912980271071865
 20
0.1828327726418901
 30
0.0
  0
LINE
  5
D81
330
1F
100
AcDbEntity
  8
0
  6
Continuous
 62
     7
370
    15
100
AcDbLine
 10
0.7677278698628234
 20
0.1567355944026072
 30
0.0
 11
0.7673384459112027
 21
0.156610149515809
 31
0.0
  0
LINE
  5
D82
330
1F
100
AcDbEntity
  8
0
  6
Continuous
 62
     7
370
    15
100
AcDbLine
 10
0.7680028952775074
 20
0.1568741942888703
 30
0.0
 11
0.7677278700731192
 21
0.1567355939729029
 31
0.0
  0
SPLINE
  5
D83
330
1F
100
AcDbEntity
  8
0
  6
Continuous
 62
     8
370
    15
100
AcDbSpline
210
0.0
220
0.0
230
1.0
 70
     8
 71
     3
 72
    20
 73
    16
 74
     0
 42
0.0000000001
 43
0.0000000001
 40
0.0
 40
0.0
 40
0.0
 40
0.0
 40
0.0316625839658995
 40
0.1159370963219987
 40
0.2002116021052735
 40
0.2844861044227797
 40
0.3687606085329796
 40
0.4530351186182624
 40
0.5373096323750387
 40
0.6215841402030935
 40
0.7058586431314576
 40
0.7793939816047628
 40
0.8529293203809842
 40
0.9264646597540643
 40
1.0
 40
1.0
 40
1.0
 40
1.0
 10
0.691905917925836
 20
0.1825871338649196
 30
0.0
 10
0.692759558834001
 20
0.182036141700787
 30
0.0
 10
0.6958852875585065
 20
0.1800186047974666
 30
0.0
 10
0.7017651509954268
 20
0.1773635102354862
 30
0.0
 10
0.7094229950790192
 20
0.1746759917968272
 30
0.0
 10
0.7173634405095788
 20
0.1729297246969519
 30
0.0
 10
0.7254437048773985
 20
0.1720827196973953
 30
0.0
 10
0.7335698131458584
 20
0.17216324295991
 30
0.0
 10
0.7416335847325782
 20
0.1731657279590368
 30
0.0
 10
0.7495314555618072
 20
0.1750780570860104
 30
0.0
 10
0.7568363307388842
 20
0.1777576080692096
 30
0.0
 10
0.7635037745823281
 20
0.1810420845068374
 30
0.0
 10
0.7695101402513016
 20
0.1847985726936467
 30
0.0
 10
0.7751513002778046
 20
0.1890981133922114
 30
0.0
 10
0.7785167837731804
 20
0.1924084657546838
 30
0.0
 10
0.7801995255308532
 20
0.1940636419457451
 30
0.0
  0
SPLINE
  5
D84
330
1F
100
AcDbEntity
  8
0
  6
Continuous
 62
     8
370
    15
100
AcDbSpline
210
0.0
220
0.0
230
1.0
 70
     8
 71
     3
 72
    13
 73
     9
 74
     0
 42
0.0000000001
 43
0.0000000001
 40
0.0
 40
0.0
 40
0.0
 40
0.0
 40
0.1610283230940045
 40
0.3288226647565712
 40
0.4966169945224811
 40
0.6644113207190563
 40
0.8322056538161348
 40
1.0
 40
1.0
 40
1.0
 40
1.0
 10
0.6913959715192411
 20
0.1827931949005428
 30
0.0
 10
0.6936437993412233
 20
0.1814933260230613
 30
0.0
 10
0.6982339032442964
 20
0.1788389709387299
 30
0.0
 10
0.705688051945919
 20
0.1758643972668767
 30
0.0
 10
0.7135056792768842
 20
0.1736570952188419
 30
0.0
 10
0.7215295418178647
 20
0.1723876064357863
 30
0.0
 10
0.7296532653291683
 20
0.1719678569193614
 30
0.0
 10
0.7350415658655925
 20
0.1724692544460911
 30
0.0
 10
0.7377357162388689
 20
0.1727199532192347
 30
0.0
  0
LINE
  5
D85
330
1F
100
AcDbEntity
  8
0
  6
Continuous
 62
     7
370
    15
100
AcDbLine
 10
0.0743051534704491
 20
0.3319315846203696
 30
0.0
 11
0.0671990125617881
 21
0.3248254437117122
 31
0.0
  0
SPLINE
  5
D86
330
1F
100
AcDbEntity
  8
0
  6
Continuous
 62
     7
370
    15
100
AcDbSpline
210
0.0
220
0.0
230
1.0
 70
     8
 71
     3
 72
     9
 73
     5
 74
     0
 42
0.0000000001
 43
0.0000000001
 40
0.0
 40
0.0
 40
0.0
 40
0.0
 40
0.5005137922112369
 40
1.0
 40
1.0
 40
1.0
 40
1.0
 10
0.1338472570948048
 20
0.1489338120995558
 30
0.0
 10
0.1361906099607757
 20
0.1529620928436504
 30
0.0
 10
0.1408725046506638
 20
0.161010384033182
 30
0.0
 10
0.1455688547555751
 20
0.1690498797358113
 30
0.0
 10
0.1479146168599263
 20
0.1730654969568508
 30
0.0
  0
SPLINE
  5
D87
330
1F
100
AcDbEntity
  8
0
  6
Continuous
 62
     7
370
    15
100
AcDbSpline
210
0.0
220
0.0
230
1.0
 70
     8
 71
     3
 72
     9
 73
     5
 74
     0
 42
0.0000000001
 43
0.0000000001
 40
0.0
 40
0.0
 40
0.0
 40
0.0
 40
0.495689558706839
 40
1.0
 40
1.0
 40
1.0
 40
1.0
 10
0.092316185393281
 20
0.1491669117948848
 30
0.0
 10
0.0946146065894111
 20
0.1531179255651931
 30
0.0
 10
0.0992514224265704
 20
0.1610886679399488
 30
0.0
 10
0.1039024533483448
 20
0.1690504077524817
 30
0.0
 10
0.1062480168049702
 20
0.1730655962708016
 30
0.0
  0
SPLINE
  5
D88
330
1F
100
AcDbEntity
  8
0
  6
Continuous
 62
     7
370
    15
100
AcDbSpline
210
0.0
220
0.0
230
1.0
 70
     8
 71
     3
 72
     9
 73
     5
 74
     0
 42
0.0000000001
 43
0.0000000001
 40
0.0
 40
0.0
 40
0.0
 40
0.0
 40
0.497743223603497
 40
1.0
 40
1.0
 40
1.0
 40
1.0
 10
0.0854159044360912
 20
0.3137260554594501
 30
0.0
 10
0.0836671335010215
 20
0.3167184924361688
 30
0.0
 10
0.0801537337154783
 20
0.322730501911759
 30
0.0
 10
0.0766514622960286
 20
0.3287490068849965
 30
0.0
 10
0.0748924227428289
 20
0.3317718417915774
 30
0.0
  0
SPLINE
  5
D89
330
1F
100
AcDbEntity
  8
0
  6
Continuous
 62
     7
370
    15
100
AcDbSpline
210
0.0
220
0.0
230
1.0
 70
     8
 71
     3
 72
     9
 73
     5
 74
     0
 42
0.0000000001
 43
0.0000000001
 40
0.0
 40
0.0
 40
0.0
 40
0.0
 40
0.4994789015812615
 40
1.0
 40
1.0
 40
1.0
 40
1.0
 10
0.127080415845112
 20
0.3137297341632947
 30
0.0
 10
0.1247344251492684
 20
0.3177457272435855
 30
0.0
 10
0.120037548687788
 20
0.3257860930479797
 30
0.0
 10
0.1153553345221545
 20
0.3338349429448921
 30
0.0
 10
0.1130117875449392
 20
0.3378635621363013
 30
0.0
  0
SPLINE
  5
D8A
330
1F
100
AcDbEntity
  8
0
  6
Continuous
 62
     7
370
    15
100
AcDbSpline
210
0.0
220
0.0
230
1.0
 70
     8
 71
     3
 72
     9
 73
     5
 74
     0
 42
0.0000000001
 43
0.0000000001
 40
0.0
 40
0.0
 40
0.0
 40
0.0
 40
0.372187383944429
 40
1.0
 40
1.0
 40
1.0
 40
1.0
 10
0.1687491637739256
 20
0.3137261804360552
 30
0.0
 10
0.1670006340650878
 20
0.3167187387668011
 30
0.0
 10
0.1623026518543305
 20
0.3247592002650623
 30
0.0
 10
0.1576195510526239
 20
0.3328083476549206
 30
0.0
 10
0.154679441287056
 20
0.337861703934762
 30
0.0
  0
SPLINE
  5
D8B
330
1F
100
AcDbEntity
  8
0
  6
Continuous
 62
     7
370
    15
100
AcDbSpline
210
0.0
220
0.0
230
1.0
 70
     8
 71
     3
 72
    14
 73
    10
 74
     0
 42
0.0000000001
 43
0.0000000001
 40
0.0
 40
0.0
 40
0.0
 40
0.0
 40
0.1976331681135126
 40
0.3798620421163104
 40
0.5484925758970827
 40
0.667397175004099
 40
0.7812603497479931
 40
0.891632353479564
 40
1.0
 40
1.0
 40
1.0
 40
1.0
 10
0.1960838699323388
 20
0.1738754938306879
 30
0.0
 10
0.196921155932889
 20
0.1724527978045482
 30
0.0
 10
0.1985304666221892
 20
0.1697182961874357
 30
0.0
 10
0.200860462757189
 20
0.1657258757832831
 30
0.0
 10
0.2028355472679073
 20
0.1623094955523061
 30
0.0
 10
0.2044860750099828
 20
0.1594389940403349
 30
0.0
 10
0.2058471914045596
 20
0.1570623098918122
 30
0.0
 10
0.2071049215554246
 20
0.1548662296379557
 30
0.0
 10
0.2078536412185605
 20
0.153573221350938
 30
0.0
 10
0.208224570712614
 20
0.1529326412602561
 30
0.0
  0
SPLINE
  5
D8C
330
1F
100
AcDbEntity
  8
0
  6
Continuous
 62
     7
370
    15
100
AcDbSpline
210
0.0
220
0.0
230
1.0
 70
     8
 71
     3
 72
     9
 73
     5
 74
     0
 42
0.0000000001
 43
0.0000000001
 40
0.0
 40
0.0
 40
0.0
 40
0.0
 40
0.4994949531231982
 40
0.9999999999999998
 40
0.9999999999999998
 40
0.9999999999999998
 40
0.9999999999999998
 10
0.1548155800201854
 20
0.1730674708963409
 30
0.0
 10
0.1571608632508918
 20
0.1690527731256839
 30
0.0
 10
0.161856172414756
 20
0.1610152589414919
 30
0.0
 10
0.166537274988984
 20
0.1529682388162949
 30
0.0
 10
0.1688801904523323
 20
0.1489406646313138
 30
0.0
  0
SPLINE
  5
D8D
330
1F
100
AcDbEntity
  8
0
  6
Continuous
 62
     7
370
    15
100
AcDbSpline
210
0.0
220
0.0
230
1.0
 70
     8
 71
     3
 72
     9
 73
     5
 74
     0
 42
0.0000000001
 43
0.0000000001
 40
0.0
 40
0.0
 40
0.0
 40
0.0
 40
0.4376712508471275
 40
1.0
 40
1.0
 40
1.0
 40
1.0
 10
0.1131493444101692
 20
0.1730667446130514
 30
0.0
 10
0.1152044407415373
 20
0.1695492223646997
 30
0.0
 10
0.1198999658128996
 20
0.1615123174011142
 30
0.0
 10
0.1245809371470208
 20
0.1534659014667656
 30
0.0
 10
0.1272131819021545
 20
0.1489411704592409
 30
0.0
  0
SPLINE
  5
D8E
330
1F
100
AcDbEntity
  8
0
  6
Continuous
 62
     7
370
    15
100
AcDbSpline
210
0.0
220
0.0
230
1.0
 70
     8
 71
     3
 72
     9
 73
     5
 74
     0
 42
0.0000000001
 43
0.0000000001
 40
0.0
 40
0.0
 40
0.0
 40
0.0
 40
0.4994895222094415
 40
0.9999999999999998
 40
0.9999999999999998
 40
0.9999999999999998
 40
0.9999999999999998
 10
0.0714874463838959
 20
0.1730585955211932
 30
0.0
 10
0.0738329929794239
 20
0.1690433346401636
 30
0.0
 10
0.0785288804630162
 20
0.1610046056929153
 30
0.0
 10
0.0832104070542683
 20
0.1529570718729853
 30
0.0
 10
0.0855535601652426
 20
0.1489291968757331
 30
0.0
  0
SPLINE
  5
D8F
330
1F
100
AcDbEntity
  8
0
  6
Continuous
 62
     7
370
    15
100
AcDbSpline
210
0.0
220
0.0
230
1.0
 70
     8
 71
     3
 72
     9
 73
     5
 74
     0
 42
0.0000000001
 43
0.0000000001
 40
0.0
 40
0.0
 40
0.0
 40
0.0
 40
0.6032081723253937
 40
1.0
 40
1.0
 40
1.0
 40
1.0
 10
0.1063819792392322
 20
0.3378560806831767
 30
0.0
 10
0.1035578141600992
 20
0.3330019611512209
 30
0.0
 10
0.0988759063068847
 20
0.3249547897854181
 30
0.0
 10
0.0941793975167911
 20
0.3169163434679436
 30
0.0
 10
0.0923158612102753
 20
0.3137267536619699
 30
0.0
  0
SPLINE
  5
D90
330
1F
100
AcDbEntity
  8
0
  6
Continuous
 62
     7
370
    15
100
AcDbSpline
210
0.0
220
0.0
230
1.0
 70
     8
 71
     3
 72
     9
 73
     5
 74
     0
 42
0.0000000001
 43
0.0000000001
 40
0.0
 40
0.0
 40
0.0
 40
0.0
 40
0.5005039263069372
 40
1.0
 40
1.0
 40
1.0
 40
1.0
 10
0.1480486166121699
 20
0.3378562549563522
 30
0.0
 10
0.1457057764833123
 20
0.3338288093368138
 30
0.0
 10
0.1410248139459305
 20
0.3257820280672721
 30
0.0
 10
0.1363296768115041
 20
0.3177446893761686
 30
0.0
 10
0.1339844742474106
 20
0.3137300702570183
 30
0.0
  0
SPLINE
  5
D91
330
1F
100
AcDbEntity
  8
0
  6
Continuous
 62
     7
370
    15
100
AcDbSpline
210
0.0
220
0.0
230
1.0
 70
     8
 71
     3
 72
     9
 73
     5
 74
     0
 42
0.0000000001
 43
0.0000000001
 40
0.0
 40
0.0
 40
0.0
 40
0.0
 40
0.405618473784084
 40
1.0
 40
1.0
 40
1.0
 40
1.0
 10
0.1897238322536388
 20
0.3378706215941623
 30
0.0
 10
0.1878247978316785
 20
0.3346059446023151
 30
0.0
 10
0.1831429735443222
 20
0.3265573048019899
 30
0.0
 10
0.1784469221610414
 20
0.3185168848912869
 30
0.0
 10
0.1756556759726542
 20
0.3137378078333473
 30
0.0
  0
SPLINE
  5
D92
330
1F
100
AcDbEntity
  8
0
  6
Continuous
 62
     7
370
    15
100
AcDbSpline
210
0.0
220
0.0
230
1.0
 70
     8
 71
     3
 72
     9
 73
     5
 74
     0
 42
0.0000000001
 43
0.0000000001
 40
0.0
 40
0.0
 40
0.0
 40
0.0
 40
0.5417192476267773
 40
1.0
 40
1.0
 40
1.0
 40
1.0
 10
0.2798175035782733
 20
0.1730641916190112
 30
0.0
 10
0.2821627250828604
 20
0.1690497339527883
 30
0.0
 10
0.286491944535308
 20
0.1616391468565996
 30
0.0
 10
0.2908082598542356
 20
0.1542198087694675
 30
0.0
 10
0.2927863440860796
 20
0.1508196689287853
 30
0.0
  0
SPLINE
  5
D93
330
1F
100
AcDbEntity
  8
0
  6
Continuous
 62
     7
370
    15
100
AcDbSpline
210
0.0
220
0.0
230
1.0
 70
     8
 71
     3
 72
     9
 73
     5
 74
     0
 42
0.0000000001
 43
0.0000000001
 40
0.0
 40
0.0
 40
0.0
 40
0.0
 40
0.531759264467424
 40
1.0
 40
1.0
 40
1.0
 40
1.0
 10
0.2381546859134374
 20
0.1730576233761798
 30
0.0
 10
0.2406512911468233
 20
0.168783665619247
 30
0.0
 10
0.2453462826593564
 20
0.1607462734334912
 30
0.0
 10
0.250026661964069
 20
0.1527001360622247
 30
0.0
 10
0.2522182062122815
 20
0.148932606781307
 30
0.0
  0
SPLINE
  5
D94
330
1F
100
AcDbEntity
  8
0
  6
Continuous
 62
     7
370
    15
100
AcDbSpline
210
0.0
220
0.0
230
1.0
 70
     8
 71
     3
 72
    18
 73
    14
 74
     0
 42
0.0000000001
 43
0.0000000001
 40
0.0
 40
0.0
 40
0.0
 40
0.0
 40
0.0578338982849315
 40
0.1118929955768193
 40
0.1537647311114634
 40
0.1834554138253764
 40
0.2146460117247507
 40
0.2599192956888254
 40
0.320336164695469
 40
0.4393300488789262
 40
0.5923314158809806
 40
0.7792435256632036
 40
1.0
 40
1.0
 40
1.0
 40
1.0
 10
0.2312686543513265
 20
0.3376613945199256
 30
0.0
 10
0.2310003561123159
 20
0.3371999165445654
 30
0.0
 10
0.2304812713789537
 20
0.3363070811212647
 30
0.0
 10
0.2297676085472786
 20
0.3350805579742289
 30
0.0
 10
0.2291844356239685
 20
0.334078427995929
 30
0.0
 10
0.2287072518038093
 20
0.3332584779286047
 30
0.0
 10
0.2282141243740923
 20
0.3324112054983377
 30
0.0
 10
0.2275786219588922
 20
0.3313191163897382
 30
0.0
 10
0.2265348455082914
 20
0.3295266156369105
 30
0.0
 10
0.224989994034162
 20
0.3268746821420609
 30
0.0
 10
0.2228562329339296
 20
0.3232140248477282
 30
0.0
 10
0.2202469343082902
 20
0.318741924710731
 30
0.0
 10
0.2183475982032923
 20
0.3154920791384501
 30
0.0
 10
0.2173190893643642
 20
0.3137322563838356
 30
0.0
  0
SPLINE
  5
D95
330
1F
100
AcDbEntity
  8
0
  6
Continuous
 62
     7
370
    15
100
AcDbSpline
210
0.0
220
0.0
230
1.0
 70
     8
 71
     3
 72
     9
 73
     5
 74
     0
 42
0.0000000001
 43
0.0000000001
 40
0.0
 40
0.0
 40
0.0
 40
0.0
 40
0.4530772153210333
 40
0.9999999999999998
 40
0.9999999999999998
 40
0.9999999999999998
 40
0.9999999999999998
 10
0.2730478654666384
 20
0.3378547362632271
 30
0.0
 10
0.2709271588773467
 20
0.3342089294334787
 30
0.0
 10
0.2662464852138284
 20
0.3261621623340349
 30
0.0
 10
0.2615512658446
 20
0.3181242616890134
 30
0.0
 10
0.2589833433925057
 20
0.3137281506852669
 30
0.0
  0
LINE
  5
D96
330
1F
100
AcDbEntity
  8
0
  6
Continuous
 62
     7
370
    15
100
AcDbLine
 10
0.3030762324101928
 20
0.3178843331198589
 30
0.0
 11
0.3006492267446297
 21
0.3137267977518181
 31
0.0
  0
SPLINE
  5
D97
330
1F
100
AcDbEntity
  8
0
  6
Continuous
 62
     7
370
    15
100
AcDbSpline
210
0.0
220
0.0
230
1.0
 70
     8
 71
     3
 72
     9
 73
     5
 74
     0
 42
0.0000000001
 43
0.0000000001
 40
0.0
 40
0.0
 40
0.0
 40
0.0
 40
0.6279202206130492
 40
1.0
 40
1.0
 40
1.0
 40
1.0
 10
0.2588472118836242
 20
0.1489339393013995
 30
0.0
 10
0.2617874204526749
 20
0.1539874792076634
 30
0.0
 10
0.2664698760776516
 20
0.162035539678359
 30
0.0
 10
0.271167231290979
 20
0.1700748935348588
 30
0.0
 10
0.2729150221824539
 20
0.1730661745441988
 30
0.0
  0
SPLINE
  5
D98
330
1F
100
AcDbEntity
  8
0
  6
Continuous
 62
     7
370
    15
100
AcDbSpline
210
0.0
220
0.0
230
1.0
 70
     8
 71
     3
 72
     9
 73
     5
 74
     0
 42
0.0000000001
 43
0.0000000001
 40
0.0
 40
0.0
 40
0.0
 40
0.0
 40
0.5624050971749575
 40
1.0
 40
1.0
 40
1.0
 40
1.0
 10
0.2171831112832563
 20
0.14893811378485
 30
0.0
 10
0.2198159702316942
 20
0.1534638354981073
 30
0.0
 10
0.2244973981946869
 20
0.1615109206614409
 30
0.0
 10
0.2291932745771859
 20
0.1695486130494632
 30
0.0
 10
0.2312481661464623
 20
0.1730658662689375
 30
0.0
  0
SPLINE
  5
D99
330
1F
100
AcDbEntity
  8
0
  6
Continuous
 62
     7
370
    15
100
AcDbSpline
210
0.0
220
0.0
230
1.0
 70
     8
 71
     3
 72
     9
 73
     5
 74
     0
 42
0.0000000001
 43
0.0000000001
 40
0.0
 40
0.0
 40
0.0
 40
0.0
 40
0.5589130950766059
 40
1.0
 40
1.0
 40
1.0
 40
1.0
 10
0.175704229494483
 20
0.1492678055895158
 30
0.0
 10
0.1782851867078405
 20
0.1537015445866163
 30
0.0
 10
0.1829030015990809
 20
0.1616343324138423
 30
0.0
 10
0.1875305959386302
 20
0.169555408177479
 30
0.0
 10
0.1895717672030997
 20
0.1730492909697243
 30
0.0
  0
SPLINE
  5
D9A
330
1F
100
AcDbEntity
  8
0
  6
Continuous
 62
     7
370
    15
100
AcDbSpline
210
0.0
220
0.0
230
1.0
 70
     8
 71
     3
 72
     9
 73
     5
 74
     0
 42
0.0000000001
 43
0.0000000001
 40
0.0
 40
0.0
 40
0.0
 40
0.0
 40
0.4376298594445033
 40
0.9999999999999998
 40
0.9999999999999998
 40
0.9999999999999998
 40
0.9999999999999998
 10
0.2104147503806941
 20
0.3137280252598724
 30
0.0
 10
0.2083602517607459
 20
0.3172448990827437
 30
0.0
 10
0.2036656483747854
 20
0.3252810825080121
 30
0.0
 10
0.1989847636010125
 20
0.333326559444173
 30
0.0
 10
0.196352373772855
 20
0.3378510954395988
 30
0.0
  0
SPLINE
  5
D9B
330
1F
100
AcDbEntity
  8
0
  6
Continuous
 62
     7
370
    15
100
AcDbSpline
210
0.0
220
0.0
230
1.0
 70
     8
 71
     3
 72
     9
 73
     5
 74
     0
 42
0.0000000001
 43
0.0000000001
 40
0.0
 40
0.0
 40
0.0
 40
0.0
 40
0.4995051290141026
 40
1.0
 40
1.0
 40
1.0
 40
1.0
 10
0.252077763600846
 20
0.3137342600318529
 30
0.0
 10
0.2497327530747824
 20
0.3177486348443732
 30
0.0
 10
0.2450380855131242
 20
0.3257853387325642
 30
0.0
 10
0.2403573368227341
 20
0.3338314714946751
 30
0.0
 10
0.2380146461108175
 20
0.3378585196733812
 30
0.0
  0
SPLINE
  5
D9C
330
1F
100
AcDbEntity
  8
0
  6
Continuous
 62
     7
370
    15
100
AcDbSpline
210
0.0
220
0.0
230
1.0
 70
     8
 71
     3
 72
     9
 73
     5
 74
     0
 42
0.0000000001
 43
0.0000000001
 40
0.0
 40
0.0
 40
0.0
 40
0.0
 40
0.4377097764371121
 40
1.0
 40
1.0
 40
1.0
 40
1.0
 10
0.2937480334408966
 20
0.3137281127882747
 30
0.0
 10
0.291693115778473
 20
0.3172457469220784
 30
0.0
 10
0.2869984121802296
 20
0.3252822001227311
 30
0.0
 10
0.2823174350458841
 20
0.3333277330839965
 30
0.0
 10
0.2796853673665232
 20
0.3378516576114687
 30
0.0
  0
LINE
  5
D9D
330
1F
100
AcDbEntity
  8
0
  6
Continuous
 62
     7
370
    15
100
AcDbLine
 10
0.252928179228602
 20
0.1483968722831424
 30
0.0
 11
0.2581365125618418
 21
0.1483968722831424
 31
0.0
  0
LINE
  5
D9E
330
1F
100
AcDbEntity
  8
0
  6
Continuous
 62
     7
370
    15
100
AcDbLine
 10
0.2112615313054014
 20
0.1483968722831424
 30
0.0
 11
0.2164698458952095
 21
0.1483968722831424
 31
0.0
  0
LINE
  5
D9F
330
1F
100
AcDbEntity
  8
0
  6
Continuous
 62
     7
370
    15
100
AcDbLine
 10
0.1695948458952201
 20
0.1483968722831424
 30
0.0
 11
0.1748031979720372
 21
0.1483968722831424
 31
0.0
  0
LINE
  5
DA0
330
1F
100
AcDbEntity
  8
0
  6
Continuous
 62
     7
370
    15
100
AcDbLine
 10
0.1279281792285203
 20
0.1483968722831424
 30
0.0
 11
0.133136512561856
 21
0.1483968722831424
 31
0.0
  0
LINE
  5
DA1
330
1F
100
AcDbEntity
  8
0
  6
Continuous
 62
     7
370
    15
100
AcDbLine
 10
0.0862614641209603
 20
0.1483968722831424
 30
0.0
 11
0.0914697934964735
 21
0.1483968722831424
 31
0.0
  0
LINE
  5
DA2
330
1F
100
AcDbEntity
  8
0
  6
Continuous
 62
     7
370
    15
100
AcDbLine
 10
0.1123031792285096
 20
0.3383968722831401
 30
0.0
 11
0.1070948458951704
 21
0.3383968722831401
 31
0.0
  0
LINE
  5
DA3
330
1F
100
AcDbEntity
  8
0
  6
Continuous
 62
     7
370
    15
100
AcDbLine
 10
0.1539698458952095
 20
0.3383968722831401
 30
0.0
 11
0.1487615125618702
 21
0.3383968722831401
 31
0.0
  0
LINE
  5
DA4
330
1F
100
AcDbEntity
  8
0
  6
Continuous
 62
     7
370
    15
100
AcDbLine
 10
0.1956365125618915
 20
0.3383968722831401
 30
0.0
 11
0.19042817922857
 21
0.3383968722831401
 31
0.0
  0
LINE
  5
DA5
330
1F
100
AcDbEntity
  8
0
  6
Continuous
 62
     7
370
    15
100
AcDbLine
 10
0.2373031792285203
 20
0.3383968722831401
 30
0.0
 11
0.2320948458952627
 21
0.3383968722831401
 31
0.0
  0
LINE
  5
DA6
330
1F
100
AcDbEntity
  8
0
  6
Continuous
 62
     7
370
    15
100
AcDbLine
 10
0.2789698472272106
 20
0.3383968722831401
 30
0.0
 11
0.2737615268873816
 21
0.3383968722831401
 31
0.0
  0
LINE
  5
DA7
330
1F
100
AcDbEntity
  8
0
  6
Continuous
 62
     7
370
    15
100
AcDbLine
 10
0.2932314067614015
 20
0.1508837613010765
 30
0.0
 11
0.3171990125617916
 21
0.1923968722831428
 31
0.0
  0
LINE
  5
DA8
330
1F
100
AcDbEntity
  8
0
  6
Continuous
 62
     7
370
    15
100
AcDbLine
 10
0.3171990125617916
 20
0.2943968722831431
 30
0.0
 11
0.303639677637912
 21
0.3178823292881485
 31
0.0
  0
LINE
  5
DA9
330
1F
100
AcDbEntity
  8
0
  6
Continuous
 62
     7
370
    15
100
AcDbLine
 10
0.1961190921131837
 20
0.1737686827904052
 30
0.0
 11
0.1961397409420917
 21
0.1737663305561117
 31
0.0
  0
SPLINE
  5
DAA
330
1F
100
AcDbEntity
  8
0
  6
Continuous
 62
     7
370
    15
100
AcDbSpline
210
0.0
220
0.0
230
1.0
 70
     8
 71
     3
 72
    11
 73
     7
 74
     0
 42
0.0000000001
 43
0.0000000001
 40
0.0
 40
0.0
 40
0.0
 40
0.0
 40
0.2712562253298172
 40
0.5438091674143529
 40
0.817951879819595
 40
1.0
 40
1.0
 40
1.0
 40
1.0
 10
0.1957466195859658
 20
0.1739152311863232
 30
0.0
 10
0.1957930054931523
 20
0.1738922542407077
 30
0.0
 10
0.195885999051304
 20
0.1738461905101996
 30
0.0
 10
0.195995710363936
 20
0.1737995288133571
 30
0.0
 10
0.1960758729937253
 20
0.1737709996254242
 30
0.0
 10
0.1961067645054455
 20
0.1737693436329575
 30
0.0
 10
0.1961190921131837
 20
0.1737686827904052
 30
0.0
  0
LINE
  5
DAB
330
1F
100
AcDbEntity
  8
0
  6
Continuous
 62
     7
370
    15
100
AcDbLine
 10
0.1547935284700563
 20
0.1730794053418438
 30
0.0
 11
0.1548504283324106
 21
0.1730079377415226
 31
0.0
  0
SPLINE
  5
DAC
330
1F
100
AcDbEntity
  8
0
  6
Continuous
 62
     7
370
    15
100
AcDbSpline
210
0.0
220
0.0
230
1.0
 70
     8
 71
     3
 72
    17
 73
    13
 74
     0
 42
0.0000000001
 43
0.0000000001
 40
0.0
 40
0.0
 40
0.0
 40
0.0
 40
0.1581528046430944
 40
0.2907693061497519
 40
0.3996595529013733
 40
0.489981014125381
 40
0.5458292349869561
 40
0.6102227036875427
 40
0.6934698826453173
 40
0.7964877742131092
 40
0.9203792139911371
 40
1.0
 40
1.0
 40
1.0
 40
1.0
 10
0.1479137249508908
 20
0.1730639732984602
 30
0.0
 10
0.1480252482028788
 20
0.1732242030918794
 30
0.0
 10
0.148230287491772
 20
0.1735187910124825
 30
0.0
 10
0.1488877011040492
 20
0.1740575818281929
 30
0.0
 10
0.149726700182883
 20
0.1744991176830222
 30
0.0
 10
0.1506612303075854
 20
0.1747357335340769
 30
0.0
 10
0.1515439237426412
 20
0.1747743004616591
 30
0.0
 10
0.1523049551071138
 20
0.1746849251626148
 30
0.0
 10
0.1530467714942794
 20
0.1744705437676568
 30
0.0
 10
0.1537806927330378
 20
0.1740995690602805
 30
0.0
 10
0.1543518516532756
 20
0.1736746797118858
 30
0.0
 10
0.1545525771385185
 20
0.173393440127916
 30
0.0
 10
0.154631107658465
 20
0.1732834098010147
 30
0.0
  0
LINE
  5
DAD
330
1F
100
AcDbEntity
  8
0
  6
Continuous
 62
     7
370
    15
100
AcDbLine
 10
0.1131191426419362
 20
0.1730857293282735
 30
0.0
 11
0.1131822801665208
 21
0.1730104343244558
 31
0.0
  0
SPLINE
  5
DAE
330
1F
100
AcDbEntity
  8
0
  6
Continuous
 62
     7
370
    15
100
AcDbSpline
210
0.0
220
0.0
230
1.0
 70
     8
 71
     3
 72
    19
 73
    15
 74
     0
 42
0.0000000001
 43
0.0000000001
 40
0.0
 40
0.0
 40
0.0
 40
0.0
 40
0.1543955227936584
 40
0.2737895360123596
 40
0.3598138312898855
 40
0.4030625866001967
 40
0.4283967449873917
 40
0.4459901716802221
 40
0.4730274049885119
 40
0.5564382828436197
 40
0.6792688347834274
 40
0.783726572067435
 40
0.9073730599591451
 40
1.0
 40
1.0
 40
1.0
 40
1.0
 10
0.1062478851150437
 20
0.1730653712164194
 30
0.0
 10
0.1063962893614891
 20
0.1732697867268971
 30
0.0
 10
0.1066594545688857
 20
0.1736322766926388
 30
0.0
 10
0.1072735809806615
 20
0.1740820211732899
 30
0.0
 10
0.107791061907514
 20
0.1743537999186191
 30
0.0
 10
0.1081690771300159
 20
0.1745009454364446
 30
0.0
 10
0.1084184537311059
 20
0.1745806070798668
 30
0.0
 10
0.1086952741160778
 20
0.1746517649166062
 30
0.0
 10
0.10911638674524
 20
0.174733429305397
 30
0.0
 10
0.1098768252075586
 20
0.174792352260609
 30
0.0
 10
0.1108328324640815
 20
0.1746741726348577
 30
0.0
 10
0.1117842749449074
 20
0.1743194758415096
 30
0.0
 10
0.1125350556617923
 20
0.1738507061406824
 30
0.0
 10
0.1128266895621812
 20
0.1734550124994303
 30
0.0
 10
0.112951592357978
 20
0.1732855423452217
 30
0.0
  0
SPLINE
  5
DAF
330
1F
100
AcDbEntity
  8
0
  6
Continuous
 62
     7
370
    15
100
AcDbSpline
210
0.0
220
0.0
230
1.0
 70
     8
 71
     3
 72
    14
 73
    10
 74
     0
 42
0.0000000001
 43
0.0000000001
 40
0.0
 40
0.0
 40
0.0
 40
0.0
 40
0.0411457046456901
 40
0.136382885945509
 40
0.246245696083612
 40
0.3881921695143954
 40
0.5637750674060946
 40
0.7748769352216322
 40
1.0
 40
1.0
 40
1.0
 40
1.0
 10
0.0672228798469816
 20
0.1746656416218133
 30
0.0
 10
0.0673079856418837
 20
0.1746879698630177
 30
0.0
 10
0.0675900800675193
 20
0.1747619797748665
 30
0.0
 10
0.0682175930988733
 20
0.1747685202961964
 30
0.0
 10
0.0689691043733425
 20
0.1746870816953094
 30
0.0
 10
0.069713559918513
 20
0.1744698132246387
 30
0.0
 10
0.0704500477600028
 20
0.1740999760819715
 30
0.0
 10
0.0711013144070463
 20
0.1736020421349902
 30
0.0
 10
0.0713452911280945
 20
0.1732481886885349
 30
0.0
 10
0.0714712004539364
 20
0.1730655751641901
 30
0.0
  0
LINE
  5
DB0
330
1F
100
AcDbEntity
  8
0
  6
Continuous
 62
     7
370
    15
100
AcDbLine
 10
0.0854357390891472
 20
0.3137032337801908
 30
0.0
 11
0.0854067367110623
 21
0.3137416755170779
 31
0.0
  0
SPLINE
  5
DB1
330
1F
100
AcDbEntity
  8
0
  6
Continuous
 62
     7
370
    15
100
AcDbSpline
210
0.0
220
0.0
230
1.0
 70
     8
 71
     3
 72
    18
 73
    14
 74
     0
 42
0.0000000001
 43
0.0000000001
 40
0.0
 40
0.0
 40
0.0
 40
0.0
 40
0.1358314024165111
 40
0.2630451602813557
 40
0.3688117169156226
 40
0.4542408951053671
 40
0.5384844966192373
 40
0.6023415326721097
 40
0.6566281911615535
 40
0.7451701962555012
 40
0.8444385909566413
 40
0.9552430028851361
 40
1.0
 40
1.0
 40
1.0
 40
1.0
 10
0.0923055946445763
 20
0.3137296022368321
 30
0.0
 10
0.092180742206176
 20
0.3135483626057816
 30
0.0
 10
0.0919389584280039
 20
0.3131973818535296
 30
0.0
 10
0.0912941203296476
 20
0.3127010595276285
 30
0.0
 10
0.0905586957002007
 20
0.3123296286576884
 30
0.0
 10
0.0897767936271925
 20
0.3120973123552904
 30
0.0
 10
0.088881246804982
 20
0.3120056672906688
 30
0.0
 10
0.0880654042681335
 20
0.3120877117916325
 30
0.0
 10
0.0873637939174166
 20
0.31226508659532
 30
0.0
 10
0.086699883970462
 20
0.3125567949466255
 30
0.0
 10
0.0861092618372097
 20
0.3129532320437203
 30
0.0
 10
0.0857372746500196
 20
0.3132905733520583
 30
0.0
 10
0.0856250723311454
 20
0.313449377412488
 30
0.0
 10
0.0855927902960701
 20
0.3134950673616739
 30
0.0
  0
SPLINE
  5
DB2
330
1F
100
AcDbEntity
  8
0
  6
Continuous
 62
     7
370
    15
100
AcDbSpline
210
0.0
220
0.0
230
1.0
 70
     8
 71
     3
 72
    20
 73
    16
 74
     0
 42
0.0000000001
 43
0.0000000001
 40
0.0
 40
0.0
 40
0.0
 40
0.0
 40
0.1142068228514545
 40
0.2147684719194117
 40
0.3023345293293312
 40
0.3775259822119392
 40
0.4409161973863786
 40
0.4929743407668495
 40
0.5054971080978829
 40
0.5300209587448704
 40
0.5694789488885287
 40
0.6239908826306166
 40
0.7204649048409122
 40
0.8451941437870749
 40
1.0
 40
1.0
 40
1.0
 40
1.0
 10
0.1340198616966979
 20
0.3137905031416135
 30
0.0
 10
0.1339081436691614
 20
0.3136218456353272
 30
0.0
 10
0.1336980554322102
 20
0.313304681441475
 30
0.0
 10
0.1331671278529654
 20
0.3128493876962952
 30
0.0
 10
0.1325669335538797
 20
0.3124865979003342
 30
0.0
 10
0.1319261157857041
 20
0.3122292865519387
 30
0.0
 10
0.1312831289410972
 20
0.3120808215199087
 30
0.0
 10
0.1307770380522917
 20
0.3120342194290611
 30
0.0
 10
0.1303836938001281
 20
0.312035779655331
 30
0.0
 10
0.1301359608608847
 20
0.3120490014700354
 30
0.0
 10
0.1297601316751211
 20
0.3120910521342164
 30
0.0
 10
0.1292049520902956
 20
0.3122054046301581
 30
0.0
 10
0.1284751519111658
 20
0.3124737780523847
 30
0.0
 10
0.1276333815914916
 20
0.3129934411162363
 30
0.0
 10
0.1272783173082259
 20
0.31346591389138
 30
0.0
 10
0.1270816835712352
 20
0.3137275681657801
 30
0.0
  0
SPLINE
  5
DB3
330
1F
100
AcDbEntity
  8
0
  6
Continuous
 62
     7
370
    15
100
AcDbSpline
210
0.0
220
0.0
230
1.0
 70
     8
 71
     3
 72
    18
 73
    14
 74
     0
 42
0.0000000001
 43
0.0000000001
 40
0.0
 40
0.0
 40
0.0
 40
0.0
 40
0.1265975296921193
 40
0.2438137959035419
 40
0.3414358337949361
 40
0.4204835255644501
 40
0.498757001264004
 40
0.5581288076289276
 40
0.6084884470779289
 40
0.6906465585918479
 40
0.7827971546637951
 40
0.8856965538560512
 40
1.0
 40
1.0
 40
1.0
 40
1.0
 10
0.1756452899487697
 20
0.3137379964206868
 30
0.0
 10
0.1755183673220535
 20
0.3135535036157673
 30
0.0
 10
0.1752739274227983
 20
0.3131981894860754
 30
0.0
 10
0.1746251261792699
 20
0.3126991401320314
 30
0.0
 10
0.1738890272301155
 20
0.3123280889766729
 30
0.0
 10
0.1731058789738973
 20
0.312096461998048
 30
0.0
 10
0.1722130443884509
 20
0.3120058621961153
 30
0.0
 10
0.1713997067302784
 20
0.3120875617020313
 30
0.0
 10
0.1706971270542339
 20
0.3122650549618935
 30
0.0
 10
0.1700354569180056
 20
0.3125557446933118
 30
0.0
 10
0.16943957489269
 20
0.3129534861563268
 30
0.0
 10
0.1689813518831165
 20
0.3133813325570169
 30
0.0
 10
0.1688261222419505
 20
0.3136125693314316
 30
0.0
 10
0.1687444323225455
 20
0.3137342581617506
 30
0.0
  0
SPLINE
  5
DB4
330
1F
100
AcDbEntity
  8
0
  6
Continuous
 62
     7
370
    15
100
AcDbSpline
210
0.0
220
0.0
230
1.0
 70
     8
 71
     3
 72
    19
 73
    15
 74
     0
 42
0.0000000001
 43
0.0000000001
 40
0.0
 40
0.0
 40
0.0
 40
0.0
 40
0.1219312877694923
 40
0.2259663462671481
 40
0.3130754713191695
 40
0.4133928354821005
 40
0.4784275609658532
 40
0.5025179358645193
 40
0.5341174070316967
 40
0.5987576072466863
 40
0.669198297993611
 40
0.758966916667597
 40
0.8688346664846068
 40
0.9999999999999998
 40
0.9999999999999998
 40
0.9999999999999998
 40
0.9999999999999998
 10
0.2729150164312357
 20
0.1730661647115699
 30
0.0
 10
0.2730596002732972
 20
0.1732687037665943
 30
0.0
 10
0.2733275469432441
 20
0.1736440545980098
 30
0.0
 10
0.2739524835540918
 20
0.1741081780699136
 30
0.0
 10
0.2746473298822791
 20
0.1744635305946314
 30
0.0
 10
0.2753738551632785
 20
0.1746735192517608
 30
0.0
 10
0.275947575587645
 20
0.1747500732531282
 30
0.0
 10
0.2764408780810235
 20
0.1747619926939794
 30
0.0
 10
0.2768804224662325
 20
0.1747389398101393
 30
0.0
 10
0.2773722836451191
 20
0.1746643199814055
 30
0.0
 10
0.2780082090830525
 20
0.1744863015077971
 30
0.0
 10
0.2786729146805604
 20
0.1741766756285041
 30
0.0
 10
0.2793605750410903
 20
0.1736945675761479
 30
0.0
 10
0.279655358723891
 20
0.1732882549253627
 30
0.0
 10
0.2798157740475218
 20
0.1730671477909584
 30
0.0
  0
SPLINE
  5
DB5
330
1F
100
AcDbEntity
  8
0
  6
Continuous
 62
     7
370
    15
100
AcDbSpline
210
0.0
220
0.0
230
1.0
 70
     8
 71
     3
 72
    18
 73
    14
 74
     0
 42
0.0000000001
 43
0.0000000001
 40
0.0
 40
0.0
 40
0.0
 40
0.0
 40
0.1549085977074656
 40
0.2754051556000633
 40
0.3632624923819256
 40
0.4084319681552909
 40
0.4367025825202436
 40
0.4963437766689991
 40
0.581446798983614
 40
0.692674805090857
 40
0.7820198449221221
 40
0.8842050536220883
 40
1.0
 40
1.0
 40
1.0
 40
1.0
 10
0.2312481699010447
 20
0.173065872686865
 30
0.0
 10
0.2314069642038397
 20
0.1732822214319671
 30
0.0
 10
0.2316892775829422
 20
0.1736668583126206
 30
0.0
 10
0.2323725486034518
 20
0.1741506554321599
 30
0.0
 10
0.232986162880477
 20
0.174441882872723
 30
0.0
 10
0.2334397801078061
 20
0.1745910357888281
 30
0.0
 10
0.2339654617731646
 20
0.1747123613519921
 30
0.0
 10
0.2346509232313259
 20
0.174780975920682
 30
0.0
 10
0.2355062239458383
 20
0.1747240177651956
 30
0.0
 10
0.2363660334811555
 20
0.1744929053910045
 30
0.0
 10
0.237120315905988
 20
0.1741078663313462
 30
0.0
 10
0.237748915996876
 20
0.1736317606385274
 30
0.0
 10
0.2380140765803431
 20
0.1732565296461341
 30
0.0
 10
0.2381549346118148
 20
0.1730572002501727
 30
0.0
  0
SPLINE
  5
DB6
330
1F
100
AcDbEntity
  8
0
  6
Continuous
 62
     7
370
    15
100
AcDbSpline
210
0.0
220
0.0
230
1.0
 70
     8
 71
     3
 72
    15
 73
    11
 74
     0
 42
0.0000000001
 43
0.0000000001
 40
0.0
 40
0.0
 40
0.0
 40
0.0
 40
0.0920409123763686
 40
0.1921365304956471
 40
0.3008255735906784
 40
0.4187686853415731
 40
0.5467753480973152
 40
0.6856815793882968
 40
0.8364178876260462
 40
1.0
 40
1.0
 40
1.0
 40
1.0
 10
0.1895717637865899
 20
0.1730492851829861
 30
0.0
 10
0.1897493423110865
 20
0.1732991757173028
 30
0.0
 10
0.1901200396532352
 20
0.1738208252645268
 30
0.0
 10
0.1908689505371703
 20
0.1743344031925804
 30
0.0
 10
0.191715406424732
 20
0.1746772178345484
 30
0.0
 10
0.1926317264477873
 20
0.1748089544485285
 30
0.0
 10
0.1935510341986322
 20
0.1747635892161508
 30
0.0
 10
0.1944127964224598
 20
0.174572876963295
 30
0.0
 10
0.195175305013835
 20
0.1742668187523246
 30
0.0
 10
0.1955267289529892
 20
0.1740578043050032
 30
0.0
 10
0.1957096220529073
 20
0.1739490260006835
 30
0.0
  0
SPLINE
  5
DB7
330
1F
100
AcDbEntity
  8
0
  6
Continuous
 62
     7
370
    15
100
AcDbSpline
210
0.0
220
0.0
230
1.0
 70
     8
 71
     3
 72
    18
 73
    14
 74
     0
 42
0.0000000001
 43
0.0000000001
 40
0.0
 40
0.0
 40
0.0
 40
0.0
 40
0.137774634827246
 40
0.2531392462362041
 40
0.3473186670485109
 40
0.421274299887083
 40
0.459772364222086
 40
0.4945985161108183
 40
0.5606771785644659
 40
0.6357465630800834
 40
0.7332304580630177
 40
0.8541376013718021
 40
1.0
 40
1.0
 40
1.0
 40
1.0
 10
0.2173187325443222
 20
0.3137316478259204
 30
0.0
 10
0.2171791345745375
 20
0.313536322525169
 30
0.0
 10
0.2169226452367652
 20
0.3131774429718692
 30
0.0
 10
0.216268247022144
 20
0.3126865200910618
 30
0.0
 10
0.2155752273328537
 20
0.3123377582085129
 30
0.0
 10
0.2149416765535164
 20
0.3121473989278438
 30
0.0
 10
0.2143998762756438
 20
0.3120578492365478
 30
0.0
 10
0.2137884111586152
 20
0.3120220014831421
 30
0.0
 10
0.2132350661818392
 20
0.3120633519110132
 30
0.0
 10
0.2125055976178429
 20
0.3122065642926042
 30
0.0
 10
0.211735061668159
 20
0.3125121555355281
 30
0.0
 10
0.2109310356493537
 20
0.3130306506702094
 30
0.0
 10
0.2105972535696501
 20
0.3134815082449787
 30
0.0
 10
0.2104147505207279
 20
0.3137280250205368
 30
0.0
  0
SPLINE
  5
DB8
330
1F
100
AcDbEntity
  8
0
  6
Continuous
 62
     7
370
    15
100
AcDbSpline
210
0.0
220
0.0
230
1.0
 70
     8
 71
     3
 72
    17
 73
    13
 74
     0
 42
0.0000000001
 43
0.0000000001
 40
0.0
 40
0.0
 40
0.0
 40
0.0
 40
0.1548718963057316
 40
0.2753327921097339
 40
0.3631147600145929
 40
0.4082556660527612
 40
0.4364676325333507
 40
0.4960442501584077
 40
0.5811444838165222
 40
0.6924356331258588
 40
0.8313246885253896
 40
1.0
 40
1.0
 40
1.0
 40
1.0
 10
0.2589836600339068
 20
0.3137286917959325
 30
0.0
 10
0.2588248416629297
 20
0.3135122203526375
 30
0.0
 10
0.2585424927890343
 20
0.3131273752754058
 30
0.0
 10
0.2578596068694607
 20
0.3126436933843226
 30
0.0
 10
0.2572453165769111
 20
0.3123519457897668
 30
0.0
 10
0.25679224753299
 20
0.3122029129239674
 30
0.0
 10
0.2562656128255063
 20
0.3120812633268091
 30
0.0
 10
0.2555801566289531
 20
0.3120127930181542
 30
0.0
 10
0.2547239835570507
 20
0.3120697130167247
 30
0.0
 10
0.2537218261953824
 20
0.3123411747066977
 30
0.0
 10
0.2527017353801937
 20
0.312917817672427
 30
0.0
 10
0.2522987597607353
 20
0.3134450965489133
 30
0.0
 10
0.2520777587429044
 20
0.3137342683071036
 30
0.0
  0
SPLINE
  5
DB9
330
1F
100
AcDbEntity
  8
0
  6
Continuous
 62
     7
370
    15
100
AcDbSpline
210
0.0
220
0.0
230
1.0
 70
     8
 71
     3
 72
    18
 73
    14
 74
     0
 42
0.0000000001
 43
0.0000000001
 40
0.0
 40
0.0
 40
0.0
 40
0.0
 40
0.1375885283848391
 40
0.252816895120463
 40
0.3469114730721748
 40
0.4208289364172544
 40
0.4593294788422325
 40
0.4941753028033038
 40
0.5603056133934335
 40
0.6354356614988596
 40
0.733003536081093
 40
0.8540131234401531
 40
1.0
 40
1.0
 40
1.0
 40
1.0
 10
0.3006542371796406
 20
0.3137353472340354
 30
0.0
 10
0.3005143782740673
 20
0.3135393042280075
 30
0.0
 10
0.3002573895942908
 20
0.3131790780908712
 30
0.0
 10
0.2996023368663585
 20
0.3126871129829023
 30
0.0
 10
0.29890885689611
 20
0.3123378913103163
 30
0.0
 10
0.2982749939219764
 20
0.312147395943646
 30
0.0
 10
0.2977331083616632
 20
0.312057838405656
 30
0.0
 10
0.2971216873407676
 20
0.3120220011392039
 30
0.0
 10
0.2965683959558993
 20
0.3120633539557847
 30
0.0
 10
0.2958388823851563
 20
0.3122065830061043
 30
0.0
 10
0.2950683769863729
 20
0.3125121739164232
 30
0.0
 10
0.2942643196437174
 20
0.3130306972545565
 30
0.0
 10
0.2939305357071986
 20
0.3134815835579221
 30
0.0
 10
0.2937480311390757
 20
0.3137281167222408
 30
0.0
  0
LINE
  5
DBA
330
1F
100
AcDbEntity
  8
0
  6
Continuous
 62
     7
370
    15
100
AcDbLine
 10
0.0671990125617881
 20
0.3248254437117122
 30
0.0
 11
0.0671990125617881
 21
0.2533227151334028
 31
0.0
  0
SPLINE
  5
DBB
330
1F
100
AcDbEntity
  8
0
  6
Continuous
 62
     7
370
    15
100
AcDbSpline
210
0.0
220
0.0
230
1.0
 70
     8
 71
     3
 72
    26
 73
    22
 74
     0
 42
0.0000000001
 43
0.0000000001
 40
0.0
 40
0.0
 40
0.0
 40
0.0
 40
0.0489463104151975
 40
0.0984245215856059
 40
0.1481731326750229
 40
0.1984751030879012
 40
0.2541383952445993
 40
0.3101950754407295
 40
0.3675032850397316
 40
0.4252482731471006
 40
0.4801650559770921
 40
0.5354719902125254
 40
0.5920197847962178
 40
0.6490005355351265
 40
0.7030607322280226
 40
0.7575054094300321
 40
0.8131718483717007
 40
0.8692652265439521
 40
0.9224610270094075
 40
0.9764366893254631
 40
1.0
 40
1.0
 40
1.0
 40
1.0
 10
0.0807704336347306
 20
0.247446055033907
 30
0.0
 10
0.0806691001035929
 20
0.2497242282998815
 30
0.0
 10
0.0804653318473512
 20
0.2543053317965576
 30
0.0
 10
0.0801571726179211
 20
0.261109851263625
 30
0.0
 10
0.0798449177915095
 20
0.2678602959461915
 30
0.0
 10
0.079519270804743
 20
0.2747244141437857
 30
0.0
 10
0.0791789874836702
 20
0.2816425027473091
 30
0.0
 10
0.0788226269430132
 20
0.2885604687361745
 30
0.0
 10
0.0784603695559496
 20
0.2952047692936499
 30
0.0
 10
0.0780990827800081
 20
0.3013916156085326
 30
0.0
 10
0.0777406781382744
 20
0.3070578425825825
 30
0.0
 10
0.077383594703798
 20
0.3122079370041983
 30
0.0
 10
0.0770206569065066
 20
0.3168930491802822
 30
0.0
 10
0.0766589153326911
 20
0.3209734741498902
 30
0.0
 10
0.0763001862112538
 20
0.3244188472044935
 30
0.0
 10
0.0759429032120074
 20
0.3272459398393568
 30
0.0
 10
0.0755798372890637
 20
0.3294741623618289
 30
0.0
 10
0.0752181315861598
 20
0.3310412335325583
 30
0.0
 10
0.0748587360698472
 20
0.3319054666662307
 30
0.0
 10
0.0745700413764481
 20
0.332196833086942
 30
0.0
 10
0.0743977969036656
 20
0.3319624969328199
 30
0.0
 10
0.07434545354822
 20
0.3318912845425952
 30
0.0
  0
LINE
  5
DBC
330
1F
100
AcDbEntity
  8
0
  6
Continuous
 62
     7
370
    15
100
AcDbLine
 10
0.0807704411332195
 20
0.1791459800842634
 30
0.0
 11
0.0807704411332195
 21
0.2474460557705729
 31
0.0
  0
SPLINE
  5
DBD
330
1F
100
AcDbEntity
  8
0
  6
Continuous
 62
     7
370
    15
100
AcDbSpline
210
0.0
220
0.0
230
1.0
 70
     8
 71
     3
 72
    12
 73
     8
 74
     0
 42
0.0000000001
 43
0.0000000001
 40
0.0
 40
0.0
 40
0.0
 40
0.0
 40
0.25
 40
0.25
 40
0.5000000000000001
 40
0.5000000000000001
 40
1.0
 40
1.0
 40
1.0
 40
1.0
 10
0.0671987234708609
 20
0.2533213360164861
 30
0.0
 10
0.0684243379873357
 20
0.2471390750703211
 30
0.0
 10
0.0696109562820957
 20
0.240837833781131
 30
0.0
 10
0.0719407216749928
 20
0.2280142378771248
 30
0.0
 10
0.0731017840862989
 20
0.2214584202121326
 30
0.0
 10
0.0764725382435017
 20
0.2023892649833907
 30
0.0
 10
0.0786440953692611
 20
0.1900569223175441
 30
0.0
 10
0.0807704462291894
 20
0.1791459782196429
 30
0.0
  0
SPLINE
  5
DBE
330
1F
100
AcDbEntity
  8
0
  6
Continuous
 62
     7
370
    15
100
AcDbSpline
210
0.0
220
0.0
230
1.0
 70
     8
 71
     3
 72
    14
 73
    10
 74
     0
 42
0.0000000001
 43
0.0000000001
 40
0.0
 40
0.0
 40
0.0
 40
0.0
 40
0.2500000000000001
 40
0.2500000000000001
 40
0.5000000000000001
 40
0.5000000000000001
 40
0.7500000000000001
 40
0.7500000000000001
 40
1.0
 40
1.0
 40
1.0
 40
1.0
 10
0.122719845895181
 20
0.2433968722831412
 30
0.0
 10
0.1218517903396274
 20
0.2558323432035994
 30
0.0
 10
0.1209837347840703
 20
0.2682629212972738
 30
0.0
 10
0.119247623672956
 20
0.2912406754183781
 30
0.0
 10
0.1183795681174025
 20
0.3017788106807575
 30
0.0
 10
0.1166434570062917
 20
0.3193652223109697
 30
0.0
 10
0.1157754014507311
 20
0.3264065791767965
 30
0.0
 10
0.1140392903396203
 20
0.3359242765666319
 30
0.0
 10
0.1131712347840668
 20
0.3383968722831401
 30
0.0
 10
0.1123031792285096
 20
0.3383968722831401
 30
0.0
  0
SPLINE
  5
DBF
330
1F
100
AcDbEntity
  8
0
  6
Continuous
 62
     7
370
    15
100
AcDbSpline
210
0.0
220
0.0
230
1.0
 70
     8
 71
     3
 72
    25
 73
    21
 74
     0
 42
0.0000000001
 43
0.0000000001
 40
0.0
 40
0.0
 40
0.0
 40
0.0
 40
0.0242131061970416
 40
0.0816123352442748
 40
0.139011564291507
 40
0.1964107933387403
 40
0.2538100223859735
 40
0.3112092514332057
 40
0.3686084804804385
 40
0.4260077095276717
 40
0.4834069385749045
 40
0.5408061676221373
 40
0.5982053966693705
 40
0.6556046257166028
 40
0.7130038547638361
 40
0.7704030838110687
 40
0.8278023128583013
 40
0.8852015419055344
 40
0.9426007709527667
 40
1.0
 40
1.0
 40
1.0
 40
1.0
 10
0.0922667145692464
 20
0.1491957144527791
 30
0.0
 10
0.0921739277393861
 20
0.1490091819395853
 30
0.0
 10
0.0918611818321487
 20
0.1483804582278398
 30
0.0
 10
0.0913284768475271
 20
0.1482964702607485
 30
0.0
 10
0.0906685996153818
 20
0.1489243588154376
 30
0.0
 10
0.0900087223832364
 20
0.1505428993341862
 30
0.0
 10
0.0893488451510911
 20
0.1530650891046068
 30
0.0
 10
0.0886889679189493
 20
0.156484996457112
 30
0.0
 10
0.088029090686804
 20
0.1607636897028211
 30
0.0
 10
0.0873692134546622
 20
0.1658602032391687
 30
0.0
 10
0.0867093362225133
 20
0.1717237488510921
 30
0.0
 10
0.0860494589903716
 20
0.1782964132183185
 30
0.0
 10
0.0853895817582262
 20
0.1855131447375899
 30
0.0
 10
0.0847297045260844
 20
0.1933025466507938
 30
0.0
 10
0.0840698272939391
 20
0.201587571393097
 30
0.0
 10
0.0834099500617938
 20
0.2102861813873627
 30
0.0
 10
0.0827500728296484
 20
0.2193125786029835
 30
0.0
 10
0.0820901955975067
 20
0.228576483196014
 30
0.0
 10
0.0814303183653613
 20
0.2379898895854307
 30
0.0
 10
0.0809904002105966
 20
0.2442940003755278
 30
0.0
 10
0.0807704411332195
 20
0.2474460557705729
 30
0.0
  0
SPLINE
  5
DC1
330
1F
100
AcDbEntity
  8
0
  6
Continuous
 62
     7
370
    15
100
AcDbSpline
210
0.0
220
0.0
230
1.0
 70
     8
 71
     3
 72
    14
 73
    10
 74
     0
 42
0.0000000001
 43
0.0000000001
 40
0.0
 40
0.0
 40
0.0
 40
0.0
 40
0.25
 40
0.25
 40
0.5
 40
0.5
 40
0.75
 40
0.75
 40
1.0
 40
1.0
 40
1.0
 40
1.0
 10
0.173969845895106
 20
0.1491459756584728
 30
0.0
 10
0.1731712347840086
 20
0.1505798672175043
 30
0.0
 10
0.1723726236729042
 20
0.1540857240350231
 30
0.0
 10
0.1707754014506988
 20
0.1647925508155754
 30
0.0
 10
0.1699767903395943
 20
0.1719904994360302
 30
0.0
 10
0.1683795681173925
 20
0.1891539907200037
 30
0.0
 10
0.1675809570062916
 20
0.1991146900449567
 30
0.0
 10
0.1659837347840898
 20
0.2205188342040418
 30
0.0
 10
0.1651851236729853
 20
0.2319562390364556
 30
0.0
 10
0.1643865125618809
 20
0.2433968722831412
 30
0.0
  0
SPLINE
  5
DC2
330
1F
100
AcDbEntity
  8
0
  6
Continuous
 62
     7
370
    15
100
AcDbSpline
210
0.0
220
0.0
230
1.0
 70
     8
 71
     3
 72
    14
 73
    10
 74
     0
 42
0.0000000001
 43
0.0000000001
 40
0.0
 40
0.0
 40
0.0
 40
0.0
 40
0.2500000000000001
 40
0.2500000000000001
 40
0.5000000000000001
 40
0.5000000000000001
 40
0.7500000000000001
 40
0.7500000000000001
 40
1.0
 40
1.0
 40
1.0
 40
1.0
 10
0.1643865125618809
 20
0.2433968722831412
 30
0.0
 10
0.1635184570063273
 20
0.2558323432035994
 30
0.0
 10
0.1626504014507701
 20
0.2682629212972738
 30
0.0
 10
0.1609142903396559
 20
0.2912406754183781
 30
0.0
 10
0.1600462347841023
 20
0.3017788106807575
 30
0.0
 10
0.1583101236729916
 20
0.3193652223109697
 30
0.0
 10
0.1574420681174344
 20
0.3264065791767965
 30
0.0
 10
0.1557059570063202
 20
0.3359242765666319
 30
0.0
 10
0.154837901450763
 20
0.3383968722831401
 30
0.0
 10
0.1539698458952095
 20
0.3383968722831401
 30
0.0
  0
SPLINE
  5
DC3
330
1F
100
AcDbEntity
  8
0
  6
Continuous
 62
     7
370
    15
100
AcDbSpline
210
0.0
220
0.0
230
1.0
 70
     8
 71
     3
 72
    25
 73
    21
 74
     0
 42
0.0000000001
 43
0.0000000001
 40
0.0
 40
0.0
 40
0.0
 40
0.0
 40
0.0128639379827634
 40
0.0709307651602477
 40
0.128997592337732
 40
0.1870644195152169
 40
0.2451312466927012
 40
0.3031980738701861
 40
0.3612649010476705
 40
0.4193317282251547
 40
0.4773985554026391
 40
0.5354653825801239
 40
0.5935322097576088
 40
0.6515990369350932
 40
0.7096658641125774
 40
0.7677326912900618
 40
0.8257995184675465
 40
0.8838663456450309
 40
0.9419331728225152
 40
1.0
 40
1.0
 40
1.0
 40
1.0
 10
0.1339317839037348
 20
0.1491573739120351
 30
0.0
 10
0.1338837073453312
 20
0.1490509640246873
 30
0.0
 10
0.1336186168980382
 20
0.1484642280857773
 30
0.0
 10
0.133136512561856
 20
0.148291747837251
 30
0.0
 10
0.1324854708951917
 20
0.1486895743331995
 30
0.0
 10
0.1318344292285238
 20
0.1500758943256446
 30
0.0
 10
0.1311833875618595
 20
0.1523404722332333
 30
0.0
 10
0.1305323458951881
 20
0.1554874590729145
 30
0.0
 10
0.1298813042285203
 20
0.1594795916425216
 30
0.0
 10
0.129230262561856
 20
0.1642802873772868
 30
0.0
 10
0.1285792208951881
 20
0.169842813534731
 30
0.0
 10
0.1279281792285203
 20
0.1761137337658798
 30
0.0
 10
0.127277137561856
 20
0.1830326198242627
 30
0.0
 10
0.1266260958951846
 20
0.190532848662637
 30
0.0
 10
0.1259750542285167
 20
0.1985421864028598
 30
0.0
 10
0.1253240125618524
 20
0.2069834994339483
 30
0.0
 10
0.1246729708951846
 20
0.2157754931120894
 30
0.0
 10
0.1240219292285203
 20
0.224833495781495
 30
0.0
 10
0.1233708875618489
 20
0.2340702739115901
 30
0.0
 10
0.1229368597840703
 20
0.240288006159292
 30
0.0
 10
0.122719845895181
 20
0.2433968722831412
 30
0.0
  0
SPLINE
  5
DC4
330
1F
100
AcDbEntity
  8
0
  6
Continuous
 62
     7
370
    15
100
AcDbSpline
210
0.0
220
0.0
230
1.0
 70
     8
 71
     3
 72
    16
 73
    12
 74
     0
 42
0.0000000001
 43
0.0000000001
 40
0.0
 40
0.0
 40
0.0
 40
0.0
 40
0.1207101886326384
 40
0.2414203772652768
 40
0.3621305658979153
 40
0.4828407545305529
 40
0.6035509431631912
 40
0.7242611317958297
 40
0.8449713204284691
 40
0.9656815090611075
 40
1.0
 40
1.0
 40
1.0
 40
1.0
 10
0.0807704411332195
 20
0.1791459800842634
 30
0.0
 10
0.0809913819400996
 20
0.1768763631528667
 30
0.0
 10
0.0814332635538562
 20
0.1723371292900768
 30
0.0
 10
0.0820960859744893
 20
0.1664093494006902
 30
0.0
 10
0.0827589083951259
 20
0.1612043761931428
 30
0.0
 10
0.0834217308157626
 20
0.1568307999439635
 30
0.0
 10
0.0840845532363992
 20
0.1533231742502987
 30
0.0
 10
0.0847473756570394
 20
0.1506962902233464
 30
0.0
 10
0.085410198077676
 20
0.1490663596597617
 30
0.0
 10
0.0859148942323152
 20
0.1483380874857569
 30
0.0
 10
0.0861986495800777
 20
0.1484652482957418
 30
0.0
 10
0.0862614641209603
 20
0.1484933977137526
 30
0.0
  0
SPLINE
  5
DC5
330
1F
100
AcDbEntity
  8
0
  6
Continuous
 62
     7
370
    15
100
AcDbSpline
210
0.0
220
0.0
230
1.0
 70
     8
 71
     3
 72
    25
 73
    21
 74
     0
 42
0.0000000001
 43
0.0000000001
 40
0.0
 40
0.0
 40
0.0
 40
0.0
 40
0.0130362163936707
 40
0.0710929095469842
 40
0.1291496027002978
 40
0.1872062958536112
 40
0.2452629890069246
 40
0.3033196821602382
 40
0.3613763753135518
 40
0.4194330684668653
 40
0.4774897616201787
 40
0.5355464547734922
 40
0.5936031479268057
 40
0.6516598410801191
 40
0.7097165342334325
 40
0.767773227386746
 40
0.8258299205400595
 40
0.8838866136933729
 40
0.9419433068466865
 40
1.0
 40
1.0
 40
1.0
 40
1.0
 10
0.1062976174654095
 20
0.3376322584853806
 30
0.0
 10
0.1063463463864394
 20
0.3377401711748955
 30
0.0
 10
0.106612089196362
 20
0.3383286722278942
 30
0.0
 10
0.1070948458951704
 20
0.3385022402078082
 30
0.0
 10
0.1077458875618382
 20
0.3381041049931415
 30
0.0
 10
0.1083969292285061
 20
0.3367178677216305
 30
0.0
 10
0.1090479708951739
 20
0.3344532676490342
 30
0.0
 10
0.1096990125618418
 20
0.3313062867484457
 30
0.0
 10
0.1103500542285061
 20
0.3273141525874645
 30
0.0
 10
0.1110010958951739
 20
0.3225134572791066
 30
0.0
 10
0.1116521375618382
 20
0.3169509310074072
 30
0.0
 10
0.1123031792285096
 20
0.3106800108068721
 30
0.0
 10
0.1129542208951775
 20
0.303761124740286
 30
0.0
 10
0.1136052625618418
 20
0.2962608959041109
 30
0.0
 10
0.1142563042285096
 20
0.2882515581632983
 30
0.0
 10
0.1149073458951775
 20
0.2798102451323696
 30
0.0
 10
0.1155583875618453
 20
0.2710182514541823
 30
0.0
 10
0.1162094292285132
 20
0.261960248784791
 30
0.0
 10
0.116860470895181
 20
0.2527234706546924
 30
0.0
 10
0.117294498672956
 20
0.2465057384069904
 30
0.0
 10
0.1175115125618453
 20
0.2433968722831412
 30
0.0
  0
SPLINE
  5
DC6
330
1F
100
AcDbEntity
  8
0
  6
Continuous
 62
     7
370
    15
100
AcDbSpline
210
0.0
220
0.0
230
1.0
 70
     8
 71
     3
 72
    14
 73
    10
 74
     0
 42
0.0000000001
 43
0.0000000001
 40
0.0
 40
0.0
 40
0.0
 40
0.0
 40
0.25
 40
0.25
 40
0.5
 40
0.5
 40
0.75
 40
0.75
 40
1.0
 40
1.0
 40
1.0
 40
1.0
 10
0.1175115125618453
 20
0.2433968722831412
 30
0.0
 10
0.1183795681174025
 20
0.2309614013626795
 30
0.0
 10
0.119247623672956
 20
0.2185308232690086
 30
0.0
 10
0.1209837347840703
 20
0.1955530691479079
 30
0.0
 10
0.1218517903396274
 20
0.1850149338855249
 30
0.0
 10
0.1235879014507417
 20
0.1674285222553162
 30
0.0
 10
0.1244559570062953
 20
0.1603871653894859
 30
0.0
 10
0.126192068117406
 20
0.1508694679996505
 30
0.0
 10
0.1270601236729667
 20
0.1483968722831424
 30
0.0
 10
0.1279281792285203
 20
0.1483968722831424
 30
0.0
  0
SPLINE
  5
DC7
330
1F
100
AcDbEntity
  8
0
  6
Continuous
 62
     7
370
    15
100
AcDbSpline
210
0.0
220
0.0
230
1.0
 70
     8
 71
     3
 72
    25
 73
    21
 74
     0
 42
0.0000000001
 43
0.0000000001
 40
0.0
 40
0.0
 40
0.0
 40
0.0
 40
0.0130485301645169
 40
0.0711044989783689
 40
0.1291604677922209
 40
0.1872164366060728
 40
0.2452724054199247
 40
0.3033283742337767
 40
0.3613843430476287
 40
0.4194403118614807
 40
0.4774962806753325
 40
0.5355522494891845
 40
0.5936082183030365
 40
0.6516641871168884
 40
0.7097201559307404
 40
0.7677761247445922
 40
0.8258320935584443
 40
0.883888062372296
 40
0.941944031186148
 40
1.0
 40
1.0
 40
1.0
 40
1.0
 10
0.147964144221143
 20
0.3376319645090458
 30
0.0
 10
0.148012919779164
 20
0.3377399846808859
 30
0.0
 10
0.1482787092260707
 20
0.3383286119133497
 30
0.0
 10
0.1487615125618702
 20
0.3385022575625516
 30
0.0
 10
0.1494125542285345
 20
0.3381041003429519
 30
0.0
 10
0.1500635958952059
 20
0.3367178689676418
 30
0.0
 10
0.1507146375618737
 20
0.3344532673151643
 30
0.0
 10
0.151365679228538
 20
0.3313062868379066
 30
0.0
 10
0.1520167208952059
 20
0.3273141525634944
 30
0.0
 10
0.1526677625618737
 20
0.3225134572855299
 30
0.0
 10
0.1533188042285416
 20
0.3169509310056877
 30
0.0
 10
0.1539698458952095
 20
0.310680010807334
 30
0.0
 10
0.1546208875618773
 20
0.3037611247401617
 30
0.0
 10
0.1552719292285416
 20
0.2962608959041428
 30
0.0
 10
0.1559229708952095
 20
0.2882515581632876
 30
0.0
 10
0.1565740125618737
 20
0.2798102451323696
 30
0.0
 10
0.1572250542285452
 20
0.2710182514541823
 30
0.0
 10
0.157876095895213
 20
0.261960248784791
 30
0.0
 10
0.1585271375618773
 20
0.2527234706546924
 30
0.0
 10
0.1589611653396559
 20
0.2465057384069904
 30
0.0
 10
0.1591781792285452
 20
0.2433968722831412
 30
0.0
  0
SPLINE
  5
DC8
330
1F
100
AcDbEntity
  8
0
  6
Continuous
 62
     7
370
    15
100
AcDbSpline
210
0.0
220
0.0
230
1.0
 70
     8
 71
     3
 72
    14
 73
    10
 74
     0
 42
0.0000000001
 43
0.0000000001
 40
0.0
 40
0.0
 40
0.0
 40
0.0
 40
0.25
 40
0.25
 40
0.5
 40
0.5
 40
0.75
 40
0.75
 40
1.0
 40
1.0
 40
1.0
 40
1.0
 10
0.1591781792285452
 20
0.2433968722831412
 30
0.0
 10
0.1600462347841023
 20
0.2309614013626795
 30
0.0
 10
0.1609142903396594
 20
0.2185308232690086
 30
0.0
 10
0.1626504014507701
 20
0.1955530691479079
 30
0.0
 10
0.1635184570063273
 20
0.1850149338855249
 30
0.0
 10
0.1652545681174415
 20
0.1674285222553162
 30
0.0
 10
0.1661226236729951
 20
0.1603871653894859
 30
0.0
 10
0.1678587347841058
 20
0.1508694679996505
 30
0.0
 10
0.1687267903396665
 20
0.1483968722831424
 30
0.0
 10
0.1695948458952201
 20
0.1483968722831424
 30
0.0
  0
SPLINE
  5
DC9
330
1F
100
AcDbEntity
  8
0
  6
Continuous
 62
     7
370
    15
100
AcDbSpline
210
0.0
220
0.0
230
1.0
 70
     8
 71
     3
 72
    25
 73
    21
 74
     0
 42
0.0000000001
 43
0.0000000001
 40
0.0
 40
0.0
 40
0.0
 40
0.0
 40
0.0122843574744353
 40
0.070385277622998
 40
0.1284861977715607
 40
0.1865871179201233
 40
0.2446880380686858
 40
0.3027889582172485
 40
0.3608898783658112
 40
0.4189907985143738
 40
0.4770917186629364
 40
0.5351926388114991
 40
0.5932935589600616
 40
0.6513944791086243
 40
0.7094953992571869
 40
0.7675963194057495
 40
0.8256972395543121
 40
0.8837981597028747
 40
0.9418990798514373
 40
1.0
 40
1.0
 40
1.0
 40
1.0
 10
0.1896394869267026
 20
0.337650194317322
 30
0.0
 10
0.1896853704717727
 20
0.3377515616061426
 30
0.0
 10
0.1899482679057249
 20
0.3383323624156762
 30
0.0
 10
0.19042817922857
 20
0.3385011682790153
 30
0.0
 10
0.1910792208952379
 20
0.3381043922155971
 30
0.0
 10
0.1917302625619057
 20
0.3367177907606045
 30
0.0
 10
0.1923813042285736
 20
0.334453288270679
 30
0.0
 10
0.1930323458952379
 20
0.3313062812228924
 30
0.0
 10
0.1936833875619057
 20
0.3273141540680331
 30
0.0
 10
0.19433442922857
 20
0.3225134568823893
 30
0.0
 10
0.1949854708952414
 20
0.316950931113708
 30
0.0
 10
0.1956365125619093
 20
0.31068001077839
 30
0.0
 10
0.1962875542285736
 20
0.3037611247479208
 30
0.0
 10
0.1969385958952414
 20
0.2962608959020645
 30
0.0
 10
0.1975896375619093
 20
0.2882515581638454
 30
0.0
 10
0.1982406792285736
 20
0.2798102451322204
 30
0.0
 10
0.198891720895245
 20
0.271018251454225
 30
0.0
 10
0.1995427625619128
 20
0.2619602487847803
 30
0.0
 10
0.2001938042285771
 20
0.2527234706546924
 30
0.0
 10
0.2006278320063557
 20
0.246505738406994
 30
0.0
 10
0.200844845895245
 20
0.2433968722831412
 30
0.0
  0
SPLINE
  5
DCA
330
1F
100
AcDbEntity
  8
0
  6
Continuous
 62
     7
370
    15
100
AcDbSpline
210
0.0
220
0.0
230
1.0
 70
     8
 71
     3
 72
    14
 73
    10
 74
     0
 42
0.0000000001
 43
0.0000000001
 40
0.0
 40
0.0
 40
0.0
 40
0.0
 40
0.25
 40
0.25
 40
0.5000000000000001
 40
0.5000000000000001
 40
0.7500000000000002
 40
0.7500000000000002
 40
1.0
 40
1.0
 40
1.0
 40
1.0
 10
0.200844845895245
 20
0.2433968722831412
 30
0.0
 10
0.2016434570063494
 20
0.2319562390364556
 30
0.0
 10
0.2024420681174468
 20
0.2205188342040418
 30
0.0
 10
0.2040392903396522
 20
0.1991146900449567
 30
0.0
 10
0.2048379014507566
 20
0.1891539907200037
 30
0.0
 10
0.2064351236729585
 20
0.1719904994360302
 30
0.0
 10
0.2072337347840629
 20
0.1647925508155754
 30
0.0
 10
0.2088309570062683
 20
0.1540857240350231
 30
0.0
 10
0.2096295681173657
 20
0.1505798672175043
 30
0.0
 10
0.2104281792284701
 20
0.1491459756584728
 30
0.0
  0
LINE
  5
DCB
330
1F
100
AcDbEntity
  8
0
  6
Continuous
 62
     7
370
    15
100
AcDbLine
 10
0.1967095615398349
 20
0.1727199532192347
 30
0.0
 11
0.2104281792284701
 21
0.1491459756584728
 31
0.0
  0
SPLINE
  5
DCC
330
1F
100
AcDbEntity
  8
0
  6
Continuous
 62
     7
370
    15
100
AcDbSpline
210
0.0
220
0.0
230
1.0
 70
    24
 71
     3
 72
    12
 73
     8
 74
     0
 42
0.0000000001
 43
0.0000000001
 40
0.0
 40
0.0
 40
0.0
 40
0.0
 40
0.25
 40
0.25
 40
0.5000000000000001
 40
0.5000000000000001
 40
1.0
 40
1.0
 40
1.0
 40
1.0
 10
0.0671990125617881
 20
0.1940636418645336
 30
0.0
 10
0.0671990125617881
 20
0.1975289970449008
 30
0.0
 10
0.0671990125617881
 20
0.2014769617774863
 30
0.0
 10
0.0671990125617881
 20
0.2102737808339643
 30
0.0
 10
0.0671990125617881
 20
0.2151617353280339
 30
0.0
 10
0.0671990125617881
 20
0.2304569487110999
 30
0.0
 10
0.0671990125617881
 20
0.241822466510327
 30
0.0
 10
0.0671990125617881
 20
0.2533214858037371
 30
0.0
  0
SPLINE
  5
DCD
330
1F
100
AcDbEntity
  8
0
  6
Continuous
 62
     7
370
    15
100
AcDbSpline
210
0.0
220
0.0
230
1.0
 70
     8
 71
     3
 72
    39
 73
    35
 74
     0
 42
0.0000000001
 43
0.0000000001
 40
0.0
 40
0.0
 40
0.0
 40
0.0
 40
0.0242962679155243
 40
0.0557705818537332
 40
0.087244895791942
 40
0.1187192097301509
 40
0.1501935236683598
 40
0.1816678376065686
 40
0.2131421515447775
 40
0.2446164654829865
 40
0.2760907794211954
 40
0.3075650933594045
 40
0.3390394072976132
 40
0.3705137212358221
 40
0.4019880351740312
 40
0.4334623491122399
 40
0.4649366630504489
 40
0.4964109769886579
 40
0.5278852909268666
 40
0.5593596048650755
 40
0.5908339188032845
 40
0.6223082327414932
 40
0.6537825466797022
 40
0.6852568606179111
 40
0.71673117455612
 40
0.7482054884943289
 40
0.7796798024325378
 40
0.8111541163707466
 40
0.8426284303089556
 40
0.8741027442471644
 40
0.9055770581853732
 40
0.9370513721235822
 40
0.9685256860617911
 40
1.0
 40
1.0
 40
1.0
 40
1.0
 10
0.2729636077482289
 20
0.3376436029169791
 30
0.0
 10
0.2731161234637489
 20
0.3378891966070501
 30
0.0
 10
0.2734662138655337
 20
0.338452941748584
 30
0.0
 10
0.2740138789535869
 20
0.3384396053419525
 30
0.0
 10
0.2746066030123848
 20
0.3377560702617
 30
0.0
 10
0.2751993270711792
 20
0.3362951802284282
 30
0.0
 10
0.2757920511299772
 20
0.3340990670492079
 30
0.0
 10
0.276384775188768
 20
0.3311770995364422
 30
0.0
 10
0.276977499247566
 20
0.3275547930299669
 30
0.0
 10
0.2775702233063604
 20
0.3232604803843866
 30
0.0
 10
0.2781629473651548
 20
0.3183286026870558
 30
0.0
 10
0.2787556714239527
 20
0.3127984919398219
 30
0.0
 10
0.2793483954827436
 20
0.3067143095516787
 30
0.0
 10
0.2799411195415415
 20
0.3001246261141854
 30
0.0
 10
0.280533843600336
 20
0.2930820517627193
 30
0.0
 10
0.2811265676591339
 20
0.2856428113011755
 30
0.0
 10
0.2817192917179283
 20
0.2778662966277341
 30
0.0
 10
0.2823120157767227
 20
0.2698145922258479
 30
0.0
 10
0.2829047398355171
 20
0.2615519795996934
 30
0.0
 10
0.2834974638943151
 20
0.2531444240557146
 30
0.0
 10
0.2840901879531095
 20
0.2446590480555553
 30
0.0
 10
0.2846829120119074
 20
0.2361635953878565
 30
0.0
 10
0.2852756360706983
 20
0.227725890136983
 30
0.0
 10
0.2858683601294962
 20
0.2194132959242079
 30
0.0
 10
0.2864610841882906
 20
0.2112921754136525
 30
0.0
 10
0.2870538082470886
 20
0.2034273705415674
 30
0.0
 10
0.287646532305883
 20
0.1958816473693676
 30
0.0
 10
0.2882392563646774
 20
0.1887153348459651
 30
0.0
 10
0.2888319804234718
 20
0.181985321198648
 30
0.0
 10
0.2894247044822662
 20
0.1757465477704148
 30
0.0
 10
0.2900174285410642
 20
0.1700443003200813
 30
0.0
 10
0.290610152599855
 20
0.1649409797529262
 30
0.0
 10
0.291202876658653
 20
0.16041434491414
 30
0.0
 10
0.2915980260311861
 20
0.1579618442866486
 30
0.0
 10
0.2917956007174474
 20
0.1567355939729029
 30
0.0
  0
SPLINE
  5
DCE
330
1F
100
AcDbEntity
  8
0
  6
Continuous
 62
     7
370
    15
100
AcDbSpline
210
0.0
220
0.0
230
1.0
 70
     8
 71
     3
 72
    13
 73
     9
 74
     0
 42
0.0000000001
 43
0.0000000001
 40
0.0
 40
0.0
 40
0.0
 40
0.0
 40
0.1750600780692208
 40
0.3520751839576532
 40
0.5300839468670802
 40
0.7101333213228828
 40
0.9066359384225608
 40
1.0
 40
1.0
 40
1.0
 40
1.0
 10
0.2917956009935039
 20
0.1567355944026072
 30
0.0
 10
0.2918763666792876
 20
0.1559621403891735
 30
0.0
 10
0.292038800022135
 20
0.1544065946184492
 30
0.0
 10
0.2922844925147046
 20
0.1526921765420492
 30
0.0
 10
0.2925336200814548
 20
0.1514366756594423
 30
0.0
 10
0.2927934116414987
 20
0.150730055938278
 30
0.0
 10
0.2930143349756711
 20
0.1505182395228839
 30
0.0
 10
0.293151459085665
 20
0.1508103368882867
 30
0.0
 10
0.2931956258174444
 20
0.1509044194387019
 30
0.0
  0
SPLINE
  5
DCF
330
1F
100
AcDbEntity
  8
0
  6
Continuous
 62
     7
370
    15
100
AcDbSpline
210
0.0
220
0.0
230
1.0
 70
     8
 71
     3
 72
    16
 73
    12
 74
     0
 42
0.0000000001
 43
0.0000000001
 40
0.0
 40
0.0
 40
0.0
 40
0.0
 40
0.052556956330506
 40
0.1731467699921227
 40
0.2946464604805483
 40
0.4180295912404396
 40
0.5336127603855645
 40
0.6509203346864283
 40
0.7691124211045626
 40
0.8891325447296603
 40
1.0
 40
1.0
 40
1.0
 40
1.0
 10
0.3031070921928403
 20
0.3178663208008732
 30
0.0
 10
0.3031480803668756
 20
0.3179525675320629
 30
0.0
 10
0.3032831142508399
 20
0.3182367039046834
 30
0.0
 10
0.3035146349959894
 20
0.3181401462371685
 30
0.0
 10
0.3038033695942857
 20
0.317574966274871
 30
0.0
 10
0.3040902149661924
 20
0.316423654793623
 30
0.0
 10
0.3043757038224846
 20
0.3147561812831963
 30
0.0
 10
0.304658895551126
 20
0.3126054528839457
 30
0.0
 10
0.3049475636681769
 20
0.3099129454773066
 30
0.0
 10
0.3052327319026786
 20
0.3068131576225876
 30
0.0
 10
0.3054229027398185
 20
0.304391727925206
 30
0.0
 10
0.3055142188551421
 20
0.3032290073061528
 30
0.0
  0
SPLINE
  5
DD0
330
1F
100
AcDbEntity
  8
0
  6
Continuous
 62
     7
370
    15
100
AcDbSpline
210
0.0
220
0.0
230
1.0
 70
     8
 71
     3
 72
     9
 73
     5
 74
     0
 42
0.0000000001
 43
0.0000000001
 40
0.0
 40
0.0
 40
0.0
 40
0.0
 40
0.5616579417326961
 40
1.0
 40
1.0
 40
1.0
 40
1.0
 10
0.2104281792284701
 20
0.1491459756584728
 30
0.0
 10
0.2105844292284735
 20
0.1488997720368441
 30
0.0
 10
0.2108626234609274
 20
0.1484614205005552
 30
0.0
 10
0.2111408176933813
 20
0.1484448130274909
 30
0.0
 10
0.2112627619258318
 20
0.1484375332735641
 30
0.0
  0
SPLINE
  5
DD1
330
1F
100
AcDbEntity
  8
0
  6
Continuous
 62
     7
370
    15
100
AcDbSpline
210
0.0
220
0.0
230
1.0
 70
     8
 71
     3
 72
    25
 73
    21
 74
     0
 42
0.0000000001
 43
0.0000000001
 40
0.0
 40
0.0
 40
0.0
 40
0.0
 40
0.012632054356731
 40
0.0707125217475116
 40
0.1287929891382922
 40
0.1868734565290727
 40
0.2449539239198531
 40
0.3030343913106337
 40
0.3611148587014143
 40
0.4191953260921948
 40
0.4772757934829753
 40
0.5353562608737559
 40
0.5934367282645363
 40
0.6515171956553168
 40
0.7095976630460973
 40
0.7676781304368779
 40
0.8257585978276583
 40
0.8838390652184388
 40
0.9419195326092195
 40
1.0
 40
1.0
 40
1.0
 40
1.0
 10
0.2313022076800286
 20
0.3376419032935753
 30
0.0
 10
0.2313494065295507
 20
0.3377462932531887
 30
0.0
 10
0.2316136192679621
 20
0.3383306540452675
 30
0.0
 10
0.2320948458952627
 20
0.3385016670135197
 30
0.0
 10
0.2327458875619306
 20
0.3381042585800873
 30
0.0
 10
0.2333969292285949
 20
0.3367178265681321
 30
0.0
 10
0.2340479708952663
 20
0.3344532786760819
 30
0.0
 10
0.2346990125619341
 20
0.3313062837937604
 30
0.0
 10
0.2353500542285984
 20
0.3273141533791726
 30
0.0
 10
0.2360010958952663
 20
0.322513457066967
 30
0.0
 10
0.2366521375619341
 20
0.3169509310642506
 30
0.0
 10
0.2373031792285984
 20
0.3106800107916416
 30
0.0
 10
0.2379542208952663
 20
0.3037611247443681
 30
0.0
 10
0.2386052625619306
 20
0.2962608959030166
 30
0.0
 10
0.2392563042285984
 20
0.2882515581635896
 30
0.0
 10
0.2399073458952698
 20
0.2798102451322879
 30
0.0
 10
0.2405583875619341
 20
0.2710182514542037
 30
0.0
 10
0.241209429228602
 20
0.2619602487847839
 30
0.0
 10
0.2418604708952698
 20
0.2527234706546924
 30
0.0
 10
0.2422944986730449
 20
0.246505738406994
 30
0.0
 10
0.2425115125619341
 20
0.2433968722831412
 30
0.0
  0
SPLINE
  5
DD2
330
1F
100
AcDbEntity
  8
0
  6
Continuous
 62
     7
370
    15
100
AcDbSpline
210
0.0
220
0.0
230
1.0
 70
     8
 71
     3
 72
    14
 73
    10
 74
     0
 42
0.0000000001
 43
0.0000000001
 40
0.0
 40
0.0
 40
0.0
 40
0.0
 40
0.25
 40
0.25
 40
0.5
 40
0.5
 40
0.75
 40
0.75
 40
1.0
 40
1.0
 40
1.0
 40
1.0
 10
0.2425115125619341
 20
0.2433968722831412
 30
0.0
 10
0.2433795681174913
 20
0.2309614013626795
 30
0.0
 10
0.2442476236730449
 20
0.2185308232690086
 30
0.0
 10
0.2459837347841556
 20
0.1955530691479079
 30
0.0
 10
0.2468517903397163
 20
0.1850149338855249
 30
0.0
 10
0.248587901450827
 20
0.1674285222553162
 30
0.0
 10
0.2494559570063806
 20
0.1603871653894859
 30
0.0
 10
0.2511920681174913
 20
0.1508694679996505
 30
0.0
 10
0.2520601236730484
 20
0.1483968722831424
 30
0.0
 10
0.252928179228602
 20
0.1483968722831424
 30
0.0
  0
SPLINE
  5
DD3
330
1F
100
AcDbEntity
  8
0
  6
Continuous
 62
     7
370
    15
100
AcDbSpline
210
0.0
220
0.0
230
1.0
 70
     8
 71
     3
 72
    14
 73
    10
 74
     0
 42
0.0000000001
 43
0.0000000001
 40
0.0
 40
0.0
 40
0.0
 40
0.0
 40
0.0001763359801993
 40
0.0001763359801993
 40
0.0001763359801993
 40
0.0003526718153298
 40
0.0003526718153298
 40
0.0003526718153298
 40
0.0006969058702761
 40
0.0006969058702761
 40
0.0006969058702761
 40
0.0006969058702761
 10
0.3055142217469053
 20
0.2180825966789708
 30
0.0
 10
0.3043571649776964
 20
0.2173757534056822
 30
0.0
 10
0.3032000988044827
 20
0.2166540013655183
 30
0.0
 10
0.3020430410353128
 20
0.2159463334204783
 30
0.0
 10
0.3008859842342573
 20
0.2152386660675514
 30
0.0
 10
0.299728920788366
 20
0.2145184435367777
 30
0.0
 10
0.2985718632274952
 20
0.2138100274876951
 30
0.0
 10
0.2963131131171592
 20
0.2124270929793919
 30
0.0
 10
0.2940543534788254
 20
0.2110225904805485
 30
0.0
 10
0.2917956028926887
 20
0.2096391040041066
 30
0.0
  0
SPLINE
  5
DD4
330
1F
100
AcDbEntity
  8
0
  6
Continuous
 62
     7
370
    15
100
AcDbSpline
210
0.0
220
0.0
230
1.0
 70
     8
 71
     3
 72
    34
 73
    30
 74
     0
 42
0.0000000001
 43
0.0000000001
 40
0.0
 40
0.0
 40
0.0
 40
0.0
 40
0.037753502335862
 40
0.075507004671724
 40
0.1132605070075859
 40
0.1510140093434479
 40
0.1887675116793098
 40
0.2265210140151717
 40
0.2642745163510337
 40
0.3020280186868956
 40
0.3397815210227577
 40
0.3775350233586196
 40
0.4152885256944816
 40
0.4530420280303435
 40
0.4907955303662055
 40
0.5285490327020675
 40
0.5663025350379295
 40
0.6040560373737915
 40
0.6418095397096534
 40
0.6795630420455154
 40
0.7173165443813773
 40
0.7550700467172393
 40
0.7928235490531013
 40
0.8305770513889632
 40
0.868330553724825
 40
0.906084056060687
 40
0.9438375583965489
 40
0.9815910607324109
 40
1.0
 40
1.0
 40
1.0
 40
1.0
 10
0.2917956007174474
 20
0.209639203363589
 30
0.0
 10
0.2916341950126671
 20
0.2118178662882737
 30
0.0
 10
0.2913113836030958
 20
0.2161751921376502
 30
0.0
 10
0.2908271664887443
 20
0.2229044584555015
 30
0.0
 10
0.2903429493743928
 20
0.2297300182716586
 30
0.0
 10
0.2898587322600377
 20
0.2366318737265292
 30
0.0
 10
0.2893745151456861
 20
0.2435688544673009
 30
0.0
 10
0.288890298031331
 20
0.2505051671521012
 30
0.0
 10
0.2884060809169795
 20
0.2574035310753995
 30
0.0
 10
0.2879218638026244
 20
0.264227267263563
 30
0.0
 10
0.2874376466882729
 20
0.2709399874124034
 30
0.0
 10
0.2869534295739178
 20
0.277505923536977
 30
0.0
 10
0.2864692124595663
 20
0.2838900822214636
 30
0.0
 10
0.2859849953452112
 20
0.2900584408560174
 30
0.0
 10
0.2855007782308596
 20
0.295978126334506
 30
0.0
 10
0.2850165611165081
 20
0.3016175909728698
 30
0.0
 10
0.2845323440021565
 20
0.3069467803428008
 30
0.0
 10
0.284048126887805
 20
0.3119372938851181
 30
0.0
 10
0.2835639097734499
 20
0.316562534779609
 30
0.0
 10
0.2830796926590984
 20
0.320797857182838
 30
0.0
 10
0.2825954755447433
 20
0.3246206770757485
 30
0.0
 10
0.2821112584303918
 20
0.3280106691140669
 30
0.0
 10
0.2816270413160367
 20
0.3309495894710348
 30
0.0
 10
0.2811428242016851
 20
0.3334224384783642
 30
0.0
 10
0.28065860708733
 20
0.335413564383759
 30
0.0
 10
0.2801743899729785
 20
0.3369215860696986
 30
0.0
 10
0.2796901728586234
 20
0.3379040193698788
 30
0.0
 10
0.2792886586100365
 20
0.3383850971859619
 30
0.0
 10
0.2790485500662299
 20
0.338346316336845
 30
0.0
 10
0.2789698472272106
 20
0.3383336047403442
 30
0.0
  0
SPLINE
  5
DD5
330
1F
100
AcDbEntity
  8
0
  6
Continuous
 62
     7
370
    15
100
AcDbSpline
210
0.0
220
0.0
230
1.0
 70
     8
 71
     3
 72
    25
 73
    21
 74
     0
 42
0.0000000001
 43
0.0000000001
 40
0.0
 40
0.0
 40
0.0
 40
0.0
 40
0.0128403108452421
 40
0.0709085278543453
 40
0.1289767448634485
 40
0.1870449618725523
 40
0.2451131788816555
 40
0.3031813958907592
 40
0.3612496128998624
 40
0.4193178299089657
 40
0.4773860469180689
 40
0.5354542639271727
 40
0.5935224809362764
 40
0.6515906979453796
 40
0.7096589149544829
 40
0.7677271319635861
 40
0.8257953489726897
 40
0.883863565981793
 40
0.9419317829908962
 40
1.0
 40
1.0
 40
1.0
 40
1.0
 10
0.2589315155519976
 20
0.1491568100602005
 30
0.0
 10
0.2588835284441706
 20
0.1490506061359429
 30
0.0
 10
0.2586185274474508
 20
0.1484641122408721
 30
0.0
 10
0.2581365125618418
 20
0.148291781327514
 30
0.0
 10
0.2574854708951739
 20
0.1486895653595137
 30
0.0
 10
0.2568344292285096
 20
0.1500758967301354
 30
0.0
 10
0.2561833875618418
 20
0.1523404715889522
 30
0.0
 10
0.2555323458951775
 20
0.1554874592455515
 30
0.0
 10
0.2548813042285096
 20
0.1594795915962652
 30
0.0
 10
0.2542302625618418
 20
0.1642802873896787
 30
0.0
 10
0.2535792208951775
 20
0.1698428135314092
 30
0.0
 10
0.2529281792285096
 20
0.1761137337667715
 30
0.0
 10
0.2522771375618453
 20
0.1830326198240246
 30
0.0
 10
0.2516260958951775
 20
0.1905328486627009
 30
0.0
 10
0.2509750542285096
 20
0.1985421864028456
 30
0.0
 10
0.2503240125618453
 20
0.2069834994339519
 30
0.0
 10
0.2496729708951775
 20
0.2157754931120894
 30
0.0
 10
0.2490219292285132
 20
0.224833495781495
 30
0.0
 10
0.2483708875618453
 20
0.2340702739115901
 30
0.0
 10
0.2479368597840668
 20
0.240288006159292
 30
0.0
 10
0.2477198458951775
 20
0.2433968722831412
 30
0.0
  0
SPLINE
  5
DD6
330
1F
100
AcDbEntity
  8
0
  6
Continuous
 62
     7
370
    15
100
AcDbSpline
210
0.0
220
0.0
230
1.0
 70
     8
 71
     3
 72
    14
 73
    10
 74
     0
 42
0.0000000001
 43
0.0000000001
 40
0.0
 40
0.0
 40
0.0
 40
0.0
 40
0.2500000000000001
 40
0.2500000000000001
 40
0.5000000000000001
 40
0.5000000000000001
 40
0.7500000000000001
 40
0.7500000000000001
 40
1.0
 40
1.0
 40
1.0
 40
1.0
 10
0.2477198458951775
 20
0.2433968722831412
 30
0.0
 10
0.2468517903396239
 20
0.2558323432035994
 30
0.0
 10
0.2459837347840668
 20
0.2682629212972738
 30
0.0
 10
0.2442476236729596
 20
0.2912406754183781
 30
0.0
 10
0.2433795681174025
 20
0.3017788106807575
 30
0.0
 10
0.2416434570062917
 20
0.3193652223109697
 30
0.0
 10
0.2407754014507382
 20
0.3264065791767965
 30
0.0
 10
0.239039290339631
 20
0.3359242765666319
 30
0.0
 10
0.2381712347840774
 20
0.3383968722831401
 30
0.0
 10
0.2373031792285203
 20
0.3383968722831401
 30
0.0
  0
SPLINE
  5
DD7
330
1F
100
AcDbEntity
  8
0
  6
Continuous
 62
     7
370
    15
100
AcDbSpline
210
0.0
220
0.0
230
1.0
 70
     8
 71
     3
 72
    25
 73
    21
 74
     0
 42
0.0000000001
 43
0.0000000001
 40
0.0
 40
0.0
 40
0.0
 40
0.0
 40
0.0130712822657697
 40
0.0711259127207242
 40
0.1291805431756788
 40
0.1872351736306339
 40
0.2452898040855883
 40
0.3033444345405434
 40
0.361399064995498
 40
0.4194536954504526
 40
0.4775083259054071
 40
0.5355629563603621
 40
0.5936175868153173
 40
0.6516722172702718
 40
0.7097268477252264
 40
0.767781478180181
 40
0.8258361086351358
 40
0.8838907390900903
 40
0.9419453695450449
 40
1.0
 40
1.0
 40
1.0
 40
1.0
 10
0.2172674727580079
 20
0.1491623232553454
 30
0.0
 10
0.2172186110259644
 20
0.149054104465036
 30
0.0
 10
0.2169527354050316
 20
0.1484652440856304
 30
0.0
 10
0.2164698458952095
 20
0.1482914549542886
 30
0.0
 10
0.2158188042285416
 20
0.1486896528109536
 30
0.0
 10
0.2151677625618737
 20
0.1500758732975942
 30
0.0
 10
0.2145167208952095
 20
0.1523404778676809
 30
0.0
 10
0.2138656792285416
 20
0.1554874575631675
 30
0.0
 10
0.2132146375618773
 20
0.1594795920470549
 30
0.0
 10
0.2125635958952095
 20
0.16428028726889
 30
0.0
 10
0.2119125542285416
 20
0.1698428135637744
 30
0.0
 10
0.2112615125618809
 20
0.1761137337580994
 30
0.0
 10
0.210610470895213
 20
0.1830326198263481
 30
0.0
 10
0.2099594292285487
 20
0.1905328486620792
 30
0.0
 10
0.2093083875618809
 20
0.198542186403009
 30
0.0
 10
0.2086573458952166
 20
0.2069834994339093
 30
0.0
 10
0.2080063042285487
 20
0.2157754931121001
 30
0.0
 10
0.2073552625618809
 20
0.2248334957814915
 30
0.0
 10
0.2067042208952166
 20
0.2340702739115901
 30
0.0
 10
0.206270193117438
 20
0.240288006159292
 30
0.0
 10
0.2060531792285487
 20
0.2433968722831412
 30
0.0
  0
SPLINE
  5
DD8
330
1F
100
AcDbEntity
  8
0
  6
Continuous
 62
     7
370
    15
100
AcDbSpline
210
0.0
220
0.0
230
1.0
 70
     8
 71
     3
 72
    14
 73
    10
 74
     0
 42
0.0000000001
 43
0.0000000001
 40
0.0
 40
0.0
 40
0.0
 40
0.0
 40
0.25
 40
0.25
 40
0.5
 40
0.5
 40
0.75
 40
0.75
 40
1.0
 40
1.0
 40
1.0
 40
1.0
 10
0.2060531792285487
 20
0.2433968722831412
 30
0.0
 10
0.2051851236729951
 20
0.2558323432035994
 30
0.0
 10
0.204317068117438
 20
0.2682629212972738
 30
0.0
 10
0.2025809570063273
 20
0.2912406754183781
 30
0.0
 10
0.2017129014507737
 20
0.3017788106807575
 30
0.0
 10
0.1999767903396665
 20
0.3193652223109697
 30
0.0
 10
0.199108734784113
 20
0.3264065791767965
 30
0.0
 10
0.1973726236730022
 20
0.3359242765666319
 30
0.0
 10
0.1965045681174451
 20
0.3383968722831401
 30
0.0
 10
0.1956365125618915
 20
0.3383968722831401
 30
0.0
  0
SPLINE
  5
DD9
330
1F
100
AcDbEntity
  8
0
  6
Continuous
 62
     7
370
    15
100
AcDbSpline
210
0.0
220
0.0
230
1.0
 70
     8
 71
     3
 72
    11
 73
     7
 74
     0
 42
0.0000000001
 43
0.0000000001
 40
0.0
 40
0.0
 40
0.0
 40
0.0
 40
0.178151457715339
 40
0.4521009718102237
 40
0.726050485905112
 40
1.0
 40
1.0
 40
1.0
 40
1.0
 10
0.1756809275940632
 20
0.1492813780369591
 30
0.0
 10
0.1755793170277484
 20
0.1490870950157965
 30
0.0
 10
0.1753214564614338
 20
0.1485940564305348
 30
0.0
 10
0.1749073458951194
 20
0.1483468703721111
 30
0.0
 10
0.1744385958951127
 20
0.148437400530496
 30
0.0
 10
0.1741260958951094
 20
0.1489097839491495
 30
0.0
 10
0.173969845895106
 20
0.1491459756584728
 30
0.0
  0
LINE
  5
DDA
330
1F
100
AcDbEntity
  8
0
  6
Continuous
 62
     7
370
    15
100
AcDbLine
 10
0.2917956008554774
 20
0.1567355941877533
 30
0.0
 11
0.2917956007174474
 21
0.209639203363589
 31
0.0
  0
SPLINE
  5
DDB
330
1F
100
AcDbEntity
  8
0
  6
Continuous
 62
     7
370
    15
100
AcDbSpline
210
0.0
220
0.0
230
1.0
 70
     8
 71
     3
 72
    24
 73
    20
 74
     0
 42
0.0000000001
 43
0.0000000001
 40
0.0
 40
0.0
 40
0.0
 40
0.0
 40
0.25
 40
0.25
 40
0.5000000000000001
 40
0.5000000000000001
 40
0.7500000000000002
 40
0.7500000000000002
 40
0.8750000000000001
 40
0.8750000000000001
 40
0.9375000000000001
 40
0.9375000000000001
 40
0.9687500000000001
 40
0.9687500000000001
 40
0.9843750000000001
 40
0.9843750000000001
 40
0.9921875000000001
 40
0.9921875000000001
 40
1.0
 40
1.0
 40
1.0
 40
1.0
 10
0.3055142188551421
 20
0.3032290073061528
 30
0.0
 10
0.3058828439566574
 20
0.2983925999369095
 30
0.0
 10
0.306167873837301
 20
0.2926255779468352
 30
0.0
 10
0.3066274093328061
 20
0.2797088565278247
 30
0.0
 10
0.306801468756523
 20
0.2724869162935934
 30
0.0
 10
0.3070101450380931
 20
0.2574734824850668
 30
0.0
 10
0.3070547488446826
 20
0.2494923158457272
 30
0.0
 10
0.3069413745956644
 20
0.2375720163028301
 30
0.0
 10
0.3068760589022061
 20
0.2336064189453839
 30
0.0
 10
0.3066630549512168
 20
0.2277057771289488
 30
0.0
 10
0.3065748635333505
 20
0.225747924108801
 30
0.0
 10
0.3063685085602343
 20
0.2228143239171085
 30
0.0
 10
0.3062888189594388
 20
0.2218365036382603
 30
0.0
 10
0.3061175006645533
 20
0.2203667311957698
 30
0.0
 10
0.3060527843771026
 20
0.2198754286300388
 30
0.0
 10
0.3059185522823227
 20
0.2191423529930485
 30
0.0
 10
0.3058681139936552
 20
0.218898079010496
 30
0.0
 10
0.305733419533341
 20
0.2184246006942405
 30
0.0
 10
0.3056401033121623
 20
0.2181594974303447
 30
0.0
 10
0.3055142217469018
 20
0.2180825966789708
 30
0.0
  0
LINE
  5
DDC
330
1F
100
AcDbEntity
  8
0
  6
Continuous
 62
     7
370
    15
100
AcDbLine
 10
0.3171990125617916
 20
0.1923968722831428
 30
0.0
 11
0.3171990125617916
 21
0.2943968722831431
 31
0.0
  0
SPLINE
  5
DDD
330
1F
100
AcDbEntity
  8
0
  6
Continuous
 62
     7
370
    15
100
AcDbSpline
210
0.0
220
0.0
230
1.0
 70
     8
 71
     3
 72
     9
 73
     5
 74
     0
 42
0.0000000001
 43
0.0000000001
 40
0.0
 40
0.0
 40
0.0
 40
0.0
 40
0.1186767895922812
 40
1.0
 40
1.0
 40
1.0
 40
1.0
 10
0.1957343855096894
 20
0.1738989815220211
 30
0.0
 10
0.195783435339679
 20
0.1738627458829913
 30
0.0
 10
0.1961967413463319
 20
0.1735574154206805
 30
0.0
 10
0.1964693261901593
 20
0.1731122701118817
 30
0.0
 10
0.1967095615398349
 20
0.1727199532192347
 30
0.0
  0
SPLINE
  5
DDE
330
1F
100
AcDbEntity
  8
0
  6
Continuous
 62
     7
370
    15
100
AcDbSpline
210
0.0
220
0.0
230
1.0
 70
    24
 71
     3
 72
    16
 73
    12
 74
     0
 42
0.0000000001
 43
0.0000000001
 40
0.0
 40
0.0
 40
0.0
 40
0.0
 40
0.0372830120054007
 40
0.1593381486496858
 40
0.2813929113830236
 40
0.4075307993195806
 40
0.5336771082928961
 40
0.6490722902531641
 40
0.7644801591961315
 40
0.8822103599430748
 40
1.0
 40
1.0
 40
1.0
 40
1.0
 10
0.0671990125618094
 20
0.174754060910369
 30
0.0
 10
0.0671990125618094
 20
0.1747325317501296
 30
0.0
 10
0.0671990125618165
 20
0.1746405215731019
 30
0.0
 10
0.0671990125617952
 20
0.1751293084983014
 30
0.0
 10
0.0671990125617952
 20
0.1762152400666206
 30
0.0
 10
0.067199012561749
 20
0.1780040325215555
 30
0.0
 10
0.0671990125616708
 20
0.1803510334444336
 30
0.0
 10
0.0671990125617419
 20
0.1831716308052538
 30
0.0
 10
0.0671990125618094
 20
0.1863785487886165
 30
0.0
 10
0.0671990125617597
 20
0.190042365317107
 30
0.0
 10
0.067199012561749
 20
0.1927229908411963
 30
0.0
 10
0.0671990125617419
 20
0.1940636418646189
 30
0.0
  0
SPLINE
  5
DDF
330
1F
100
AcDbEntity
  8
0
  6
Continuous
 62
     8
370
    15
100
AcDbSpline
210
0.0
220
0.0
230
1.0
 70
     8
 71
     3
 72
    33
 73
    29
 74
     0
 42
0.0000000001
 43
0.0000000001
 40
0.0
 40
0.0
 40
0.0
 40
0.0
 40
0.0398720237688746
 40
0.0797440444280096
 40
0.1196160634474173
 40
0.1594880833149845
 40
0.1993601060094896
 40
0.2392321304410522
 40
0.2791041520676145
 40
0.3189761713760311
 40
0.358848190684448
 40
0.3987202123110116
 40
0.4385922367425747
 40
0.4784642594370772
 40
0.5183362793046459
 40
0.5582082983240527
 40
0.5980803189831878
 40
0.6379523427520623
 40
0.6778243665209355
 40
0.717696387180069
 40
0.757568406199476
 40
0.7974404260670437
 40
0.8373124487615474
 40
0.8771844731931103
 40
0.917056494819673
 40
0.9569285141280886
 40
0.9968005334365047
 40
0.9999999999999998
 40
0.9999999999999998
 40
0.9999999999999998
 40
0.9999999999999998
 10
0.1876884635837413
 20
0.1727199532192347
 30
0.0
 10
0.187436727477118
 20
0.1731471891908949
 30
0.0
 10
0.1869332552835004
 20
0.1740016611008908
 30
0.0
 10
0.1861780469324912
 20
0.1764277518569475
 30
0.0
 10
0.1854228385757195
 20
0.1796556966617036
 30
0.0
 10
0.1846676302220955
 20
0.1837270330525473
 30
0.0
 10
0.1839124218970851
 20
0.1885666860964459
 30
0.0
 10
0.1831572136150945
 20
0.1941179548846879
 30
0.0
 10
0.1824020052726119
 20
0.2003073104051924
 30
0.0
 10
0.181646796917073
 20
0.2070549884045671
 30
0.0
 10
0.1808915885615412
 20
0.2142734562490058
 30
0.0
 10
0.1801363802190514
 20
0.2218692310684378
 30
0.0
 10
0.1793811719370608
 20
0.229743904326791
 30
0.0
 10
0.178625963612054
 20
0.2377954576873289
 30
0.0
 10
0.17787075525843
 20
0.2459195765317463
 30
0.0
 10
0.1771155469016548
 20
0.2540110127603572
 30
0.0
 10
0.1763603385506491
 20
0.2619649428155657
 30
0.0
 10
0.1756051302504047
 20
0.2696783176807382
 30
0.0
 10
0.1748499219501673
 20
0.2770512129668876
 30
0.0
 10
0.1740947135991617
 20
0.2839880686552785
 30
0.0
 10
0.1733395052423794
 20
0.2903991941792749
 30
0.0
 10
0.1725842968887838
 20
0.2962008907202029
 30
0.0
 10
0.1718290885636775
 20
0.3013203951598686
 30
0.0
 10
0.1710738802820457
 20
0.305682405723817
 30
0.0
 10
0.1703186719382308
 20
0.3092638625160891
 30
0.0
 10
0.1695634635876408
 20
0.3118935509727716
 30
0.0
 10
0.1690397911848414
 20
0.3133564625329182
 30
0.0
 10
0.1687678549276561
 20
0.313671546790572
 30
0.0
 10
0.1687476547663471
 20
0.3136949521021524
 30
0.0
  0
SPLINE
  5
DE0
330
1F
100
AcDbEntity
  8
0
  6
Continuous
 62
     8
370
    15
100
AcDbSpline
210
0.0
220
0.0
230
1.0
 70
     8
 71
     3
 72
    36
 73
    32
 74
     0
 42
0.0000000001
 43
0.0000000001
 40
0.0
 40
0.0
 40
0.0
 40
0.0
 40
0.0120335148950277
 40
0.0482826255145543
 40
0.0845317335839543
 40
0.1207808395458443
 40
0.1570299455077334
 40
0.1932790535771326
 40
0.2295281641966616
 40
0.2657772732369645
 40
0.3020263797071982
 40
0.3382754854063377
 40
0.3745245925962135
 40
0.4107737026132667
 40
0.4470228126303198
 40
0.4832719198201942
 40
0.5195210255193345
 40
0.5557701319895685
 40
0.5920192410298723
 40
0.6282683516494008
 40
0.6645174597188001
 40
0.7007665656806879
 40
0.7370156716425771
 40
0.7732647797119756
 40
0.8095138903315046
 40
0.8457629993718086
 40
0.8820121058420426
 40
0.9182612115411805
 40
0.9545103187310564
 40
0.9907594287481094
 40
1.0
 40
1.0
 40
1.0
 40
1.0
 10
0.1479131263059137
 20
0.1731638401789215
 30
0.0
 10
0.1478295581756241
 20
0.172993319151497
 30
0.0
 10
0.1474942539212214
 20
0.172309129786927
 30
0.0
 10
0.1469072136176179
 20
0.1720458920980252
 30
0.0
 10
0.1461520052719378
 20
0.1723943845655913
 30
0.0
 10
0.1453967969172551
 20
0.1737262948124918
 30
0.0
 10
0.1446415885614924
 20
0.1759437640870718
 30
0.0
 10
0.1438863802190631
 20
0.1790396648537775
 30
0.0
 10
0.1431311719370583
 20
0.1829681150744828
 30
0.0
 10
0.142375963612055
 20
0.1876797750342962
 30
0.0
 10
0.1416207552584274
 20
0.193113172903298
 30
0.0
 10
0.1408655469016522
 20
0.1991980265360549
 30
0.0
 10
0.1401103385506501
 20
0.2058554776355546
 30
0.0
 10
0.1393551302504092
 20
0.2129992913917238
 30
0.0
 10
0.1385999219501648
 20
0.2205369206410832
 30
0.0
 10
0.1378447135991627
 20
0.2283707051451376
 30
0.0
 10
0.1370895052423875
 20
0.2363991549812805
 30
0.0
 10
0.13633429688876
 20
0.2445182617615724
 30
0.0
 10
0.1355790885637567
 20
0.252622842533923
 30
0.0
 10
0.1348238802817625
 20
0.2606078979916002
 30
0.0
 10
0.1340686719392727
 20
0.2683699746731658
 30
0.0
 10
0.133313463583741
 20
0.2758085261243675
 30
0.0
 10
0.1325582552282056
 20
0.2828271531582149
 30
0.0
 10
0.1318030468857194
 20
0.2893350556763241
 30
0.0
 10
0.1310478386037217
 20
0.2952474381538355
 30
0.0
 10
0.1302926302787504
 20
0.3004894712692792
 30
0.0
 10
0.1295374219249843
 20
0.3049866339119329
 30
0.0
 10
0.1287822135687562
 20
0.3087053824306831
 30
0.0
 10
0.1280270052157042
 20
0.3115053103993322
 30
0.0
 10
0.1274593608197541
 20
0.3131506720355108
 30
0.0
 10
0.1271434524988009
 20
0.3135614006811724
 30
0.0
 10
0.1270792802894696
 20
0.3136448342689586
 30
0.0
  0
SPLINE
  5
DE1
330
1F
100
AcDbEntity
  8
0
  6
Continuous
 62
     8
370
    15
100
AcDbSpline
210
0.0
220
0.0
230
1.0
 70
     8
 71
     3
 72
    36
 73
    32
 74
     0
 42
0.0000000001
 43
0.0000000001
 40
0.0
 40
0.0
 40
0.0
 40
0.0
 40
0.005754807299177
 40
0.0419537846375742
 40
0.0781527612059433
 40
0.1143517392629873
 40
0.150550720143299
 40
0.1867497010236095
 40
0.2229486790806549
 40
0.2591476556490242
 40
0.2953466329874207
 40
0.3315456128923337
 40
0.3677445943742881
 40
0.4039435733096389
 40
0.4401425501403951
 40
0.4763415269711505
 40
0.5125405059065019
 40
0.5487394873884551
 40
0.5849384672933682
 40
0.6211374446317653
 40
0.6573364212001352
 40
0.6935353992571791
 40
0.729734380137491
 40
0.7659333610178018
 40
0.8021323390748458
 40
0.8383313156432151
 40
0.8745302929816132
 40
0.9107292728865264
 40
0.94692825436848
 40
0.9831272333038306
 40
1.0
 40
1.0
 40
1.0
 40
1.0
 10
0.1062460243821532
 20
0.1731228890584144
 30
0.0
 10
0.1062060041162112
 20
0.1730352807981912
 30
0.0
 10
0.1059142477582546
 20
0.1723965977127786
 30
0.0
 10
0.1053707552549503
 20
0.1720841006389253
 30
0.0
 10
0.1046155469025876
 20
0.1722561319367724
 30
0.0
 10
0.1038603385503989
 20
0.1734349052019464
 30
0.0
 10
0.1031051302504742
 20
0.1754972525483562
 30
0.0
 10
0.1023499219501516
 20
0.1784453836927102
 30
0.0
 10
0.1015947135991637
 20
0.1822333414618125
 30
0.0
 10
0.1008395052423849
 20
0.1868141205401688
 30
0.0
 10
0.1000842968887645
 20
0.1921278200551899
 30
0.0
 10
0.0993290885637541
 20
0.1981057540084155
 30
0.0
 10
0.0985738802817635
 20
0.2046704476231216
 30
0.0
 10
0.0978186719392773
 20
0.211736857436885
 30
0.0
 10
0.097063463583742
 20
0.2192134263540264
 30
0.0
 10
0.0963082552282102
 20
0.2270032953509815
 30
0.0
 10
0.0955530468857204
 20
0.235005547522557
 30
0.0
 10
0.0947978386037263
 20
0.2431165140904372
 30
0.0
 10
0.094042630278723
 20
0.2512311118371524
 30
0.0
 10
0.0932874219250954
 20
0.2592442137295652
 30
0.0
 10
0.0925322135683202
 20
0.2670520092291706
 30
0.0
 10
0.0917770052173182
 20
0.274553354693938
 30
0.0
 10
0.0910217969170737
 20
0.281651042280546
 30
0.0
 10
0.0902665886168328
 20
0.2882531979452938
 30
0.0
 10
0.0895113802658236
 20
0.2942739642480834
 30
0.0
 10
0.0887561719090697
 20
0.2996365853269463
 30
0.0
 10
0.0880009635553711
 20
0.3042669699163081
 30
0.0
 10
0.0872457552306378
 20
0.3081223669514859
 30
0.0
 10
0.0864905469476205
 20
0.311088472460592
 30
0.0
 10
0.085869737565504
 20
0.3129614933735378
 30
0.0
 10
0.0855006642901706
 20
0.3134970731060196
 30
0.0
 10
0.0853833271422331
 20
0.313667346605899
 30
0.0
  0
SPLINE
  5
DE2
330
1F
100
AcDbEntity
  8
0
  6
Continuous
 62
     8
370
    15
100
AcDbSpline
210
0.0
220
0.0
230
1.0
 70
     8
 71
     3
 72
    35
 73
    31
 74
     0
 42
0.0000000001
 43
0.0000000001
 40
0.0
 40
0.0
 40
0.0
 40
0.0
 40
0.0099257468523347
 40
0.0467638132595793
 40
0.0836018781518672
 40
0.1204399438277761
 40
0.1572780121155146
 40
0.1941160820081341
 40
0.2309541493091922
 40
0.2677922144684976
 40
0.3046302796278033
 40
0.3414683469288625
 40
0.3783064168214824
 40
0.4151444851092186
 40
0.4519825507851289
 40
0.488820615677416
 40
0.5256586820846606
 40
0.5624967513650173
 40
0.5993348206453729
 40
0.636172887052616
 40
0.6730109519449032
 40
0.7098490176208127
 40
0.74668708590855
 40
0.7835251558011697
 40
0.8203632231022281
 40
0.8572012882615325
 40
0.8940393534208375
 40
0.9308774207218968
 40
0.9677154906145164
 40
0.9999999999999998
 40
0.9999999999999998
 40
0.9999999999999998
 40
0.9999999999999998
 10
0.1961578385379545
 20
0.1737956539374241
 30
0.0
 10
0.196090010094673
 20
0.1739203145133483
 30
0.0
 10
0.1957704455618994
 20
0.1745076359492177
 30
0.0
 10
0.1951991448862684
 20
0.1764606333821728
 30
0.0
 10
0.1944439365324349
 20
0.1796468860835414
 30
0.0
 10
0.1936887281780257
 20
0.1837293938400559
 30
0.0
 10
0.1929335198532249
 20
0.1885660535252878
 30
0.0
 10
0.192178311571181
 20
0.1941181243816128
 30
0.0
 10
0.1914231032287055
 20
0.2003072649886224
 30
0.0
 10
0.1906678948731702
 20
0.2070550005739402
 30
0.0
 10
0.1899126865176348
 20
0.2142734529880836
 30
0.0
 10
0.1891574781751486
 20
0.22186923194275
 30
0.0
 10
0.1884022698931545
 20
0.2297439040904645
 30
0.0
 10
0.1876470615681511
 20
0.2377954577583228
 30
0.0
 10
0.1868918532145236
 20
0.2459195764841044
 30
0.0
 10
0.1861366448577484
 20
0.254011012879938
 30
0.0
 10
0.1853814365067463
 20
0.2619649423848844
 30
0.0
 10
0.1846262282065019
 20
0.269678319283879
 30
0.0
 10
0.183871019906261
 20
0.2770512069850095
 30
0.0
 10
0.1831158115552589
 20
0.2839880909796537
 30
0.0
 10
0.1823606031984801
 20
0.2903991108636521
 30
0.0
 10
0.1816053948448562
 20
0.2962012016583262
 30
0.0
 10
0.1808501865198529
 20
0.3013192347228812
 30
0.0
 10
0.1800949782378551
 20
0.3056867365336859
 30
0.0
 10
0.1793397698953867
 20
0.3092476997153131
 30
0.0
 10
0.1785845615397696
 20
0.3119538713626884
 30
0.0
 10
0.1778293531845647
 20
0.3137781539617908
 30
0.0
 10
0.1770741448408386
 20
0.3146672108339483
 30
0.0
 10
0.1763500536977722
 20
0.3147181637945227
 30
0.0
 10
0.1758776985944244
 20
0.314017728504054
 30
0.0
 10
0.1756570796168559
 20
0.3136905820065532
 30
0.0
  0
SPLINE
  5
DE3
330
1F
100
AcDbEntity
  8
0
  6
Continuous
 62
     8
370
    15
100
AcDbSpline
210
0.0
220
0.0
230
1.0
 70
     8
 71
     3
 72
    36
 73
    32
 74
     0
 42
0.0000000001
 43
0.0000000001
 40
0.0
 40
0.0
 40
0.0
 40
0.0
 40
0.0207621828114545
 40
0.0569585200120858
 40
0.0931548593171592
 40
0.1293512011686501
 40
0.1655475414432137
 40
0.2017438791514495
 40
0.2379402160897137
 40
0.2741365545165441
 40
0.3103328957664361
 40
0.3465292370163282
 40
0.3827255754431572
 40
0.418921912381422
 40
0.4551182500896582
 40
0.4913145903642228
 40
0.5275109322157132
 40
0.5637072715207867
 40
0.5999036087214166
 40
0.6360999459220479
 40
0.6722962852271204
 40
0.7084926270786115
 40
0.7446889673531762
 40
0.7808853050614124
 40
0.8170816419996748
 40
0.8532779804265052
 40
0.8894743216763972
 40
0.9256706629262893
 40
0.9618670013531193
 40
0.9980633382913838
 40
0.9999999999999998
 40
0.9999999999999998
 40
0.9999999999999998
 40
0.9999999999999998
 10
0.154851081617744
 20
0.1731192608892467
 30
0.0
 10
0.1547066860365063
 20
0.1733435789222841
 30
0.0
 10
0.1543105543446592
 20
0.1739589681272509
 30
0.0
 10
0.1536626865169324
 20
0.1759707307845655
 30
0.0
 10
0.1529074781753343
 20
0.1790324391482041
 30
0.0
 10
0.1521522698931057
 20
0.1829700511964265
 30
0.0
 10
0.1513970615681628
 20
0.1876792562520346
 30
0.0
 10
0.1506418532145211
 20
0.1931133119105819
 30
0.0
 10
0.1498866448577529
 20
0.199197989289156
 30
0.0
 10
0.1491314365067438
 20
0.2058554876158627
 30
0.0
 10
0.1483762282065064
 20
0.2129992887173937
 30
0.0
 10
0.147621019906262
 20
0.2205369213580919
 30
0.0
 10
0.1468658115552563
 20
0.2283707049514294
 30
0.0
 10
0.1461106031984811
 20
0.2363991550391045
 30
0.0
 10
0.1453553948448571
 20
0.2445182617239847
 30
0.0
 10
0.1446001865198503
 20
0.252622842626457
 30
0.0
 10
0.1438449782378597
 20
0.2606078976590591
 30
0.0
 10
0.1430897698953699
 20
0.2683699759107998
 30
0.0
 10
0.1423345615398381
 20
0.2758085215063619
 30
0.0
 10
0.1415793531842993
 20
0.2828271703925995
 30
0.0
 10
0.1408241448418166
 20
0.2893349913567806
 30
0.0
 10
0.1400689365598224
 20
0.2952476781976354
 30
0.0
 10
0.1393137282348191
 20
0.3004885754137045
 30
0.0
 10
0.1385585198811881
 20
0.304989977290165
 30
0.0
 10
0.1378033115244306
 20
0.308692904773294
 30
0.0
 10
0.1370481031733646
 20
0.3115518776543726
 30
0.0
 10
0.1362928948733297
 20
0.3135205492692197
 30
0.0
 10
0.1355376865723215
 20
0.3146081070778439
 30
0.0
 10
0.1347824782241793
 20
0.3146709433124879
 30
0.0
 10
0.1342655370004073
 20
0.3143428862842323
 30
0.0
 10
0.1340003319165617
 20
0.3137417226273971
 30
0.0
 10
0.1339868629382734
 20
0.3137111913113155
 30
0.0
  0
SPLINE
  5
DE4
330
1F
100
AcDbEntity
  8
0
  6
Continuous
 62
     8
370
    15
100
AcDbSpline
210
0.0
220
0.0
230
1.0
 70
     8
 71
     3
 72
    36
 73
    32
 74
     0
 42
0.0000000001
 43
0.0000000001
 40
0.0
 40
0.0
 40
0.0
 40
0.0
 40
0.0141414415933008
 40
0.0503474189080238
 40
0.0865533962227457
 40
0.1227593707136566
 40
0.1589653437156039
 40
0.1951713174877271
 40
0.231377293826863
 40
0.2675832717433449
 40
0.3037892471127312
 40
0.339995220377116
 40
0.3762011936415001
 40
0.4124071690108868
 40
0.4486131469273675
 40
0.4848191232665035
 40
0.5210250970386272
 40
0.5572310700405751
 40
0.5934370445314848
 40
0.629643021846208
 40
0.66584899916093
 40
0.7020549736518399
 40
0.738260946653787
 40
0.7744669204259119
 40
0.8106728967650479
 40
0.846878874681529
 40
0.883084850050915
 40
0.9192908233152991
 40
0.955496796579683
 40
0.9917027719490704
 40
1.0
 40
1.0
 40
1.0
 40
1.0
 10
0.1131764081484419
 20
0.1731297764826205
 30
0.0
 10
0.1130780842777859
 20
0.1732660582084466
 30
0.0
 10
0.1127280242735238
 20
0.1737512586100063
 30
0.0
 10
0.1121262282087954
 20
0.1755342780173901
 30
0.0
 10
0.1113710199056483
 20
0.1784354627490312
 30
0.0
 10
0.1106158115554208
 20
0.1822359997704506
 30
0.0
 10
0.1098606031984395
 20
0.1868134082485173
 30
0.0
 10
0.1091053948448688
 20
0.1921280109131789
 30
0.0
 10
0.1083501865198442
 20
0.1981057028681643
 30
0.0
 10
0.1075949782378642
 20
0.2046704613261336
 30
0.0
 10
0.1068397698953745
 20
0.211736853765095
 30
0.0
 10
0.1060845615398356
 20
0.2192134273381743
 30
0.0
 10
0.1053293531843038
 20
0.2270032950861693
 30
0.0
 10
0.104574144841814
 20
0.2350055475976471
 30
0.0
 10
0.1038189365598234
 20
0.2431165140548781
 30
0.0
 10
0.1030637282348166
 20
0.2512311119042951
 30
0.0
 10
0.102308519881189
 20
0.2592442134965462
 30
0.0
 10
0.1015533115244174
 20
0.2670520100940965
 30
0.0
 10
0.1007981031734118
 20
0.2745533514672427
 30
0.0
 10
0.1000428948731673
 20
0.281651054322398
 30
0.0
 10
0.09928768657293
 20
0.2882531530045849
 30
0.0
 10
0.0985324782219244
 20
0.2942741319690494
 30
0.0
 10
0.0977772698651491
 20
0.2996359593838018
 30
0.0
 10
0.0970220615115252
 20
0.3042693059680548
 30
0.0
 10
0.0962668531865219
 20
0.308113648686837
 30
0.0
 10
0.0955116449044957
 20
0.3111210094677392
 30
0.0
 10
0.0947564365621445
 20
0.3132455537189063
 30
0.0
 10
0.0940012282061118
 20
0.3144854401424293
 30
0.0
 10
0.0932460198524417
 20
0.3147288105002051
 30
0.0
 10
0.0926848579333615
 20
0.3144324968467085
 30
0.0
 10
0.0923754321440149
 20
0.3137727199000497
 30
0.0
 10
0.0923177424466011
 20
0.3136497103329094
 30
0.0
  0
SPLINE
  5
DE5
330
1F
100
AcDbEntity
  8
0
  6
Continuous
 62
     8
370
    15
100
AcDbSpline
210
0.0
220
0.0
230
1.0
 70
     8
 71
     3
 72
    14
 73
    10
 74
     0
 42
0.0000000001
 43
0.0000000001
 40
0.0
 40
0.0
 40
0.0
 40
0.0
 40
0.038586556099713
 40
0.213698575871963
 40
0.3888105854632609
 40
0.541607937551858
 40
0.6944052902698777
 40
0.8472026442280961
 40
1.0
 40
1.0
 40
1.0
 40
1.0
 10
0.0715113910358958
 20
0.1730969125881596
 30
0.0
 10
0.0714559200378822
 20
0.1731650359789849
 30
0.0
 10
0.0711487126973878
 20
0.1735423143130592
 30
0.0
 10
0.0705897782174865
 20
0.1751264116470412
 30
0.0
 10
0.0698666122047071
 20
0.1777464762799521
 30
0.0
 10
0.0691756803706496
 20
0.1810448929028918
 30
0.0
 10
0.0685167853874709
 20
0.1847978237880266
 30
0.0
 10
0.0678579001548605
 20
0.18909830061862
 30
0.0
 10
0.0674186417129028
 20
0.1924085281634891
 30
0.0
 10
0.0671990124906237
 20
0.1940636419457451
 30
0.0
  0
SPLINE
  5
DE6
330
1F
100
AcDbEntity
  8
0
  6
Continuous
 62
     8
370
    15
100
AcDbSpline
210
0.0
220
0.0
230
1.0
 70
     8
 71
     3
 72
    15
 73
    11
 74
     0
 42
0.0000000001
 43
0.0000000001
 40
0.0
 40
0.0
 40
0.0
 40
0.0
 40
0.0112438875069384
 40
0.1665208569519424
 40
0.3217978142864331
 40
0.4770747652351949
 40
0.6323517194870167
 40
0.787628684748014
 40
0.9429056567737823
 40
1.0
 40
1.0
 40
1.0
 40
1.0
 10
0.3055142184099089
 20
0.3032290066589904
 30
0.0
 10
0.3054959998278988
 20
0.3033347919333085
 30
0.0
 10
0.3052261844382449
 20
0.3049014613366647
 30
0.0
 10
0.3047042957952839
 20
0.3076312185411669
 30
0.0
 10
0.3039491602808453
 20
0.3107578315197219
 30
0.0
 10
0.3031939324066193
 20
0.3130058478768898
 30
0.0
 10
0.3024387292862385
 20
0.3143685460742975
 30
0.0
 10
0.3016835195457062
 20
0.3147518115532246
 30
0.0
 10
0.3010874859429555
 20
0.3145010505963259
 30
0.0
 10
0.3007431880371363
 20
0.3138093318598887
 30
0.0
 10
0.3006506262766968
 20
0.3136233687654506
 30
0.0
  0
SPLINE
  5
DE7
330
1F
100
AcDbEntity
  8
0
  6
Continuous
 62
     8
370
    15
100
AcDbSpline
210
0.0
220
0.0
230
1.0
 70
     8
 71
     3
 72
    36
 73
    32
 74
     0
 42
0.0000000001
 43
0.0000000001
 40
0.0
 40
0.0
 40
0.0
 40
0.0
 40
0.001745054438208
 40
0.0379934055961858
 40
0.0742417575252401
 40
0.1104901120243118
 40
0.1467384681025763
 40
0.1829868216307639
 40
0.2192351730514864
 40
0.2554835244722075
 40
0.2917318780003947
 40
0.3279802340786576
 40
0.3642285885777304
 40
0.4004769405067862
 40
0.4367252916647639
 40
0.4729736443134465
 40
0.5092219997892461
 40
0.5454703552650467
 40
0.5817187079137297
 40
0.6179670590717065
 40
0.6542154110007612
 40
0.6904637654998341
 40
0.7267121215780978
 40
0.7629604751062855
 40
0.7992088265270068
 40
0.8354571779477279
 40
0.8717055314759154
 40
0.9079538875541793
 40
0.9442022420532524
 40
0.9804505939823073
 40
1.0
 40
1.0
 40
1.0
 40
1.0
 10
0.2798188351594333
 20
0.1730829164220313
 30
0.0
 10
0.2798067161751105
 20
0.1730966361803066
 30
0.0
 10
0.2795428610903108
 20
0.1733953433893045
 30
0.0
 10
0.2790272698616838
 20
0.1748261216614917
 30
0.0
 10
0.2782720615123551
 20
0.1774211128114185
 30
0.0
 10
0.2775168531861971
 20
0.18097508706884
 30
0.0
 10
0.2767616449045156
 20
0.1853098305902303
 30
0.0
 10
0.2760064365619477
 20
0.1904045974706594
 30
0.0
 10
0.2752512282064301
 20
0.1961838820382755
 30
0.0
 10
0.2744960198508948
 20
0.202575354877651
 30
0.0
 10
0.2737408115084086
 20
0.2094955350139311
 30
0.0
 10
0.272985603226418
 20
0.2168549596521803
 30
0.0
 10
0.2722303949014075
 20
0.2245582358942453
 30
0.0
 10
0.2714751865477871
 20
0.2325055715769462
 30
0.0
 10
0.2707199781910119
 20
0.2405940044266319
 30
0.0
 10
0.2699647698400098
 20
0.2487187500707353
 30
0.0
 10
0.2692095615397689
 20
0.2567745512660611
 30
0.0
 10
0.268454353239528
 20
0.2646570379400284
 30
0.0
 10
0.2676991448885189
 20
0.2722640912109593
 30
0.0
 10
0.2669439365317472
 20
0.2794971645326238
 30
0.0
 10
0.2661887281781232
 20
0.2862625525830207
 30
0.0
 10
0.2654335198531199
 20
0.2924726125594421
 30
0.0
 10
0.2646783115711258
 20
0.2980468577111093
 30
0.0
 10
0.2639231032286431
 20
0.3029131525287585
 30
0.0
 10
0.2631678948731113
 20
0.3070081722728613
 30
0.0
 10
0.2624126865175689
 20
0.3102799579798574
 30
0.0
 10
0.261657478175104
 20
0.3126820553006471
 30
0.0
 10
0.2609022698930317
 20
0.3141985050834986
 30
0.0
 10
0.260147061568341
 20
0.3147530234800822
 30
0.0
 10
0.2595078233841952
 20
0.3145810015218859
 30
0.0
 10
0.2591203213278823
 20
0.3138670201219422
 30
0.0
 10
0.2589845553883463
 20
0.3136168682737324
 30
0.0
  0
SPLINE
  5
DE8
330
1F
100
AcDbEntity
  8
0
  6
Continuous
 62
     8
370
    15
100
AcDbSpline
210
0.0
220
0.0
230
1.0
 70
     8
 71
     3
 72
    35
 73
    31
 74
     0
 42
0.0000000001
 43
0.0000000001
 40
0.0
 40
0.0
 40
0.0
 40
0.0
 40
0.0319688333421408
 40
0.0682120091849905
 40
0.104455183448874
 40
0.1406983551431086
 40
0.1769415260663751
 40
0.2131846984801339
 40
0.2494278737206076
 40
0.2856710489610808
 40
0.32191422137484
 40
0.358157392298107
 40
0.3944005639923415
 40
0.4306437382562259
 40
0.4668869140990755
 40
0.5031300873922139
 40
0.5393732585781878
 40
0.5756164297641612
 40
0.6118596030572997
 40
0.6481027789001503
 40
0.6843459531640343
 40
0.7205891248582691
 40
0.7568322957815365
 40
0.793075468195296
 40
0.8293186434357695
 40
0.8655618186762437
 40
0.9018049910900028
 40
0.9380481620132703
 40
0.9742913337075053
 40
1.0
 40
1.0
 40
1.0
 40
1.0
 10
0.2381569543510777
 20
0.1731009691174197
 30
0.0
 10
0.2379349067429799
 20
0.173527274717215
 30
0.0
 10
0.2374611230011445
 20
0.1744368844354642
 30
0.0
 10
0.2367356032272858
 20
0.1769292039662236
 30
0.0
 10
0.2359803949012345
 20
0.1802985155102046
 30
0.0
 10
0.2352251865478911
 20
0.1845083529476621
 30
0.0
 10
0.2344699781910413
 20
0.1894749166930463
 30
0.0
 10
0.233714769840057
 20
0.195141705136783
 30
0.0
 10
0.2329595615398126
 20
0.2014332103332339
 30
0.0
 10
0.2322043532395717
 20
0.2082684948142155
 30
0.0
 10
0.231449144888566
 20
0.2155588435910569
 30
0.0
 10
0.2306939365317944
 20
0.2232098460162593
 30
0.0
 10
0.2299387281781704
 20
0.2311223724321063
 30
0.0
 10
0.22918351985316
 20
0.2391939201841982
 30
0.0
 10
0.2284283115711729
 20
0.2473199198539813
 30
0.0
 10
0.2276731032286832
 20
0.2553950933962301
 30
0.0
 10
0.2269178948731514
 20
0.2633148263139222
 30
0.0
 10
0.2261626865176196
 20
0.2709765192991245
 30
0.0
 10
0.2254074781751298
 20
0.2782809147380749
 30
0.0
 10
0.2246522698931428
 20
0.2851333749169196
 30
0.0
 10
0.2238970615681324
 20
0.2914451219082241
 30
0.0
 10
0.223141853214512
 20
0.2971343799090131
 30
0.0
 10
0.2223866448577367
 20
0.3021275057995882
 30
0.0
 10
0.2216314365067382
 20
0.3063595984479146
 30
0.0
 10
0.2208762282064689
 20
0.3097766239652653
 30
0.0
 10
0.2201210199063417
 20
0.312331309261938
 30
0.0
 10
0.2193658115548991
 20
0.314001726196184
 30
0.0
 10
0.2186106031997581
 20
0.3147246150548166
 30
0.0
 10
0.2179285649295912
 20
0.3146535893185518
 30
0.0
 10
0.2174982628143858
 20
0.3139365985743534
 30
0.0
 10
0.2173196967888393
 20
0.3136390629987165
 30
0.0
  0
SPLINE
  5
DE9
330
1F
100
AcDbEntity
  8
0
  6
Continuous
 62
     8
370
    15
100
AcDbSpline
210
0.0
220
0.0
230
1.0
 70
     8
 71
     3
 72
    10
 73
     6
 74
     0
 42
0.0000000001
 43
0.0000000001
 40
0.0
 40
0.0
 40
0.0
 40
0.0
 40
0.4011054275076783
 40
0.8022108237319359
 40
1.0
 40
1.0
 40
1.0
 40
1.0
 10
0.1876884635837413
 20
0.1727199532192347
 30
0.0
 10
0.1879401996904426
 20
0.1724783873891507
 30
0.0
 10
0.1884436718842095
 20
0.171995255747819
 30
0.0
 10
0.1890712777850587
 20
0.1722302358678955
 30
0.0
 10
0.1894471475660438
 20
0.1729310252787346
 30
0.0
 10
0.1895712812245889
 20
0.173162465947384
 30
0.0
  0
SPLINE
  5
DEA
330
1F
100
AcDbEntity
  8
0
  6
Continuous
 62
     8
370
    15
100
AcDbSpline
210
0.0
220
0.0
230
1.0
 70
     8
 71
     3
 72
    35
 73
    31
 74
     0
 42
0.0000000001
 43
0.0000000001
 40
0.0
 40
0.0
 40
0.0
 40
0.0
 40
0.0329969089344998
 40
0.0692447615703172
 40
0.1054926142061338
 40
0.1417404640148716
 40
0.177988312332925
 40
0.214236161422045
 40
0.2504840130811464
 40
0.2867318663194179
 40
0.3229797170076481
 40
0.3592275655884414
 40
0.3954754141692352
 40
0.431723264857465
 40
0.4679711180957357
 40
0.5042189697548373
 40
0.5404668188439574
 40
0.5767146671620102
 40
0.6129625169707477
 40
0.6492103696065637
 40
0.6854582222423798
 40
0.7217060720511169
 40
0.7579539203691694
 40
0.7942017694582894
 40
0.8304496211173898
 40
0.8666974743556611
 40
0.9029453250438912
 40
0.9391931736246837
 40
0.9754410222054767
 40
0.9999999999999998
 40
0.9999999999999998
 40
0.9999999999999998
 40
0.9999999999999998
 10
0.2104124455361727
 20
0.3136949367089297
 30
0.0
 10
0.2106416043341048
 20
0.3132463114221824
 30
0.0
 10
0.2111224992675011
 20
0.3123048610858266
 30
0.0
 10
0.2118551302498317
 20
0.3097627194380468
 30
0.0
 10
0.2126103385507867
 20
0.3063633241544312
 30
0.0
 10
0.213365546901604
 20
0.302126507499614
 30
0.0
 10
0.2141207552584254
 20
0.2971346474026848
 30
0.0
 10
0.2148759636120352
 20
0.2914450502335046
 30
0.0
 10
0.2156311719370492
 20
0.2851333941220939
 30
0.0
 10
0.2163863802190362
 20
0.2782809095921006
 30
0.0
 10
0.217141588561526
 20
0.2709765206778509
 30
0.0
 10
0.2178967969170578
 20
0.2633148259450013
 30
0.0
 10
0.2186520052725895
 20
0.2553950934932014
 30
0.0
 10
0.2194072136150793
 20
0.2473199198350204
 30
0.0
 10
0.2201624218970664
 20
0.2391939201630702
 30
0.0
 10
0.2209176302220768
 20
0.2311223725355862
 30
0.0
 10
0.2216728385756972
 20
0.2232098456234783
 30
0.0
 10
0.2224280469324724
 20
0.2155588450587149
 30
0.0
 10
0.2231832552834745
 20
0.2082684893363751
 30
0.0
 10
0.2239384635837154
 20
0.2014332307769446
 30
0.0
 10
0.2246936718839563
 20
0.1951416288397947
 30
0.0
 10
0.2254488802349583
 20
0.1894752014372603
 30
0.0
 10
0.2262040885917371
 20
0.1845072902678229
 30
0.0
 10
0.2269592969453504
 20
0.180302481485582
 30
0.0
 10
0.2277145052703964
 20
0.1769144027431817
 30
0.0
 10
0.2284697135522378
 20
0.1743901368300402
 30
0.0
 10
0.2292249218952711
 20
0.1727505418832596
 30
0.0
 10
0.2299801302487672
 20
0.1720610309035127
 30
0.0
 10
0.2306541610640038
 20
0.1721543877296756
 30
0.0
 10
0.2310764557248937
 20
0.1728733402073199
 30
0.0
 10
0.2312470142923728
 20
0.1731637144791971
 30
0.0
  0
SPLINE
  5
DEB
330
1F
100
AcDbEntity
  8
0
  6
Continuous
 62
     8
370
    15
100
AcDbSpline
210
0.0
220
0.0
230
1.0
 70
     8
 71
     3
 72
    35
 73
    31
 74
     0
 42
0.0000000001
 43
0.0000000001
 40
0.0
 40
0.0
 40
0.0
 40
0.0
 40
0.0268880939065804
 40
0.0631307612878832
 40
0.0993734265620504
 40
0.1356160918362177
 40
0.1718587592175216
 40
0.2081014291484999
 40
0.2443440975005359
 40
0.2805867632829569
 40
0.316829428294421
 40
0.3530720947963572
 40
0.3893147641249685
 40
0.4255574334535795
 40
0.4618000999555156
 40
0.4980427649669804
 40
0.5342854307494025
 40
0.5705280991014385
 40
0.6067707690324152
 40
0.6430134364137193
 40
0.6792561016878864
 40
0.715498766962055
 40
0.7517414343433578
 40
0.7879841042743379
 40
0.8242267726263712
 40
0.8604694384087935
 40
0.8967121034202582
 40
0.9329547699221945
 40
0.9691974392508054
 40
1.0
 40
1.0
 40
1.0
 40
1.0
 10
0.2520760983333594
 20
0.3136500547412477
 30
0.0
 10
0.2522628589699649
 20
0.313318760570598
 30
0.0
 10
0.2527013556967481
 20
0.312540912454035
 30
0.0
 10
0.2533915885613118
 20
0.310260250696184
 30
0.0
 10
0.2541467969170568
 20
0.3070134528234643
 30
0.0
 10
0.2549020052725353
 20
0.3029117376094017
 30
0.0
 10
0.2556572136150357
 20
0.2980472368376492
 30
0.0
 10
0.2564124218970192
 20
0.2924725109727919
 30
0.0
 10
0.2571676302220296
 20
0.2862625798030922
 30
0.0
 10
0.25792283857565
 20
0.2794971572389879
 30
0.0
 10
0.2586780469324252
 20
0.2722640931654385
 30
0.0
 10
0.2594332552834344
 20
0.2646570374157473
 30
0.0
 10
0.2601884635836718
 20
0.2567745514087167
 30
0.0
 10
0.2609436718839126
 20
0.2487187500243901
 30
0.0
 10
0.2616988802349183
 20
0.2405940044693569
 30
0.0
 10
0.2624540885916899
 20
0.2325055714523845
 30
0.0
 10
0.2632092969453139
 20
0.22455823634976
 30
0.0
 10
0.2639645052703243
 20
0.2168549579546759
 30
0.0
 10
0.2647197135523149
 20
0.2094955413484267
 30
0.0
 10
0.2654749218948011
 20
0.2025753312371801
 30
0.0
 10
0.2662301302503329
 20
0.1961839702656707
 30
0.0
 10
0.2669853386058683
 20
0.1904042682015532
 30
0.0
 10
0.2677405469483545
 20
0.1853110594393807
 30
0.0
 10
0.2684957552303486
 20
0.1809705009411029
 30
0.0
 10
0.2692509635553342
 20
0.1774382284717564
 30
0.0
 10
0.2700061719090505
 20
0.1747622451530322
 30
0.0
 10
0.2707613802654669
 20
0.1729687903266306
 30
0.0
 10
0.2715165886178048
 20
0.1721125346361656
 30
0.0
 10
0.2722340107408683
 20
0.1720885252195987
 30
0.0
 10
0.2726996967920221
 20
0.1727968138974087
 30
0.0
 10
0.2729136467309501
 20
0.1731222226550624
 30
0.0
  0
SPLINE
  5
DEC
330
1F
100
AcDbEntity
  8
0
  6
Continuous
 62
     8
370
    15
100
AcDbSpline
210
0.0
220
0.0
230
1.0
 70
     8
 71
     3
 72
    24
 73
    20
 74
     0
 42
0.0000000001
 43
0.0000000001
 40
0.0
 40
0.0
 40
0.0
 40
0.0
 40
0.0375065652876539
 40
0.1015977262821954
 40
0.1656888899124714
 40
0.2297800585414057
 40
0.2938712271703458
 40
0.35796239080062
 40
0.4220535517951619
 40
0.4861447141530562
 40
0.5502358810550269
 40
0.6143270507491874
 40
0.6784182159345275
 40
0.7425093773936301
 40
0.8066005388527326
 40
0.8706917040380727
 40
0.9347828737322341
 40
0.9988740406342044
 40
0.9999999999999998
 40
0.9999999999999998
 40
0.9999999999999998
 40
0.9999999999999998
 10
0.293730885752447
 20
0.3136465752726341
 30
0.0
 10
0.2938782033620497
 20
0.3134119036959457
 30
0.0
 10
0.2942772570760339
 20
0.312776225690462
 30
0.0
 10
0.2949280469335895
 20
0.3107311857696746
 30
0.0
 10
0.2956832552830995
 20
0.307639299357233
 30
0.0
 10
0.2964384635837809
 20
0.3036739752057211
 30
0.0
 10
0.297193671883766
 20
0.2989387592064279
 30
0.0
 10
0.2979488802353543
 20
0.2934810287980329
 30
0.0
 10
0.2987040885900583
 20
0.2873752428256029
 30
0.0
 10
0.2994592969513916
 20
0.2806994980794879
 30
0.0
 10
0.300214505247625
 20
0.2735405454330848
 30
0.0
 10
0.3009697136370035
 20
0.2659910498110551
 30
0.0
 10
0.301724921578733
 20
0.2581488501039668
 30
0.0
 10
0.302480131429911
 20
0.2501155128099828
 30
0.0
 10
0.3032353342036287
 20
0.2419952227142825
 30
0.0
 10
0.3039905633777464
 20
0.2338927618046103
 30
0.0
 10
0.3047456939150499
 20
0.2259146519316519
 30
0.0
 10
0.3052537838003508
 20
0.2206984418238906
 30
0.0
 10
0.3055098039164803
 20
0.2181269936833228
 30
0.0
 10
0.3055142240475752
 20
0.2180825981957699
 30
0.0
  0
SPLINE
  5
DED
330
1F
100
AcDbEntity
  8
0
  6
Continuous
 62
     8
370
    15
100
AcDbSpline
210
0.0
220
0.0
230
1.0
 70
     8
 71
     3
 72
    14
 73
    10
 74
     0
 42
0.0000000001
 43
0.0000000001
 40
0.0
 40
0.0
 40
0.0
 40
0.0
 40
0.1457139168492605
 40
0.2914512617889836
 40
0.4369478366077083
 40
0.5826676950796771
 40
0.7283875535516496
 40
0.8738841283703781
 40
1.0
 40
1.0
 40
1.0
 40
1.0
 10
0.1876884635837413
 20
0.1727199532192347
 30
0.0
 10
0.1879466626454671
 20
0.173092510732199
 30
0.0
 10
0.1884631022825167
 20
0.173837685658454
 30
0.0
 10
0.1895697028780865
 20
0.1746590479096841
 30
0.0
 10
0.1908343916613382
 20
0.175185909871973
 30
0.0
 10
0.1922003089526583
 20
0.1753576409912891
 30
0.0
 10
0.1935584518716431
 20
0.1751814190160832
 30
0.0
 10
0.1947886035445712
 20
0.1746996429747429
 30
0.0
 10
0.1954344870325619
 20
0.1741528636631731
 30
0.0
 10
0.1957343855096894
 20
0.1738989815220211
 30
0.0
  0
LINE
  5
E04
330
1F
100
AcDbEntity
  8
0
  6
HIDDEN
 62
     7
370
     0
100
AcDbLine
 10
0.1471990125617899
 20
0.1891259469793158
 30
0.0
 11
0.1471990125617899
 21
0.2162614096312285
 31
0.0
  0
LINE
  5
E05
330
1F
100
AcDbEntity
  8
0
  6
HIDDEN
 62
     7
370
     0
100
AcDbLine
 10
0.1471990125617899
 20
0.2705323349350539
 30
0.0
 11
0.1471990125617899
 21
0.2976677975869666
 31
0.0
  0
LINE
  5
E06
330
1F
100
AcDbEntity
  8
0
  6
HIDDEN
 62
     7
370
     0
100
AcDbLine
 10
0.1471990125617899
 20
0.2705323349350539
 30
0.0
 11
0.0671990125617881
 21
0.2705323349350539
 31
0.0
  0
LINE
  5
E07
330
1F
100
AcDbEntity
  8
0
  6
HIDDEN
 62
     7
370
     0
100
AcDbLine
 10
0.1471990125617899
 20
0.2162614096312285
 30
0.0
 11
0.1471990125617899
 21
0.2705323349350539
 31
0.0
  0
LINE
  5
E08
330
1F
100
AcDbEntity
  8
0
  6
HIDDEN
 62
     7
370
     0
100
AcDbLine
 10
0.0671990125617881
 20
0.2162614096312285
 30
0.0
 11
0.1471990125617899
 21
0.2162614096312285
 31
0.0
  0
LINE
  5
E09
330
1F
100
AcDbEntity
  8
0
  6
HIDDEN
 62
     7
370
     0
100
AcDbLine
 10
0.1471990125617899
 20
0.2976677975869666
 30
0.0
 11
0.0671990125617881
 21
0.2976677975869666
 31
0.0
  0
LINE
  5
E0A
330
1F
100
AcDbEntity
  8
0
  6
HIDDEN
 62
     7
370
     0
100
AcDbLine
 10
0.0671990125617881
 20
0.1891259469793158
 30
0.0
 11
0.1471990125617899
 21
0.1891259469793158
 31
0.0
  0
LINE
  5
E0C
330
1F
100
AcDbEntity
  8
0
  6
HIDDEN
 62
     7
370
     0
100
AcDbLine
 10
0.3171990125617916
 20
0.2943968722831431
 30
0.0
 11
0.2865551209913853
 21
0.2433968722831412
 31
0.0
  0
LINE
  5
E0D
330
1F
100
AcDbEntity
  8
0
  6
HIDDEN
 62
     7
370
     0
100
AcDbLine
 10
0.2865551209913817
 20
0.2433968722831412
 30
0.0
 11
0.3171990125617916
 21
0.1923968722831428
 31
0.0
  0
LINE
  5
E1A
330
1F
100
AcDbEntity
  8
0
100
AcDbLine
 10
0.6067768461991033
 20
0.5284182527367909
 30
0.0
 11
0.6067768461991033
 21
0.5280093320633866
 31
0.0
  0
LINE
  5
E1B
330
1F
100
AcDbEntity
  8
0
100
AcDbLine
 10
0.8689623645354838
 20
0.5031932840330163
 30
0.0
 11
0.8706654515550194
 21
0.5041764552420025
 31
0.0
  0
LINE
  5
E1C
330
1F
100
AcDbEntity
  8
0
100
AcDbLine
 10
0.8394995671881591
 20
0.4861847731607361
 30
0.0
 11
0.8431824150067757
 21
0.4883108359519026
 31
0.0
  0
LINE
  5
E1D
330
1F
100
AcDbEntity
  8
0
100
AcDbLine
 10
0.81003680887267
 20
0.4691762848210557
 30
0.0
 11
0.8137196324573597
 21
0.4713023336222788
 31
0.0
  0
LINE
  5
E1E
330
1F
100
AcDbEntity
  8
0
100
AcDbLine
 10
0.7805740020892454
 20
0.4521677685014352
 30
0.0
 11
0.7842568741418883
 21
0.4542938452826091
 31
0.0
  0
LINE
  5
E1F
330
1F
100
AcDbEntity
  8
0
100
AcDbLine
 10
0.7511112195397831
 20
0.4351592661717829
 30
0.0
 11
0.7547940673584637
 21
0.4372853289629886
 31
0.0
  0
LINE
  5
E20
330
1F
100
AcDbEntity
  8
0
100
AcDbLine
 10
0.7216484234226708
 20
0.4181507560096938
 30
0.0
 11
0.7253312552030447
 21
0.420276809542183
 31
0.0
  0
LINE
  5
E21
330
1F
100
AcDbEntity
  8
0
100
AcDbLine
 10
0.6450703964833085
 20
0.5933303616504935
 30
0.0
 11
0.6413875486646244
 21
0.5912042988592843
 31
0.0
  0
LINE
  5
E22
330
1F
100
AcDbEntity
  8
0
100
AcDbLine
 10
0.6745331790327707
 20
0.6103388639801457
 30
0.0
 11
0.6708503312140866
 21
0.6082128011889401
 31
0.0
  0
LINE
  5
E23
330
1F
100
AcDbEntity
  8
0
100
AcDbLine
 10
0.7039959615822258
 20
0.6273473663097944
 30
0.0
 11
0.7003131137635524
 21
0.6252213035185923
 31
0.0
  0
LINE
  5
E24
330
1F
100
AcDbEntity
  8
0
100
AcDbLine
 10
0.7334587441316418
 20
0.6443558686394182
 30
0.0
 11
0.729775896313011
 21
0.6422298058482446
 31
0.0
  0
LINE
  5
E25
330
1F
100
AcDbEntity
  8
0
100
AcDbLine
 10
0.7629215413769681
 20
0.6613643794528193
 30
0.0
 11
0.7592387060221984
 21
0.6592383238568713
 31
0.0
  0
LWPOLYLINE
  5
E26
330
1F
100
AcDbEntity
  8
0
100
AcDbPolyline
 90
       56
 70
   128
 43
0.0
 10
0.6072562082955204
 20
0.5191708067692629
 10
0.6069255347779321
 20
0.5231482356806323
 10
0.6067830127622709
 20
0.5270326916927273
 10
0.6068291091774749
 20
0.5308114485971052
 10
0.6070636730030042
 20
0.5344721264754773
 10
0.6074859357636587
 20
0.5380027322586641
 10
0.6080945140472199
 20
0.5413916990181234
 10
0.6088874140367789
 20
0.5446279238613938
 10
0.6098620380428517
 20
0.5477008043072571
 10
0.6110151930138908
 20
0.5506002730214546
 10
0.6123431009973462
 20
0.5533168307991927
 10
0.6138414115169187
 20
0.5558415776862829
 10
0.6155052158255745
 20
0.5581662421371041
 10
0.6173290629874795
 20
0.5602832081137157
 10
0.6193069777363216
 20
0.5621855400374463
 10
0.6214324800514066
 20
0.5638670055111481
 10
0.6236986063874137
 20
0.5653220957376908
 10
0.6260979324882708
 20
0.5665460435678425
 10
0.628622597710439
 20
0.5675348391183262
 10
0.6312643307758417
 20
0.5682852429089556
 10
0.6340144768701239
 20
0.5687947964757809
 10
0.636864025997475
 20
0.569061830425496
 10
0.6398036424990355
 20
0.5690854699046524
 10
0.642823695638302
 20
0.5688656374658754
 10
0.6459142911532143
 20
0.5684030533215739
 10
0.6490653036716228
 20
0.5676992329844053
 10
0.6522664098839069
 20
0.5667564823021598
 10
0.6555071223640918
 20
0.5655778899033726
 10
0.6587768239286187
 20
0.564167317078403
 10
0.6620648024202321
 20
0.5625293851291025
 10
0.6653602858030321
 20
0.560669460228584
 10
0.6686524774536724
 20
0.558593635840615
 10
0.6719305915331577
 20
0.5563087127562829
 10
0.6751838883232533
 20
0.5538221768133403
 10
0.6784017094118294
 20
0.5511421743711713
 10
0.6815735126118266
 20
0.548277485621802
 10
0.6846889064994559
 20
0.5452374958243303
 10
0.6877376844584222
 20
0.5420321645570559
 10
0.690709858118765
 20
0.5386719930880366
 10
0.6935956900805951
 20
0.5351679899709465
 10
0.6963857258156732
 20
0.5315316349789852
 10
0.6990708246422162
 20
0.527774841494991
 10
0.7016421896714778
 20
0.5239099174809559
 10
0.7040913966280403
 20
0.5199495251548134
 10
0.706410421449291
 20
0.5159066395066559
 10
0.7085916665737773
 20
0.5117945057901947
 10
0.7106279858322533
 20
0.507626596128854
 10
0.7125127078598577
 20
0.5034165653785357
 10
0.7142396579527773
 20
0.4991782063917496
 10
0.7158031782977186
 20
0.4949254048296395
 10
0.717198146507982
 20
0.4906720936699385
 10
0.7184199924053654
 20
0.486432207559921
 10
0.7194647129929126
 20
0.4822196371638681
 10
0.7203288855695003
 20
0.4780481836546527
 10
0.7210096789432537
 20
0.4739315134984841
 10
0.7215048627070355
 20
0.4698831136810134
  0
ARC
  5
E27
330
1F
100
AcDbEntity
  8
0
100
AcDbCircle
 10
0.6904867769207317
 20
0.4582288831227386
 30
0.0
 40
0.0510136945465738
100
AcDbArc
 50
310.2286174577223
 51
7.482378625050391
  0
SPLINE
  5
E28
330
1F
100
AcDbEntity
  8
0
100
AcDbSpline
210
0.0
220
0.0
230
1.0
 70
     8
 71
     3
 72
    12
 73
     8
 74
     0
 42
0.0000000001
 43
0.0000000001
 40
0.0
 40
0.0
 40
0.0
 40
0.0
 40
0.25
 40
0.25
 40
0.5000000000000001
 40
0.5000000000000001
 40
1.0
 40
1.0
 40
1.0
 40
1.0
 10
0.7215045720911806
 20
0.4698819193285529
 30
0.0
 10
0.7237811640095511
 20
0.4645202040495838
 30
0.0
 10
0.7254861158056403
 20
0.4593595004513196
 30
0.0
 10
0.7278278465042863
 20
0.4494386980486338
 30
0.0
 10
0.7284691124744529
 20
0.4446633111760532
 30
0.0
 10
0.7288158447333326
 20
0.4316443144480706
 30
0.0
 10
0.7269725107679644
 20
0.4244114642554769
 30
0.0
 10
0.7234334227550892
 20
0.4192812752157869
 30
0.0
  0
SPLINE
  5
E29
330
1F
100
AcDbEntity
  8
0
100
AcDbSpline
210
0.0
220
0.0
230
1.0
 70
     8
 71
     3
 72
    44
 73
    40
 74
     0
 42
0.0000000001
 43
0.0000000001
 40
0.0
 40
0.0
 40
0.0
 40
0.0
 40
0.0251001581533897
 40
0.0502002741461131
 40
0.0758555072900044
 40
0.1015105911465049
 40
0.1300804634101337
 40
0.1586498871316654
 40
0.1880720781279639
 40
0.2174939543906785
 40
0.2456811544719292
 40
0.2738680748655442
 40
0.3029003260698488
 40
0.3319323202792104
 40
0.3596798110988537
 40
0.3874272771032786
 40
0.4160072266018724
 40
0.4445870371382358
 40
0.4718908253503856
 40
0.4991944416047579
 40
0.5273170786336565
 40
0.5554396129292904
 40
0.5823146785017578
 40
0.6091894305064782
 40
0.6368714083389874
 40
0.6645529001156013
 40
0.6909813148058934
 40
0.7174094160515493
 40
0.7446306194145423
 40
0.7718513357481628
 40
0.7978459513751578
 40
0.8238401820069446
 40
0.8506145180992664
 40
0.8773887455117135
 40
0.9029728077953695
 40
0.9285567073030522
 40
0.9549112863117937
 40
0.9812656119454935
 40
0.9999999999999998
 40
0.9999999999999998
 40
0.9999999999999998
 40
0.9999999999999998
 10
0.741066077125868
 20
0.4648719504076402
 30
0.0
 10
0.7408191261144661
 20
0.4667965867711663
 30
0.0
 10
0.7403252245064667
 20
0.4706458562654055
 30
0.0
 10
0.7391313620480875
 20
0.4766450391194921
 30
0.0
 10
0.7375973612851641
 20
0.4827842394768061
 30
0.0
 10
0.7356158087566871
 20
0.4892820949374857
 30
0.0
 10
0.7331670140394269
 20
0.4960612373166163
 30
0.0
 10
0.7301870593821742
 20
0.5031468940318425
 30
0.0
 10
0.7267605549275014
 20
0.5102468298907104
 30
0.0
 10
0.7229556823637889
 20
0.5172061326456428
 30
0.0
 10
0.7188454469975159
 20
0.523905985999039
 30
0.0
 10
0.7144329832264158
 20
0.5303722065612169
 30
0.0
 10
0.7096734042587687
 20
0.5366423261363336
 30
0.0
 10
0.7046691099583238
 20
0.5425723081790244
 30
0.0
 10
0.6995105396218509
 20
0.5480650410858799
 30
0.0
 10
0.6941936308860366
 20
0.5531538598756561
 30
0.0
 10
0.688667726224963
 20
0.5578651229717009
 30
0.0
 10
0.6830529556583787
 20
0.5620848415817142
 30
0.0
 10
0.6774488929761336
 20
0.5657527000812399
 30
0.0
 10
0.6718412203400237
 20
0.5689028961624194
 30
0.0
 10
0.6661810176529417
 20
0.5715415990637843
 30
0.0
 10
0.6605938709274031
 20
0.5736016657462946
 30
0.0
 10
0.6551742862650119
 20
0.5750634546167879
 30
0.0
 10
0.6498994064483728
 20
0.5759554465828059
 30
0.0
 10
0.6447303325526295
 20
0.576266411667393
 30
0.0
 10
0.6397847223679701
 20
0.5759805350431355
 30
0.0
 10
0.6351408458214923
 20
0.5751176120435089
 30
0.0
 10
0.6307721248786887
 20
0.573704504747254
 30
0.0
 10
0.6266491328931987
 20
0.5717095047633363
 30
0.0
 10
0.6228669549028357
 20
0.5691682471835185
 30
0.0
 10
0.6194806056885045
 20
0.5661400681538416
 30
0.0
 10
0.6164614514729681
 20
0.5626436425467878
 30
0.0
 10
0.6137948555256183
 20
0.5586288286958548
 30
0.0
 10
0.6115435285927436
 20
0.554181291966958
 30
0.0
 10
0.6097353165131732
 20
0.5493883676439948
 30
0.0
 10
0.6083367347417119
 20
0.5442579187377268
 30
0.0
 10
0.6073722769382992
 20
0.5387235019877386
 30
0.0
 10
0.6068297987335956
 20
0.5334283682213572
 30
0.0
 10
0.606834157418962
 20
0.5298885414660069
 30
0.0
 10
0.6068359684553922
 20
0.5284177412888509
 30
0.0
  0
SPLINE
  5
E2A
330
1F
100
AcDbEntity
  8
0
100
AcDbSpline
210
0.0
220
0.0
230
1.0
 70
     8
 71
     3
 72
    19
 73
    15
 74
     0
 42
0.0000000001
 43
0.0000000001
 40
0.0
 40
0.0
 40
0.0
 40
0.0
 40
0.0854483111066276
 40
0.1708966222132551
 40
0.2563449333198827
 40
0.3417932444265095
 40
0.4272415555331371
 40
0.5126898666397646
 40
0.5981381777463929
 40
0.6835864888530204
 40
0.7690347999596482
 40
0.8544831110662755
 40
0.9399314221729023
 40
1.0
 40
1.0
 40
1.0
 40
1.0
 10
0.7234334154703635
 20
0.4192812767833117
 30
0.0
 10
0.7220283682766993
 20
0.418419532055526
 30
0.0
 10
0.7192182738893567
 20
0.4166960425999511
 30
0.0
 10
0.7144236198725085
 20
0.4151648601858638
 30
0.0
 10
0.7092697983420169
 20
0.4144309178823092
 30
0.0
 10
0.7037679726950255
 20
0.4145778837632106
 30
0.0
 10
0.6979897742427599
 20
0.415587223727278
 30
0.0
 10
0.6919943831179541
 20
0.417456993774791
 30
0.0
 10
0.6858469929628757
 20
0.420169277068708
 30
0.0
 10
0.6796141425607192
 20
0.423702084884126
 30
0.0
 10
0.6733600666666919
 20
0.4280152700236313
 30
0.0
 10
0.6671620123607159
 20
0.4330964297588862
 30
0.0
 10
0.6616538861571502
 20
0.4382292988886141
 30
0.0
 10
0.6583246201579907
 20
0.4419226308714164
 30
0.0
 10
0.6569503173176617
 20
0.4434472181634908
 30
0.0
  0
SPLINE
  5
E2B
330
1F
100
AcDbEntity
  8
0
100
AcDbSpline
210
0.0
220
0.0
230
1.0
 70
     8
 71
     3
 72
    36
 73
    32
 74
     0
 42
0.0000000001
 43
0.0000000001
 40
0.0
 40
0.0
 40
0.0
 40
0.0
 40
0.0234397411687429
 40
0.0583168932698592
 40
0.0931940453709755
 40
0.1280711974720918
 40
0.1629483495732081
 40
0.1978255016743245
 40
0.2327026537754409
 40
0.267579805876557
 40
0.3024569579776735
 40
0.3373341100787898
 40
0.3722112621799061
 40
0.4070884142810224
 40
0.4419655663821388
 40
0.4768427184832552
 40
0.5117198705843715
 40
0.5465970226854877
 40
0.581474174786604
 40
0.6163513268877204
 40
0.6512284789888367
 40
0.686105631089953
 40
0.7209827831910692
 40
0.7558599352921856
 40
0.7907370873933019
 40
0.8256142394944182
 40
0.8604913915955346
 40
0.8953685436966509
 40
0.9302456957977673
 40
0.9651228478988835
 40
1.0
 40
1.0
 40
1.0
 40
1.0
 10
0.623178186567269
 20
0.5692451699826675
 30
0.0
 10
0.6237555560302215
 20
0.570647098754292
 30
0.0
 10
0.6251920221202627
 20
0.5741350267974524
 30
0.0
 10
0.6281785099564235
 20
0.5789988257260062
 30
0.0
 10
0.6320147702493553
 20
0.5838631219218043
 30
0.0
 10
0.6364134368947237
 20
0.5879775863975381
 30
0.0
 10
0.641306660478342
 20
0.5913343936556919
 30
0.0
 10
0.6466597674580039
 20
0.5938959404597873
 30
0.0
 10
0.6524234897120987
 20
0.5956422164196829
 30
0.0
 10
0.6585473285474026
 20
0.5965584008275462
 30
0.0
 10
0.6649765872902687
 20
0.596638380443916
 30
0.0
 10
0.6716538234720129
 20
0.5958839040283826
 30
0.0
 10
0.6785191540639875
 20
0.5943048078161324
 30
0.0
 10
0.6855108986265886
 20
0.5919188558606292
 30
0.0
 10
0.6925661555221115
 20
0.588751586353907
 30
0.0
 10
0.6996214124631801
 20
0.5848360610175681
 30
0.0
 10
0.7066131568891332
 20
0.5802125479514358
 30
0.0
 10
0.7134784879821541
 20
0.5749281334875631
 30
0.0
 10
0.7201557222963575
 20
0.5690362688407431
 30
0.0
 10
0.7265849880083262
 20
0.5625962552157722
 30
0.0
 10
0.732708800834764
 20
0.5556726731000472
 30
0.0
 10
0.7384726201552279
 20
0.5483347588640397
 30
0.0
 10
0.7438253648782652
 20
0.540655743398065
 30
0.0
 10
0.7487199404220131
 20
0.5327121266295079
 30
0.0
 10
0.7531135614834912
 20
0.5245830162828531
 30
0.0
 10
0.7569686521518615
 20
0.5163490842737373
 30
0.0
 10
0.7602513862926013
 20
0.5080928413194519
 30
0.0
 10
0.7629388112138496
 20
0.4998939179702715
 30
0.0
 10
0.7649936985970487
 20
0.4918429435801022
 30
0.0
 10
0.7664595855891423
 20
0.4839860144160282
 30
0.0
 10
0.7668911921162401
 20
0.4790141649324502
 30
0.0
 10
0.7671069953797907
 20
0.4765282401906595
 30
0.0
  0
SPLINE
  5
E2C
330
1F
100
AcDbEntity
  8
0
100
AcDbSpline
210
0.0
220
0.0
230
1.0
 70
     8
 71
     3
 72
    19
 73
    15
 74
     0
 42
0.0000000001
 43
0.0000000001
 40
0.0
 40
0.0
 40
0.0
 40
0.0
 40
0.0898460396356207
 40
0.1796920792712406
 40
0.2695381189068605
 40
0.3593841585424811
 40
0.449230198178101
 40
0.5390762378137208
 40
0.6289222774493406
 40
0.7187683170849614
 40
0.8086143567205819
 40
0.8984603963562019
 40
0.9883064359918217
 40
1.0
 40
1.0
 40
1.0
 40
1.0
 10
0.7671069953797907
 20
0.4765282401906595
 30
0.0
 10
0.7671980961396119
 20
0.474114304581117
 30
0.0
 10
0.7673802976592615
 20
0.4692864333620284
 30
0.0
 10
0.7668351220445931
 20
0.4625904672913981
 30
0.0
 10
0.7657009488096019
 20
0.4563804932323832
 30
0.0
 10
0.7639342276461352
 20
0.450752913030704
 30
0.0
 10
0.7615722360540747
 20
0.445755228677025
 30
0.0
 10
0.7586377431612159
 20
0.4414411092951474
 30
0.0
 10
0.7551652601770367
 20
0.4378519984904115
 30
0.0
 10
0.7511898062766167
 20
0.435032693921154
 30
0.0
 10
0.7467637086310038
 20
0.432984876877284
 30
0.0
 10
0.7418984510855249
 20
0.4318352733744062
 30
0.0
 10
0.7382626840812132
 20
0.4313897097969237
 30
0.0
 10
0.7361854345550181
 20
0.4315759242172659
 30
0.0
 10
0.7359462131140862
 20
0.4315973691526933
 30
0.0
  0
SPLINE
  5
E2D
330
1F
100
AcDbEntity
  8
0
100
AcDbSpline
210
0.0
220
0.0
230
1.0
 70
     8
 71
     3
 72
    34
 73
    30
 74
     0
 42
0.0000000001
 43
0.0000000001
 40
0.0
 40
0.0
 40
0.0
 40
0.0
 40
0.0203984808249265
 40
0.0580754623316602
 40
0.0957524438383938
 40
0.1334294253451274
 40
0.171106406851861
 40
0.2087833883585945
 40
0.2464603698653281
 40
0.2841373513720617
 40
0.3218143328787952
 40
0.3594913143855288
 40
0.3971682958922624
 40
0.4348452773989961
 40
0.4725222589057296
 40
0.5101992404124632
 40
0.5478762219191968
 40
0.5855532034259304
 40
0.6232301849326639
 40
0.6609071664393974
 40
0.6985841479461312
 40
0.7362611294528647
 40
0.7739381109595982
 40
0.8116150924663315
 40
0.8492920739730653
 40
0.8869690554797989
 40
0.9246460369865326
 40
0.9623230184932662
 40
1.0
 40
1.0
 40
1.0
 40
1.0
 10
0.6594871766904152
 20
0.5981269441223125
 30
0.0
 10
0.6601669419096825
 20
0.5990198197722192
 30
0.0
 10
0.6621022663941214
 20
0.6015618799686627
 30
0.0
 10
0.6658920700802749
 20
0.6049657153127184
 30
0.0
 10
0.6707651958626673
 20
0.6083483550252984
 30
0.0
 10
0.676123688031939
 20
0.6109029800440906
 30
0.0
 10
0.6818859673288276
 20
0.6126511106907691
 30
0.0
 10
0.68801019280335
 20
0.6135667981368079
 30
0.0
 10
0.694439347946545
 20
0.6136469109136966
 30
0.0
 10
0.7011166118877373
 20
0.6128923988179116
 30
0.0
 10
0.7079819350415871
 20
0.6113133121661525
 30
0.0
 10
0.7149736815972286
 20
0.6089273576489261
 30
0.0
 10
0.7220289379587217
 20
0.6057600888286166
 30
0.0
 10
0.7290841950428831
 20
0.6018445633083536
 30
0.0
 10
0.7360759394304952
 20
0.597221050291501
 30
0.0
 10
0.7429412705337906
 20
0.5919366358144265
 30
0.0
 10
0.7496185048452407
 20
0.586044771171145
 30
0.0
 10
0.7560477705579447
 20
0.5796047575452255
 30
0.0
 10
0.7621715833841836
 20
0.5726811754297528
 30
0.0
 10
0.7679354027047008
 20
0.5653432611936778
 30
0.0
 10
0.7732881474277238
 20
0.5576642457277208
 30
0.0
 10
0.7781827229714789
 20
0.5497206289591601
 30
0.0
 10
0.7825763440329534
 20
0.5415915186125089
 30
0.0
 10
0.7864314347013273
 20
0.5333575866033895
 30
0.0
 10
0.7897141688420671
 20
0.5251013436491041
 30
0.0
 10
0.7924015937633154
 20
0.5169024202999238
 30
0.0
 10
0.7944564811465145
 20
0.5088514459097544
 30
0.0
 10
0.7959223681386081
 20
0.5009945167456804
 30
0.0
 10
0.7963539746657058
 20
0.4960226672621025
 30
0.0
 10
0.7965697779292529
 20
0.4935367425203152
 30
0.0
  0
SPLINE
  5
E2E
330
1F
100
AcDbEntity
  8
0
100
AcDbSpline
210
0.0
220
0.0
230
1.0
 70
     8
 71
     3
 72
    19
 73
    15
 74
     0
 42
0.0000000001
 43
0.0000000001
 40
0.0
 40
0.0
 40
0.0
 40
0.0
 40
0.0899016520844928
 40
0.1798033041689848
 40
0.2697049562534767
 40
0.3596066083379694
 40
0.4495082604224615
 40
0.5394099125069534
 40
0.6293115645914453
 40
0.7192132166759383
 40
0.8091148687604308
 40
0.8990165208449228
 40
0.9889181729294149
 40
1.0
 40
1.0
 40
1.0
 40
1.0
 10
0.7965697779292529
 20
0.4935367425203152
 30
0.0
 10
0.7966608786895537
 20
0.4911228069094121
 30
0.0
 10
0.7968430802101554
 20
0.4862949356876057
 30
0.0
 10
0.7962979045883354
 20
0.4795989696373609
 30
0.0
 10
0.795163731380526
 20
0.4733889955008719
 30
0.0
 10
0.7933970101154695
 20
0.4677614155887069
 30
0.0
 10
0.7910350189025901
 20
0.4627637301544416
 30
0.0
 10
0.7881005245946038
 20
0.4584496148053914
 30
0.0
 10
0.7846280468917644
 20
0.4548604889499286
 30
0.0
 10
0.7806525732811092
 20
0.4520412405507513
 30
0.0
 10
0.7762265491950795
 20
0.4499932138772805
 30
0.0
 10
0.7713610171215133
 20
0.4488443927227257
 30
0.0
 10
0.7677377266884835
 20
0.4483982028066853
 30
0.0
 10
0.7656733940423197
 20
0.4485825360995177
 30
0.0
 10
0.7654468562205632
 20
0.4486027646526578
 30
0.0
  0
SPLINE
  5
E2F
330
1F
100
AcDbEntity
  8
0
100
AcDbSpline
210
0.0
220
0.0
230
1.0
 70
     8
 71
     3
 72
    34
 73
    30
 74
     0
 42
0.0000000001
 43
0.0000000001
 40
0.0
 40
0.0
 40
0.0
 40
0.0
 40
0.0203984808249266
 40
0.0580754623316602
 40
0.0957524438383939
 40
0.1334294253451275
 40
0.1711064068518611
 40
0.2087833883585945
 40
0.2464603698653281
 40
0.2841373513720617
 40
0.3218143328787953
 40
0.3594913143855288
 40
0.3971682958922624
 40
0.4348452773989961
 40
0.4725222589057296
 40
0.5101992404124632
 40
0.5478762219191969
 40
0.5855532034259304
 40
0.6232301849326639
 40
0.6609071664393974
 40
0.6985841479461312
 40
0.7362611294528647
 40
0.7739381109595982
 40
0.8116150924663319
 40
0.8492920739730655
 40
0.886969055479799
 40
0.9246460369865326
 40
0.9623230184932662
 40
0.9999999999999998
 40
0.9999999999999998
 40
0.9999999999999998
 40
0.9999999999999998
 10
0.6889499592398809
 20
0.6151354464519648
 30
0.0
 10
0.6896297244591448
 20
0.6160283221018715
 30
0.0
 10
0.6915650489435837
 20
0.6185703822983113
 30
0.0
 10
0.6953548526297371
 20
0.6219742176423706
 30
0.0
 10
0.7002279784121331
 20
0.6253568573549507
 30
0.0
 10
0.7055864705814013
 20
0.6279114823737464
 30
0.0
 10
0.7113487498782898
 20
0.6296596130204249
 30
0.0
 10
0.7174729753528087
 20
0.6305753004664636
 30
0.0
 10
0.7239021304960107
 20
0.6306554132433489
 30
0.0
 10
0.7305793944371959
 20
0.6299009011475674
 30
0.0
 10
0.7374447175910528
 20
0.6283218144958083
 30
0.0
 10
0.7444364641466943
 20
0.6259358599785818
 30
0.0
 10
0.7514917205081804
 20
0.6227685911582724
 30
0.0
 10
0.7585469775923453
 20
0.6188530656380094
 30
0.0
 10
0.7655387219799575
 20
0.6142295526211568
 30
0.0
 10
0.7724040530832493
 20
0.6089451381440787
 30
0.0
 10
0.7790812873947064
 20
0.6030532735007972
 30
0.0
 10
0.785510553107407
 20
0.5966132598748813
 30
0.0
 10
0.7916343659336458
 20
0.589689677759405
 30
0.0
 10
0.7973981852541665
 20
0.5823517635233335
 30
0.0
 10
0.8027509299771896
 20
0.5746727480573766
 30
0.0
 10
0.8076455055209411
 20
0.5667291312888123
 30
0.0
 10
0.8120391265824192
 20
0.5586000209421611
 30
0.0
 10
0.815894217250786
 20
0.5503660889330418
 30
0.0
 10
0.8191769513915257
 20
0.5421098459787599
 30
0.0
 10
0.8218643763127776
 20
0.533910922629576
 30
0.0
 10
0.8239192636959732
 20
0.5258599482394067
 30
0.0
 10
0.8253851506880668
 20
0.5180030190753327
 30
0.0
 10
0.8258167572151645
 20
0.5130311695917547
 30
0.0
 10
0.8260325604787187
 20
0.5105452448499675
 30
0.0
  0
SPLINE
  5
E30
330
1F
100
AcDbEntity
  8
0
100
AcDbSpline
210
0.0
220
0.0
230
1.0
 70
     8
 71
     3
 72
    20
 73
    16
 74
     0
 42
0.0000000001
 43
0.0000000001
 40
0.0
 40
0.0
 40
0.0
 40
0.0
 40
0.0826458173734882
 40
0.1652916347469763
 40
0.2479374521204636
 40
0.3305832694939518
 40
0.4132290868674408
 40
0.4958749042409282
 40
0.5785207216144154
 40
0.6611665389879036
 40
0.7438123563613917
 40
0.8264581737348796
 40
0.9091039911083679
 40
0.9917498084818559
 40
1.0
 40
1.0
 40
1.0
 40
1.0
 10
0.8260325604787187
 20
0.5105452448499675
 30
0.0
 10
0.8261209686960771
 20
0.5083217709158517
 30
0.0
 10
0.8262977851308082
 20
0.5038748230476236
 30
0.0
 10
0.8258699309747004
 20
0.4976616242408154
 30
0.0
 10
0.8249419936514353
 20
0.4918508882401751
 30
0.0
 10
0.8234751403612673
 20
0.4865207497015219
 30
0.0
 10
0.8214981285230745
 20
0.4817089776996069
 30
0.0
 10
0.8190269925358034
 20
0.4774587300109828
 30
0.0
 10
0.8160861261761557
 20
0.4738065759769788
 30
0.0
 10
0.8127033100729509
 20
0.4707826373992204
 30
0.0
 10
0.8089073667571287
 20
0.4684202122003596
 30
0.0
 10
0.8047411732478867
 20
0.4667155870587605
 30
0.0
 10
0.8002104397560213
 20
0.4657778621005333
 30
0.0
 10
0.7968951386384826
 20
0.4654215479753879
 30
0.0
 10
0.7950366285804403
 20
0.4655843186278715
 30
0.0
 10
0.794867940602781
 20
0.4655990925334903
 30
0.0
  0
SPLINE
  5
E31
330
1F
100
AcDbEntity
  8
0
100
AcDbSpline
210
0.0
220
0.0
230
1.0
 70
     8
 71
     3
 72
    12
 73
     8
 74
     0
 42
0.0000000001
 43
0.0000000001
 40
0.0
 40
0.0
 40
0.0
 40
0.0
 40
0.25
 40
0.25
 40
0.5000000000000001
 40
0.5000000000000001
 40
1.0
 40
1.0
 40
1.0
 40
1.0
 10
0.7006954420927225
 20
0.433508684698718
 30
0.0
 10
0.7039444085027032
 20
0.4344627002457058
 30
0.0
 10
0.7068317250965311
 20
0.4360195621832288
 30
0.0
 10
0.7119312648186518
 20
0.4402586223387451
 30
0.0
 10
0.7141417817308091
 20
0.4429737324190475
 30
0.0
 10
0.7194548163357833
 20
0.4523957487814832
 30
0.0
 10
0.7213620151887202
 20
0.4605751554504663
 30
0.0
 10
0.7215051290959305
 20
0.4698819561001342
 30
0.0
  0
SPLINE
  5
E32
330
1F
100
AcDbEntity
  8
0
100
AcDbSpline
210
0.0
220
0.0
230
1.0
 70
     8
 71
     3
 72
    14
 73
    10
 74
     0
 42
0.0000000001
 43
0.0000000001
 40
0.0
 40
0.0
 40
0.0
 40
0.0
 40
0.25
 40
0.25
 40
0.5
 40
0.5
 40
0.75
 40
0.75
 40
1.0
 40
1.0
 40
1.0
 40
1.0
 10
0.8297154082973779
 20
0.5126713076411589
 30
0.0
 10
0.8287947280216197
 20
0.5273703904573557
 30
0.0
 10
0.8238811417367447
 20
0.5443444731150207
 30
0.0
 10
0.8073849997629057
 20
0.5770693757911288
 30
0.0
 10
0.7958313635368018
 20
0.5927535194246678
 30
0.0
 10
0.7696196621107841
 20
0.6174173451042782
 30
0.0
 10
0.7550096888712648
 20
0.6263462583392388
 30
0.0
 10
0.7272961651753885
 20
0.6342780843131548
 30
0.0
 10
0.7142436703465012
 20
0.6332632468463393
 30
0.0
 10
0.7039959517339898
 20
0.6273473606245253
 30
0.0
  0
SPLINE
  5
E33
330
1F
100
AcDbEntity
  8
0
100
AcDbSpline
210
0.0
220
0.0
230
1.0
 70
     8
 71
     3
 72
    10
 73
     6
 74
     0
 42
0.0000000001
 43
0.0000000001
 40
0.0
 40
0.0
 40
0.0
 40
0.0
 40
0.5
 40
0.5
 40
1.0
 40
1.0
 40
1.0
 40
1.0
 10
0.8137196410918573
 20
0.4713023386068676
 30
0.0
 10
0.8193246511253132
 20
0.474538044818952
 30
0.0
 10
0.8236907573033565
 20
0.4799141740073259
 30
0.0
 10
0.8291943963536528
 20
0.494083364912096
 30
0.0
 10
0.8303292796249795
 20
0.5028705703813925
 30
0.0
 10
0.8297154082973779
 20
0.5126713076411589
 30
0.0
  0
SPLINE
  5
E34
330
1F
100
AcDbEntity
  8
0
100
AcDbSpline
210
0.0
220
0.0
230
1.0
 70
     8
 71
     3
 72
    14
 73
    10
 74
     0
 42
0.0000000001
 43
0.0000000001
 40
0.0
 40
0.0
 40
0.0
 40
0.0
 40
0.25
 40
0.25
 40
0.5
 40
0.5
 40
0.75
 40
0.75
 40
1.0
 40
1.0
 40
1.0
 40
1.0
 10
0.8591781908467833
 20
0.5296798099707827
 30
0.0
 10
0.8582575105710322
 20
0.5443788927869795
 30
0.0
 10
0.8533439242861572
 20
0.5613529754446481
 30
0.0
 10
0.8368477823123217
 20
0.594077878120749
 30
0.0
 10
0.8252941460862107
 20
0.6097620217542952
 30
0.0
 10
0.7990824446601966
 20
0.6344258474339055
 30
0.0
 10
0.7844724714206808
 20
0.6433547606688626
 30
0.0
 10
0.7567589477248009
 20
0.6512865866427822
 30
0.0
 10
0.7437064528959172
 20
0.6502717491759631
 30
0.0
 10
0.7334587342834023
 20
0.6443558629541526
 30
0.0
  0
SPLINE
  5
E35
330
1F
100
AcDbEntity
  8
0
100
AcDbSpline
210
0.0
220
0.0
230
1.0
 70
     8
 71
     3
 72
    10
 73
     6
 74
     0
 42
0.0000000001
 43
0.0000000001
 40
0.0
 40
0.0
 40
0.0
 40
0.0
 40
0.5
 40
0.5
 40
1.0
 40
1.0
 40
1.0
 40
1.0
 10
0.8431824236412698
 20
0.4883108409364949
 30
0.0
 10
0.8487874336747292
 20
0.4915465471485759
 30
0.0
 10
0.8531535398527655
 20
0.4969226763369461
 30
0.0
 10
0.8586571789030688
 20
0.5110918672417198
 30
0.0
 10
0.859792062174392
 20
0.5198790727110163
 30
0.0
 10
0.8591781908467833
 20
0.5296798099707827
 30
0.0
  0
SPLINE
  5
E36
330
1F
100
AcDbEntity
  8
0
100
AcDbSpline
210
0.0
220
0.0
230
1.0
 70
     8
 71
     3
 72
    45
 73
    41
 74
     0
 42
0.0000000001
 43
0.0000000001
 40
0.0
 40
0.0
 40
0.0
 40
0.0
 40
0.026850935105218
 40
0.053701870210436
 40
0.080552805315654
 40
0.107403740420872
 40
0.13425467552609
 40
0.161105610631308
 40
0.187956545736526
 40
0.214807480841744
 40
0.241658415946962
 40
0.2685093510521801
 40
0.2953602861573981
 40
0.322211221262616
 40
0.349062156367834
 40
0.375913091473052
 40
0.4027640265782701
 40
0.4296149616834882
 40
0.4564658967887061
 40
0.4833168318939241
 40
0.5101677669991421
 40
0.5370187021043602
 40
0.5638696372095782
 40
0.5907205723147962
 40
0.6175715074200142
 40
0.6444224425252321
 40
0.6712733776304502
 40
0.6981243127356681
 40
0.7249752478408862
 40
0.7518261829461041
 40
0.778677118051323
 40
0.8055280531565401
 40
0.8323789882617582
 40
0.8592299233669763
 40
0.8860808584721942
 40
0.9129317935774123
 40
0.9397827286826302
 40
0.9666336637878481
 40
0.9934845988930661
 40
1.0
 40
1.0
 40
1.0
 40
1.0
 10
0.8859603134553598
 20
0.5226381090699546
 30
0.0
 10
0.8863949421041535
 20
0.5240343975583555
 30
0.0
 10
0.887264199401741
 20
0.5268269745351573
 30
0.0
 10
0.8881350159940733
 20
0.5314236646194557
 30
0.0
 10
0.8886799874137945
 20
0.5362870886892308
 30
0.0
 10
0.8888639215640768
 20
0.5414212336410378
 30
0.0
 10
0.8886921760481417
 20
0.5467893893230551
 30
0.0
 10
0.8881616542844842
 20
0.5523641166293088
 30
0.0
 10
0.8872739449102478
 20
0.5581140572415349
 30
0.0
 10
0.8860317970442533
 20
0.5640076742482974
 30
0.0
 10
0.8844400478180315
 20
0.5700124626975827
 30
0.0
 10
0.8825053441404723
 20
0.5760953793910302
 30
0.0
 10
0.8802361749200709
 20
0.5822229502341747
 30
0.0
 10
0.8776428076995404
 20
0.5883614670502899
 30
0.0
 10
0.874737238793752
 20
0.5944771622852932
 30
0.0
 10
0.8715331280565475
 20
0.6005363902874619
 30
0.0
 10
0.8680457264320647
 20
0.6065058062605671
 30
0.0
 10
0.8642917945845841
 20
0.6123525440629747
 30
0.0
 10
0.8602895136010811
 20
0.6180443913354834
 30
0.0
 10
0.8560583880921971
 20
0.6235499611771998
 30
0.0
 10
0.8516191422482673
 20
0.6288388594136967
 30
0.0
 10
0.8469936093935924
 20
0.6338818465768688
 30
0.0
 10
0.8422046156303114
 20
0.6386509937306775
 30
0.0
 10
0.8372758581918017
 20
0.6431198313119202
 30
0.0
 10
0.8322317791516727
 20
0.6472634901969121
 30
0.0
 10
0.8270974351706069
 20
0.6510588342263928
 30
0.0
 10
0.8218983639404125
 20
0.6544845835419144
 30
0.0
 10
0.8166604481671836
 20
0.6575214278541948
 30
0.0
 10
0.8114097773325315
 20
0.6601521298691422
 30
0.0
 10
0.8061725097832873
 20
0.6623616152252536
 30
0.0
 10
0.8009747291155232
 20
0.6641370600141512
 30
0.0
 10
0.7958423208813872
 20
0.665467932308661
 30
0.0
 10
0.7908007759921705
 20
0.6663461483627584
 30
0.0
 10
0.7858752737368877
 20
0.6667657422175842
 30
0.0
 10
0.7810897307714302
 20
0.6667242913220611
 30
0.0
 10
0.7764697220849075
 20
0.6662177276128807
 30
0.0
 10
0.7720309678252586
 20
0.6652597726900949
 30
0.0
 10
0.7678217086081172
 20
0.6638094125384191
 30
0.0
 10
0.764788359193211
 20
0.6624878174287998
 30
0.0
 10
0.7632463488249566
 20
0.6615144093815913
 30
0.0
 10
0.7629452424644536
 20
0.6613243332573218
 30
0.0
  0
ARC
  5
E37
330
1F
100
AcDbEntity
  8
0
100
AcDbCircle
 10
0.8518116967525056
 20
0.5353626270053509
 30
0.0
 40
0.0364423020596487
100
AcDbArc
 50
301.1552679866787
 51
339.5635112299948
  0
SPLINE
  5
E38
330
1F
100
AcDbEntity
  8
0
100
AcDbSpline
210
0.0
220
0.0
230
1.0
 70
     8
 71
     3
 72
    50
 73
    46
 74
     0
 42
0.0000000001
 43
0.0000000001
 40
0.0
 40
0.0
 40
0.0
 40
0.0
 40
0.000655242828953
 40
0.0248171935905409
 40
0.048979144352129
 40
0.0731410951137168
 40
0.0973030458753049
 40
0.1214649966368928
 40
0.1456269473984808
 40
0.1697888981600687
 40
0.1939508489216566
 40
0.2181127996832447
 40
0.2422747504448325
 40
0.2664367012064206
 40
0.2905986519680085
 40
0.3147606027295964
 40
0.3389225534911844
 40
0.3630845042527724
 40
0.3872464550143604
 40
0.4114084057759483
 40
0.4355703565375363
 40
0.4597323072991243
 40
0.4838942580607123
 40
0.5080562088223002
 40
0.5322181595838882
 40
0.5563801103454762
 40
0.5805420611070641
 40
0.6047040118686521
 40
0.6288659626302401
 40
0.6530279133918279
 40
0.6771898641534159
 40
0.7013518149150039
 40
0.7255137656765918
 40
0.7496757164381798
 40
0.7738376671997678
 40
0.7979996179613557
 40
0.8221615687229435
 40
0.8463235194845315
 40
0.8704854702461195
 40
0.8946474210077075
 40
0.9188093717692956
 40
0.9429713225308834
 40
0.9671332732924714
 40
0.9912952240540594
 40
1.0
 40
1.0
 40
1.0
 40
1.0
 10
0.7477334629638892
 20
0.6491311893664351
 30
0.0
 10
0.7477628122201696
 20
0.6491738886038965
 30
0.0
 10
0.7488744095435745
 20
0.6507911138452114
 30
0.0
 10
0.7514970150738303
 20
0.6534535644528879
 30
0.0
 10
0.7556062074978338
 20
0.6570317557637458
 30
0.0
 10
0.7601764455549503
 20
0.6599016547383441
 30
0.0
 10
0.7651042266417636
 20
0.6621279174808406
 30
0.0
 10
0.7703724088347168
 20
0.6636717558277275
 30
0.0
 10
0.7759372274584844
 20
0.6645289244837782
 30
0.0
 10
0.7817589549743853
 20
0.6646928643485941
 30
0.0
 10
0.7877940964776076
 20
0.6641646396791812
 30
0.0
 10
0.793997913137893
 20
0.6629502809698656
 30
0.0
 10
0.8003241962662276
 20
0.6610614465038394
 30
0.0
 10
0.8067257924698122
 20
0.6585151391155924
 30
0.0
 10
0.8131549382399963
 20
0.655333621401204
 30
0.0
 10
0.8195636524942951
 20
0.651544224329828
 30
0.0
 10
0.8259041166318819
 20
0.6471791327028269
 30
0.0
 10
0.8321290571029887
 20
0.6422751272232566
 30
0.0
 10
0.8381921226057752
 20
0.6368732911165216
 30
0.0
 10
0.844048254193861
 20
0.631018682068393
 30
0.0
 10
0.8496540449929664
 20
0.6247599725218001
 30
0.0
 10
0.8549680867477281
 20
0.6181490610910059
 30
0.0
 10
0.8599513004070683
 20
0.6112406582257242
 30
0.0
 10
0.8645672481156015
 20
0.604091849425017
 30
0.0
 10
0.868782424118407
 20
0.5967616394901958
 30
0.0
 10
0.8725665222572619
 20
0.5893104814547057
 30
0.0
 10
0.8758926779225145
 20
0.5817997939520004
 30
0.0
 10
0.8787376825291911
 20
0.5742914708741429
 30
0.0
 10
0.8810821688044608
 20
0.5668473872373339
 30
0.0
 10
0.8829107654092421
 20
0.5595289051937469
 30
0.0
 10
0.8842122196520701
 20
0.5523963841541813
 30
0.0
 10
0.8849794873429456
 20
0.5455086988552394
 30
0.0
 10
0.8852097889679907
 20
0.5389227695070984
 30
0.0
 10
0.8849046321160077
 20
0.5326931066960681
 30
0.0
 10
0.8840697985615296
 20
0.5268713786944295
 30
0.0
 10
0.8827153013933287
 20
0.5215059896321561
 30
0.0
 10
0.8808552928037581
 20
0.5166417278783398
 30
0.0
 10
0.878507996896722
 20
0.5123192785187625
 30
0.0
 10
0.8756953932911525
 20
0.508575383524728
 30
0.0
 10
0.8724436794624846
 20
0.5054407384433786
 30
0.0
 10
0.8687806812247234
 20
0.5029465022627085
 30
0.0
 10
0.8647445142350239
 20
0.5010988389252687
 30
0.0
 10
0.8603501254441564
 20
0.4999729520950451
 30
0.0
 10
0.8567017662079226
 20
0.4994917772413272
 30
0.0
 10
0.8544481311036374
 20
0.4996265352731788
 30
0.0
 10
0.8538512542433021
 20
0.4996622260337622
 30
0.0
  0
SPLINE
  5
E39
330
1F
100
AcDbEntity
  8
0
100
AcDbSpline
210
0.0
220
0.0
230
1.0
 70
     8
 71
     3
 72
    19
 73
    15
 74
     0
 42
0.0000000001
 43
0.0000000001
 40
0.0
 40
0.0
 40
0.0
 40
0.0
 40
0.0899016520844763
 40
0.1798033041689517
 40
0.2697049562534272
 40
0.3596066083379035
 40
0.449508260422379
 40
0.5394099125068545
 40
0.6293115645913299
 40
0.7192132166758063
 40
0.8091148687602824
 40
0.8990165208447578
 40
0.9889181729292333
 40
1.0
 40
1.0
 40
1.0
 40
1.0
 10
0.8554953430281738
 20
0.5275537471796162
 30
0.0
 10
0.8555864437884711
 20
0.525139811568713
 30
0.0
 10
0.8557686453090763
 20
0.5203119403469066
 30
0.0
 10
0.8552234696872492
 20
0.5136159742966618
 30
0.0
 10
0.8540892964794434
 20
0.5074060001601728
 30
0.0
 10
0.8523225752143869
 20
0.5017784202480078
 30
0.0
 10
0.849960584001511
 20
0.4967807348137461
 30
0.0
 10
0.8470260896935212
 20
0.4924666194646959
 30
0.0
 10
0.8435536119906782
 20
0.4888774936092331
 30
0.0
 10
0.839578138380023
 20
0.4860582452100557
 30
0.0
 10
0.8351521142939969
 20
0.4840102185365814
 30
0.0
 10
0.8302865822204307
 20
0.4828613973820266
 30
0.0
 10
0.8266632917874009
 20
0.4824152074659862
 30
0.0
 10
0.82459895914123
 20
0.4825995407588187
 30
0.0
 10
0.8243724213194699
 20
0.4826197693119588
 30
0.0
  0
SPLINE
  5
E3A
330
1F
100
AcDbEntity
  8
0
100
AcDbSpline
210
0.0
220
0.0
230
1.0
 70
     8
 71
     3
 72
    34
 73
    30
 74
     0
 42
0.0000000001
 43
0.0000000001
 40
0.0
 40
0.0
 40
0.0
 40
0.0
 40
0.0203984808249541
 40
0.0580754623316867
 40
0.0957524438384192
 40
0.1334294253451518
 40
0.1711064068518844
 40
0.2087833883586168
 40
0.2464603698653493
 40
0.2841373513720819
 40
0.3218143328788145
 40
0.3594913143855469
 40
0.3971682958922795
 40
0.4348452773990122
 40
0.4725222589057446
 40
0.5101992404124771
 40
0.5478762219192097
 40
0.5855532034259423
 40
0.6232301849326748
 40
0.6609071664394073
 40
0.6985841479461398
 40
0.7362611294528723
 40
0.7739381109596049
 40
0.8116150924663372
 40
0.8492920739730699
 40
0.8869690554798024
 40
0.9246460369865349
 40
0.9623230184932674
 40
1.0
 40
1.0
 40
1.0
 40
1.0
 10
0.7184127417893396
 20
0.6321439487816134
 30
0.0
 10
0.719092507008607
 20
0.6330368244315201
 30
0.0
 10
0.7210278314930423
 20
0.6355788846279636
 30
0.0
 10
0.7248176351791993
 20
0.6389827199720264
 30
0.0
 10
0.7296907609615917
 20
0.6423653596846029
 30
0.0
 10
0.7350492531308599
 20
0.6449199847033987
 30
0.0
 10
0.7408115324277485
 20
0.6466681153500736
 30
0.0
 10
0.7469357579022744
 20
0.6475838027961159
 30
0.0
 10
0.7533649130454694
 20
0.6476639155730011
 30
0.0
 10
0.7600421769866546
 20
0.6469094034772161
 30
0.0
 10
0.7669075001405115
 20
0.645330316825457
 30
0.0
 10
0.773899246696153
 20
0.6429443623082305
 30
0.0
 10
0.7809545030576391
 20
0.639777093487921
 30
0.0
 10
0.7880097601418004
 20
0.6358615679676581
 30
0.0
 10
0.7950015045294161
 20
0.6312380549508055
 30
0.0
 10
0.8018668356327115
 20
0.625953640473731
 30
0.0
 10
0.8085440699441651
 20
0.6200617758304495
 30
0.0
 10
0.8149733356568656
 20
0.6136217622045299
 30
0.0
 10
0.8210971484831009
 20
0.6066981800890572
 30
0.0
 10
0.8268609678036252
 20
0.5993602658529822
 30
0.0
 10
0.8322137125266447
 20
0.5916812503870253
 30
0.0
 10
0.8371082880703998
 20
0.5837376336184646
 30
0.0
 10
0.8415019091318743
 20
0.5756085232718098
 30
0.0
 10
0.8453569998002446
 20
0.5673745912626904
 30
0.0
 10
0.8486397339409844
 20
0.5591183483084086
 30
0.0
 10
0.8513271588622327
 20
0.5509194249592247
 30
0.0
 10
0.8533820462454318
 20
0.5428684505690553
 30
0.0
 10
0.8548479332375254
 20
0.5350115214049814
 30
0.0
 10
0.8552795397646232
 20
0.5300396719214034
 30
0.0
 10
0.8554953430281738
 20
0.5275537471796162
 30
0.0
  0
SPLINE
  5
E3B
330
1F
100
AcDbEntity
  8
0
100
AcDbSpline
210
0.0
220
0.0
230
1.0
 70
     8
 71
     3
 72
    14
 73
    10
 74
     0
 42
0.0000000001
 43
0.0000000001
 40
0.0
 40
0.0
 40
0.0
 40
0.0
 40
0.25
 40
0.25
 40
0.5
 40
0.5
 40
0.75
 40
0.75
 40
1.0
 40
1.0
 40
1.0
 40
1.0
 10
0.7707898431984713
 20
0.4786543029818687
 30
0.0
 10
0.7698691629227131
 20
0.4933533857980619
 30
0.0
 10
0.764955576637838
 20
0.5103274684557304
 30
0.0
 10
0.748459434663999
 20
0.5430523711318314
 30
0.0
 10
0.7369057984378915
 20
0.5587365147653705
 30
0.0
 10
0.7106940970118738
 20
0.5834003404449808
 30
0.0
 10
0.6960841237723546
 20
0.5923292536799379
 30
0.0
 10
0.6683706000764711
 20
0.6002610796538575
 30
0.0
 10
0.6553181052475874
 20
0.5992462421870384
 30
0.0
 10
0.6450703866350725
 20
0.5933303559652244
 30
0.0
  0
SPLINE
  5
E3C
330
1F
100
AcDbEntity
  8
0
100
AcDbSpline
210
0.0
220
0.0
230
1.0
 70
     8
 71
     3
 72
    16
 73
    12
 74
     0
 42
0.0000000001
 43
0.0000000001
 40
0.0
 40
0.0
 40
0.0
 40
0.0
 40
0.0387048231920605
 40
0.1588667202930538
 40
0.279028617394045
 40
0.3991905144950381
 40
0.5193524115960302
 40
0.6395143086970224
 40
0.7596762057980156
 40
0.8798381028990066
 40
1.0
 40
1.0
 40
1.0
 40
1.0
 10
0.7252808334785211
 20
0.4203662503176444
 30
0.0
 10
0.7257524069640442
 20
0.4206052889922694
 30
0.0
 10
0.7276880141272737
 20
0.4215864403612449
 30
0.0
 10
0.7306032014035356
 20
0.4241366831089009
 30
0.0
 10
0.7339645885618072
 20
0.4279870427384145
 30
0.0
 10
0.7367271205272661
 20
0.4326268483826708
 30
0.0
 10
0.7388996106026755
 20
0.437934527014142
 30
0.0
 10
0.7404490554337211
 20
0.4438723363815554
 30
0.0
 10
0.7413423223498615
 20
0.4503821329321261
 30
0.0
 10
0.7416255984848799
 20
0.4573663441782215
 30
0.0
 10
0.741252591303581
 20
0.4623700820722077
 30
0.0
 10
0.7410660877129334
 20
0.4648719510192043
 30
0.0
  0
SPLINE
  5
E3D
330
1F
100
AcDbEntity
  8
0
100
AcDbSpline
210
0.0
220
0.0
230
1.0
 70
     8
 71
     3
 72
    16
 73
    12
 74
     0
 42
0.0000000001
 43
0.0000000001
 40
0.0
 40
0.0
 40
0.0
 40
0.0
 40
0.0801011575418356
 40
0.1950885128491062
 40
0.3100758681563767
 40
0.4250632234636465
 40
0.5400505787709173
 40
0.6550379340781891
 40
0.7700252893854586
 40
0.8850126446927292
 40
1.0
 40
1.0
 40
1.0
 40
1.0
 10
0.7842152128909095
 20
0.4543643337320651
 30
0.0
 10
0.7851114759555738
 20
0.4548860686075669
 30
0.0
 10
0.7872943486352351
 20
0.4561567678594498
 30
0.0
 10
0.7902973187448512
 20
0.4589392717031045
 30
0.0
 10
0.7932494352376583
 20
0.4625722349911348
 30
0.0
 10
0.7957175567622659
 20
0.4668276248222041
 30
0.0
 10
0.7976953763179569
 20
0.4716380190003085
 30
0.0
 10
0.7991620132007955
 20
0.4769685266917554
 30
0.0
 10
0.8000900084358836
 20
0.4827791639050281
 30
0.0
 10
0.8005178473520363
 20
0.4889923887085131
 30
0.0
 10
0.8003410329493011
 20
0.4934393331105183
 30
0.0
 10
0.800252625747937
 20
0.4956628053115209
 30
0.0
  0
SPLINE
  5
E3E
330
1F
100
AcDbEntity
  8
0
100
AcDbSpline
210
0.0
220
0.0
230
1.0
 70
     8
 71
     3
 72
    14
 73
    10
 74
     0
 42
0.0000000001
 43
0.0000000001
 40
0.0
 40
0.0
 40
0.0
 40
0.0
 40
0.25
 40
0.25
 40
0.5
 40
0.5
 40
0.75
 40
0.75
 40
1.0
 40
1.0
 40
1.0
 40
1.0
 10
0.800252625747937
 20
0.4956628053115209
 30
0.0
 10
0.7993319454721788
 20
0.5103618881277141
 30
0.0
 10
0.7944183591873038
 20
0.5273359707853827
 30
0.0
 10
0.7779222172134613
 20
0.5600608734614836
 30
0.0
 10
0.7663685809873538
 20
0.5757450170950263
 30
0.0
 10
0.7401568795613361
 20
0.6004088427746331
 30
0.0
 10
0.7255469063218132
 20
0.6093377560095937
 30
0.0
 10
0.6978333826259333
 20
0.6172695819835097
 30
0.0
 10
0.6847808877970461
 20
0.6162547445166906
 30
0.0
 10
0.6745331691845347
 20
0.6103388582948766
 30
0.0
  0
SPLINE
  5
E3F
330
1F
100
AcDbEntity
  8
0
100
AcDbSpline
210
0.0
220
0.0
230
1.0
 70
     8
 71
     3
 72
    10
 73
     6
 74
     0
 42
0.0000000001
 43
0.0000000001
 40
0.0
 40
0.0
 40
0.0
 40
0.0
 40
0.5
 40
0.5
 40
1.0
 40
1.0
 40
1.0
 40
1.0
 10
0.7547940759929613
 20
0.4372853339475809
 30
0.0
 10
0.7603990860264136
 20
0.4405210401596582
 30
0.0
 10
0.764765192204457
 20
0.4458971693480321
 30
0.0
 10
0.7702688312547532
 20
0.4600663602528022
 30
0.0
 10
0.77140371452608
 20
0.4688535657220987
 30
0.0
 10
0.7707898431984713
 20
0.4786543029818687
 30
0.0
  0
SPLINE
  5
E40
330
1F
100
AcDbEntity
  8
0
100
AcDbSpline
210
0.0
220
0.0
230
1.0
 70
     8
 71
     3
 72
    16
 73
    12
 74
     0
 42
0.0000000001
 43
0.0000000001
 40
0.0
 40
0.0
 40
0.0
 40
0.0
 40
0.125
 40
0.125
 40
0.25
 40
0.25
 40
0.5
 40
0.5
 40
0.75
 40
0.75
 40
1.0
 40
1.0
 40
1.0
 40
1.0
 10
0.6378325896331237
 20
0.4606281738970486
 30
0.0
 10
0.6404236399585979
 20
0.4578856598663626
 30
0.0
 10
0.6430411229940592
 20
0.4551858035030625
 30
0.0
 10
0.648386735322958
 20
0.4501550974489091
 30
0.0
 10
0.6510867385369568
 20
0.4478290546804749
 30
0.0
 10
0.6592762410222047
 20
0.4414738584058489
 30
0.0
 10
0.6649567858165635
 20
0.4380156473900838
 30
0.0
 10
0.6759759448373504
 20
0.4332684446233009
 30
0.0
 10
0.6813645013821126
 20
0.4319332718151676
 30
0.0
 10
0.6915768547704029
 20
0.4313371799108046
 30
0.0
 10
0.6962257467312188
 20
0.4321962184163502
 30
0.0
 10
0.7006954420926728
 20
0.4335086846987748
 30
0.0
  0
LINE
  5
E41
330
1F
100
AcDbEntity
  8
0
100
AcDbLine
 10
0.6311215225228107
 20
0.5361126622717008
 30
0.0
 11
0.6643555412385811
 21
0.5390842843485535
 31
0.0
  0
LINE
  5
E42
330
1F
100
AcDbEntity
  8
0
100
AcDbLine
 10
0.6311215225228107
 20
0.491798236862322
 30
0.0
 11
0.6311215225228107
 21
0.5361126622717008
 31
0.0
  0
LINE
  5
E43
330
1F
100
AcDbEntity
  8
0
100
AcDbLine
 10
0.6643555412385811
 20
0.4504554335297995
 30
0.0
 11
0.6311215225228107
 21
0.491798236862322
 31
0.0
  0
LINE
  5
E44
330
1F
100
AcDbEntity
  8
0
100
AcDbLine
 10
0.6975895599543481
 20
0.4534270556066558
 30
0.0
 11
0.6643555412385811
 21
0.4504554335297995
 31
0.0
  0
LINE
  5
E45
330
1F
100
AcDbEntity
  8
0
100
AcDbLine
 10
0.6975895599543481
 20
0.497741481016031
 30
0.0
 11
0.6975895599543481
 21
0.4534270556066558
 31
0.0
  0
LINE
  5
E46
330
1F
100
AcDbEntity
  8
0
100
AcDbLine
 10
0.6643555412385811
 20
0.5390842843485535
 30
0.0
 11
0.6975895599543481
 21
0.497741481016031
 31
0.0
  0
SPLINE
  5
E47
330
1F
100
AcDbEntity
  8
0
100
AcDbSpline
210
0.0
220
0.0
230
1.0
 70
     8
 71
     3
 72
    12
 73
     8
 74
     0
 42
0.0000000001
 43
0.0000000001
 40
0.0
 40
0.0
 40
0.0
 40
0.0
 40
0.2500000000000001
 40
0.2500000000000001
 40
0.5
 40
0.5
 40
1.0
 40
1.0
 40
1.0
 40
1.0
 10
0.6072560873480515
 20
0.5191695032141004
 30
0.0
 10
0.6083379990832394
 20
0.5140159133057614
 30
0.0
 10
0.609817310599826
 20
0.508847908678006
 30
0.0
 10
0.6135547685836574
 20
0.4984836490614973
 30
0.0
 10
0.6158518786488361
 20
0.4932254289601153
 30
0.0
 10
0.6236868626245591
 20
0.4781179513625125
 30
0.0
 10
0.6303133744818754
 20
0.4685869359668926
 30
0.0
 10
0.6378325896331237
 20
0.4606281738970486
 30
0.0
  0
SPLINE
  5
E48
330
1F
100
AcDbEntity
  8
0
100
AcDbSpline
210
0.0
220
0.0
230
1.0
 70
     8
 71
     3
 72
    19
 73
    15
 74
     0
 42
0.0000000001
 43
0.0000000001
 40
0.0
 40
0.0
 40
0.0
 40
0.0
 40
0.0104813209809567
 40
0.1050725207046588
 40
0.1996639580344169
 40
0.2891667543805674
 40
0.3786694080946398
 40
0.4709201005469438
 40
0.5631694015187806
 40
0.6502400069423584
 40
0.7373101919491904
 40
0.8270467875532409
 40
0.9167820243502431
 40
1.0
 40
1.0
 40
1.0
 40
1.0
 10
0.810254105586949
 20
0.6605703543138999
 30
0.0
 10
0.8104269101909832
 20
0.6605483298222188
 30
0.0
 10
0.8121592314669424
 20
0.6603275400131379
 30
0.0
 10
0.8155748505733587
 20
0.6594101946278342
 30
0.0
 10
0.8203796024385564
 20
0.6578105938916777
 30
0.0
 10
0.8251599593822223
 20
0.6557027547397594
 30
0.0
 10
0.8299130532738661
 20
0.6531734759866046
 30
0.0
 10
0.8346974639727836
 20
0.6501642971659392
 30
0.0
 10
0.8393864945168264
 20
0.6467551239016905
 30
0.0
 10
0.8439004263028945
 20
0.6430217607405089
 30
0.0
 10
0.8482607476087689
 20
0.6389799422313649
 30
0.0
 10
0.8525123909818038
 20
0.6345645027193739
 30
0.0
 10
0.8565403851080578
 20
0.6299350135933244
 30
0.0
 10
0.8590184890649933
 20
0.6266860910401873
 30
0.0
 10
0.860210850813171
 20
0.6251228430722007
 30
0.0
  0
SPLINE
  5
E49
330
1F
100
AcDbEntity
  8
0
100
AcDbSpline
210
0.0
220
0.0
230
1.0
 70
     8
 71
     3
 72
    16
 73
    12
 74
     0
 42
0.0000000001
 43
0.0000000001
 40
0.0
 40
0.0
 40
0.0
 40
0.0
 40
0.1053760722967964
 40
0.2112274659249722
 40
0.3166080386992188
 40
0.4224957925057947
 40
0.5299821382203948
 40
0.6380241942081767
 40
0.763247999947506
 40
0.8893592084628362
 40
1.0
 40
1.0
 40
1.0
 40
1.0
 10
0.860210850813171
 20
0.6251228430722007
 30
0.0
 10
0.861241593487907
 20
0.6236951693905324
 30
0.0
 10
0.8633077282228565
 20
0.6208333821994457
 30
0.0
 10
0.8661784190066189
 20
0.6163707236860843
 30
0.0
 10
0.868869583616998
 20
0.6117987641446723
 30
0.0
 10
0.8713607079098611
 20
0.6071084359933776
 30
0.0
 10
0.8736451117459861
 20
0.6023095795987273
 30
0.0
 10
0.8758119128458968
 20
0.5971725090289786
 30
0.0
 10
0.8777808876016162
 20
0.5917308353725153
 30
0.0
 10
0.8794539895052611
 20
0.5862528971523693
 30
0.0
 10
0.8802426332676059
 20
0.5827182313562167
 30
0.0
 10
0.8806111884227366
 20
0.5810663837628765
 30
0.0
  0
LINE
  5
E4A
330
1F
100
AcDbEntity
  8
0
100
AcDbLine
 10
0.6643555412385811
 20
0.4504554335297995
 30
0.0
 11
0.6975895599543481
 21
0.4696410241576344
 31
0.0
  0
LINE
  5
E4B
330
1F
100
AcDbEntity
  8
0
100
AcDbLine
 10
0.6311215225228107
 20
0.491798236862322
 30
0.0
 11
0.6797845167664174
 21
0.5198907854724438
 31
0.0
  0
SPLINE
  5
E4C
330
1F
100
AcDbEntity
  8
0
100
AcDbSpline
210
0.0
220
0.0
230
1.0
 70
     8
 71
     3
 72
    24
 73
    20
 74
     0
 42
0.0000000001
 43
0.0000000001
 40
0.0
 40
0.0
 40
0.0
 40
0.0
 40
0.010007356184171
 40
0.0741953065499938
 40
0.1383832523648788
 40
0.202571196814351
 40
0.2667591439035388
 40
0.3309470959989386
 40
0.3951350480943365
 40
0.4593229951835216
 40
0.5235109396329944
 40
0.5876988854478779
 40
0.6518868358137025
 40
0.7160747889759309
 40
0.7802627376225314
 40
0.8444506825372641
 40
0.9086386274519981
 40
0.9728265760986001
 40
0.9999999999999998
 40
0.9999999999999998
 40
0.9999999999999998
 40
0.9999999999999998
 10
0.7993654769926937
 20
0.5037532797088558
 30
0.0
 10
0.7994132544571424
 20
0.5040265887587152
 30
0.0
 10
0.7997674802442094
 20
0.5060529230236091
 30
0.0
 10
0.7998145816859643
 20
0.5103423034936681
 30
0.0
 10
0.7994519580006805
 20
0.5165556937771703
 30
0.0
 10
0.7983757626796364
 20
0.5231708984846213
 30
0.0
 10
0.7966688991144717
 20
0.5300334616368821
 30
0.0
 10
0.7943262235733318
 20
0.537067839903215
 30
0.0
 10
0.7913766055586638
 20
0.5441742552674951
 30
0.0
 10
0.7878498912930776
 20
0.5512578967238247
 30
0.0
 10
0.7837852479913426
 20
0.5582226469795471
 30
0.0
 10
0.7792283107388048
 20
0.5649744526961582
 30
0.0
 10
0.7742312214551208
 20
0.5714215306003388
 30
0.0
 10
0.7688517879175581
 20
0.577477460679158
 30
0.0
 10
0.7631527830060807
 20
0.5830556891725065
 30
0.0
 10
0.7572011522665921
 20
0.5880952721930753
 30
0.0
 10
0.7510669777889194
 20
0.5924697958277064
 30
0.0
 10
0.7460233729590722
 20
0.5955894638561672
 30
0.0
 10
0.7430485078285396
 20
0.5969618048357602
 30
0.0
 10
0.7421636998513033
 20
0.5973699773723125
 30
0.0
  0
SPLINE
  5
E4D
330
1F
100
AcDbEntity
  8
0
100
AcDbSpline
210
0.0
220
0.0
230
1.0
 70
     8
 71
     3
 72
    24
 73
    20
 74
     0
 42
0.0000000001
 43
0.0000000001
 40
0.0
 40
0.0
 40
0.0
 40
0.0
 40
0.0002556507289033
 40
0.0643567432521973
 40
0.1284578371390548
 40
0.1925589355706943
 40
0.2566600367949551
 40
0.3207611335096959
 40
0.3848622264976194
 40
0.4489633194855455
 40
0.5130644162002847
 40
0.5771655174245466
 40
0.6412666158561862
 40
0.7053677097430437
 40
0.7694688022663336
 40
0.8335698974257695
 40
0.897670997584643
 40
0.9617720977435169
 40
1.0
 40
1.0
 40
1.0
 40
1.0
 10
0.7699294897058198
 20
0.4865979529980598
 30
0.0
 10
0.7699308070435112
 20
0.4866048578057188
 30
0.0
 10
0.7702624296601424
 20
0.4883430532545879
 30
0.0
 10
0.7703451144271756
 20
0.4923078546807629
 30
0.0
 10
0.7701095736023898
 20
0.4984386797756449
 30
0.0
 10
0.769141987323049
 20
0.505003287889088
 30
0.0
 10
0.7675467942553733
 20
0.5118264335596932
 30
0.0
 10
0.7653112646266354
 20
0.5188388225782346
 30
0.0
 10
0.762464547598007
 20
0.5259394209155906
 30
0.0
 10
0.7590347046778799
 20
0.5330339093682524
 30
0.0
 10
0.7550597588533204
 20
0.5400259252084672
 30
0.0
 10
0.7505841444270334
 20
0.54682106606771
 30
0.0
 10
0.7456589587255347
 20
0.5533270514514177
 30
0.0
 10
0.7403410980021082
 20
0.5594564237841153
 30
0.0
 10
0.7346925111396235
 20
0.5651227625593576
 30
0.0
 10
0.7287795701182343
 20
0.5702599407854292
 30
0.0
 10
0.7226715326351712
 20
0.574755331625723
 30
0.0
 10
0.7172803141866982
 20
0.5781724845946555
 30
0.0
 10
0.713942848596751
 20
0.579768855917652
 30
0.0
 10
0.712696043630952
 20
0.5803652257195671
 30
0.0
  0
SPLINE
  5
E4E
330
1F
100
AcDbEntity
  8
0
100
AcDbSpline
210
0.0
220
0.0
230
1.0
 70
     8
 71
     3
 72
    24
 73
    20
 74
     0
 42
0.0000000001
 43
0.0000000001
 40
0.0
 40
0.0
 40
0.0
 40
0.0
 40
0.0508632073831436
 40
0.1106434878295522
 40
0.1704237656715811
 40
0.2302040392751743
 40
0.2899843116071174
 40
0.3497645863975097
 40
0.4095448658503466
 40
0.4693251453031816
 40
0.5291054200935741
 40
0.5888856924255162
 40
0.6486659660291111
 40
0.7084462438711401
 40
0.7682265243175495
 40
0.8280068005584084
 40
0.8877870733236646
 40
0.9475673460889202
 40
1.0
 40
1.0
 40
1.0
 40
1.0
 10
0.7404141152864905
 20
0.4695155665052786
 30
0.0
 10
0.7405812296864585
 20
0.4710874849434346
 30
0.0
 10
0.7409447561141174
 20
0.4745069023873887
 30
0.0
 10
0.7407208906338237
 20
0.4803555600675713
 30
0.0
 10
0.7398960862065631
 20
0.4868377551075218
 30
0.0
 10
0.7384038612401045
 20
0.4936265478151745
 30
0.0
 10
0.7362785980860412
 20
0.5006120257291072
 30
0.0
 10
0.7335350251555571
 20
0.5077045134395873
 30
0.0
 10
0.7302033388270881
 20
0.5148068431437727
 30
0.0
 10
0.7263193519937406
 20
0.5218233532057175
 30
0.0
 10
0.7219265890039846
 20
0.5286590464591959
 30
0.0
 10
0.7170750114141736
 20
0.5352214345973101
 30
0.0
 10
0.7118205738435602
 20
0.54142136954935
 30
0.0
 10
0.7062243798989374
 20
0.5471750313288757
 30
0.0
 10
0.7003521759124989
 20
0.5524020297912662
 30
0.0
 10
0.6942724935945566
 20
0.5570375408501738
 30
0.0
 10
0.6880595320505978
 20
0.5609918290640819
 30
0.0
 10
0.6820354407021579
 20
0.5641698125994373
 30
0.0
 10
0.6781279008529669
 20
0.5656293214308077
 30
0.0
 10
0.6763020623277174
 20
0.5663112920709308
 30
0.0
  0
SPLINE
  5
E4F
330
1F
100
AcDbEntity
  8
0
100
AcDbSpline
210
0.0
220
0.0
230
1.0
 70
     8
 71
     3
 72
    13
 73
     9
 74
     0
 42
0.0000000001
 43
0.0000000001
 40
0.0
 40
0.0
 40
0.0
 40
0.0
 40
0.0517435137892576
 40
0.2629234682100282
 40
0.4471925992935876
 40
0.6314617311362122
 40
0.8157308644744801
 40
1.0
 40
1.0
 40
1.0
 40
1.0
 10
0.6801412407970023
 20
0.4325299605010527
 30
0.0
 10
0.6805539981219293
 20
0.4323634042379565
 30
0.0
 10
0.6826513351493193
 20
0.4315170846292196
 30
0.0
 10
0.6860544086083596
 20
0.4308560145557961
 30
0.0
 10
0.6902892540512542
 20
0.4304891274926588
 30
0.0
 10
0.6940682378357504
 20
0.4308471699522114
 30
0.0
 10
0.6975918299702637
 20
0.4317831892783586
 30
0.0
 10
0.6996609046365446
 20
0.4329335196067872
 30
0.0
 10
0.7006954419758205
 20
0.4335086847744157
 30
0.0
  0
LINE
  5
E50
330
1F
100
AcDbEntity
  8
0
100
AcDbLine
 10
0.6374326576152885
 20
0.4612781116418701
 30
0.0
 11
0.6378325900104538
 21
0.4606281736150449
 31
0.0
  0
SPLINE
  5
E51
330
1F
100
AcDbEntity
  8
0
100
AcDbSpline
210
0.0
220
0.0
230
1.0
 70
     8
 71
     3
 72
    13
 73
     9
 74
     0
 42
0.0000000001
 43
0.0000000001
 40
0.0
 40
0.0
 40
0.0
 40
0.0
 40
0.0145005247063986
 40
0.2147513303448005
 40
0.415002120365046
 40
0.6152529021500238
 40
0.8155036881947475
 40
1.0
 40
1.0
 40
1.0
 40
1.0
 10
0.8602108502025661
 20
0.6251228425327673
 30
0.0
 10
0.8600815339044768
 20
0.6252689999795989
 30
0.0
 10
0.8581663723767643
 20
0.6274335772471274
 30
0.0
 10
0.8543271103885739
 20
0.6314521472035528
 30
0.0
 10
0.8484901754629202
 20
0.6367612581155404
 30
0.0
 10
0.8424347328357232
 20
0.6414649406413942
 30
0.0
 10
0.8363977890755688
 20
0.6454733254446543
 30
0.0
 10
0.8323816260670962
 20
0.6475237739848252
 30
0.0
 10
0.8304557707018101
 20
0.6485070177709984
 30
0.0
  0
SPLINE
  5
E52
330
1F
100
AcDbEntity
  8
0
100
AcDbSpline
210
0.0
220
0.0
230
1.0
 70
     8
 71
     3
 72
    24
 73
    20
 74
     0
 42
0.0000000001
 43
0.0000000001
 40
0.0
 40
0.0
 40
0.0
 40
0.0
 40
0.0308592230262022
 40
0.0950003066935579
 40
0.1591413929987006
 40
0.2232824843063975
 40
0.2874235756140965
 40
0.3515646619192396
 40
0.4157057455865938
 40
0.4798468306183625
 40
0.5439879201977515
 40
0.6081290125715026
 40
0.6722701004329205
 40
0.7364111845651983
 40
0.8005522686974758
 40
0.8646933565588932
 40
0.9288344489326444
 40
0.9929755385120341
 40
1.0
 40
1.0
 40
1.0
 40
1.0
 10
0.8582659521095191
 20
0.5379077646809974
 30
0.0
 10
0.8583865982479355
 20
0.5387746913450427
 30
0.0
 10
0.8587580081224356
 20
0.5414435303788486
 30
0.0
 10
0.8586884308337193
 20
0.5464566659596449
 30
0.0
 10
0.8580802452758856
 20
0.5528186911125444
 30
0.0
 10
0.8567851818562491
 20
0.5595294431579303
 30
0.0
 10
0.8548569726142321
 20
0.5664619072998205
 30
0.0
 10
0.8523019326948389
 20
0.5735319410817672
 30
0.0
 10
0.8491494013395733
 20
0.5806413636645998
 30
0.0
 10
0.8454324575461772
 20
0.5876947829236228
 30
0.0
 10
0.8411925601423387
 20
0.5945966049513372
 30
0.0
 10
0.8364776473975471
 20
0.6012536020070299
 30
0.0
 10
0.8313419161857883
 20
0.6075750130076996
 30
0.0
 10
0.825844943648828
 20
0.6134768593547611
 30
0.0
 10
0.8200511800643571
 20
0.6188715933181248
 30
0.0
 10
0.8140281927301661
 20
0.6237118146108989
 30
0.0
 10
0.8078492227774557
 20
0.6278319761534901
 30
0.0
 10
0.8034404901770312
 20
0.6304418620863954
 30
0.0
 10
0.8011243938452881
 20
0.631437597952
 30
0.0
 10
0.8008957814163682
 20
0.6315358829808551
 30
0.0
  0
SPLINE
  5
E53
330
1F
100
AcDbEntity
  8
0
100
AcDbSpline
210
0.0
220
0.0
230
1.0
 70
     8
 71
     3
 72
    24
 73
    20
 74
     0
 42
0.0000000001
 43
0.0000000001
 40
0.0
 40
0.0
 40
0.0
 40
0.0
 40
0.020191975426943
 40
0.0843920615907619
 40
0.1485921505515127
 40
0.2127922349957807
 40
0.27699231570748
 40
0.3411923964191783
 40
0.4053924808634467
 40
0.4695925698241993
 40
0.5337926559880173
 40
0.597992737600035
 40
0.6621928178463837
 40
0.7263929007329461
 40
0.7905929886266659
 40
0.854793076520387
 40
0.9189931594069486
 40
0.9831932396532973
 40
1.0
 40
1.0
 40
1.0
 40
1.0
 10
0.8288104555639424
 20
0.5208593387641179
 30
0.0
 10
0.8288984057654356
 20
0.5214181925114004
 30
0.0
 10
0.8292659923271617
 20
0.523753913453187
 30
0.0
 10
0.8292620976383165
 20
0.5283923202103713
 30
0.0
 10
0.8287755921345333
 20
0.5346824354961007
 30
0.0
 10
0.8275901226225666
 20
0.5413464592405211
 30
0.0
 10
0.8257722558970886
 20
0.5482454439705249
 30
0.0
 10
0.8233230537681418
 20
0.5552990460755565
 30
0.0
 10
0.8202714982195185
 20
0.5624084005590531
 30
0.0
 10
0.8166490776110816
 20
0.5694783528764225
 30
0.0
 10
0.8124961004461358
 20
0.5764130334477846
 30
0.0
 10
0.8078593807182517
 20
0.5831187814085537
 30
0.0
 10
0.8027920966190574
 20
0.5895043239512026
 30
0.0
 10
0.7973529570514831
 20
0.5954844015802641
 30
0.0
 10
0.791605556398554
 20
0.6009721149056189
 30
0.0
 10
0.7856172466939522
 20
0.6059126203116306
 30
0.0
 10
0.7794593878421625
 20
0.6101623303015371
 30
0.0
 10
0.7747419532629248
 20
0.613013691147013
 30
0.0
 10
0.7721061199912778
 20
0.6141868230481747
 30
0.0
 10
0.7715592548403083
 20
0.6144302166501659
 30
0.0
  0
DIMENSION
  5
E54
330
1F
100
AcDbEntity
  8
DIM
100
AcDbDimension
  2
*D7
 10
0.0890106600967851
 20
0.3978114420085839
 30
0.0
 11
0.2031048363292883
 21
0.4075378186231318
 31
0.0
 70
    32
 71
     5
 42
0.2281883524650065
 73
     0
 74
     0
 75
     0
  3
Standard
100
AcDbAlignedDimension
 13
0.3171990125617916
 23
0.2943968722831431
 33
0.0
 14
0.0890106600967851
 24
0.3120378066611781
 34
0.0
100
AcDbRotatedDimension
  0
DIMENSION
  5
E61
330
1F
100
AcDbEntity
  8
DIM
100
AcDbDimension
  2
*D8
 10
0.0671990125617881
 20
0.4468368747043325
 30
0.0
 11
0.1921990125617898
 21
0.4565632513188806
 31
0.0
 70
    32
 71
     5
 42
0.2500000000000035
 73
     0
 74
     0
 75
     0
  3
Standard
100
AcDbAlignedDimension
 13
0.3171990125617916
 23
0.2943968722831431
 33
0.0
 14
0.0671990125617881
 24
0.3248254437117122
 34
0.0
100
AcDbRotatedDimension
  0
DIMENSION
  5
E6E
330
1F
100
AcDbEntity
  8
DIM
100
AcDbDimension
  2
*D9
 10
0.390317470467648
 20
0.1483968722831423
 30
0.0
 11
0.3805910938530999
 21
0.2433968722831413
 31
0.0
 70
    32
 71
     5
 42
0.1899999999999977
 73
     0
 74
     0
 75
     0
  3
Standard
100
AcDbAlignedDimension
 13
0.2763656870572961
 23
0.3383968722831401
 33
0.0
 14
0.2555323458952219
 24
0.1483968722831424
 34
0.0
 50
90.0
100
AcDbRotatedDimension
  0
DIMENSION
  5
E7B
330
1F
100
AcDbEntity
  8
DIM
100
AcDbDimension
  2
*D10
 10
0.8238071449817859
 20
0.3822471372670324
 30
0.0
 11
0.7288071449817846
 21
0.3919735138815804
 31
0.0
 70
    32
 71
     5
 42
0.1900000000000029
 73
     0
 74
     0
 75
     0
  3
Standard
100
AcDbAlignedDimension
 13
0.6338071449817831
 23
0.2433968722831412
 33
0.0
 14
0.8238071449817859
 24
0.2433968722831412
 34
0.0
100
AcDbRotatedDimension
  0
TEXT
  5
E8D
330
1F
100
AcDbEntity
  8
FORMAT
 62
     7
100
AcDbText
 10
0.1669497404261222
 20
0.1229475125869549
 30
0.0
 40
0.012
  1
TOP
100
AcDbText
  0
TEXT
  5
E93
330
1F
100
AcDbEntity
  8
FORMAT
 62
     7
100
AcDbText
 10
0.7086961539105021
 20
0.1254224097948712
 30
0.0
 40
0.012
  1
FRONT
100
AcDbText
  0
ENDSEC
  0
SECTION
  2
OBJECTS
  0
DICTIONARY
  5
C
330
0
100
AcDbDictionary
281
     1
  3
ACAD_COLOR
350
FC
  3
ACAD_GROUP
350
D
  3
ACAD_LAYOUT
350
1A
  3
ACAD_MATERIAL
350
E7
  3
ACAD_MLINESTYLE
350
17
  3
ACAD_PLOTSETTINGS
350
19
  3
ACAD_PLOTSTYLENAME
350
E
  3
ACAD_TABLESTYLE
350
FD
  3
ACAD_VISUALSTYLE
350
EB
  3
AcDbVariableDictionary
350
3CB
  0
DICTIONARY
  5
4DC
330
8
100
AcDbDictionary
280
     1
281
     1
  0
DICTIONARY
  5
61E
330
2
100
AcDbDictionary
280
     1
281
     1
  3
ACAD_LAYERFILTERS
360
622
  3
ACLYDICTIONARY
360
621
  0
DICTIONARY
  5
40A
330
409
100
AcDbDictionary
280
     1
281
     1
  3
ACAD_SORTENTS
360
40B
  0
DICTIONARY
  5
FC
102
{ACAD_REACTORS
330
C
102
}
330
C
100
AcDbDictionary
281
     1
  0
DICTIONARY
  5
D
102
{ACAD_REACTORS
330
C
102
}
330
C
100
AcDbDictionary
281
     1
  0
DICTIONARY
  5
1A
102
{ACAD_REACTORS
330
C
102
}
330
C
100
AcDbDictionary
281
     1
  3
Layout1
350
1E
  3
Layout2
350
26
  3
Model
350
22
  0
DICTIONARY
  5
E7
102
{ACAD_REACTORS
330
C
102
}
330
C
100
AcDbDictionary
281
     1
  3
ByBlock
350
E9
  3
ByLayer
350
E8
  3
Global
350
EA
  0
DICTIONARY
  5
17
102
{ACAD_REACTORS
330
C
102
}
330
C
100
AcDbDictionary
281
     1
  3
Standard
350
18
  0
DICTIONARY
  5
19
102
{ACAD_REACTORS
330
C
102
}
330
C
100
AcDbDictionary
281
     1
  3
JPG
350
C06
  3
PDF
350
BFD
  0
ACDBDICTIONARYWDFLT
  5
E
102
{ACAD_REACTORS
330
C
102
}
330
C
100
AcDbDictionary
281
     1
  3
Normal
350
F
100
AcDbDictionaryWithDefault
340
F
  0
DICTIONARY
  5
FD
102
{ACAD_REACTORS
330
C
102
}
330
C
100
AcDbDictionary
281
     1
  3
Standard
350
FE
  0
DICTIONARY
  5
EB
102
{ACAD_REACTORS
330
C
102
}
330
C
100
AcDbDictionary
281
     1
  3
2dWireframe
350
F1
  3
3D Hidden
350
F3
  3
3dWireframe
350
F2
  3
Basic
350
F0
  3
Brighten
350
F7
  3
ColorChange
350
FB
  3
Conceptual
350
F4
  3
Dim
350
F6
  3
Facepattern
350
FA
  3
Flat
350
EC
  3
FlatWithEdges
350
ED
  3
Gouraud
350
EE
  3
GouraudWithEdges
350
EF
  3
Linepattern
350
F9
  3
Realistic
350
F5
  3
Thicken
350
F8
  0
DICTIONARY
  5
3CB
102
{ACAD_REACTORS
330
C
102
}
330
C
100
AcDbDictionary
281
     1
  3
CTABLESTYLE
350
3CC
  0
DICTIONARY
  5
622
102
{ACAD_REACTORS
330
61E
102
}
330
61E
100
AcDbDictionary
281
     1
  0
DICTIONARY
  5
621
102
{ACAD_REACTORS
330
61E
102
}
330
61E
100
AcDbDictionary
281
     1
1001
ACAD
1000
<All
  0
SORTENTSTABLE
  5
40B
102
{ACAD_REACTORS
330
40A
102
}
330
40A
100
AcDbSortentsTable
330
409
331
40F
  5
6D
331
40D
  5
6A
331
410
  5
69
331
40E
  5
6B
  0
LAYOUT
  5
1E
102
{ACAD_REACTORS
330
1A
102
}
330
1A
100
AcDbPlotSettings
  1

  2
none_device
  4

  6

 40
0.0
 41
0.0
 42
0.0
 43
0.0
 44
0.0
 45
0.0
 46
0.0
 47
0.0
 48
0.0
 49
0.0
140
0.0
141
0.0
142
1.0
143
1.0
 70
   688
 72
     0
 73
     0
 74
     5
  7

 75
    16
147
1.0
 76
     0
 77
     2
 78
   300
148
0.0
149
0.0
100
AcDbLayout
  1
Layout1
 70
     1
 71
     1
 10
0.0
 20
0.0
 11
12.0
 21
9.0
 12
0.0
 22
0.0
 32
0.0
 14
1.000000000000000E+20
 24
1.000000000000000E+20
 34
1.000000000000000E+20
 15
-1.000000000000000E+20
 25
-1.000000000000000E+20
 35
-1.000000000000000E+20
146
0.0
 13
0.0
 23
0.0
 33
0.0
 16
1.0
 26
0.0
 36
0.0
 17
0.0
 27
1.0
 37
0.0
 76
     0
330
1B
  0
LAYOUT
  5
26
102
{ACAD_REACTORS
330
1A
102
}
330
1A
100
AcDbPlotSettings
  1

  2
none_device
  4

  6

 40
0.0
 41
0.0
 42
0.0
 43
0.0
 44
0.0
 45
0.0
 46
0.0
 47
0.0
 48
0.0
 49
0.0
140
0.0
141
0.0
142
1.0
143
1.0
 70
   688
 72
     0
 73
     0
 74
     5
  7

 75
    16
147
1.0
 76
     0
 77
     2
 78
   300
148
0.0
149
0.0
100
AcDbLayout
  1
Layout2
 70
     1
 71
     2
 10
0.0
 20
0.0
 11
0.0
 21
0.0
 12
0.0
 22
0.0
 32
0.0
 14
0.0
 24
0.0
 34
0.0
 15
0.0
 25
0.0
 35
0.0
146
0.0
 13
0.0
 23
0.0
 33
0.0
 16
1.0
 26
0.0
 36
0.0
 17
0.0
 27
1.0
 37
0.0
 76
     0
330
23
  0
LAYOUT
  5
22
102
{ACAD_REACTORS
330
1A
102
}
330
1A
100
AcDbPlotSettings
  1

  2
none_device
  4
Letter_(8.50_x_11.00_Inches)
  6

 40
6.349999904632568
 41
6.349999904632568
 42
6.350006103515625
 43
6.350006103515625
 44
215.8999938964844
 45
279.3999938964844
 46
0.0
 47
0.0
 48
0.0
 49
0.0
140
0.0
141
0.0
142
1.0
143
2.383658744906425
 70
 11952
 72
     0
 73
     1
 74
     0
  7

 75
     0
147
0.4195231394329716
 76
     0
 77
     2
 78
   300
148
135.2900774710282
149
-27.52084133435472
100
AcDbLayout
  1
Model
 70
     1
 71
     0
 10
0.0
 20
0.0
 11
16.53543307086614
 21
11.69291338582677
 12
0.0
 22
0.0
 32
0.0
 14
0.0
 24
0.0
 34
0.0
 15
16.53543307086614
 25
11.69291338582677
 35
0.0
146
0.0
 13
0.0
 23
0.0
 33
0.0
 16
1.0
 26
0.0
 36
0.0
 17
0.0
 27
1.0
 37
0.0
 76
     0
330
1F
331
29
1001
ACAD_PSEXT
1000
None
1000
None
1000
Not applicable
1000
The layout will not be plotted unless a new plotter configuration name is selected.
1070
     0
  0
MATERIAL
  5
E9
102
{ACAD_REACTORS
330
E7
102
}
330
E7
100
AcDbMaterial
  1
ByBlock
  0
MATERIAL
  5
E8
102
{ACAD_REACTORS
330
E7
102
}
330
E7
100
AcDbMaterial
  1
ByLayer
  0
MATERIAL
  5
EA
102
{ACAD_REACTORS
330
E7
102
}
330
E7
100
AcDbMaterial
  1
Global
  0
MLINESTYLE
  5
18
102
{ACAD_REACTORS
330
17
102
}
330
17
100
AcDbMlineStyle
  2
STANDARD
 70
     0
  3

 62
   256
 51
90.0
 52
90.0
 71
     2
 49
0.5
 62
   256
  6
BYLAYER
 49
-0.5
 62
   256
  6
BYLAYER
  0
PLOTSETTINGS
  5
C06
102
{ACAD_REACTORS
330
19
102
}
330
19
100
AcDbPlotSettings
  1
JPG
  2
PublishToWeb JPG.pc3
  4
User-1
  6

 40
75.0
 41
75.0
 42
75.000244140625
 43
75.000244140625
 44
2550.0
 45
3300.0
 46
7.281523769336217
 47
0.0
 48
0.0
 49
0.0
140
1.5635064362559
141
1.184014582795735
142
1.0
143
0.0004963512880747
 70
 11956
 72
     2
 73
     1
 74
     4
  7

 75
     0
147
2014.702135414691
 76
     0
 77
     2
 78
   300
148
0.0
149
0.0
1001
ACAD_PSEXT
1000
PublishToWeb JPG.pc3
1000
Independent JPEG Group JFIF (JPEG Compression)
1000
File
1000

1070
     0
  0
PLOTSETTINGS
  5
BFD
102
{ACAD_REACTORS
330
19
102
}
330
19
100
AcDbPlotSettings
  1
PDF
  2
DWG To PDF.pc3
  4
ISO_expand_A1_(841.00_x_594.00_MM)
  6

 40
5.793749809265136
 41
10.79374980926513
 42
5.79376220703125
 43
10.79376220703125
 44
841.0
 45
594.0
 46
36.76722948979284
 47
0.0
 48
0.0
 49
0.0
140
1.5635064362559
141
1.184014582795735
142
1.0
143
0.0020684639270649
 70
 11956
 72
     1
 73
     0
 74
     4
  7

 75
     0
147
483.4505387865272
 76
     0
 77
     2
 78
   300
148
0.0
149
0.0
1001
ACAD_PSEXT
1000
DWG To PDF.pc3
1000
PDF
1000
File
1000

1070
     0
  0
ACDBPLACEHOLDER
  5
F
102
{ACAD_REACTORS
330
E
102
}
330
E
  0
TABLESTYLE
  5
FE
102
{ACAD_REACTORS
330
FD
102
}
330
FD
100
AcDbTableStyle
  3
Standard
 70
     0
 71
     0
 40
0.06
 41
0.06
280
     0
281
     0
  7
Standard
140
0.18
170
     2
 62
     0
 63
     7
283
     0
 90
      512
 91
        0
  1

274
    -2
284
     1
 64
     0
275
    -2
285
     1
 65
     0
276
    -2
286
     1
 66
     0
277
    -2
287
     1
 67
     0
278
    -2
288
     1
 68
     0
279
    -2
289
     1
 69
     0
  7
Standard
140
0.25
170
     5
 62
     0
 63
     7
283
     0
 90
      512
 91
        0
  1

274
    -2
284
     1
 64
     0
275
    -2
285
     1
 65
     0
276
    -2
286
     1
 66
     0
277
    -2
287
     1
 67
     0
278
    -2
288
     1
 68
     0
279
    -2
289
     1
 69
     0
  7
Standard
140
0.18
170
     5
 62
     0
 63
     7
283
     0
 90
      512
 91
        0
  1

274
    -2
284
     1
 64
     0
275
    -2
285
     1
 65
     0
276
    -2
286
     1
 66
     0
277
    -2
287
     1
 67
     0
278
    -2
288
     1
 68
     0
279
    -2
289
     1
 69
     0
  0
VISUALSTYLE
  5
F1
102
{ACAD_REACTORS
330
EB
102
}
330
EB
100
AcDbVisualStyle
  2
2dWireframe
 70
     4
 71
     0
 72
     2
 73
     0
 90
        0
 40
-0.6
 41
-30.0
 62
     5
 63
     7
421
 16777215
 74
     1
 91
        4
 64
     7
 65
   257
 75
     1
175
     1
 42
1.0
 92
        0
 66
   257
 43
1.0
 76
     1
 77
     6
 78
     2
 67
     7
 79
     5
170
     0
171
     0
290
     0
174
     0
 93
        1
 44
0.0
173
     0
291
     0
 45
0.0
  0
VISUALSTYLE
  5
F3
102
{ACAD_REACTORS
330
EB
102
}
330
EB
100
AcDbVisualStyle
  2
3D Hidden
 70
     6
 71
     1
 72
     2
 73
     2
 90
        0
 40
-0.6
 41
-30.0
 62
     5
 63
     7
421
 16777215
 74
     2
 91
        2
 64
     7
 65
   257
 75
     2
175
     1
 42
40.0
 92
        0
 66
   257
 43
1.0
 76
     1
 77
     6
 78
     2
 67
     7
 79
     3
170
     0
171
     0
290
     0
174
     0
 93
        1
 44
0.0
173
     0
291
     0
 45
0.0
  0
VISUALSTYLE
  5
F2
102
{ACAD_REACTORS
330
EB
102
}
330
EB
100
AcDbVisualStyle
  2
3dWireframe
 70
     5
 71
     0
 72
     2
 73
     0
 90
        0
 40
-0.6
 41
-30.0
 62
     5
 63
     7
421
 16777215
 74
     1
 91
        4
 64
     7
 65
   257
 75
     1
175
     1
 42
1.0
 92
        0
 66
   257
 43
1.0
 76
     1
 77
     6
 78
     2
 67
     7
 79
     5
170
     0
171
     0
290
     0
174
     0
 93
        1
 44
0.0
173
     0
291
     0
 45
0.0
  0
VISUALSTYLE
  5
F0
102
{ACAD_REACTORS
330
EB
102
}
330
EB
100
AcDbVisualStyle
  2
Basic
 70
     7
 71
     1
 72
     0
 73
     1
 90
        0
 40
-0.6
 41
-30.0
 62
     5
 63
     7
421
 16777215
 74
     0
 91
        4
 64
     7
 65
   257
 75
     1
175
     1
 42
1.0
 92
        8
 66
     7
 43
1.0
 76
     1
 77
     6
 78
     2
 67
     7
 79
     5
170
     0
171
     0
290
     0
174
     0
 93
        1
 44
0.0
173
     0
291
     1
 45
0.0
  0
VISUALSTYLE
  5
F7
102
{ACAD_REACTORS
330
EB
102
}
330
EB
100
AcDbVisualStyle
  2
Brighten
 70
    12
 71
     2
 72
     2
 73
     0
 90
        0
 40
-0.6
 41
-30.0
 62
     5
 63
     7
421
 16777215
 74
     1
 91
        4
 64
     7
 65
   257
 75
     1
175
     1
 42
1.0
 92
        8
 66
     7
 43
1.0
 76
     1
 77
     6
 78
     2
 67
     7
 79
     5
170
     0
171
     0
290
     0
174
     0
 93
        1
 44
50.0
173
     0
291
     1
 45
0.0
  0
VISUALSTYLE
  5
FB
102
{ACAD_REACTORS
330
EB
102
}
330
EB
100
AcDbVisualStyle
  2
ColorChange
 70
    16
 71
     2
 72
     2
 73
     3
 90
        0
 40
-0.6
 41
-30.0
 62
     5
 63
     8
421
  8421504
 74
     1
 91
        4
 64
     7
 65
   257
 75
     1
175
     1
 42
1.0
 92
        8
 66
     8
424
  8421504
 43
1.0
 76
     1
 77
     6
 78
     2
 67
     7
 79
     5
170
     0
171
     0
290
     0
174
     0
 93
        1
 44
0.0
173
     0
291
     1
 45
0.0
  0
VISUALSTYLE
  5
F4
102
{ACAD_REACTORS
330
EB
102
}
330
EB
100
AcDbVisualStyle
  2
Conceptual
 70
     9
 71
     3
 72
     2
 73
     0
 90
        0
 40
-0.6
 41
-30.0
 62
     5
 63
     7
421
 16777215
 74
     2
 91
        2
 64
     7
 65
   257
 75
     1
175
     1
 42
40.0
 92
        8
 66
     7
 43
1.0
 76
     1
 77
     6
 78
     2
 67
     7
 79
     3
170
     0
171
     0
290
     0
174
     0
 93
        1
 44
0.0
173
     0
291
     0
 45
0.0
  0
VISUALSTYLE
  5
F6
102
{ACAD_REACTORS
330
EB
102
}
330
EB
100
AcDbVisualStyle
  2
Dim
 70
    11
 71
     2
 72
     2
 73
     0
 90
        0
 40
-0.6
 41
-30.0
 62
     5
 63
     7
421
 16777215
 74
     1
 91
        4
 64
     7
 65
   257
 75
     1
175
     1
 42
1.0
 92
        8
 66
     7
 43
1.0
 76
     1
 77
     6
 78
     2
 67
     7
 79
     5
170
     0
171
     0
290
     0
174
     0
 93
        1
 44
-50.0
173
     0
291
     1
 45
0.0
  0
VISUALSTYLE
  5
FA
102
{ACAD_REACTORS
330
EB
102
}
330
EB
100
AcDbVisualStyle
  2
Facepattern
 70
    15
 71
     2
 72
     2
 73
     0
 90
        0
 40
-0.6
 41
-30.0
 62
     5
 63
     7
421
 16777215
 74
     1
 91
        4
 64
     7
 65
   257
 75
     1
175
     1
 42
1.0
 92
        8
 66
     7
 43
1.0
 76
     1
 77
     6
 78
     2
 67
     7
 79
     5
170
     0
171
     0
290
     0
174
     0
 93
        1
 44
0.0
173
     0
291
     1
 45
0.0
  0
VISUALSTYLE
  5
EC
102
{ACAD_REACTORS
330
EB
102
}
330
EB
100
AcDbVisualStyle
  2
Flat
 70
     0
 71
     2
 72
     1
 73
     1
 90
        2
 40
-0.6
 41
30.0
 62
     5
 63
     7
421
 16777215
 74
     0
 91
        4
 64
     7
 65
   257
 75
     1
175
     1
 42
1.0
 92
        8
 66
     7
 43
1.0
 76
     1
 77
     6
 78
     2
 67
     7
 79
     5
170
     0
171
     0
290
     0
174
     0
 93
       13
 44
0.0
173
     0
291
     1
 45
0.0
  0
VISUALSTYLE
  5
ED
102
{ACAD_REACTORS
330
EB
102
}
330
EB
100
AcDbVisualStyle
  2
FlatWithEdges
 70
     1
 71
     2
 72
     1
 73
     1
 90
        2
 40
-0.6
 41
30.0
 62
     5
 63
     7
421
 16777215
 74
     1
 91
        4
 64
     7
 65
   257
 75
     1
175
     1
 42
1.0
 92
        0
 66
   257
 43
1.0
 76
     1
 77
     6
 78
     2
 67
     7
 79
     5
170
     0
171
     0
290
     0
174
     0
 93
       13
 44
0.0
173
     0
291
     1
 45
0.0
  0
VISUALSTYLE
  5
EE
102
{ACAD_REACTORS
330
EB
102
}
330
EB
100
AcDbVisualStyle
  2
Gouraud
 70
     2
 71
     2
 72
     2
 73
     1
 90
        2
 40
-0.6
 41
30.0
 62
     5
 63
     7
421
 16777215
 74
     0
 91
        4
 64
     7
 65
   257
 75
     1
175
     1
 42
1.0
 92
        0
 66
     7
 43
1.0
 76
     1
 77
     6
 78
     2
 67
     7
 79
     5
170
     0
171
     0
290
     0
174
     0
 93
       13
 44
0.0
173
     0
291
     1
 45
0.0
  0
VISUALSTYLE
  5
EF
102
{ACAD_REACTORS
330
EB
102
}
330
EB
100
AcDbVisualStyle
  2
GouraudWithEdges
 70
     3
 71
     2
 72
     2
 73
     1
 90
        2
 40
-0.6
 41
30.0
 62
     5
 63
     7
421
 16777215
 74
     1
 91
        4
 64
     7
 65
   257
 75
     1
175
     1
 42
1.0
 92
        0
 66
   257
 43
1.0
 76
     1
 77
     6
 78
     2
 67
     7
 79
     5
170
     0
171
     0
290
     0
174
     0
 93
       13
 44
0.0
173
     0
291
     1
 45
0.0
  0
VISUALSTYLE
  5
F9
102
{ACAD_REACTORS
330
EB
102
}
330
EB
100
AcDbVisualStyle
  2
Linepattern
 70
    14
 71
     2
 72
     2
 73
     0
 90
        0
 40
-0.6
 41
-30.0
 62
     5
 63
     7
421
 16777215
 74
     1
 91
        4
 64
     7
 65
   257
 75
     7
175
     7
 42
1.0
 92
        8
 66
     7
 43
1.0
 76
     1
 77
     6
 78
     2
 67
     7
 79
     5
170
     0
171
     0
290
     0
174
     0
 93
        1
 44
0.0
173
     0
291
     1
 45
0.0
  0
VISUALSTYLE
  5
F5
102
{ACAD_REACTORS
330
EB
102
}
330
EB
100
AcDbVisualStyle
  2
Realistic
 70
     8
 71
     2
 72
     2
 73
     0
 90
        0
 40
-0.6
 41
-30.0
 62
     5
 63
     7
421
 16777215
 74
     1
 91
        0
 64
     7
 65
   257
 75
     1
175
     1
 42
1.0
 92
        8
 66
     8
424
  7895160
 43
1.0
 76
     1
 77
     6
 78
     2
 67
     7
 79
     5
170
     0
171
     0
290
     0
174
     0
 93
       13
 44
0.0
173
     0
291
     0
 45
0.0
  0
VISUALSTYLE
  5
F8
102
{ACAD_REACTORS
330
EB
102
}
330
EB
100
AcDbVisualStyle
  2
Thicken
 70
    13
 71
     2
 72
     2
 73
     0
 90
        0
 40
-0.6
 41
-30.0
 62
     5
 63
     7
421
 16777215
 74
     1
 91
        4
 64
     7
 65
   257
 75
     1
175
     1
 42
1.0
 92
       12
 66
     7
 43
1.0
 76
     1
 77
     6
 78
     2
 67
     7
 79
     5
170
     0
171
     0
290
     0
174
     0
 93
        1
 44
0.0
173
     0
291
     1
 45
0.0
  0
DICTIONARYVAR
  5
3CC
102
{ACAD_REACTORS
330
3CB
102
}
330
3CB
100
DictionaryVariables
280
     0
  1
STANDARD
  0
ENDSEC
  0
EOF
