  0
SECTION
  2
HEADER
  9
$ACADVER
  1
AC1021
  9
$ACADMAINTVER
 70
     1
  9
$DWGCODEPAGE
  3
ANSI_1252
  9
$AUTHOR
  1
‘Created by Cad / Cam Services, Inc. for Amazon Services LLC on November, 2012’
  9
$LASTSAVEDBY
  1
AE-18
  9
$INSBASE
 10
0.0
 20
0.0
 30
0.0
  9
$EXTMIN
 10
-0.0012462769336707
 20
-0.00071363523519
 30
-0.0000000349181948
  9
$EXTMAX
 10
0.7822135218485542
 20
0.5925499536546966
 30
0.0000000814935746
  9
$LIMMIN
 10
0.0
 20
0.0
  9
$LIMMAX
 10
16.53543307086614
 20
11.69291338582677
  9
$ORTHOMODE
 70
     1
  9
$REGENMODE
 70
     1
  9
$FILLMODE
 70
     1
  9
$QTEXTMODE
 70
     0
  9
$MIRRTEXT
 70
     1
  9
$LTSCALE
 40
1.0
  9
$ATTMODE
 70
     1
  9
$TEXTSIZE
 40
0.2
  9
$TRACEWID
 40
0.05
  9
$TEXTSTYLE
  7
SLDTEXTSTYLE0
  9
$CLAYER
  8
DIM
  9
$CELTYPE
  6
ByLayer
  9
$CECOLOR
 62
   256
  9
$CELTSCALE
 40
1.0
  9
$DISPSILH
 70
     0
  9
$DIMSCALE
 40
1.0
  9
$DIMASZ
 40
0.01
  9
$DIMEXO
 40
0.005
  9
$DIMDLI
 40
0.38
  9
$DIMRND
 40
0.0
  9
$DIMDLE
 40
0.0
  9
$DIMEXE
 40
0.005
  9
$DIMTP
 40
0.0
  9
$DIMTM
 40
0.0
  9
$DIMTXT
 40
0.01
  9
$DIMCEN
 40
0.09
  9
$DIMTSZ
 40
0.0
  9
$DIMTOL
 70
     0
  9
$DIMLIM
 70
     0
  9
$DIMTIH
 70
     0
  9
$DIMTOH
 70
     0
  9
$DIMSE1
 70
     0
  9
$DIMSE2
 70
     0
  9
$DIMTAD
 70
     1
  9
$DIMZIN
 70
     0
  9
$DIMBLK
  1

  9
$DIMASO
 70
     1
  9
$DIMSHO
 70
     1
  9
$DIMPOST
  1

  9
$DIMAPOST
  1

  9
$DIMALT
 70
     0
  9
$DIMALTD
 70
     2
  9
$DIMALTF
 40
25.4
  9
$DIMLFAC
 40
1.0
  9
$DIMTOFL
 70
     1
  9
$DIMTVP
 40
0.0
  9
$DIMTIX
 70
     0
  9
$DIMSOXD
 70
     0
  9
$DIMSAH
 70
     0
  9
$DIMBLK1
  1

  9
$DIMBLK2
  1

  9
$DIMSTYLE
  2
Standard
  9
$DIMCLRD
 70
     0
  9
$DIMCLRE
 70
     0
  9
$DIMCLRT
 70
     0
  9
$DIMTFAC
 40
1.0
  9
$DIMGAP
 40
0.003
  9
$DIMJUST
 70
     0
  9
$DIMSD1
 70
     0
  9
$DIMSD2
 70
     0
  9
$DIMTOLJ
 70
     1
  9
$DIMTZIN
 70
     0
  9
$DIMALTZ
 70
     0
  9
$DIMALTTZ
 70
     0
  9
$DIMUPT
 70
     0
  9
$DIMDEC
 70
     2
  9
$DIMTDEC
 70
     2
  9
$DIMALTU
 70
     2
  9
$DIMALTTD
 70
     2
  9
$DIMTXSTY
  7
Standard
  9
$DIMAUNIT
 70
     0
  9
$DIMADEC
 70
     0
  9
$DIMALTRND
 40
0.0
  9
$DIMAZIN
 70
     0
  9
$DIMDSEP
 70
    46
  9
$DIMATFIT
 70
     3
  9
$DIMFRAC
 70
     0
  9
$DIMLDRBLK
  1

  9
$DIMLUNIT
 70
     2
  9
$DIMLWD
 70
    -2
  9
$DIMLWE
 70
    -2
  9
$DIMTMOVE
 70
     0
  9
$DIMFXL
 40
1.0
  9
$DIMFXLON
 70
     0
  9
$DIMJOGANG
 40
0.7853981633974483
  9
$DIMTFILL
 70
     0
  9
$DIMTFILLCLR
 70
     0
  9
$DIMARCSYM
 70
     0
  9
$DIMLTYPE
  6

  9
$DIMLTEX1
  6

  9
$DIMLTEX2
  6

  9
$LUNITS
 70
     2
  9
$LUPREC
 70
     2
  9
$SKETCHINC
 40
0.1
  9
$FILLETRAD
 40
0.5
  9
$AUNITS
 70
     0
  9
$AUPREC
 70
     2
  9
$MENU
  1
.
  9
$ELEVATION
 40
0.0
  9
$PELEVATION
 40
0.0
  9
$THICKNESS
 40
0.0
  9
$LIMCHECK
 70
     0
  9
$CHAMFERA
 40
0.5
  9
$CHAMFERB
 40
0.5
  9
$CHAMFERC
 40
1.0
  9
$CHAMFERD
 40
0.0
  9
$SKPOLY
 70
     0
  9
$TDCREATE
 40
2456507.519333044
  9
$TDUCREATE
 40
2456507.290166377
  9
$TDUPDATE
 40
2456507.522542674
  9
$TDUUPDATE
 40
2456507.293376007
  9
$TDINDWG
 40
0.0025848148
  9
$TDUSRTIMER
 40
0.0025846296
  9
$USRTIMER
 70
     1
  9
$ANGBASE
 50
0.0
  9
$ANGDIR
 70
     0
  9
$PDMODE
 70
     0
  9
$PDSIZE
 40
-1.0
  9
$PLINEWID
 40
0.0
  9
$SPLFRAME
 70
     0
  9
$SPLINETYPE
 70
     6
  9
$SPLINESEGS
 70
     8
  9
$HANDSEED
  5
EDE
  9
$SURFTAB1
 70
     6
  9
$SURFTAB2
 70
     6
  9
$SURFTYPE
 70
     6
  9
$SURFU
 70
     6
  9
$SURFV
 70
     6
  9
$UCSBASE
  2

  9
$UCSNAME
  2

  9
$UCSORG
 10
0.0
 20
0.0
 30
0.0
  9
$UCSXDIR
 10
1.0
 20
0.0
 30
0.0
  9
$UCSYDIR
 10
0.0
 20
1.0
 30
0.0
  9
$UCSORTHOREF
  2

  9
$UCSORTHOVIEW
 70
     0
  9
$UCSORGTOP
 10
0.0
 20
0.0
 30
0.0
  9
$UCSORGBOTTOM
 10
0.0
 20
0.0
 30
0.0
  9
$UCSORGLEFT
 10
0.0
 20
0.0
 30
0.0
  9
$UCSORGRIGHT
 10
0.0
 20
0.0
 30
0.0
  9
$UCSORGFRONT
 10
0.0
 20
0.0
 30
0.0
  9
$UCSORGBACK
 10
0.0
 20
0.0
 30
0.0
  9
$PUCSBASE
  2

  9
$PUCSNAME
  2

  9
$PUCSORG
 10
0.0
 20
0.0
 30
0.0
  9
$PUCSXDIR
 10
1.0
 20
0.0
 30
0.0
  9
$PUCSYDIR
 10
0.0
 20
1.0
 30
0.0
  9
$PUCSORTHOREF
  2

  9
$PUCSORTHOVIEW
 70
     0
  9
$PUCSORGTOP
 10
0.0
 20
0.0
 30
0.0
  9
$PUCSORGBOTTOM
 10
0.0
 20
0.0
 30
0.0
  9
$PUCSORGLEFT
 10
0.0
 20
0.0
 30
0.0
  9
$PUCSORGRIGHT
 10
0.0
 20
0.0
 30
0.0
  9
$PUCSORGFRONT
 10
0.0
 20
0.0
 30
0.0
  9
$PUCSORGBACK
 10
0.0
 20
0.0
 30
0.0
  9
$USERI1
 70
     0
  9
$USERI2
 70
     0
  9
$USERI3
 70
     0
  9
$USERI4
 70
     0
  9
$USERI5
 70
     0
  9
$USERR1
 40
0.0
  9
$USERR2
 40
0.0
  9
$USERR3
 40
0.0
  9
$USERR4
 40
0.0
  9
$USERR5
 40
0.0
  9
$WORLDVIEW
 70
     1
  9
$SHADEDGE
 70
     3
  9
$SHADEDIF
 70
    70
  9
$TILEMODE
 70
     1
  9
$MAXACTVP
 70
    64
  9
$PINSBASE
 10
0.0
 20
0.0
 30
0.0
  9
$PLIMCHECK
 70
     0
  9
$PEXTMIN
 10
1.000000000000000E+20
 20
1.000000000000000E+20
 30
1.000000000000000E+20
  9
$PEXTMAX
 10
-1.000000000000000E+20
 20
-1.000000000000000E+20
 30
-1.000000000000000E+20
  9
$PLIMMIN
 10
0.0
 20
0.0
  9
$PLIMMAX
 10
12.0
 20
9.0
  9
$UNITMODE
 70
     0
  9
$VISRETAIN
 70
     1
  9
$PLINEGEN
 70
     0
  9
$PSLTSCALE
 70
     1
  9
$TREEDEPTH
 70
  3020
  9
$CMLSTYLE
  2
Standard
  9
$CMLJUST
 70
     0
  9
$CMLSCALE
 40
1.0
  9
$PROXYGRAPHICS
 70
     1
  9
$MEASUREMENT
 70
     0
  9
$CELWEIGHT
370
    -1
  9
$ENDCAPS
280
     0
  9
$JOINSTYLE
280
     0
  9
$LWDISPLAY
290
     1
  9
$INSUNITS
 70
     1
  9
$HYPERLINKBASE
  1

  9
$STYLESHEET
  1

  9
$XEDIT
290
     1
  9
$CEPSNTYPE
380
     0
  9
$PSTYLEMODE
290
     1
  9
$FINGERPRINTGUID
  2
{B614C683-09D8-42A1-BC4A-FDC6E615F86E}
  9
$VERSIONGUID
  2
{A11EE5E4-3CA3-42FF-8557-6624B9C2AB9A}
  9
$EXTNAMES
290
     1
  9
$PSVPSCALE
 40
0.0
  9
$OLESTARTUP
290
     0
  9
$SORTENTS
280
   127
  9
$INDEXCTL
280
     0
  9
$HIDETEXT
280
     0
  9
$XCLIPFRAME
290
     0
  9
$HALOGAP
280
     0
  9
$OBSCOLOR
 70
   257
  9
$OBSLTYPE
280
     0
  9
$INTERSECTIONDISPLAY
280
     0
  9
$INTERSECTIONCOLOR
 70
   257
  9
$DIMASSOC
280
     1
  9
$PROJECTNAME
  1

  9
$CAMERADISPLAY
290
     0
  9
$LENSLENGTH
 40
50.0
  9
$CAMERAHEIGHT
 40
0.0
  9
$STEPSPERSEC
 40
2.0
  9
$STEPSIZE
 40
6.0
  9
$3DDWFPREC
 40
2.0
  9
$PSOLWIDTH
 40
0.25
  9
$PSOLHEIGHT
 40
4.0
  9
$LOFTANG1
 40
1.570796326794896
  9
$LOFTANG2
 40
1.570796326794896
  9
$LOFTMAG1
 40
0.0
  9
$LOFTMAG2
 40
0.0
  9
$LOFTPARAM
 70
     7
  9
$LOFTNORMALS
280
     1
  9
$LATITUDE
 40
37.795
  9
$LONGITUDE
 40
-122.394
  9
$NORTHDIRECTION
 40
0.0
  9
$TIMEZONE
 70
 -8000
  9
$LIGHTGLYPHDISPLAY
280
     1
  9
$TILEMODELIGHTSYNCH
280
     1
  9
$CMATERIAL
347
E8
  9
$SOLIDHIST
280
     1
  9
$SHOWHIST
280
     1
  9
$DWFFRAME
280
     2
  9
$DGNFRAME
280
     0
  9
$REALWORLDSCALE
290
     1
  9
$INTERFERECOLOR
 62
     1
  9
$INTERFEREOBJVS
345
F5
  9
$INTERFEREVPVS
346
F2
  9
$CSHADOW
280
     0
  9
$SHADOWPLANELOCATION
 40
0.0
  0
ENDSEC
  0
SECTION
  2
CLASSES
  0
CLASS
  1
ACDBDICTIONARYWDFLT
  2
AcDbDictionaryWithDefault
  3
ObjectDBX Classes
 90
        0
 91
        1
280
     0
281
     0
  0
CLASS
  1
VISUALSTYLE
  2
AcDbVisualStyle
  3
ObjectDBX Classes
 90
     4095
 91
       16
280
     0
281
     0
  0
CLASS
  1
MATERIAL
  2
AcDbMaterial
  3
ObjectDBX Classes
 90
     1024
 91
        3
280
     0
281
     0
  0
CLASS
  1
TABLESTYLE
  2
AcDbTableStyle
  3
ObjectDBX Classes
 90
     4095
 91
        1
280
     0
281
     0
  0
CLASS
  1
DICTIONARYVAR
  2
AcDbDictionaryVar
  3
ObjectDBX Classes
 90
        0
 91
        1
280
     0
281
     0
  0
CLASS
  1
SORTENTSTABLE
  2
AcDbSortentsTable
  3
ObjectDBX Classes
 90
        0
 91
        1
280
     0
281
     0
  0
CLASS
  1
PLOTSETTINGS
  2
AcDbPlotSettings
  3
ObjectDBX Classes
 90
        0
 91
        2
280
     0
281
     0
  0
ENDSEC
  0
SECTION
  2
TABLES
  0
TABLE
  2
VPORT
  5
8
102
{ACAD_XDICTIONARY
360
4DC
102
}
330
0
100
AcDbSymbolTable
 70
     1
  0
VPORT
  5
29
330
8
100
AcDbSymbolTableRecord
100
AcDbViewportTableRecord
  2
*Active
 70
     0
 10
0.0
 20
0.0
 11
1.0
 21
1.0
 12
0.3904836224574417
 22
0.2959181592097533
 13
0.0
 23
0.0
 14
0.5
 24
0.5
 15
0.5
 25
0.5
 16
0.0
 26
0.0
 36
1.0
 17
0.0
 27
0.0
 37
0.0
 40
0.5991962247787855
 41
1.82804674457429
 42
50.0
 43
0.0
 44
0.0
 50
0.0
 51
0.0
 71
     0
 72
  2000
 73
     1
 74
     3
 75
     0
 76
     0
 77
     0
 78
     0
281
     0
 65
     1
110
0.0
120
0.0
130
0.0
111
1.0
121
0.0
131
0.0
112
0.0
122
1.0
132
0.0
 79
     0
146
0.0
348
F1
 60
     3
 61
     5
292
     1
282
     1
141
0.0
142
0.0
 63
   250
421
  3355443
  0
ENDTAB
  0
TABLE
  2
LTYPE
  5
5
330
0
100
AcDbSymbolTable
 70
     2
  0
LTYPE
  5
14
330
5
100
AcDbSymbolTableRecord
100
AcDbLinetypeTableRecord
  2
ByBlock
 70
     0
  3

 72
    65
 73
     0
 40
0.0
  0
LTYPE
  5
15
330
5
100
AcDbSymbolTableRecord
100
AcDbLinetypeTableRecord
  2
ByLayer
 70
     0
  3

 72
    65
 73
     0
 40
0.0
  0
LTYPE
  5
16
330
5
100
AcDbSymbolTableRecord
100
AcDbLinetypeTableRecord
  2
Continuous
 70
     0
  3
Solid line
 72
    65
 73
     0
 40
0.0
  0
LTYPE
  5
C79
330
5
100
AcDbSymbolTableRecord
100
AcDbLinetypeTableRecord
  2
HIDDEN
 70
     0
  3
Hidden __ __ __ __ __ __ __ __ __ __ __ __ __ __
 72
    65
 73
     2
 40
0.075
 49
0.05
 74
     0
 49
-0.025
 74
     0
  0
ENDTAB
  0
TABLE
  2
LAYER
  5
2
102
{ACAD_XDICTIONARY
360
61E
102
}
330
0
100
AcDbSymbolTable
 70
     4
  0
LAYER
  5
10
330
2
100
AcDbSymbolTableRecord
100
AcDbLayerTableRecord
  2
0
 70
     0
 62
     7
  6
Continuous
370
    -3
390
F
347
EA
  0
LAYER
  5
44
330
2
100
AcDbSymbolTableRecord
100
AcDbLayerTableRecord
  2
FORMAT
 70
     0
 62
     7
  6
Continuous
370
    -3
390
F
347
EA
  0
LAYER
  5
125
330
2
100
AcDbSymbolTableRecord
100
AcDbLayerTableRecord
  2
Defpoints
 70
     0
 62
     7
  6
Continuous
290
     0
370
    -3
390
F
347
EA
  0
LAYER
  5
61C
330
2
100
AcDbSymbolTableRecord
100
AcDbLayerTableRecord
  2
DIM
 70
     0
 62
     8
  6
Continuous
370
    -3
390
F
347
EA
1001
AcAecLayerStandard
1000

1000

  0
ENDTAB
  0
TABLE
  2
STYLE
  5
3
330
0
100
AcDbSymbolTable
 70
     5
  0
STYLE
  5
11
330
3
100
AcDbSymbolTableRecord
100
AcDbTextStyleTableRecord
  2
Standard
 70
     0
 40
0.0
 41
1.0
 50
0.0
 71
     0
 42
0.2
  3
GOTHIC.TTF
  4

1001
ACAD
1000
Century Gothic
1071
       34
  0
STYLE
  5
66
330
3
100
AcDbSymbolTableRecord
100
AcDbTextStyleTableRecord
  2
SLDTEXTSTYLE0
 70
     0
 40
0.0
 41
0.75
 50
0.0
 71
     0
 42
0.2
  3
GOTHIC.TTF
  4

1001
ACAD
1000
Century Gothic
1071
       34
  0
STYLE
  5
6A
330
3
100
AcDbSymbolTableRecord
100
AcDbTextStyleTableRecord
  2
SLDTEXTSTYLE1
 70
     0
 40
0.0
 41
0.6875
 50
0.0
 71
     0
 42
0.2
  3
GOTHIC.TTF
  4

1001
ACAD
1000
Century Gothic
1071
       34
  0
STYLE
  5
412
330
3
100
AcDbSymbolTableRecord
100
AcDbTextStyleTableRecord
  2
style2
 70
     0
 40
0.0
 41
1.0
 50
0.0
 71
     0
 42
0.2
  3

  4

1001
ACAD
1000
Euphemia
1071
       34
  0
STYLE
  5
B37
330
3
100
AcDbSymbolTableRecord
100
AcDbTextStyleTableRecord
  2
style1
 70
     0
 40
0.0
 41
1.0
 50
0.0
 71
     0
 42
0.2
  3

  4

1001
ACAD
1000
@MS PGothic
1071
    32802
  0
ENDTAB
  0
TABLE
  2
VIEW
  5
6
330
0
100
AcDbSymbolTable
 70
     0
  0
ENDTAB
  0
TABLE
  2
UCS
  5
7
330
0
100
AcDbSymbolTable
 70
     0
  0
ENDTAB
  0
TABLE
  2
APPID
  5
9
330
0
100
AcDbSymbolTable
 70
     5
  0
APPID
  5
12
330
9
100
AcDbSymbolTableRecord
100
AcDbRegAppTableRecord
  2
ACAD
 70
     0
  0
APPID
  5
3B8
330
9
100
AcDbSymbolTableRecord
100
AcDbRegAppTableRecord
  2
ACAD_EXEMPT_FROM_CAD_STANDARDS
 70
     0
  0
APPID
  5
413
330
9
100
AcDbSymbolTableRecord
100
AcDbRegAppTableRecord
  2
ACAD_PSEXT
 70
     0
  0
APPID
  5
61D
330
9
100
AcDbSymbolTableRecord
100
AcDbRegAppTableRecord
  2
AcAecLayerStandard
 70
     0
  0
APPID
  5
B19
330
9
100
AcDbSymbolTableRecord
100
AcDbRegAppTableRecord
  2
PE_URL
 70
     0
  0
ENDTAB
  0
TABLE
  2
DIMSTYLE
  5
A
330
0
100
AcDbSymbolTable
 70
     1
100
AcDbDimStyleTable
 71
     1
340
27
  0
DIMSTYLE
105
27
102
{ACAD_REACTORS
330
E97
330
EA4
330
EB1
330
EBE
102
}
330
A
100
AcDbSymbolTableRecord
100
AcDbDimStyleTableRecord
  2
Standard
 70
     0
 41
0.01
 42
0.005
 44
0.005
 73
     0
 74
     0
 77
     1
140
0.01
147
0.003
172
     1
271
     2
272
     2
340
11
  0
ENDTAB
  0
TABLE
  2
BLOCK_RECORD
  5
1
330
0
100
AcDbSymbolTable
 70
    10
  0
BLOCK_RECORD
  5
1F
330
1
100
AcDbSymbolTableRecord
100
AcDbBlockTableRecord
  2
*Model_Space
340
22
 70
     0
280
     1
281
     0
  0
BLOCK_RECORD
  5
1B
330
1
100
AcDbSymbolTableRecord
100
AcDbBlockTableRecord
  2
*Paper_Space
340
1E
 70
     0
280
     1
281
     0
  0
BLOCK_RECORD
  5
23
330
1
100
AcDbSymbolTableRecord
100
AcDbBlockTableRecord
  2
*Paper_Space0
340
26
 70
     0
280
     1
281
     0
  0
BLOCK_RECORD
  5
3F9
330
1
100
AcDbSymbolTableRecord
100
AcDbBlockTableRecord
  2
Block3
340
0
102
{BLKREFS
331
407
102
}
 70
     0
280
     1
281
     0
  0
BLOCK_RECORD
  5
405
330
1
100
AcDbSymbolTableRecord
100
AcDbBlockTableRecord
  2
Block2
340
0
102
{BLKREFS
331
44A
102
}
 70
     0
280
     1
281
     0
  0
BLOCK_RECORD
  5
409
102
{ACAD_XDICTIONARY
360
40A
102
}
330
1
100
AcDbSymbolTableRecord
100
AcDbBlockTableRecord
  2
amazon
340
0
310
2800000020000000200000000100080000000000000400000000000000000000000000000000000000000000000080000080000000808000800000008000800080800000C0C0C000C0DCC000F0CAA6000020400000206000002080000020A0000020C0000020E00000400000004020000040400000406000004080000040A0
310
000040C0000040E00000600000006020000060400000606000006080000060A0000060C0000060E00000800000008020000080400000806000008080000080A0000080C0000080E00000A0000000A0200000A0400000A0600000A0800000A0A00000A0C00000A0E00000C0000000C0200000C0400000C0600000C0800000C0
310
A00000C0C00000C0E00000E0000000E0200000E0400000E0600000E0800000E0A00000E0C00000E0E00040000000400020004000400040006000400080004000A0004000C0004000E00040200000402020004020400040206000402080004020A0004020C0004020E000404000004040200040404000404060004040800040
310
40A0004040C0004040E00040600000406020004060400040606000406080004060A0004060C0004060E00040800000408020004080400040806000408080004080A0004080C0004080E00040A0000040A0200040A0400040A0600040A0800040A0A00040A0C00040A0E00040C0000040C0200040C0400040C0600040C08000
310
40C0A00040C0C00040C0E00040E0000040E0200040E0400040E0600040E0800040E0A00040E0C00040E0E00080000000800020008000400080006000800080008000A0008000C0008000E00080200000802020008020400080206000802080008020A0008020C0008020E00080400000804020008040400080406000804080
310
008040A0008040C0008040E00080600000806020008060400080606000806080008060A0008060C0008060E00080800000808020008080400080806000808080008080A0008080C0008080E00080A0000080A0200080A0400080A0600080A0800080A0A00080A0C00080A0E00080C0000080C0200080C0400080C0600080C0
310
800080C0A00080C0C00080C0E00080E0000080E0200080E0400080E0600080E0800080E0A00080E0C00080E0E000C0000000C0002000C0004000C0006000C0008000C000A000C000C000C000E000C0200000C0202000C0204000C0206000C0208000C020A000C020C000C020E000C0400000C0402000C0404000C0406000C0
310
408000C040A000C040C000C040E000C0600000C0602000C0604000C0606000C0608000C060A000C060C000C060E000C0800000C0802000C0804000C0806000C0808000C080A000C080C000C080E000C0A00000C0A02000C0A04000C0A06000C0A08000C0A0A000C0A0C000C0A0E000C0C00000C0C02000C0C04000C0C06000
310
C0C08000C0C0A000F0FBFF00A4A0A000808080000000FF0000FF000000FFFF00FF000000FF00FF00FFFF0000FFFFFF0000000000000000000000000000000000000000000000000000000000000000000000000000000000000000000000000000000000000000000000000000000000000000000000000000000000000000
310
00000000000000000000000000000000000000000000000000000000000000000000000000000000000000000000000000000000000000000000000000000000000000000000000000000000000000000000000000000000000000000000000000000000000000000000000000000000000000000000000000000000000000
310
00000000000000000000000000000000000000000000000000000000000000000000000000000000000000000000000000000000000000000000000000000000000000000000000000000000000000000000000000000000000000000000000000000000000000000000000000000000000000000000000000000000000000
310
0000000000000000000000000000000000000000000000000000000000000000000000000000000000000000000000000000000000000000000000000000000000000000000000000000000000000000000000000000000000FFFFFFFFFF00000000000000000000000000000000000000000000000000FFFFFFFFFFFFFFFF
310
00000000000000000000FC00FC0000FCFC00000000FFFFFFFFFFFFFFFFFFFFFFFFFFFFFFFFFCFCFCFCFCFCFCFCFCFCFCFCFC00000000FFFFFFFFFFFFFFFFFFFFFFFFFFFFFFFCFCFC00FCFCFCFC00FCFCFCFC00000000FFFFFFFFFFFFFFFFFFFFFFFFFFFFFFFCFCFC00FCFCFCFCFCFCFCFCFC00000000000000000000000000
310
00000000000000000000000000000000FC0000000000000000000000000000000000000000000000000000000000000000000000000000000000000000000000000000000000000000000000000000000000000000000000000000000000000000000000000000000000000000000000000000000000000000000000000000
310
00000000000000000000000000000000000000000000000000000000000000000000000000000000000000000000000000000000000000000000000000000000000000000000000000000000000000000000000000000000000000000000000000000000000000000000000000000000000000000000000000000000000000
310
00000000000000000000000000000000000000000000000000000000000000000000000000000000000000000000000000000000000000000000000000000000000000000000000000000000000000000000000000000000000000000000000000000000000000000000000000000000000000000000000000000000000000
310
0000000000000000000000000000000000000000000000000000000000000000000000000000000000000000000000000000000000000000
 70
     1
280
     1
281
     0
  0
BLOCK_RECORD
  5
B30
330
1
100
AcDbSymbolTableRecord
100
AcDbBlockTableRecord
  2
amazon block
340
0
310
2800000020000000200000000100080000000000000400000000000000000000000000000000000000000000000080000080000000808000800000008000800080800000C0C0C000C0DCC000F0CAA6000020400000206000002080000020A0000020C0000020E00000400000004020000040400000406000004080000040A0
310
000040C0000040E00000600000006020000060400000606000006080000060A0000060C0000060E00000800000008020000080400000806000008080000080A0000080C0000080E00000A0000000A0200000A0400000A0600000A0800000A0A00000A0C00000A0E00000C0000000C0200000C0400000C0600000C0800000C0
310
A00000C0C00000C0E00000E0000000E0200000E0400000E0600000E0800000E0A00000E0C00000E0E00040000000400020004000400040006000400080004000A0004000C0004000E00040200000402020004020400040206000402080004020A0004020C0004020E000404000004040200040404000404060004040800040
310
40A0004040C0004040E00040600000406020004060400040606000406080004060A0004060C0004060E00040800000408020004080400040806000408080004080A0004080C0004080E00040A0000040A0200040A0400040A0600040A0800040A0A00040A0C00040A0E00040C0000040C0200040C0400040C0600040C08000
310
40C0A00040C0C00040C0E00040E0000040E0200040E0400040E0600040E0800040E0A00040E0C00040E0E00080000000800020008000400080006000800080008000A0008000C0008000E00080200000802020008020400080206000802080008020A0008020C0008020E00080400000804020008040400080406000804080
310
008040A0008040C0008040E00080600000806020008060400080606000806080008060A0008060C0008060E00080800000808020008080400080806000808080008080A0008080C0008080E00080A0000080A0200080A0400080A0600080A0800080A0A00080A0C00080A0E00080C0000080C0200080C0400080C0600080C0
310
800080C0A00080C0C00080C0E00080E0000080E0200080E0400080E0600080E0800080E0A00080E0C00080E0E000C0000000C0002000C0004000C0006000C0008000C000A000C000C000C000E000C0200000C0202000C0204000C0206000C0208000C020A000C020C000C020E000C0400000C0402000C0404000C0406000C0
310
408000C040A000C040C000C040E000C0600000C0602000C0604000C0606000C0608000C060A000C060C000C060E000C0800000C0802000C0804000C0806000C0808000C080A000C080C000C080E000C0A00000C0A02000C0A04000C0A06000C0A08000C0A0A000C0A0C000C0A0E000C0C00000C0C02000C0C04000C0C06000
310
C0C08000C0C0A000F0FBFF00A4A0A000808080000000FF0000FF000000FFFF00FF000000FF00FF00FFFF0000FFFFFF0000000000000000000000000000000000000000000000000000000000000000000000000000000000000000000000000000000000000000000000000000000000000000000000000000000000000000
310
00000000000000000000000000000000000000000000000000000000000000000000000000000000000000000000000000000000000000000000000000000000000000000000000000000000000000000000000000000000000000000000000000000000000000000000000000000000000000000000000000000000000000
310
00000000000000000000000000000000000000000000000000000000000000000000000000000000000000000000000000000000000000000000000000000000000000000000000000000000000000000000000000000000000000000000000000000000000000000000000000000000000000000000000000000000000000
310
0000000000000000000000000000000000000000000000000000000000000000000000000000000000000000000000000000000000000000000000000000000000000000000000000000000000000000000000000000000000FFFFFFFFFF00000000000000000000000000000000000000000000000000FFFFFFFFFFFFFFFF
310
00000000000000000000E000E0E000E0E0E0000000FFFFFFFFFFFFFFFFFFFFFFFFFFFFFFFFE0E0E0E0E0E0E0E0E0E0E0E0E000000000FFFFFFFFFFFFFFFFFFFFFFFFFFFFFFE0E0E0E0E0E0E0E0E0E0E0E0E000000000FFFFFFFFFFFFFFFFFFFFFFFFFFFFFFE0E0E0E0E0E0E0E0E0E0E0E0E0E0000000000000000000000000
310
00000000000000000000000000000000E00000000000000000000000000000000000000000000000000000000000000000000000000000000000000000000000000000000000000000000000000000000000000000000000000000000000000000000000000000000000000000000000000000000000000000000000000000
310
00000000000000000000000000000000000000000000000000000000000000000000000000000000000000000000000000000000000000000000000000000000000000000000000000000000000000000000000000000000000000000000000000000000000000000000000000000000000000000000000000000000000000
310
00000000000000000000000000000000000000000000000000000000000000000000000000000000000000000000000000000000000000000000000000000000000000000000000000000000000000000000000000000000000000000000000000000000000000000000000000000000000000000000000000000000000000
310
0000000000000000000000000000000000000000000000000000000000000000000000000000000000000000000000000000000000000000
102
{BLKREFS
331
B40
102
}
 70
     1
280
     1
281
     0
  0
BLOCK_RECORD
  5
E7E
330
1
100
AcDbSymbolTableRecord
100
AcDbBlockTableRecord
  2
SW_CENTERMARKSYMBOL_0
340
0
102
{BLKREFS
331
E96
102
}
 70
     0
280
     1
281
     0
  0
BLOCK_RECORD
  5
E98
330
1
100
AcDbSymbolTableRecord
100
AcDbBlockTableRecord
  2
*D6
340
0
 70
     0
280
     1
281
     0
  0
BLOCK_RECORD
  5
EA5
330
1
100
AcDbSymbolTableRecord
100
AcDbBlockTableRecord
  2
*D7
340
0
 70
     0
280
     1
281
     0
  0
BLOCK_RECORD
  5
EB2
330
1
100
AcDbSymbolTableRecord
100
AcDbBlockTableRecord
  2
*D8
340
0
 70
     0
280
     1
281
     0
  0
BLOCK_RECORD
  5
EBF
330
1
100
AcDbSymbolTableRecord
100
AcDbBlockTableRecord
  2
*D9
340
0
 70
     0
280
     1
281
     0
  0
ENDTAB
  0
ENDSEC
  0
SECTION
  2
BLOCKS
  0
BLOCK
  5
20
330
1F
100
AcDbEntity
  8
0
100
AcDbBlockBegin
  2
*Model_Space
 70
     0
 10
0.0
 20
0.0
 30
0.0
  3
*Model_Space
  1

  0
ENDBLK
  5
21
330
1F
100
AcDbEntity
  8
0
100
AcDbBlockEnd
  0
BLOCK
  5
1C
330
1B
100
AcDbEntity
 67
     1
  8
0
100
AcDbBlockBegin
  2
*Paper_Space
 70
     0
 10
0.0
 20
0.0
 30
0.0
  3
*Paper_Space
  1

  0
ENDBLK
  5
1D
330
1B
100
AcDbEntity
 67
     1
  8
0
100
AcDbBlockEnd
  0
BLOCK
  5
24
330
23
100
AcDbEntity
 67
     1
  8
0
100
AcDbBlockBegin
  2
*Paper_Space0
 70
     0
 10
0.0
 20
0.0
 30
0.0
  3
*Paper_Space0
  1

  0
ENDBLK
  5
25
330
23
100
AcDbEntity
 67
     1
  8
0
100
AcDbBlockEnd
  0
BLOCK
  5
3FA
330
3F9
100
AcDbEntity
  8
0
100
AcDbBlockBegin
  2
Block3
 70
     0
 10
0.0
 20
0.0
 30
0.0
  3
Block3
  1

  0
CIRCLE
  5
3FB
330
3F9
100
AcDbEntity
  8
FORMAT
 62
     7
370
    15
100
AcDbCircle
 10
9.623096090023436
 20
2.115622186524885
 30
0.0
 40
0.0998031496062924
  0
CIRCLE
  5
3FC
330
3F9
100
AcDbEntity
  8
FORMAT
 62
     7
370
    15
100
AcDbCircle
 10
9.623096090023436
 20
2.115622186524885
 30
0.0
 40
0.1996062992125948
  0
LINE
  5
3FD
330
3F9
100
AcDbEntity
  8
FORMAT
 62
     7
370
    15
100
AcDbLine
 10
10.05890680910872
 20
2.020396293772344
 30
0.0
 11
10.05890680910872
 21
2.210848079277426
 31
0.0
  0
LINE
  5
3FE
330
3F9
100
AcDbEntity
  8
FORMAT
 62
     7
370
    15
100
AcDbLine
 10
10.05890680910872
 20
2.210848079277426
 30
0.0
 11
10.55986477488565
 21
2.315228485737483
 31
0.0
  0
LINE
  5
3FF
330
3F9
100
AcDbEntity
  8
FORMAT
 62
     7
370
    15
100
AcDbLine
 10
10.55986477488565
 20
2.315228485737483
 30
0.0
 11
10.55986477488565
 21
1.916015887312285
 31
0.0
  0
LINE
  5
400
330
3F9
100
AcDbEntity
  8
FORMAT
 62
     7
370
    15
100
AcDbLine
 10
10.55986477488565
 20
1.916015887312285
 30
0.0
 11
10.05890680910872
 21
2.020396293772344
 31
0.0
  0
LINE
  5
401
330
3F9
100
AcDbEntity
  8
FORMAT
 62
     7
370
    15
100
AcDbLine
 10
9.987169396213419
 20
2.115622186524885
 30
0.0
 11
10.59626953693931
 21
2.115622186524885
 31
0.0
  0
LINE
  5
402
330
3F9
100
AcDbEntity
  8
FORMAT
 62
     7
370
    15
100
AcDbLine
 10
9.368122674365656
 20
2.115622186524885
 30
0.0
 11
9.87806950568121
 21
2.115622186524885
 31
0.0
  0
LINE
  5
403
330
3F9
100
AcDbEntity
  8
FORMAT
 62
     7
370
    15
100
AcDbLine
 10
9.623096090023436
 20
1.872691387914879
 30
0.0
 11
9.623096090023436
 21
2.382638219230431
 31
0.0
  0
ENDBLK
  5
404
330
3F9
100
AcDbEntity
  8
0
100
AcDbBlockEnd
  0
BLOCK
  5
406
330
405
100
AcDbEntity
  8
0
100
AcDbBlockBegin
  2
Block2
 70
     0
 10
0.0
 20
0.0
 30
0.0
  3
Block2
  1

  0
INSERT
  5
407
330
405
100
AcDbEntity
  8
0
  6
Continuous
 62
     7
100
AcDbBlockReference
  2
Block3
 10
-0.0282699124868556
 20
0.0201145539810274
 30
0.0
  0
ENDBLK
  5
408
330
405
100
AcDbEntity
  8
0
100
AcDbBlockEnd
  0
BLOCK
  5
40C
330
409
100
AcDbEntity
  8
0
100
AcDbBlockBegin
  2
amazon
 70
     0
 10
0.0
 20
0.0
 30
0.0
  3
amazon
  1

  0
HATCH
  5
40D
330
409
100
AcDbEntity
  8
0
100
AcDbHatch
 10
0.0
 20
0.0
 30
0.0
210
0.0
220
0.0
230
0.9999999999999998
  2
SOLID
 70
     1
 71
     0
 91
        1
 92
        5
 93
        1
 72
     4
 94
        3
 73
     0
 74
     0
 95
       18
 96
       14
 40
0.0
 40
0.0
 40
0.0
 40
0.0
 40
0.0596755466403443
 40
0.1035834707990989
 40
0.1695571134872838
 40
0.2000964637947284
 40
0.2237461165360023
 40
0.2565225897680324
 40
0.2756876256135649
 40
0.3018435697278741
 40
0.3302551352352805
 40
0.3457181605243852
 40
0.3618589112597388
 40
0.3618589112597388
 40
0.3618589112597388
 40
0.3618589112597388
 10
0.9280407135556529
 20
0.3678371450737368
 10
1.014164084729102
 20
0.3851494268204694
 10
1.144945011486449
 20
0.4024842103214663
 10
1.481904894757406
 20
0.3990648758382389
 10
1.309526957346704
 20
0.1657833910269666
 10
1.071996456892463
 20
0.0025828528301117
 10
1.213429780952147
 20
0.147260900816045
 10
1.269689397936616
 20
0.2055836989094448
 10
1.328770741103362
 20
0.3426132943554165
 10
1.182110533057802
 20
0.3629915346337151
 10
1.077363991359149
 20
0.3586993230536737
 10
1.01802908590988
 20
0.3618658313307459
 10
0.904746484263093
 20
0.3631546035627498
 10
0.9280407135556529
 20
0.3678371450737368
 97
        0
 75
     0
 76
     1
 47
0.0083360314226261
 98
        1
 10
1.350036184717041
 20
0.3275823953230534
450
        0
451
        0
460
0.0
461
0.0
452
        1
462
1.0
453
        2
463
0.0
 63
     5
421
      255
463
1.0
 63
     7
421
 16777215
470
LINEAR
1001
ACAD
1010
0.0
1020
0.0
1030
0.0
  0
HATCH
  5
40E
330
409
100
AcDbEntity
  8
0
100
AcDbHatch
 10
0.0
 20
0.0
 30
0.0
210
0.0
220
0.0
230
0.9999999999999998
  2
SOLID
 70
     1
 71
     0
 91
        9
 92
        7
 72
     1
 73
     1
 93
       20
 10
-1.397399278738596
 20
0.888299103756417
 42
0.0
 10
-1.517557092146972
 20
0.8521069912840207
 42
0.0
 10
-1.634457615432786
 20
0.8260486703038981
 42
0.113500075695427
 10
-1.796297882939342
 20
0.77249506361993
 42
0.335029435887297
 10
-1.882119182302076
 20
0.5660893728218724
 42
0.2523749963765925
 10
-1.737967057103837
 20
0.4398788302234422
 42
0.1008759599722844
 10
-1.585598263595066
 20
0.4319165654795154
 42
0.1558313267708922
 10
-1.397230403062579
 20
0.516966153393244
 42
0.0
 10
-1.397399278738596
 20
0.5017673425512395
 42
0.1600174655974661
 10
-1.372064800007926
 20
0.4395169090987201
 42
0.0
 10
-1.217886400875514
 20
0.4395169090987201
 42
-0.1096578030042886
 10
-1.250459302100694
 20
0.4735374948229208
 42
-0.1371553684281488
 10
-1.269279200586318
 20
0.540854824021424
 42
0.0
 10
-1.269279200586318
 20
0.9244912162288137
 42
0.267077244638994
 10
-1.391608540743007
 20
1.084460353356798
 42
0.1085027846705916
 10
-1.618171164820246
 20
1.110518674336923
 42
0.3343505200399534
 10
-1.854867580389672
 20
0.9063951599926172
 42
0.0
 10
-1.71371834174733
 20
0.9063951599926172
 42
-0.2815324590939715
 10
-1.623703637535193
 20
0.9970774848409384
 42
-0.1775171235246243
 10
-1.454582816445004
 20
0.984570122933
 42
-0.2483479329952881
 97
        0
 92
       22
 72
     1
 73
     1
 93
        8
 10
-1.397399278738596
 20
0.7768273973414295
 42
0.0
 10
-1.397399278738596
 20
0.658841110681435
 42
-0.2004737922071577
 10
-1.563882996111615
 20
0.5415786662708722
 42
-0.1115040980661369
 10
-1.686936178517754
 20
0.5404929028967014
 42
-0.2738586692622027
 10
-1.742672031725241
 20
0.6002098884761536
 42
-0.289643054085014
 10
-1.707203761502306
 20
0.6928616964054842
 42
-0.1190249358109779
 10
-1.625409587314685
 20
0.7261584398800891
 42
-0.0006545690929014
 10
-1.500908720409647
 20
0.7514929186107651
 42
0.031014715336947
 97
        0
 92
        7
 72
     1
 73
     1
 93
       27
 10
-1.062984159493659
 20
0.4395169090987201
 42
0.0
 10
-0.9348640813413879
 20
0.4395169090987201
 42
0.0
 10
-0.9348640813413879
 20
0.8535546757829193
 42
-0.1716644096531924
 10
-0.8769567013855592
 20
0.9534449062067299
 42
-0.1448545784781812
 10
-0.7799618399595332
 20
0.9997708101713946
 42
-0.1340090766267909
 10
-0.6862242686560336
 20
0.9885512553049524
 42
-0.2563461470910333
 10
-0.6192688605821033
 20
0.8998805797475881
 42
0.0
 10
-0.6192688605821033
 20
0.4395169090987201
 42
0.0
 10
-0.4904249401803611
 20
0.4395169090987201
 42
0.0
 10
-0.4904249401803753
 20
0.8641979875178154
 42
-0.1830801363087423
 10
-0.4212980053581035
 20
0.9621310132001053
 42
-0.1206854715101709
 10
-0.3311796453018374
 20
0.9975992834230517
 42
-0.2157527517618656
 10
-0.216674861049178
 20
0.9774303127070119
 42
-0.2679983488848178
 10
-0.1748297194210906
 20
0.9063951599927708
 42
0.0
 10
-0.1748297194210977
 20
0.4395169090987201
 42
0.0
 10
-0.0467096412688122
 20
0.4395169090987201
 42
0.0
 10
-0.0467096412688122
 20
0.9063951599926172
 42
0.0
 10
-0.0467096412688122
 20
0.9360726922199805
 42
0.2784603970195297
 10
-0.1675912969266093
 20
1.094594144849069
 42
0.1495326253440701
 10
-0.3521710705358245
 20
1.102556409592997
 42
0.1796241607690637
 10
-0.5034541006704388
 20
0.9896370186791244
 42
0.1190036376854939
 10
-0.5809052213613626
 20
1.073602719615081
 42
0.1510696384071214
 10
-0.753179676729971
 20
1.112690201085266
 42
0.122416550902687
 10
-0.8494506959065404
 20
1.081564984359008
 42
0.0903817772246913
 10
-0.9348640813413879
 20
1.001218494670287
 42
0.0
 10
-0.9348640813413879
 20
1.101108725094101
 42
0.0
 10
-1.062984159493659
 20
1.101108725094101
 42
0.0
 97
        0
 92
        7
 72
     1
 73
     1
 93
       20
 10
0.1120662149268909
 20
0.5660893728218764
 42
0.2523749963765703
 10
0.256218340125109
 20
0.4398788302234467
 42
0.100875959972303
 10
0.4085871336339224
 20
0.4319165654795159
 42
0.1558313267708855
 10
0.5969549941663886
 20
0.516966153393244
 42
0.0
 10
0.5967861184903711
 20
0.5017673425512395
 42
0.1600174655974661
 10
0.6221205972210555
 20
0.4395169090987201
 42
0.0
 10
0.7762989963534466
 20
0.4395169090987201
 42
-0.1096578030036369
 10
0.7437260951284089
 20
0.4735374948226645
 42
-0.1371553684287215
 10
0.7249061966426496
 20
0.540854824021424
 42
0.0
 10
0.7249061966426496
 20
0.9244912162288137
 42
0.2670772446390557
 10
0.6025768564859249
 20
1.084460353356814
 42
0.1085027846705556
 10
0.3760142324087567
 20
1.110518674336923
 42
0.3343505200399825
 10
0.1393178168393021
 20
0.9063951599926172
 42
0.0
 10
0.2804670554816368
 20
0.9063951599926172
 42
-0.2815324590939487
 10
0.370481759693746
 20
0.9970774848409313
 42
-0.1775171235246857
 10
0.539602580783992
 20
0.9845701229329858
 42
-0.2483479329952225
 10
0.5967861184903711
 20
0.888299103756417
 42
0.0
 10
0.4766283050820306
 20
0.8521069912840264
 42
0.0
 10
0.359727781796181
 20
0.8260486703038981
 42
0.113500075695427
 10
0.1978875142896257
 20
0.77249506361993
 42
0.335029435887291
 97
        0
 92
       22
 72
     1
 73
     1
 93
        8
 10
0.2869816357266757
 20
0.6928616964054842
 42
-0.1190249358109779
 10
0.3687758099142826
 20
0.7261584398800891
 42
-0.0006545690929014
 10
0.4932766768193205
 20
0.7514929186107651
 42
0.0310147153369478
 10
0.5967861184903711
 20
0.7768273973414419
 42
0.0
 10
0.5967861184903711
 20
0.658841110681435
 42
-0.2004737922071577
 10
0.430302401117352
 20
0.5415786662708722
 42
-0.1115040980661369
 10
0.3072492187112061
 20
0.5404929028967014
 42
-0.2738586692622027
 10
0.251513365503726
 20
0.6002098884761536
 42
-0.289643054085014
 97
        0
 92
        7
 72
     1
 73
     1
 93
       10
 10
1.490731296558529
 20
0.9717250567569255
 42
0.0
 10
1.490731296558529
 20
1.101108725094102
 42
0.0
 10
0.9246866574902696
 20
1.101108725094102
 42
0.0
 10
0.9246866574902767
 20
0.9648744605637409
 42
0.0
 10
1.298313112053691
 20
0.9648744605637409
 42
0.0
 10
0.8993521787595994
 20
0.5408548240214275
 42
0.0
 10
0.8993521787595994
 20
0.4395169090987241
 42
-0.1473109550280885
 10
1.52402804003313
 20
0.4395169090987184
 42
0.0
 10
1.52402804003313
 20
0.581774738538516
 42
0.0747823019347494
 10
1.16328520907988
 20
0.6214717791056393
 42
0.0
 97
        0
 92
        7
 72
     1
 73
     1
 93
        2
 10
1.658662698430447
 20
0.7829800564617493
 42
1.0
 10
2.353551257900427
 20
0.7829800564617493
 42
1.0
 97
        0
 92
       22
 72
     1
 73
     1
 93
        2
 10
2.212041370259932
 20
0.7829800564617493
 42
-1.0
 10
1.800172586070949
 20
0.7829800564617493
 42
-1.0
 97
        0
 92
        7
 72
     1
 73
     1
 93
       15
 10
2.520758817522896
 20
0.4395169090987201
 42
0.0
 10
2.649602737924617
 20
0.4395169090987201
 42
0.0
 10
2.649602737924617
 20
0.7753797128425455
 42
-0.1884880930389393
 10
2.726330016366098
 20
0.9404157457166672
 42
-0.0825504763720134
 10
2.808124190553712
 20
1.002666179169187
 42
-0.1879859195515259
 10
2.9333488997082
 20
1.010628443913113
 42
-0.3400688989443128
 10
3.022381496390295
 20
0.8948632846375158
 42
0.0
 10
3.022381496390295
 20
0.4395169090987201
 42
0.0
 10
3.151225416792009
 20
0.4395169090987201
 42
0.0
 10
3.151225416792023
 20
0.9382442189683235
 42
0.3709832727766776
 10
2.952118968473769
 20
1.109868265359158
 42
0.160618198198489
 10
2.773379762580219
 20
1.083012668857902
 42
0.0920112842116662
 10
2.649602737924617
 20
0.9831224384341012
 42
0.0
 10
2.649602737924631
 20
1.101108725094101
 42
0.0
 10
2.520758817522896
 20
1.1011087250941
 42
0.0
 97
        0
 75
     0
 76
     1
 47
0.0079344138681199
 98
        9
 10
-1.376638647914745
 20
0.8943652481782571
 10
-1.376638647914745
 20
0.8943652481782571
 10
-1.008011843667617
 20
0.7810537369378041
 10
0.2295103337683244
 20
0.706616395506853
 10
0.2295103337683244
 20
0.706616395506853
 10
1.173803717490862
 20
0.7215039733471374
 10
1.736822720547962
 20
0.9152585806937842
 10
1.736822720547962
 20
0.9152585806937842
 10
2.581717008623201
 20
0.8854836988984509
450
        0
451
        0
460
0.0
461
0.0
452
        1
462
1.0
453
        2
463
0.0
 63
     5
421
      255
463
1.0
 63
     7
421
 16777215
470
LINEAR
1001
ACAD
1010
0.0
1020
0.0
1030
0.0
  0
TEXT
  5
40F
330
409
100
AcDbEntity
  8
0
 62
   150
100
AcDbText
 10
3.411151618523078
 20
0.4239129498757777
 30
0.0
 40
1.05
  1
supply
 41
1.08
  7
style2
100
AcDbText
  0
HATCH
  5
410
330
409
100
AcDbEntity
  8
0
100
AcDbHatch
 10
0.0
 20
0.0
 30
0.0
210
0.0
220
0.0
230
0.9999999999999998
  2
SOLID
 70
     1
 71
     0
 91
        1
 92
        7
 72
     1
 73
     1
 93
        2
 10
-1.177902949885989
 20
0.4051926481048067
 42
0.3081272588713221
 10
1.212164975232198
 20
0.2933070771634125
 42
-0.177724595219735
 97
        0
 75
     0
 76
     1
 47
0.0009928164167271
 98
        1
 10
0.1755697210077258
 20
0.0593374821502257
450
        0
451
        0
460
0.0
461
0.0
452
        1
462
1.0
453
        2
463
0.0
 63
     5
421
      255
463
1.0
 63
     7
421
 16777215
470
LINEAR
1001
ACAD
1010
0.0
1020
0.0
1030
0.0
  0
ENDBLK
  5
411
330
409
100
AcDbEntity
  8
0
100
AcDbBlockEnd
  0
BLOCK
  5
B31
330
B30
100
AcDbEntity
  8
0
100
AcDbBlockBegin
  2
amazon block
 70
     0
 10
0.0
 20
0.0
 30
0.0
  3
amazon block
  1

  0
HATCH
  5
B32
330
B30
100
AcDbEntity
  8
0
100
AcDbHatch
 10
0.0
 20
0.0
 30
0.0
210
0.0
220
0.0
230
1.0
  2
SOLID
 70
     1
 71
     0
 91
        1
 92
        7
 72
     1
 73
     1
 93
        2
 10
0.1428560650202613
 20
0.0268249692297831
 42
0.3005568377796329
 10
0.6100026189360293
 20
0.0009915743964171
 42
-0.1486648242730099
 97
        0
 75
     0
 76
     1
 47
0.0083360314226261
 98
        1
 10
0.3681872109149253
 20
-0.0332769951503647
450
        0
451
        0
460
0.0
461
0.0
452
        1
462
1.0
453
        2
463
0.0
 63
     5
421
      255
463
1.0
 63
     7
421
 16777215
470
LINEAR
1001
ACAD
1010
0.0
1020
0.0
1030
0.0
  0
HATCH
  5
B33
330
B30
100
AcDbEntity
  8
0
100
AcDbHatch
 10
0.0
 20
0.0
 30
0.0
210
0.0
220
0.0
230
1.0
  2
SOLID
 70
     1
 71
     0
 91
        1
 92
        5
 93
        1
 72
     4
 94
        3
 73
     0
 74
     0
 95
       18
 96
       14
 40
0.0
 40
0.0
 40
0.0
 40
0.0
 40
0.3060284443094571
 40
0.531197286149225
 40
0.8695236589091486
 40
1.026135711767838
 40
1.14741598223591
 40
1.315500460348882
 40
1.413679231894078
 40
1.543957423309552
 40
1.719337158993241
 40
1.76919128251474
 40
1.852441399548553
 40
1.852441399548553
 40
1.852441399548553
 40
1.852441399548553
 10
0.5476248318910955
 20
0.0189472839500944
 10
0.5671265702171127
 20
0.0228674694218305
 10
0.5967407336623403
 20
0.0267937023518194
 10
0.6730410215606746
 20
0.0260155775369224
 10
0.6340109953118472
 20
-0.0267925718215847
 10
0.5802183818763105
 20
-0.0637796196110996
 10
0.6122605658026537
 20
-0.030937261100445
 10
0.624929189918916
 20
-0.0180757154749651
 10
0.6383573330340191
 20
0.013562833138125
 10
0.6020518241954172
 20
0.0146147000415664
 10
0.5794789444548947
 20
0.0158864032827642
 10
0.5641956865595646
 20
0.0167018526831093
 10
0.5423196975867733
 20
0.017880860532975
 10
0.5476248318910955
 20
0.0189472839500944
 97
        0
 75
     0
 76
     1
 47
0.0083360314226261
 98
        1
 10
0.644363460657651
 20
0.0075847933888076
450
        0
451
        0
460
0.0
461
0.0
452
        1
462
1.0
453
        2
463
0.0
 63
     5
421
      255
463
1.0
 63
     7
421
 16777215
470
LINEAR
1001
ACAD
1010
0.0
1020
0.0
1030
0.0
  0
HATCH
  5
B34
330
B30
100
AcDbEntity
  8
0
100
AcDbHatch
 10
0.0
 20
0.0
 30
0.0
210
0.0
220
0.0
230
1.0
  2
SOLID
 70
     1
 71
     0
 91
        9
 92
        7
 72
     1
 73
     1
 93
       20
 10
0.1000542808940033
 20
0.1169245515333142
 42
0.0
 10
0.076623507279372
 20
0.1098670896011966
 42
0.0
 10
0.0538279052386379
 20
0.1047857170100728
 42
0.113500075695427
 10
0.0222690530748579
 20
0.0943427637066989
 42
0.335029435887297
 10
0.0055338996991239
 20
0.0540936540010777
 42
0.2523749963765925
 10
0.0336435641127828
 20
0.0294825981943836
 42
0.1008759599722844
 10
0.0633554788469937
 20
0.0279299565693179
 42
0.1558313267708922
 10
0.1000872116508269
 20
0.0445146262124951
 42
0.0
 10
0.1000542808940033
 20
0.0415508580983044
 42
0.1600174655974661
 10
0.1049945042464841
 20
0.029412023575063
 42
0.0
 10
0.1350592920773046
 20
0.029412023575063
 42
-0.1096578030042886
 10
0.128707576338396
 20
0.0360460377912819
 42
-0.1371553684281488
 10
0.125037696133699
 20
0.0491729169849902
 42
0.0
 10
0.125037696133699
 20
0.1239820134654312
 42
0.267077244638994
 10
0.1011834748031433
 20
0.1551759952053882
 42
0.1085027846705916
 10
0.0570037631080815
 20
0.1602573677965124
 42
0.3343505200399534
 10
0.0108479620720452
 20
0.1204532824993727
 42
0.0
 10
0.0383720636073015
 20
0.1204532824993727
 42
-0.2815324590939715
 10
0.0559249309286685
 20
0.1381363358447958
 42
-0.1775171235246243
 10
0.0889034910412541
 20
0.1356974002727478
 42
-0.2483479329952881
 97
        0
 92
       22
 72
     1
 73
     1
 93
        8
 10
0.1000542808940033
 20
0.0951875687823911
 42
0.0
 10
0.1000542808940033
 20
0.0721802428836922
 42
-0.2004737922071577
 10
0.0675899560062661
 20
0.0493140662236327
 42
-0.1115040980661369
 10
0.0435945854370701
 20
0.0491023423656691
 42
-0.2738586692622027
 10
0.0327260940616085
 20
0.0607471545536624
 42
-0.289643054085014
 10
0.0396424067550818
 20
0.0788142570998818
 42
-0.1190249358109779
 10
0.0555922707216681
 20
0.0853071220774298
 42
-0.0006545690929014
 10
0.0798699397681482
 20
0.090247345429912
 42
0.031014715336947
 97
        0
 92
        7
 72
     1
 73
     1
 93
       27
 10
0.1652652291467689
 20
0.029412023575063
 42
0.0
 10
0.190248644386461
 20
0.029412023575063
 42
0.0
 10
0.190248644386461
 20
0.1101493880784821
 42
-0.1716644096531924
 10
0.201540583477847
 20
0.1296279830111251
 42
-0.1448545784781812
 10
0.2204545814559218
 20
0.1386615342842345
 42
-0.1340090766267909
 10
0.2387334078601029
 20
0.1364737210852782
 42
-0.2563461470910333
 10
0.251789712434519
 20
0.1191829393515924
 42
0.0
 10
0.251789712434519
 20
0.029412023575063
 42
0.0
 10
0.2769142769128621
 20
0.029412023575063
 42
0.0
 10
0.2769142769128585
 20
0.1122248338667866
 42
-0.1830801363087423
 10
0.290394029203199
 20
0.1313217738748333
 42
-0.1206854715101709
 10
0.3079671094141716
 20
0.1382380865683075
 42
-0.2157527517618656
 10
0.3302955423434426
 20
0.1343051372786799
 42
-0.2679983488848178
 10
0.33845534496092
 20
0.1204532824994029
 42
0.0
 10
0.3384553449609164
 20
0.029412023575063
 42
0.0
 10
0.3634387602006122
 20
0.029412023575063
 42
0.0
 10
0.3634387602006122
 20
0.1204532824993727
 42
0.0
 10
0.3634387602006122
 20
0.1262404012837086
 42
0.2784603970195297
 10
0.3398668373473406
 20
0.1571520845463814
 42
0.1495326253440701
 10
0.3038737814935466
 20
0.1587047261714471
 42
0.1796241607690637
 10
0.2743735906172944
 20
0.1366854449432417
 42
0.1190036376854939
 10
0.259270622082564
 20
0.1530587566257537
 42
0.1510696384071214
 10
0.2256771032856868
 20
0.1606808155124395
 42
0.122416550902687
 10
0.2069042545462558
 20
0.154611398250819
 42
0.0903817772246913
 10
0.190248644386461
 20
0.1389438327615187
 42
0.0
 10
0.190248644386461
 20
0.1584224276941626
 42
0.0
 10
0.1652652291467689
 20
0.1584224276941626
 42
0.0
 97
        0
 92
        7
 72
     1
 73
     1
 93
       20
 10
0.394400052158776
 20
0.0540936540010786
 42
0.2523749963765703
 10
0.4225097165724279
 20
0.0294825981943845
 42
0.100875959972303
 10
0.4522216313066459
 20
0.0279299565693183
 42
0.1558313267708855
 10
0.4889533641104756
 20
0.0445146262124951
 42
0.0
 10
0.4889204333536519
 20
0.0415508580983044
 42
0.1600174655974661
 10
0.4938606567061364
 20
0.029412023575063
 42
0.0
 10
0.5239254445369533
 20
0.029412023575063
 42
-0.1096578030036369
 10
0.5175737287980695
 20
0.0360460377912322
 42
-0.1371553684287215
 10
0.5139038485933476
 20
0.0491729169849902
 42
0.0
 10
0.5139038485933476
 20
0.1239820134654312
 42
0.2670772446390557
 10
0.4900496272627848
 20
0.1551759952053913
 42
0.1085027846705556
 10
0.4458699155677373
 20
0.1602573677965129
 42
0.3343505200399825
 10
0.3997141145316938
 20
0.1204532824993727
 42
0.0
 10
0.4272382160669502
 20
0.1204532824993727
 42
-0.2815324590939487
 10
0.44479108338831
 20
0.138136335844794
 42
-0.1775171235246857
 10
0.4777696435009098
 20
0.1356974002727447
 42
-0.2483479329952225
 10
0.4889204333536519
 20
0.1169245515333142
 42
0.0
 10
0.4654896597390277
 20
0.1098670896011979
 42
0.0
 10
0.4426940576982866
 20
0.1047857170100728
 42
0.113500075695427
 10
0.4111352055345066
 20
0.0943427637066989
 42
0.335029435887291
 97
        0
 92
       22
 72
     1
 73
     1
 93
        8
 10
0.428508559214734
 20
0.0788142570998818
 42
-0.1190249358109779
 10
0.4444584231813167
 20
0.0853071220774298
 42
-0.0006545690929014
 10
0.4687360922277968
 20
0.090247345429912
 42
0.0310147153369478
 10
0.4889204333536519
 20
0.0951875687823938
 42
0.0
 10
0.4889204333536519
 20
0.0721802428836922
 42
-0.2004737922071577
 10
0.4564561084659147
 20
0.0493140662236327
 42
-0.1115040980661369
 10
0.4324607378967152
 20
0.0491023423656691
 42
-0.2738586692622027
 10
0.4215922465212572
 20
0.0607471545536624
 42
-0.289643054085014
 97
        0
 92
        7
 72
     1
 73
     1
 93
       10
 10
0.663239743076943
 20
0.1331926123684131
 42
0.0
 10
0.663239743076943
 20
0.1584224276941626
 42
0.0
 10
0.5528610384586337
 20
0.1584224276941626
 42
0.0
 10
0.5528610384586337
 20
0.131856746110742
 42
0.0
 10
0.6257181970985002
 20
0.131856746110742
 42
0.0
 10
0.5479208151061528
 20
0.0491729169849911
 42
0.0
 10
0.5479208151061528
 20
0.0294120235750635
 42
-0.1473109550280885
 10
0.6697326080544919
 20
0.0294120235750626
 42
0.0
 10
0.6697326080544919
 20
0.0571523003158232
 42
0.0747823019347494
 10
0.5993877560186079
 20
0.0648932232264121
 42
0.0
 97
        0
 92
        7
 72
     1
 73
     1
 93
        2
 10
0.6959863664419679
 20
0.0963873373108535
 42
1.0
 10
0.8314896355386132
 20
0.0963873373108535
 42
1.0
 97
        0
 92
       22
 72
     1
 73
     1
 93
        2
 10
0.8038952074487184
 20
0.0963873373108535
 42
-1.0
 10
0.7235807945318662
 20
0.0963873373108535
 42
-1.0
 97
        0
 92
        7
 72
     1
 73
     1
 93
       15
 10
0.8640951096649978
 20
0.029412023575063
 42
0.0
 10
0.8892196741433302
 20
0.029412023575063
 42
0.0
 10
0.8892196741433302
 20
0.0949052703051088
 42
-0.1884880930389393
 10
0.9041814934394203
 20
0.1270872967155627
 42
-0.0825504763720134
 10
0.9201313574060066
 20
0.1392261312388041
 42
-0.1879859195515259
 10
0.9445501756911305
 20
0.1407787728638694
 42
-0.3400688989443128
 10
0.9619115320441373
 20
0.1182045668051281
 42
0.0
 10
0.9619115320441373
 20
0.029412023575063
 42
0.0
 10
0.9870360965224733
 20
0.029412023575063
 42
0.0
 10
0.9870360965224769
 20
0.1266638489996357
 42
0.3709832727766776
 10
0.9482103391004166
 20
0.1601305380458484
 42
0.160618198198489
 10
0.9133561939511736
 20
0.1548936967281036
 42
0.0920112842116662
 10
0.8892196741433302
 20
0.1354151017954623
 42
0.0
 10
0.8892196741433338
 20
0.1584224276941626
 42
0.0
 10
0.8640951096649978
 20
0.1584224276941621
 42
0.0
 97
        0
 75
     0
 76
     1
 47
0.0079344138681199
 98
        9
 10
0.1041026039046571
 20
0.1181074496955725
 10
0.1041026039046571
 20
0.1181074496955725
 10
0.175984830732844
 20
0.0960117050036842
 10
0.4173016553328531
 20
0.0814964234246487
 10
0.4173016553328531
 20
0.0814964234246487
 10
0.6014388651587482
 20
0.0843995011035044
 10
0.7112275707548826
 20
0.1221816495361003
 10
0.7112275707548826
 20
0.1221816495361003
 10
0.8759819569295572
 20
0.1163755475860104
450
        0
451
        0
460
0.0
461
0.0
452
        1
462
1.0
453
        2
463
0.0
 63
     5
421
      255
463
1.0
 63
     7
421
 16777215
470
LINEAR
1001
ACAD
1010
0.0
1020
0.0
1030
0.0
  0
HATCH
  5
B35
330
B30
100
AcDbEntity
  8
0
 62
   150
100
AcDbHatch
 10
0.0
 20
0.0
 30
0.0
210
0.0
220
0.0
230
1.0
  2
SOLID
 70
     1
 71
     0
 91
        8
 92
        7
 72
     1
 73
     1
 93
       22
 10
1.131716859301388
 20
0.0982802106585603
 42
0.0484183422992068
 10
1.088571435005292
 20
0.1135920246412381
 42
-0.1024497749852004
 10
1.063583383368957
 20
0.125237861247649
 42
-0.5197370575112227
 10
1.065952625421378
 20
0.1500864950045506
 42
-0.1784163181567931
 10
1.097462280584622
 20
0.1562497626075707
 42
-0.1611556671223822
 10
1.130948711999153
 20
0.1417059730721331
 42
0.0
 10
1.143877562730139
 20
0.1560685971400009
 42
0.0879608039459819
 10
1.125754289819187
 20
0.1671964668262178
 42
0.096844267443967
 10
1.086490181797579
 20
0.1727441735534061
 42
0.1289645081611661
 10
1.053342092127955
 20
0.1633533786648891
 42
0.2520599057044872
 10
1.037629278411372
 20
0.1399706628121899
 42
0.2998873610886212
 10
1.050463850241648
 20
0.1096908005921695
 42
0.087968247036807
 10
1.088782354168369
 20
0.0932096049078468
 42
-0.0908267507933147
 10
1.119928772767817
 20
0.0811747820304691
 42
-0.4466858316882535
 10
1.125453128485816
 20
0.0540976492614389
 42
-0.2058443735084833
 10
1.094059901125532
 20
0.0433269295271455
 42
-0.2322683613354944
 10
1.04833474053288
 20
0.0635860005622337
 42
0.0
 10
1.033442870302863
 20
0.0487121861500608
 42
0.0897498636939959
 10
1.054992265021407
 20
0.0336893058402592
 42
0.1162784600455089
 10
1.100093060274716
 20
0.0271838680846326
 42
0.1305494116801128
 10
1.134902795650507
 20
0.0379471166909786
 42
0.2700443324603339
 10
1.150563716135536
 20
0.0687356163070478
 42
0.2747552069495999
 97
        0
 92
        7
 72
     1
 73
     1
 93
       17
 10
1.204964925758659
 20
0.0711619205531866
 42
0.0
 10
1.204964925758659
 20
0.1705032481376225
 42
0.0
 10
1.182530424786222
 20
0.1705032481376221
 42
0.0
 10
1.182530424786222
 20
0.068114123580882
 42
0.231056446390574
 10
1.200275679141658
 20
0.0337787716591849
 42
0.1033983125445035
 10
1.222016181175408
 20
0.0271400549874108
 42
0.1113661879093152
 10
1.256252700835137
 20
0.0321455417860066
 42
0.060456799039856
 10
1.280359576718197
 20
0.0437750658039402
 42
0.0
 10
1.282436740080608
 20
0.0292528824702614
 42
0.0
 10
1.305008011852606
 20
0.0292528824702614
 42
0.0
 10
1.303035750365566
 20
0.045573054697837
 42
0.0
 10
1.303035750365566
 20
0.1704535782767582
 42
0.0
 10
1.280726706724607
 20
0.1704535782767582
 42
0.0
 10
1.280726706724607
 20
0.0603385752977079
 42
-0.0926529444633646
 10
1.271406905425951
 20
0.0542136206901671
 42
-0.0664344377826394
 10
1.252018117536273
 20
0.0470706779667407
 42
-0.0713593701437487
 10
1.22596399727168
 20
0.0462232117768133
 42
-0.3666103947779491
 97
        0
 92
        7
 72
     1
 73
     1
 93
       12
 10
1.34888971452673
 20
-0.0300855190343001
 42
0.0
 10
1.37158389411627
 20
-0.0300855190342997
 42
0.0
 10
1.37158389411627
 20
0.0381322242109672
 42
0.2065475696655794
 10
1.43316687203049
 20
0.0295489681525751
 42
0.2194428372319613
 10
1.471434120104095
 20
0.0681246169490031
 42
0.1323036971285341
 10
1.475462458348772
 20
0.1210354643912233
 42
0.1641390880683366
 10
1.453695611337639
 20
0.1611617476764042
 42
0.205639974219759
 10
1.404711616991345
 20
0.1717914749112652
 42
0.0657328919071964
 10
1.371062306057382
 20
0.1603071107053626
 42
0.0
 10
1.369185970032088
 20
0.1704922854774775
 42
0.0
 10
1.347893491957236
 20
0.1704922854774775
 42
0.0
 10
1.348889714526734
 20
0.1571025974974671
 42
0.0
 97
        0
 92
       22
 72
     1
 73
     1
 93
        8
 10
1.37158389411627
 20
0.1447873628418232
 42
-0.1242339830404592
 10
1.408127279067805
 20
0.1549128436768488
 42
-0.229840994742505
 10
1.439329608924591
 20
0.143501077402358
 42
-0.1934262502536381
 10
1.452032531529923
 20
0.1169919663469652
 42
-0.1013985410677669
 10
1.45007247035501
 20
0.0757878280977211
 42
-0.2083357761076617
 10
1.426144858393048
 20
0.0470888301796872
 42
-0.1496858148879605
 10
1.383365488627418
 20
0.0497243925890185
 42
-0.0899155484976542
 10
1.37158389411627
 20
0.0564933659367366
 42
0.0
 97
        0
 92
        7
 72
     1
 73
     1
 93
       12
 10
1.536384209201344
 20
0.0381322242109672
 42
0.2065475696655794
 10
1.597967187115564
 20
0.0295489681525751
 42
0.2194428372319613
 10
1.63623443518917
 20
0.0681246169490031
 42
0.1323036971285341
 10
1.640262773433846
 20
0.1210354643912233
 42
0.1641390880683366
 10
1.618495926422713
 20
0.1611617476764042
 42
0.205639974219759
 10
1.569511932076419
 20
0.1717914749112652
 42
0.0657328919071964
 10
1.535862621142456
 20
0.1603071107053626
 42
0.0
 10
1.533986285117165
 20
0.1704922854774775
 42
0.0
 10
1.51269380704231
 20
0.1704922854774775
 42
0.0
 10
1.513690029611812
 20
0.1571025974974671
 42
0.0
 10
1.513690029611804
 20
-0.0300855190343001
 42
0.0
 10
1.536384209201344
 20
-0.0300855190342997
 42
0.0
 97
        0
 92
       22
 72
     1
 73
     1
 93
        8
 10
1.53638420920134
 20
0.0564933659367348
 42
0.0
 10
1.536384209201344
 20
0.1447873628418232
 42
-0.1242339830404592
 10
1.572927594152879
 20
0.1549128436768488
 42
-0.229840994742505
 10
1.604129924009665
 20
0.143501077402358
 42
-0.1934262502536381
 10
1.616832846614997
 20
0.1169919663469652
 42
-0.1013985410677669
 10
1.614872785440084
 20
0.0757878280977211
 42
-0.2083357761076617
 10
1.590945173478122
 20
0.0470888301796872
 42
-0.1496858148879605
 10
1.548165803712493
 20
0.0497243925890185
 42
-0.0899155484976689
 97
        0
 92
        7
 72
     1
 73
     1
 93
        9
 10
1.700061888317705
 20
0.2342426883985293
 42
0.0
 10
1.677630680467434
 20
0.2342426883985293
 42
0.0
 10
1.67763068046743
 20
0.0525526462764159
 42
0.3003574180393968
 10
1.689763445472692
 20
0.0294232917661481
 42
0.1772930531369512
 10
1.716213749579594
 20
0.0296692382956376
 42
0.0
 10
1.726340843842322
 20
0.0328930300171466
 42
0.0
 10
1.722947015877874
 20
0.0450847282577249
 42
0.0
 10
1.715478639728772
 20
0.0445718860057287
 42
-0.4033750267256485
 10
1.700061888317705
 20
0.0551463102997136
 42
0.0
 97
        0
 92
        7
 72
     1
 73
     1
 93
       13
 10
1.756550300014353
 20
0.1705037737446156
 42
0.0
 10
1.733158403445031
 20
0.1705037737446147
 42
0.0
 10
1.789004390745333
 20
0.0387212794769898
 42
-0.1248046720339364
 10
1.779651976914252
 20
0.0098440558334927
 42
-0.2041270254703542
 10
1.758338890268429
 20
-0.0108879300937863
 42
-0.1582846410265598
 10
1.728104948139659
 20
-0.0088290148710986
 42
0.0
 10
1.723524002749954
 20
-0.0288461752875353
 42
0.0503996825504031
 10
1.752727303871125
 20
-0.0310194851179708
 42
0.1573307408029109
 10
1.778748174224848
 20
-0.02185783610684
 42
0.1379639421479074
 10
1.7998397718477
 20
0.0061205808064937
 42
0.0
 10
1.863932002621172
 20
0.1705037737446151
 42
0.0
 10
1.84037943355916
 20
0.1705037737446147
 42
0.0
 10
1.801429340670335
 20
0.0575527643750102
 42
0.0
 97
        0
 75
     0
 76
     1
 47
0.0008892483299936
 98
        8
 10
1.136466178840407
 20
0.0806040287034282
 10
1.218376325116423
 20
0.039698608137611
 10
1.365280380260387
 20
0.0654868019383397
 10
1.365280380260387
 20
0.0654868019383397
 10
1.532067085388874
 20
0.0510462190903649
 10
1.532067085388874
 20
0.0510462190903649
 10
1.692326025665067
 20
0.0661634458554534
 10
1.78937173321124
 20
0.0643849607353548
450
        0
451
        0
460
0.0
461
0.0
452
        1
462
1.0
453
        2
463
0.0
 63
     5
421
      255
463
1.0
 63
     7
421
 16777215
470
LINEAR
1001
ACAD
1010
0.0
1020
0.0
1030
0.0
  0
ENDBLK
  5
B36
330
B30
100
AcDbEntity
  8
0
100
AcDbBlockEnd
  0
BLOCK
  5
E7F
330
E7E
100
AcDbEntity
  8
0
100
AcDbBlockBegin
  2
SW_CENTERMARKSYMBOL_0
 70
     0
 10
0.0
 20
0.0
 30
0.0
  3
SW_CENTERMARKSYMBOL_0
  1

  0
LINE
  5
E80
330
E7E
100
AcDbEntity
  8
0
  6
Continuous
 62
     0
370
     0
100
AcDbLine
 10
0.0
 20
0.0
 30
0.0
 11
0.0
 21
0.0999999999999995
 31
0.0
  0
LINE
  5
E81
330
E7E
100
AcDbEntity
  8
0
  6
Continuous
 62
     0
370
     0
100
AcDbLine
 10
0.0
 20
0.0
 30
0.0
 11
-0.0999999999999995
 21
0.0
 31
0.0
  0
LINE
  5
E82
330
E7E
100
AcDbEntity
  8
0
  6
Continuous
 62
     0
370
     0
100
AcDbLine
 10
0.0
 20
0.0
 30
0.0
 11
0.0
 21
-0.0999999999999995
 31
0.0
  0
LINE
  5
E83
330
E7E
100
AcDbEntity
  8
0
  6
Continuous
 62
     0
370
     0
100
AcDbLine
 10
0.0
 20
0.0
 30
0.0
 11
0.0999999999999995
 21
0.0
 31
0.0
  0
LINE
  5
E84
330
E7E
100
AcDbEntity
  8
0
  6
Continuous
 62
     0
370
     0
100
AcDbLine
 10
0.0
 20
0.2
 30
0.0
 11
0.0
 21
0.3854330708661415
 31
0.0
  0
LINE
  5
E85
330
E7E
100
AcDbEntity
  8
0
  6
Continuous
 62
     0
370
     0
100
AcDbLine
 10
-0.199999999999999
 20
0.0
 30
0.0
 11
-0.3854330708661426
 21
0.0
 31
0.0
  0
LINE
  5
E86
330
E7E
100
AcDbEntity
  8
0
  6
Continuous
 62
     0
370
     0
100
AcDbLine
 10
0.0
 20
-0.2
 30
0.0
 11
0.0
 21
-0.3854330708661415
 31
0.0
  0
LINE
  5
E87
330
E7E
100
AcDbEntity
  8
0
  6
Continuous
 62
     0
370
     0
100
AcDbLine
 10
0.199999999999999
 20
0.0
 30
0.0
 11
0.3854330708661426
 21
0.0
 31
0.0
  0
ENDBLK
  5
E88
330
E7E
100
AcDbEntity
  8
0
100
AcDbBlockEnd
  0
BLOCK
  5
EA2
330
E98
100
AcDbEntity
  8
0
100
AcDbBlockBegin
  2
*D6
 70
     1
 10
0.0
 20
0.0
 30
0.0
  3
*D6
  1

  0
LINE
  5
E99
330
E98
100
AcDbEntity
  8
DIM
 62
     0
370
    -2
100
AcDbLine
 10
0.0751650871865903
 20
0.2420105719529846
 30
0.0
 11
0.0751650871865903
 21
0.2935916694327275
 31
0.0
  0
LINE
  5
E9A
330
E98
100
AcDbEntity
  8
DIM
 62
     0
370
    -2
100
AcDbLine
 10
0.3095631749620256
 20
0.229784510561328
 30
0.0
 11
0.3095631749620256
 21
0.2935916694327275
 31
0.0
  0
LINE
  5
E9B
330
E98
100
AcDbEntity
  8
DIM
 62
     0
370
    -2
100
AcDbLine
 10
0.0851650871865903
 20
0.2885916694327275
 30
0.0
 11
0.2995631749620256
 21
0.2885916694327275
 31
0.0
  0
SOLID
  5
E9C
330
E98
100
AcDbEntity
  8
DIM
 62
     0
100
AcDbTrace
 10
0.0851650871865903
 20
0.2902583360993942
 30
0.0
 11
0.0851650871865903
 21
0.2869250027660608
 31
0.0
 12
0.0751650871865903
 22
0.2885916694327275
 32
0.0
 13
0.0751650871865903
 23
0.2885916694327275
 33
0.0
  0
SOLID
  5
E9D
330
E98
100
AcDbEntity
  8
DIM
 62
     0
100
AcDbTrace
 10
0.2995631749620256
 20
0.2902583360993942
 30
0.0
 11
0.2995631749620256
 21
0.2869250027660608
 31
0.0
 12
0.3095631749620256
 22
0.2885916694327275
 32
0.0
 13
0.3095631749620256
 23
0.2885916694327275
 33
0.0
  0
MTEXT
  5
E9E
330
E98
100
AcDbEntity
  8
DIM
 62
     0
100
AcDbMText
 10
0.1923641310743079
 20
0.2968431990044475
 30
0.0
 40
0.01
 41
0.0
 46
0.0
 71
     5
 72
     1
  1
\A1;0.23
 73
     1
 44
1.0
  0
POINT
  5
E9F
330
E98
100
AcDbEntity
  8
Defpoints
 62
     0
100
AcDbPoint
 10
0.0751650871865903
 20
0.2370105719529846
 30
0.0
  0
POINT
  5
EA0
330
E98
100
AcDbEntity
  8
Defpoints
 62
     0
100
AcDbPoint
 10
0.3095631749620256
 20
0.224784510561328
 30
0.0
  0
POINT
  5
EA1
330
E98
100
AcDbEntity
  8
Defpoints
 62
     0
100
AcDbPoint
 10
0.3095631749620256
 20
0.2885916694327275
 30
0.0
  0
ENDBLK
  5
EA3
330
E98
100
AcDbEntity
  8
0
100
AcDbBlockEnd
  0
BLOCK
  5
EAF
330
EA5
100
AcDbEntity
  8
0
100
AcDbBlockBegin
  2
*D7
 70
     1
 10
0.0
 20
0.0
 30
0.0
  3
*D7
  1

  0
LINE
  5
EA6
330
EA5
100
AcDbEntity
  8
DIM
 62
     0
370
    -2
100
AcDbLine
 10
0.3095631749601804
 20
0.2297845105582571
 30
0.0
 11
0.3095631749601804
 21
0.3304512945091963
 31
0.0
  0
LINE
  5
EA7
330
EA5
100
AcDbEntity
  8
DIM
 62
     0
370
    -2
100
AcDbLine
 10
0.0595631749625119
 20
0.2420103784274184
 30
0.0
 11
0.0595631749625119
 21
0.3304512945091963
 31
0.0
  0
LINE
  5
EA8
330
EA5
100
AcDbEntity
  8
DIM
 62
     0
370
    -2
100
AcDbLine
 10
0.2995631749601804
 20
0.3254512945091963
 30
0.0
 11
0.0695631749625119
 21
0.3254512945091963
 31
0.0
  0
SOLID
  5
EA9
330
EA5
100
AcDbEntity
  8
DIM
 62
     0
100
AcDbTrace
 10
0.2995631749601804
 20
0.327117961175863
 30
0.0
 11
0.2995631749601804
 21
0.3237846278425296
 31
0.0
 12
0.3095631749601804
 22
0.3254512945091963
 32
0.0
 13
0.3095631749601804
 23
0.3254512945091963
 33
0.0
  0
SOLID
  5
EAA
330
EA5
100
AcDbEntity
  8
DIM
 62
     0
100
AcDbTrace
 10
0.0695631749625119
 20
0.327117961175863
 30
0.0
 11
0.0695631749625119
 21
0.3237846278425296
 31
0.0
 12
0.0595631749625119
 22
0.3254512945091963
 32
0.0
 13
0.0595631749625119
 23
0.3254512945091963
 33
0.0
  0
MTEXT
  5
EAB
330
EA5
100
AcDbEntity
  8
DIM
 62
     0
100
AcDbMText
 10
0.1845631749613461
 20
0.3337028240809162
 30
0.0
 40
0.01
 41
0.0
 46
0.0
 71
     5
 72
     1
  1
\A1;0.25
 73
     1
 44
1.0
  0
POINT
  5
EAC
330
EA5
100
AcDbEntity
  8
Defpoints
 62
     0
100
AcDbPoint
 10
0.3095631749601804
 20
0.2247845105582571
 30
0.0
  0
POINT
  5
EAD
330
EA5
100
AcDbEntity
  8
Defpoints
 62
     0
100
AcDbPoint
 10
0.0595631749625119
 20
0.2370103784274184
 30
0.0
  0
POINT
  5
EAE
330
EA5
100
AcDbEntity
  8
Defpoints
 62
     0
100
AcDbPoint
 10
0.0595631749625119
 20
0.3254512945091963
 30
0.0
  0
ENDBLK
  5
EB0
330
EA5
100
AcDbEntity
  8
0
100
AcDbBlockEnd
  0
BLOCK
  5
EBC
330
EB2
100
AcDbEntity
  8
0
100
AcDbBlockBegin
  2
*D8
 70
     1
 10
0.0
 20
0.0
 30
0.0
  3
*D8
  1

  0
LINE
  5
EB3
330
EB2
100
AcDbEntity
  8
DIM
 62
     0
370
    -2
100
AcDbLine
 10
0.2528063207610113
 20
0.2567845105621491
 30
0.0
 11
0.3633848118747639
 21
0.2567845105621491
 31
0.0
  0
LINE
  5
EB4
330
EB2
100
AcDbEntity
  8
DIM
 62
     0
370
    -2
100
AcDbLine
 10
0.2676875711133043
 20
0.1187845105621492
 30
0.0
 11
0.3633848118747638
 21
0.1187845105621492
 31
0.0
  0
LINE
  5
EB5
330
EB2
100
AcDbEntity
  8
DIM
 62
     0
370
    -2
100
AcDbLine
 10
0.3583848118747639
 20
0.2467845105621491
 30
0.0
 11
0.3583848118747639
 21
0.1287845105621492
 31
0.0
  0
SOLID
  5
EB6
330
EB2
100
AcDbEntity
  8
DIM
 62
     0
100
AcDbTrace
 10
0.3567181452080972
 20
0.2467845105621491
 30
0.0
 11
0.3600514785414306
 21
0.2467845105621491
 31
0.0
 12
0.3583848118747639
 22
0.2567845105621491
 32
0.0
 13
0.3583848118747639
 23
0.2567845105621491
 33
0.0
  0
SOLID
  5
EB7
330
EB2
100
AcDbEntity
  8
DIM
 62
     0
100
AcDbTrace
 10
0.3567181452080972
 20
0.1287845105621492
 30
0.0
 11
0.3600514785414306
 21
0.1287845105621492
 31
0.0
 12
0.3583848118747638
 22
0.1187845105621492
 32
0.0
 13
0.3583848118747638
 23
0.1187845105621492
 33
0.0
  0
MTEXT
  5
EB8
330
EB2
100
AcDbEntity
  8
DIM
 62
     0
100
AcDbMText
 10
0.3501332823030439
 20
0.1877845105621492
 30
0.0
 40
0.01
 41
0.0
 46
0.0
 71
     5
 72
     1
  1
\A1;0.14
 11
0.0000000000000001
 21
1.0
 31
0.0
 73
     1
 44
1.0
  0
POINT
  5
EB9
330
EB2
100
AcDbEntity
  8
Defpoints
 62
     0
100
AcDbPoint
 10
0.2478063207610113
 20
0.2567845105621491
 30
0.0
  0
POINT
  5
EBA
330
EB2
100
AcDbEntity
  8
Defpoints
 62
     0
100
AcDbPoint
 10
0.2626875711133043
 20
0.1187845105621492
 30
0.0
  0
POINT
  5
EBB
330
EB2
100
AcDbEntity
  8
Defpoints
 62
     0
100
AcDbPoint
 10
0.3583848118747638
 20
0.1187845105621492
 30
0.0
  0
ENDBLK
  5
EBD
330
EB2
100
AcDbEntity
  8
0
100
AcDbBlockEnd
  0
BLOCK
  5
EC9
330
EBF
100
AcDbEntity
  8
0
100
AcDbBlockBegin
  2
*D9
 70
     1
 10
0.0
 20
0.0
 30
0.0
  3
*D9
  1

  0
LINE
  5
EC0
330
EBF
100
AcDbEntity
  8
DIM
 62
     0
370
    -2
100
AcDbLine
 10
0.5562176438464438
 20
0.1926425055745707
 30
0.0
 11
0.5562176438464438
 21
0.2940821370598251
 31
0.0
  0
LINE
  5
EC1
330
EBF
100
AcDbEntity
  8
DIM
 62
     0
370
    -2
100
AcDbLine
 10
0.6942173457198954
 20
0.1929343463923716
 30
0.0
 11
0.6942173457198954
 21
0.2940821370598251
 31
0.0
  0
LINE
  5
EC2
330
EBF
100
AcDbEntity
  8
DIM
 62
     0
370
    -2
100
AcDbLine
 10
0.5662176438464437
 20
0.2890821370598251
 30
0.0
 11
0.6842173457198954
 21
0.2890821370598251
 31
0.0
  0
SOLID
  5
EC3
330
EBF
100
AcDbEntity
  8
DIM
 62
     0
100
AcDbTrace
 10
0.5662176438464437
 20
0.2907488037264918
 30
0.0
 11
0.5662176438464437
 21
0.2874154703931584
 31
0.0
 12
0.5562176438464438
 22
0.2890821370598251
 32
0.0
 13
0.5562176438464438
 23
0.2890821370598251
 33
0.0
  0
SOLID
  5
EC4
330
EBF
100
AcDbEntity
  8
DIM
 62
     0
100
AcDbTrace
 10
0.6842173457198954
 20
0.2907488037264918
 30
0.0
 11
0.6842173457198954
 21
0.2874154703931584
 31
0.0
 12
0.6942173457198954
 22
0.2890821370598251
 32
0.0
 13
0.6942173457198954
 23
0.2890821370598251
 33
0.0
  0
MTEXT
  5
EC5
330
EBF
100
AcDbEntity
  8
DIM
 62
     0
100
AcDbMText
 10
0.6252174947831695
 20
0.297333666631545
 30
0.0
 40
0.01
 41
0.0
 46
0.0
 71
     5
 72
     1
  1
\A1;0.14
 73
     1
 44
1.0
  0
POINT
  5
EC6
330
EBF
100
AcDbEntity
  8
Defpoints
 62
     0
100
AcDbPoint
 10
0.5562176438464438
 20
0.1876425055745707
 30
0.0
  0
POINT
  5
EC7
330
EBF
100
AcDbEntity
  8
Defpoints
 62
     0
100
AcDbPoint
 10
0.6942173457198954
 20
0.1879343463923716
 30
0.0
  0
POINT
  5
EC8
330
EBF
100
AcDbEntity
  8
Defpoints
 62
     0
100
AcDbPoint
 10
0.6942173457198954
 20
0.2890821370598251
 30
0.0
  0
ENDBLK
  5
ECA
330
EBF
100
AcDbEntity
  8
0
100
AcDbBlockEnd
  0
ENDSEC
  0
SECTION
  2
ENTITIES
  0
LWPOLYLINE
  5
43D
330
1F
100
AcDbEntity
  8
FORMAT
370
    15
100
AcDbPolyline
 90
        4
 70
     1
 43
0.0
 10
0.0
 20
0.0
 10
0.7817532181279501
 20
0.0
 10
0.7817532181279501
 20
0.5920072913978678
 10
0.0
 20
0.5920072913978678
  0
LINE
  5
43E
330
1F
100
AcDbEntity
  8
FORMAT
370
    15
100
AcDbLine
 10
0.3082140968351495
 20
0.0920072913978677
 30
0.0
 11
0.7817532181279501
 21
0.0920072913978677
 31
0.0
  0
LINE
  5
43F
330
1F
100
AcDbEntity
  8
FORMAT
370
    15
100
AcDbLine
 10
0.0
 20
0.0920072913978677
 30
0.0
 11
0.3082140968351495
 21
0.0920072913978677
 31
0.0
  0
LINE
  5
440
330
1F
100
AcDbEntity
  8
FORMAT
370
    15
100
AcDbLine
 10
0.4534705884173074
 20
0.0482482358389056
 30
0.0
 11
0.3082140968351495
 21
0.0482482358389056
 31
0.0
  0
LINE
  5
441
330
1F
100
AcDbEntity
  8
FORMAT
370
    15
100
AcDbLine
 10
0.4534705884173074
 20
0.0920072913978677
 30
0.0
 11
0.4534705884173074
 21
0.0
 31
0.0
  0
LINE
  5
442
330
1F
100
AcDbEntity
  8
FORMAT
370
    15
100
AcDbLine
 10
0.6662113250276227
 20
0.0920072913978677
 30
0.0
 11
0.6662113250276227
 21
0.0482482358389056
 31
0.0
  0
LINE
  5
443
330
1F
100
AcDbEntity
  8
FORMAT
370
    15
100
AcDbLine
 10
0.7817532181279501
 20
0.0287647482592504
 30
0.0
 11
0.6203342078121127
 21
0.0287647482592504
 31
0.0
  0
LINE
  5
444
330
1F
100
AcDbEntity
  8
FORMAT
370
    15
100
AcDbLine
 10
0.6203342078121127
 20
0.0
 30
0.0
 11
0.6203342078121127
 21
0.0482482358389056
 31
0.0
  0
LINE
  5
445
330
1F
100
AcDbEntity
  8
FORMAT
370
    15
100
AcDbLine
 10
0.6648150604513871
 20
0.5920072913978678
 30
0.0
 11
0.6648150604513871
 21
0.57135129655813
 31
0.0
  0
LINE
  5
446
330
1F
100
AcDbEntity
  8
FORMAT
370
    15
100
AcDbLine
 10
0.7817532181279501
 20
0.0482482358389056
 30
0.0
 11
0.4534705884173074
 21
0.0482482358389056
 31
0.0
  0
LINE
  5
447
330
1F
100
AcDbEntity
  8
FORMAT
370
    15
100
AcDbLine
 10
0.6648150604513871
 20
0.57135129655813
 30
0.0
 11
0.7817532181279501
 21
0.57135129655813
 31
0.0
  0
LINE
  5
448
330
1F
100
AcDbEntity
  8
FORMAT
370
    15
100
AcDbLine
 10
0.3082140968351495
 20
0.0920072913978677
 30
0.0
 11
0.3082140968351495
 21
0.0
 31
0.0
  0
MTEXT
  5
449
330
1F
100
AcDbEntity
  8
0
  6
Continuous
 62
   160
370
     0
100
AcDbMText
 10
0.6289167025593216
 20
0.0450815748205473
 30
0.0
 40
0.0063248642243363
 41
0.0
 46
0.0
 71
     1
 72
     1
  1
http://www.amazonsupply.com
  7
SLDTEXTSTYLE0
 73
     1
 44
1.0
1001
PE_URL
1000
http://www.amazonsupply.com/
1002
{
1000
http://www.amazonsupply.com/
1002
{
1071
        1
1002
}
1002
}
  0
INSERT
  5
44A
330
1F
100
AcDbEntity
  8
0
  6
Continuous
 62
     7
100
AcDbBlockReference
  2
Block2
 10
-0.0346812797893114
 20
-0.0918279467271014
 30
0.0
 41
0.0758983706920372
 42
0.075898370692034
 43
0.0758983706920343
  0
TEXT
  5
44B
330
1F
100
AcDbEntity
  8
FORMAT
 62
     7
100
AcDbText
 10
0.4564384258699729
 20
0.080918318558815
 30
0.0
 40
0.0075898370692034
  1
MATERIAL :
 41
0.9
  7
SLDTEXTSTYLE1
100
AcDbText
  0
TEXT
  5
44C
330
1F
100
AcDbEntity
  8
FORMAT
 62
     7
100
AcDbText
 10
0.334125075734437
 20
0.0599856585636067
 30
0.0
 40
0.0094872963365043
  1
B000FN63J4 
 41
0.9
  7
SLDTEXTSTYLE1
100
AcDbText
  0
TEXT
  5
44D
330
1F
100
AcDbEntity
  8
FORMAT
 62
     7
100
AcDbText
 10
0.6821935069446098
 20
0.5761001464300522
 30
0.0
 40
0.0094872963365043
  1
B000FN63J4 
  7
SLDTEXTSTYLE1
100
AcDbText
  0
TEXT
  5
44E
330
1F
100
AcDbEntity
  8
FORMAT
 62
     7
100
AcDbText
 10
0.3342193177479275
 20
0.0140636309682257
 30
0.0
 40
0.0094872963365043
  1
Small Parts 
 41
0.9
  7
SLDTEXTSTYLE1
100
AcDbText
  0
TEXT
  5
44F
330
1F
100
AcDbEntity
  8
FORMAT
 62
     0
100
AcDbText
 10
0.4932849920050554
 20
0.0622379403237792
 30
0.0
 40
0.0094872963365044
  1
Stainless Steel 
 41
0.9
  7
SLDTEXTSTYLE1
100
AcDbText
  0
TEXT
  5
450
330
1F
100
AcDbEntity
  8
FORMAT
 62
     7
100
AcDbText
 10
0.0078176610197247
 20
0.0712833156365035
 30
0.0
 40
0.0075898370692034
  1
ITEM NAME:
 41
0.9
  7
SLDTEXTSTYLE1
100
AcDbText
  0
TEXT
  5
451
330
1F
100
AcDbEntity
  8
FORMAT
 62
     7
100
AcDbText
 10
0.3141546560644255
 20
0.0772891016456847
 30
0.0
 40
0.0075898370692034
  1
ASIN :
 41
0.9
  7
SLDTEXTSTYLE1
100
AcDbText
  0
TEXT
  5
453
330
1F
100
AcDbEntity
  8
FORMAT
 62
     0
100
AcDbText
 10
0.4593368872834695
 20
0.0354992367629341
 30
0.0
 40
0.0047436481682522
  1
# UNLESS OTHERWISE SPECIFIED
 41
0.95
  7
SLDTEXTSTYLE1
100
AcDbText
  0
TEXT
  5
454
330
1F
100
AcDbEntity
  8
FORMAT
 62
     0
100
AcDbText
 10
0.4664644524526591
 20
0.0283323716246809
 30
0.0
 40
0.0047436481682522
  1
DIMENSIONS ARE IN INCHES
 41
0.95
  7
SLDTEXTSTYLE1
100
AcDbText
  0
TEXT
  5
455
330
1F
100
AcDbEntity
  8
FORMAT
 62
     0
100
AcDbText
 10
0.4593368872834695
 20
0.014379329924558
 30
0.0
 40
0.0047436481682522
  1
# INFORMATION IN THIS DRAWING IS PROVIDED FOR
 41
0.95
  7
SLDTEXTSTYLE1
100
AcDbText
  0
TEXT
  5
456
330
1F
100
AcDbEntity
  8
FORMAT
 62
     0
100
AcDbText
 10
0.4664451037857594
 20
0.0072124647863049
 30
0.0
 40
0.0047436481682522
  1
REFERENCE ONLY
 41
0.95
  7
SLDTEXTSTYLE1
100
AcDbText
  0
TEXT
  5
457
330
1F
100
AcDbEntity
  8
FORMAT
 62
     7
100
AcDbText
 10
0.3124175072515579
 20
0.032742432385219
 30
0.0
 40
0.0075898370692034
  1
BRAND :
 41
0.9
  7
SLDTEXTSTYLE1
100
AcDbText
  0
MTEXT
  5
50B
330
1F
100
AcDbEntity
  8
FORMAT
 62
     7
100
AcDbMText
 10
0.0289116574795525
 20
0.0632720492207231
 30
0.0
 40
0.0094872963365043
 41
0.2682281266255924
 46
0.0
 71
     1
 72
     1
  1
{\fCalibri|b0|i0|c0|p34;\H0.9167x;\C256;18-8 Stainless Steel Set Screw, Internal Hex Drive, Cup Point, Meets ASME B18.3/ASTM F880, 1/4" Length, #6-32 Threads (Pack of 100)}
  7
SLDTEXTSTYLE1
 73
     1
 44
1.0
  0
INSERT
  5
B40
330
1F
100
AcDbEntity
  8
0
100
AcDbBlockReference
  2
amazon block
 10
0.6286976216279748
 20
0.0078636494980514
 30
0.0
 41
0.0771730372253906
 42
0.0771730372253906
 43
0.0771730372253906
  0
SPLINE
  5
D7E
330
1F
100
AcDbEntity
  8
0
  6
Continuous
 62
     7
370
    15
100
AcDbSpline
210
0.0
220
0.0
230
1.0
 70
     8
 71
     3
 72
    19
 73
    15
 74
     0
 42
0.0000000001
 43
0.0000000001
 40
0.0
 40
0.0
 40
0.0
 40
0.0
 40
0.0637037942635798
 40
0.1646798444359359
 40
0.2608406860116488
 40
0.3521998719142078
 40
0.4387632522489544
 40
0.5205296385388111
 40
0.6220564579070822
 40
0.7150129985551238
 40
0.799350390786381
 40
0.8750079688861328
 40
0.9419162506808392
 40
1.0
 40
1.0
 40
1.0
 40
1.0
 10
0.6111219947040035
 20
0.1406314499524757
 30
0.0
 10
0.6100324219628828
 20
0.1409383654165173
 30
0.0
 10
0.6072157817362882
 20
0.1417317685639694
 30
0.0
 10
0.6029613914739214
 20
0.143603100812641
 30
0.0
 10
0.5984599507539734
 20
0.1460569261221027
 30
0.0
 10
0.5944375186690581
 20
0.1488111563888226
 30
0.0
 10
0.5908786999049367
 20
0.1517516918589963
 30
0.0
 10
0.5874572208778855
 20
0.1551135456655737
 30
0.0
 10
0.5842855351270986
 20
0.158866769595988
 30
0.0
 10
0.581467973121649
 20
0.1629457601929194
 30
0.0
 10
0.5792418172540108
 20
0.1668527689202279
 30
0.0
 10
0.5775227081854917
 20
0.1704999240688196
 30
0.0
 10
0.5762057801493788
 20
0.1738137018224202
 30
0.0
 10
0.5755242515720447
 20
0.1759264305506609
 30
0.0
 10
0.5752075455013701
 20
0.1769082147871193
 30
0.0
  0
LINE
  5
D7F
330
1F
100
AcDbEntity
  8
0
  6
Continuous
 62
     7
370
    15
100
AcDbLine
 10
0.6252174995197191
 20
0.136605517696879
 30
0.0
 11
0.6252174995197191
 21
0.1385586426968799
 31
0.0
  0
CIRCLE
  5
D80
330
1F
100
AcDbEntity
  8
0
  6
Continuous
 62
     7
370
    15
100
AcDbCircle
 10
0.6252174995197191
 20
0.1877845105621483
 30
0.0
 40
0.0492258678652684
  0
LINE
  5
D81
330
1F
100
AcDbEntity
  8
0
  6
Continuous
 62
     7
370
    15
100
AcDbLine
 10
0.607030966040246
 20
0.156284510562148
 30
0.0
 11
0.6434040329991931
 21
0.156284510562148
 31
0.0
  0
LINE
  5
D82
330
1F
100
AcDbEntity
  8
0
  6
Continuous
 62
     7
370
    15
100
AcDbLine
 10
0.6615905664786661
 20
0.1877845105621483
 30
0.0
 11
0.6434040329991931
 21
0.156284510562148
 31
0.0
  0
LINE
  5
D83
330
1F
100
AcDbEntity
  8
0
  6
Continuous
 62
     7
370
    15
100
AcDbLine
 10
0.6615905664786661
 20
0.1877845105621483
 30
0.0
 11
0.6434040329991931
 21
0.2192845105621486
 31
0.0
  0
LINE
  5
D84
330
1F
100
AcDbEntity
  8
0
  6
Continuous
 62
     7
370
    15
100
AcDbLine
 10
0.607030966040246
 20
0.2192845105621486
 30
0.0
 11
0.6434040329991931
 21
0.2192845105621486
 31
0.0
  0
LINE
  5
D85
330
1F
100
AcDbEntity
  8
0
  6
Continuous
 62
     7
370
    15
100
AcDbLine
 10
0.5888444325607729
 20
0.1877845105621483
 30
0.0
 11
0.607030966040246
 21
0.2192845105621486
 31
0.0
  0
LINE
  5
D86
330
1F
100
AcDbEntity
  8
0
  6
Continuous
 62
     7
370
    15
100
AcDbLine
 10
0.5888444325607729
 20
0.1877845105621483
 30
0.0
 11
0.607030966040246
 21
0.156284510562148
 31
0.0
  0
ARC
  5
D87
330
1F
100
AcDbEntity
  8
0
  6
Continuous
 62
     7
370
    15
100
AcDbCircle
 10
0.6252174995197191
 20
0.1877845105621483
 30
0.0
 40
0.0511789928654665
100
AcDbArc
 50
90.0
 51
192.2697694777579
  0
ARC
  5
D88
330
1F
100
AcDbEntity
  8
0
  6
Continuous
 62
     7
370
    15
100
AcDbCircle
 10
0.6252174995197191
 20
0.1877845105621483
 30
0.0
 40
0.0511789928654665
100
AcDbArc
 50
270.0000000000008
 51
90.0
  0
SPLINE
  5
D8A
330
1F
100
AcDbEntity
  8
0
  6
Continuous
 62
     7
370
    15
100
AcDbSpline
210
0.0
220
0.0
230
1.0
 70
     8
 71
     3
 72
    14
 73
    10
 74
     0
 42
0.0000000001
 43
0.0000000001
 40
0.0
 40
0.0
 40
0.0
 40
0.0
 40
0.25
 40
0.25
 40
0.5
 40
0.5
 40
0.75
 40
0.75
 40
1.0
 40
1.0
 40
1.0
 40
1.0
 10
0.5752075448742069
 20
0.1769082168218703
 30
0.0
 10
0.5732002820404914
 20
0.1834217288621418
 30
0.0
 10
0.5725724528518104
 20
0.1902214840471355
 30
0.0
 10
0.5738254722342049
 20
0.2036755445879392
 30
0.0
 10
0.5757463066510953
 20
0.2102894731659179
 30
0.0
 10
0.5818438718989576
 20
0.2222754632091131
 30
0.0
 10
0.5860910623215237
 20
0.227717706218749
 30
0.0
 10
0.5961058174412984
 20
0.2366983403181551
 30
0.0
 10
0.6019588052702405
 20
0.2403269863912869
 30
0.0
 10
0.6082972709038055
 20
0.242818709790614
 30
0.0
  0
ARC
  5
D8B
330
1F
100
AcDbEntity
  8
0
  6
Continuous
 62
     7
370
    15
100
AcDbCircle
 10
0.6252174995197191
 20
0.1877845105621483
 30
0.0
 40
0.0575765335964533
100
AcDbArc
 50
90.0
 51
107.0900114245966
  0
ARC
  5
D8C
330
1F
100
AcDbEntity
  8
0
  6
Continuous
 62
     7
370
    15
100
AcDbCircle
 10
0.6252174995197191
 20
0.1877845105621483
 30
0.0
 40
0.0690000002734767
100
AcDbArc
 50
214.1572612492219
 51
259.1572639830779
  0
SPLINE
  5
D8D
330
1F
100
AcDbEntity
  8
0
  6
Continuous
 62
     7
370
    15
100
AcDbSpline
210
0.0
220
0.0
230
1.0
 70
     8
 71
     3
 72
    14
 73
    10
 74
     0
 42
0.0000000001
 43
0.0000000001
 40
0.0
 40
0.0
 40
0.0
 40
0.0
 40
0.25
 40
0.25
 40
0.5
 40
0.5
 40
0.75
 40
0.75
 40
1.0
 40
1.0
 40
1.0
 40
1.0
 10
0.6252158065163407
 20
0.130207648947732
 30
0.0
 10
0.6200417315348066
 20
0.1292052357804683
 30
0.0
 10
0.6148552566051171
 20
0.1288833150428297
 30
0.0
 10
0.6044572348614441
 20
0.1295570221965359
 30
0.0
 10
0.5992444444604459
 20
0.1305782099599999
 30
0.0
 10
0.5893759790992128
 20
0.1338610414595682
 30
0.0
 10
0.5845831141065992
 20
0.1361666665314094
 30
0.0
 10
0.5757965987305127
 20
0.1418796136776605
 30
0.0
 10
0.571781452730443
 20
0.1452363193517807
 30
0.0
 10
0.5681200253228687
 20
0.1490433371697546
 30
0.0
  0
ARC
  5
D8E
330
1F
100
AcDbEntity
  8
0
  6
Continuous
 62
     7
370
    15
100
AcDbCircle
 10
0.6252174995197191
 20
0.1877845105621483
 30
0.0
 40
0.0575765335964533
100
AcDbArc
 50
270.0000336051783
 51
90.0
  0
SPLINE
  5
D8F
330
1F
100
AcDbEntity
  8
0
  6
Continuous
 62
     7
370
    15
100
AcDbSpline
210
0.0
220
0.0
230
1.0
 70
     8
 71
     3
 72
    34
 73
    30
 74
     0
 42
0.0000000001
 43
0.0000000001
 40
0.0
 40
0.0
 40
0.0
 40
0.0
 40
0.0625
 40
0.0625
 40
0.1249999999999999
 40
0.1249999999999999
 40
0.1874999999999999
 40
0.1874999999999999
 40
0.2499999999999999
 40
0.2499999999999999
 40
0.3124999999999999
 40
0.3124999999999999
 40
0.3749999999999999
 40
0.3749999999999999
 40
0.5
 40
0.5
 40
0.5625
 40
0.5625
 40
0.6250000000000001
 40
0.6250000000000001
 40
0.6875
 40
0.6875
 40
0.7500000000000001
 40
0.7500000000000001
 40
0.875
 40
0.875
 40
0.9374999999999998
 40
0.9374999999999998
 40
1.0
 40
1.0
 40
1.0
 40
1.0
 10
0.6082972709044805
 20
0.2428187097886663
 30
0.0
 10
0.6128346021606328
 20
0.2444964181153248
 30
0.0
 10
0.6174854136015667
 20
0.2455719520140742
 30
0.0
 10
0.6270066192409907
 20
0.2465574172993228
 30
0.0
 10
0.6318816930134723
 20
0.2464531524796603
 30
0.0
 10
0.6413352335375695
 20
0.2451179220335171
 30
0.0
 10
0.6460398590921522
 20
0.2438634770702159
 30
0.0
 10
0.6549298293723443
 20
0.2402958529296586
 30
0.0
 10
0.6591135277022247
 20
0.2380043916206636
 30
0.0
 10
0.666948403202798
 20
0.2323869568085093
 30
0.0
 10
0.6704888761796655
 20
0.229124527216094
 30
0.0
 10
0.6767383945003261
 20
0.2218963730159866
 30
0.0
 10
0.6794818834988039
 20
0.2178601393789061
 30
0.0
 10
0.6861109212143095
 20
0.2051637743420884
 30
0.0
 10
0.6885441415670597
 20
0.1956184358351156
 30
0.0
 10
0.6888355201190297
 20
0.1812743186014241
 30
0.0
 10
0.6883911965509589
 20
0.1764217953057527
 30
0.0
 10
0.6864728382301504
 20
0.1670752841601231
 30
0.0
 10
0.6849904647648364
 20
0.1624898558153442
 30
0.0
 10
0.681022641745912
 20
0.1537195409953225
 30
0.0
 10
0.678585916081361
 20
0.1496219736649311
 30
0.0
 10
0.6728252285035188
 20
0.141990381853875
 30
0.0
 10
0.6694720582521985
 20
0.1384531435319674
 30
0.0
 10
0.6585774585772564
 20
0.1291601999569525
 30
0.0
 10
0.6499144658943843
 20
0.1245129753791843
 30
0.0
 10
0.6361408397551403
 20
0.1205766249712385
 30
0.0
 10
0.6313362298148295
 20
0.1197461663316042
 30
0.0
 10
0.6217966323226963
 20
0.1191368326973783
 30
0.0
 10
0.6170202626701125
 20
0.1193260414229678
 30
0.0
 10
0.6122376380092148
 20
0.1200163528847855
 30
0.0
  0
LINE
  5
D91
330
1F
100
AcDbEntity
  8
0
  6
Continuous
 62
     7
370
    15
100
AcDbLine
 10
0.6419682475422715
 20
0.2547203936173159
 30
0.0
 11
0.6424111776057782
 21
0.2545602988174784
 31
0.0
  0
SPLINE
  5
D92
330
1F
100
AcDbEntity
  8
0
  6
Continuous
 62
     7
370
    15
100
AcDbSpline
210
0.0
220
0.0
230
1.0
 70
     8
 71
     3
 72
    73
 73
    69
 74
     0
 42
0.0000000001
 43
0.0000000001
 40
0.0
 40
0.0
 40
0.0
 40
0.0
 40
0.0145793078667172
 40
0.0291586206666979
 40
0.0441277784556481
 40
0.0590969344928773
 40
0.0713254631579624
 40
0.0835539881348354
 40
0.0960095348800638
 40
0.1084650751041985
 40
0.1230444623900922
 40
0.1376238615088309
 40
0.1525934913702178
 40
0.1675631278740626
 40
0.182723453949778
 40
0.1978837792961423
 40
0.2134841826303051
 40
0.2290845764110076
 40
0.2442501617029902
 40
0.2594157527240435
 40
0.2750221655891182
 40
0.2906285917643591
 40
0.3057894457582772
 40
0.3209503041416624
 40
0.3365512458171655
 40
0.3521521835062021
 40
0.3673189379501492
 40
0.3824856812618811
 40
0.3980934527382944
 40
0.4137012196477882
 40
0.4288621750422946
 40
0.4440231397438878
 40
0.459624330581675
 40
0.4752255231812012
 40
0.4903905412315472
 40
0.5055555529385695
 40
0.5211613147153439
 40
0.5367670612812498
 40
0.551928040034635
 40
0.5670890306677034
 40
0.5826905458224413
 40
0.5982920684097838
 40
0.6134527028718287
 40
0.6286133360672802
 40
0.6442140896219443
 40
0.659814833060954
 40
0.6800082406734979
 40
0.6945876279757464
 40
0.7091670271245342
 40
0.7241366570207523
 40
0.7391062935587688
 40
0.7542666193037473
 40
0.7694269443186505
 40
0.7850273473099089
 40
0.8006277407469482
 40
0.8157933256653212
 40
0.830958916313204
 40
0.8465653287732683
 40
0.8621717545427902
 40
0.8773326085939388
 40
0.8924934670338425
 40
0.9080944087645328
 40
0.9236953465079537
 40
0.9388621009945142
 40
0.9540288443482157
 40
0.9696366158654095
 40
0.9852443828131622
 40
1.0
 40
1.0
 40
1.0
 40
1.0
 10
0.5681200256944799
 20
0.1490433375962197
 30
0.0
 10
0.5671207122879381
 20
0.1505924895762125
 30
0.0
 10
0.5651220851367143
 20
0.1536907940603922
 30
0.0
 10
0.5625843194347704
 20
0.1586664510822202
 30
0.0
 10
0.5604135664673393
 20
0.1638617189246259
 30
0.0
 10
0.5587739981149005
 20
0.1689388788689583
 30
0.0
 10
0.5575999154314424
 20
0.1737846900709941
 30
0.0
 10
0.5568070232013289
 20
0.178385645033384
 30
0.0
 10
0.5563258385627928
 20
0.1830588983475496
 30
0.0
 10
0.5561540880390572
 20
0.1880519019914693
 30
0.0
 10
0.5563659607981358
 20
0.1933140086103289
 30
0.0
 10
0.5570344859914585
 20
0.1988572280740502
 30
0.0
 10
0.5581624760638473
 20
0.2043758190875926
 30
0.0
 10
0.5597584076125806
 20
0.209853808824938
 30
0.0
 10
0.561812798878357
 20
0.2152027562246546
 30
0.0
 10
0.564337673028069
 20
0.2204350945693005
 30
0.0
 10
0.5673262694138073
 20
0.2254828117893042
 30
0.0
 10
0.5707346106945579
 20
0.2302584786640991
 30
0.0
 10
0.5745008625321049
 20
0.2346860028561823
 30
0.0
 10
0.5786218144504547
 20
0.2387871845830669
 30
0.0
 10
0.5831187533767555
 20
0.2425591674259819
 30
0.0
 10
0.5879197124141929
 20
0.2459334179109898
 30
0.0
 10
0.5929403097001736
 20
0.2488590521719192
 30
0.0
 10
0.598185042862613
 20
0.2513585659081419
 30
0.0
 10
0.6036755023606082
 20
0.2534236626605515
 30
0.0
 10
0.6093228311929764
 20
0.2550138189684516
 30
0.0
 10
0.6150308159188374
 20
0.2561084368341207
 30
0.0
 10
0.6208113091018364
 20
0.2567266419600958
 30
0.0
 10
0.6266805890433558
 20
0.2568528039642248
 30
0.0
 10
0.6325382779418405
 20
0.2564782679742099
 30
0.0
 10
0.6382855864466795
 20
0.2556162368475499
 30
0.0
 10
0.6439405547534936
 20
0.254281599125219
 30
0.0
 10
0.6495148563937035
 20
0.2524543989344461
 30
0.0
 10
0.6549136450095477
 20
0.2501588369295118
 30
0.0
 10
0.6600490447855556
 20
0.2474392394131191
 30
0.0
 10
0.664942368364569
 20
0.2443031665295847
 30
0.0
 10
0.6695967246405541
 20
0.2407283772085216
 30
0.0
 10
0.6739298495012589
 20
0.2367695502329199
 30
0.0
 10
0.6778726552259729
 20
0.2324986760964633
 30
0.0
 10
0.6814472831092298
 20
0.2279171565327833
 30
0.0
 10
0.6846504679962262
 20
0.2230021201688141
 30
0.0
 10
0.6874230864708837
 20
0.2178324650720165
 30
0.0
 10
0.6897245944004951
 20
0.2124978836874178
 30
0.0
 10
0.6915765095549756
 20
0.2069911535773987
 30
0.0
 10
0.6929678483378084
 20
0.20129208696881
 30
0.0
 10
0.6939660194162097
 20
0.1948662310830573
 30
0.0
 10
0.694320152984199
 20
0.1884939050777033
 30
0.0
 10
0.6940689913277885
 20
0.1822540936854407
 30
0.0
 10
0.6934003325508505
 20
0.1767107080515067
 30
0.0
 10
0.6922722710963143
 20
0.1711921829502505
 30
0.0
 10
0.690676251864427
 20
0.1657142046456435
 30
0.0
 10
0.6886217795036096
 20
0.1603652924339163
 30
0.0
 10
0.6860968248242241
 20
0.1551329919676001
 30
0.0
 10
0.6831081510710604
 20
0.1500853209324062
 30
0.0
 10
0.6796997365032285
 20
0.1453097063170445
 30
0.0
 10
0.675933416691283
 20
0.140882239932441
 30
0.0
 10
0.6718124019320353
 20
0.1367811214945251
 30
0.0
 10
0.6673154054310349
 20
0.1330092080768055
 30
0.0
 10
0.6625143946468431
 20
0.1296350305567357
 30
0.0
 10
0.6574937531200141
 20
0.126709476177004
 30
0.0
 10
0.6522489796224633
 20
0.124210032271542
 30
0.0
 10
0.6467584961225273
 20
0.1221450604013445
 30
0.0
 10
0.6411111141807258
 20
0.1205548393307123
 30
0.0
 10
0.6354032165731489
 20
0.1194608585514953
 30
0.0
 10
0.629622324136621
 20
0.1188406836135178
 30
0.0
 10
0.6237545375683205
 20
0.1187225126709746
 30
0.0
 10
0.6179425398771317
 20
0.1190647418709285
 30
0.0
 10
0.6141557375263336
 20
0.1196996815241937
 30
0.0
 10
0.6123154747412985
 20
0.1200082415456589
 30
0.0
  0
LINE
  5
D93
330
1F
100
AcDbEntity
  8
0
  6
Continuous
 62
     7
370
    15
100
AcDbLine
 10
0.568548462265019
 20
0.1484811959336958
 30
0.0
 11
0.5668564830092118
 21
0.1510766201960609
 31
0.0
  0
LINE
  5
D94
330
1F
100
AcDbEntity
  8
0
  6
Continuous
 62
     7
370
    15
100
AcDbLine
 10
0.6394947160436973
 20
0.2552491088099189
 30
0.0
 11
0.6419682475428159
 21
0.2547203936194955
 31
0.0
  0
SPLINE
  5
D95
330
1F
100
AcDbEntity
  8
0
  6
Continuous
 62
     7
370
    15
100
AcDbSpline
210
0.0
220
0.0
230
1.0
 70
     8
 71
     3
 72
     9
 73
     5
 74
     0
 42
0.0000000001
 43
0.0000000001
 40
0.0
 40
0.0
 40
0.0
 40
0.0
 40
0.7377694329766824
 40
1.0
 40
1.0
 40
1.0
 40
1.0
 10
0.2913632622796056
 20
0.2382565598611896
 30
0.0
 10
0.2899373253814117
 20
0.2406934593746848
 30
0.0
 10
0.2880045577246655
 20
0.2439965231837449
 30
0.0
 10
0.2860786578237002
 20
0.2473038830105927
 30
0.0
 10
0.2855736280006411
 20
0.2481711738533376
 30
0.0
  0
SPLINE
  5
D96
330
1F
100
AcDbEntity
  8
0
  6
Continuous
 62
     7
370
    15
100
AcDbSpline
210
0.0
220
0.0
230
1.0
 70
     8
 71
     3
 72
     9
 73
     5
 74
     0
 42
0.0000000001
 43
0.0000000001
 40
0.0
 40
0.0
 40
0.0
 40
0.0
 40
0.4063672850810429
 40
1.0
 40
1.0
 40
1.0
 40
1.0
 10
0.2601140982605523
 20
0.2382551343212182
 30
0.0
 10
0.25868835868107
 20
0.2406930034150911
 30
0.0
 10
0.2551798587800569
 20
0.2466921799811543
 30
0.0
 10
0.2516840091083754
 20
0.2526988565411155
 30
0.0
 10
0.2496087583768274
 20
0.2562646162550455
 30
0.0
  0
SPLINE
  5
D97
330
1F
100
AcDbEntity
  8
0
  6
Continuous
 62
     7
370
    15
100
AcDbSpline
210
0.0
220
0.0
230
1.0
 70
     8
 71
     3
 72
     9
 73
     5
 74
     0
 42
0.0000000001
 43
0.0000000001
 40
0.0
 40
0.0
 40
0.0
 40
0.0
 40
0.4063840393523777
 40
1.0
 40
1.0
 40
1.0
 40
1.0
 10
0.2288633114054424
 20
0.2382564761282366
 30
0.0
 10
0.2274379338513182
 20
0.2406937257534492
 30
0.0
 10
0.223930469443034
 20
0.2466911306443902
 30
0.0
 10
0.220435473924395
 20
0.252696335503034
 30
0.0
 10
0.2183607888021388
 20
0.2562611209540839
 30
0.0
  0
SPLINE
  5
D98
330
1F
100
AcDbEntity
  8
0
  6
Continuous
 62
     7
370
    15
100
AcDbSpline
210
0.0
220
0.0
230
1.0
 70
     8
 71
     3
 72
     9
 73
     5
 74
     0
 42
0.0000000001
 43
0.0000000001
 40
0.0
 40
0.0
 40
0.0
 40
0.0
 40
0.4063690047373348
 40
1.0
 40
1.0
 40
1.0
 40
1.0
 10
0.1976141277763732
 20
0.2382550839648956
 30
0.0
 10
0.1961883761056962
 20
0.2406929737273615
 30
0.0
 10
0.1926798612975879
 20
0.2466921757679832
 30
0.0
 10
0.1891839996005844
 20
0.2526988729225645
 30
0.0
 10
0.1871087477420916
 20
0.25626463453268
 30
0.0
  0
SPLINE
  5
D99
330
1F
100
AcDbEntity
  8
0
  6
Continuous
 62
     7
370
    15
100
AcDbSpline
210
0.0
220
0.0
230
1.0
 70
     8
 71
     3
 72
     9
 73
     5
 74
     0
 42
0.0000000001
 43
0.0000000001
 40
0.0
 40
0.0
 40
0.0
 40
0.0
 40
0.4063814995535595
 40
1.0
 40
1.0
 40
1.0
 40
1.0
 10
0.1663633605094272
 20
0.2382563924277972
 30
0.0
 10
0.1649379895281937
 20
0.2406936300364042
 30
0.0
 10
0.1614305193731811
 20
0.2466910428400983
 30
0.0
 10
0.1579355183304827
 20
0.2526962583309422
 30
0.0
 10
0.1558608210524568
 20
0.2562610653454747
 30
0.0
  0
SPLINE
  5
D9A
330
1F
100
AcDbEntity
  8
0
  6
Continuous
 62
     7
370
    15
100
AcDbSpline
210
0.0
220
0.0
230
1.0
 70
     8
 71
     3
 72
     9
 73
     5
 74
     0
 42
0.0000000001
 43
0.0000000001
 40
0.0
 40
0.0
 40
0.0
 40
0.0
 40
0.406367463118701
 40
1.0
 40
1.0
 40
1.0
 40
1.0
 10
0.1351141571298324
 20
0.2382550338838825
 30
0.0
 10
0.133688404871739
 20
0.2406929243344451
 30
0.0
 10
0.1301798753080003
 20
0.2466921508272679
 30
0.0
 10
0.1266840013304549
 20
0.2526988696299042
 30
0.0
 10
0.1246087367925481
 20
0.2562646533510455
 30
0.0
  0
SPLINE
  5
D9B
330
1F
100
AcDbEntity
  8
0
  6
Continuous
 62
     7
370
    15
100
AcDbSpline
210
0.0
220
0.0
230
1.0
 70
     8
 71
     3
 72
     9
 73
     5
 74
     0
 42
0.0000000001
 43
0.0000000001
 40
0.0
 40
0.0
 40
0.0
 40
0.0
 40
0.4063784903934646
 40
1.0
 40
1.0
 40
1.0
 40
1.0
 10
0.1038634095863964
 20
0.2382563087686846
 30
0.0
 10
0.1024380467994694
 20
0.2406935315396965
 30
0.0
 10
0.0989305708364894
 20
0.2466909522413974
 30
0.0
 10
0.095435564080038
 20
0.2526961787906328
 30
0.0
 10
0.0933608528931886
 20
0.2562610104403205
 30
0.0
  0
SPLINE
  5
D9C
330
1F
100
AcDbEntity
  8
0
  6
Continuous
 62
     7
370
    15
100
AcDbSpline
210
0.0
220
0.0
230
1.0
 70
     8
 71
     3
 72
     9
 73
     5
 74
     0
 42
0.0000000001
 43
0.0000000001
 40
0.0
 40
0.0
 40
0.0
 40
0.0
 40
0.9347633986618577
 40
0.9999999999999998
 40
0.9999999999999998
 40
0.9999999999999998
 40
0.9999999999999998
 10
0.0726141863199779
 20
0.2382549840798291
 30
0.0
 10
0.0711875362209744
 20
0.2406923239130374
 30
0.0
 10
0.0696613210300017
 20
0.2432997642949553
 30
0.0
 10
0.068140608469057
 20
0.2459104612107024
 30
0.0
 10
0.0680414023499685
 20
0.2460807742046103
 30
0.0
  0
SPLINE
  5
D9D
330
1F
100
AcDbEntity
  8
0
  6
Continuous
 62
     7
370
    15
100
AcDbSpline
210
0.0
220
0.0
230
1.0
 70
     8
 71
     3
 72
     9
 73
     5
 74
     0
 42
0.0000000001
 43
0.0000000001
 40
0.0
 40
0.0
 40
0.0
 40
0.0
 40
0.5249206485974335
 40
1.0
 40
1.0
 40
1.0
 40
1.0
 10
0.0778698831017852
 20
0.1195381152289285
 30
0.0
 10
0.0796810950292741
 20
0.1226503386619719
 30
0.0
 10
0.0831315440301452
 20
0.1285792794292253
 30
0.0
 10
0.0865943691331994
 20
0.1345011769447448
 30
0.0
 10
0.0882394858371782
 20
0.1373145481754903
 30
0.0
  0
SPLINE
  5
D9E
330
1F
100
AcDbEntity
  8
0
  6
Continuous
 62
     7
370
    15
100
AcDbSpline
210
0.0
220
0.0
230
1.0
 70
     8
 71
     3
 72
     9
 73
     5
 74
     0
 42
0.0000000001
 43
0.0000000001
 40
0.0
 40
0.0
 40
0.0
 40
0.0
 40
0.5310617588387207
 40
1.0
 40
1.0
 40
1.0
 40
1.0
 10
0.1089842475875358
 20
0.119305245996784
 30
0.0
 10
0.1108406280370984
 20
0.1224951140671711
 30
0.0
 10
0.1143362298549029
 20
0.1285016999628712
 30
0.0
 10
0.1178443682895027
 20
0.1345011480482969
 30
0.0
 10
0.1194894685567744
 20
0.1373145186814146
 30
0.0
  0
SPLINE
  5
D9F
330
1F
100
AcDbEntity
  8
0
  6
Continuous
 62
     7
370
    15
100
AcDbSpline
210
0.0
220
0.0
230
1.0
 70
     8
 71
     3
 72
     9
 73
     5
 74
     0
 42
0.0000000001
 43
0.0000000001
 40
0.0
 40
0.0
 40
0.0
 40
0.0
 40
0.5310617715635655
 40
1.0
 40
1.0
 40
1.0
 40
1.0
 10
0.1402342555667859
 20
0.1193052597213806
 30
0.0
 10
0.1420906319584443
 20
0.1224951207567888
 30
0.0
 10
0.1455862260513729
 20
0.1285016932615579
 30
0.0
 10
0.1490943552073638
 20
0.134501125653427
 30
0.0
 10
0.1507394510789002
 20
0.1373144888508935
 30
0.0
  0
SPLINE
  5
DA0
330
1F
100
AcDbEntity
  8
0
  6
Continuous
 62
     7
370
    15
100
AcDbSpline
210
0.0
220
0.0
230
1.0
 70
     8
 71
     3
 72
     9
 73
     5
 74
     0
 42
0.0000000001
 43
0.0000000001
 40
0.0
 40
0.0
 40
0.0
 40
0.0
 40
0.531061787149678
 40
1.0
 40
1.0
 40
1.0
 40
1.0
 10
0.1714842632623297
 20
0.119305272958155
 30
0.0
 10
0.1733406356200797
 20
0.1224951269980976
 30
0.0
 10
0.1768362220144883
 20
0.1285016861539812
 30
0.0
 10
0.18034434192431
 20
0.1345011029135326
 30
0.0
 10
0.1819894334052856
 20
0.1373144586869004
 30
0.0
  0
SPLINE
  5
DA1
330
1F
100
AcDbEntity
  8
0
  6
Continuous
 62
     7
370
    15
100
AcDbSpline
210
0.0
220
0.0
230
1.0
 70
     8
 71
     3
 72
     9
 73
     5
 74
     0
 42
0.0000000001
 43
0.0000000001
 40
0.0
 40
0.0
 40
0.0
 40
0.0
 40
0.5310618056318503
 40
0.9999999999999998
 40
0.9999999999999998
 40
0.9999999999999998
 40
0.9999999999999998
 10
0.2027342706751494
 20
0.1193052857087822
 30
0.0
 10
0.2045906390232348
 20
0.122495132793222
 30
0.0
 10
0.2080862177457101
 20
0.1285016786427087
 30
0.0
 10
0.2115943284420689
 20
0.1345010798316024
 30
0.0
 10
0.2132394155376636
 20
0.1373144281924117
 30
0.0
  0
SPLINE
  5
DA2
330
1F
100
AcDbEntity
  8
0
  6
Continuous
 62
     7
370
    15
100
AcDbSpline
210
0.0
220
0.0
230
1.0
 70
     8
 71
     3
 72
     9
 73
     5
 74
     0
 42
0.0000000001
 43
0.0000000001
 40
0.0
 40
0.0
 40
0.0
 40
0.0
 40
0.5310618270449035
 40
1.0
 40
1.0
 40
1.0
 40
1.0
 10
0.2339842778062353
 20
0.1193052979749471
 30
0.0
 10
0.2358406421691424
 20
0.1224951381442856
 30
0.0
 10
0.239336213246502
 20
0.1285016707303117
 30
0.0
 10
0.2428443147623724
 20
0.134501056410627
 30
0.0
 10
0.244489397477766
 20
0.1373143973704072
 30
0.0
  0
SPLINE
  5
DA3
330
1F
100
AcDbEntity
  8
0
  6
Continuous
 62
     7
370
    15
100
AcDbSpline
210
0.0
220
0.0
230
1.0
 70
     8
 71
     3
 72
     9
 73
     5
 74
     0
 42
0.0000000001
 43
0.0000000001
 40
0.0
 40
0.0
 40
0.0
 40
0.0
 40
0.5310618514237025
 40
1.0
 40
1.0
 40
1.0
 40
1.0
 10
0.2652342846565761
 20
0.1193053097583347
 30
0.0
 10
0.2670906450590378
 20
0.1224951430534236
 30
0.0
 10
0.2705862085183304
 20
0.1285016624193642
 30
0.0
 10
0.2740943008869552
 20
0.1345010326536022
 30
0.0
 10
0.2757393792273319
 20
0.1373143662238703
 30
0.0
  0
SPLINE
  5
DA4
330
1F
100
AcDbEntity
  8
0
  6
Continuous
 62
     7
370
    15
100
AcDbSpline
210
0.0
220
0.0
230
1.0
 70
     8
 71
     3
 72
     9
 73
     5
 74
     0
 42
0.0000000001
 43
0.0000000001
 40
0.0
 40
0.0
 40
0.0
 40
0.0
 40
0.5622319330360771
 40
1.0
 40
1.0
 40
1.0
 40
1.0
 10
0.2758347100009884
 20
0.2563799658559112
 30
0.0
 10
0.2738576376919539
 20
0.2529827691707669
 30
0.0
 10
0.2703411666541777
 20
0.2469404288383719
 30
0.0
 10
0.266811996569138
 20
0.2409052758569632
 30
0.0
 10
0.2652670386030245
 20
0.2382632786024614
 30
0.0
  0
SPLINE
  5
DA5
330
1F
100
AcDbEntity
  8
0
  6
Continuous
 62
     7
370
    15
100
AcDbSpline
210
0.0
220
0.0
230
1.0
 70
     8
 71
     3
 72
     9
 73
     5
 74
     0
 42
0.0000000001
 43
0.0000000001
 40
0.0
 40
0.0
 40
0.0
 40
0.0
 40
0.5005878538940132
 40
1.0
 40
1.0
 40
1.0
 40
1.0
 10
0.2445856424743971
 20
0.2563815560266618
 30
0.0
 10
0.2428249788607948
 20
0.2533559693379845
 30
0.0
 10
0.2393077868236606
 20
0.2473119020176502
 30
0.0
 10
0.2357772303144872
 20
0.2412737082300578
 30
0.0
 10
0.2340140275112912
 20
0.2382581609119918
 30
0.0
  0
SPLINE
  5
DA6
330
1F
100
AcDbEntity
  8
0
  6
Continuous
 62
     7
370
    15
100
AcDbSpline
210
0.0
220
0.0
230
1.0
 70
     8
 71
     3
 72
     9
 73
     5
 74
     0
 42
0.0000000001
 43
0.0000000001
 40
0.0
 40
0.0
 40
0.0
 40
0.0
 40
0.5005836247046908
 40
1.0
 40
1.0
 40
1.0
 40
1.0
 10
0.2133322242267495
 20
0.2563757151608494
 30
0.0
 10
0.2115716837628909
 20
0.2533502809033501
 30
0.0
 10
0.2080547080230293
 20
0.2473064670265299
 30
0.0
 10
0.2045244674054674
 20
0.2412689354538364
 30
0.0
 10
0.2027614074323258
 20
0.2382536933200714
 30
0.0
  0
SPLINE
  5
DA7
330
1F
100
AcDbEntity
  8
0
  6
Continuous
 62
     7
370
    15
100
AcDbSpline
210
0.0
220
0.0
230
1.0
 70
     8
 71
     3
 72
     9
 73
     5
 74
     0
 42
0.0000000001
 43
0.0000000001
 40
0.0
 40
0.0
 40
0.0
 40
0.0
 40
0.468583796799634
 40
1.0
 40
1.0
 40
1.0
 40
1.0
 10
0.1820797306782387
 20
0.2563714341675092
 30
0.0
 10
0.1804322411485426
 20
0.2535402876067763
 30
0.0
 10
0.1769163502002247
 20
0.2474983660122416
 30
0.0
 10
0.1733879750544141
 20
0.2414633907115937
 30
0.0
 10
0.1715129393309605
 20
0.2382563070509156
 30
0.0
  0
SPLINE
  5
DA8
330
1F
100
AcDbEntity
  8
0
  6
Continuous
 62
     7
370
    15
100
AcDbSpline
210
0.0
220
0.0
230
1.0
 70
     8
 71
     3
 72
     9
 73
     5
 74
     0
 42
0.0000000001
 43
0.0000000001
 40
0.0
 40
0.0
 40
0.0
 40
0.0
 40
0.5005570414915712
 40
1.0
 40
1.0
 40
1.0
 40
1.0
 10
0.1508323407645351
 20
0.2563759148196412
 30
0.0
 10
0.1490726175891543
 20
0.2533519316550392
 30
0.0
 10
0.145557087830273
 20
0.2473106957639373
 30
0.0
 10
0.1420289025782218
 20
0.2412765456034998
 30
0.0
 10
0.1402667752977713
 20
0.2382628317952862
 30
0.0
  0
SPLINE
  5
DA9
330
1F
100
AcDbEntity
  8
0
  6
Continuous
 62
     7
370
    15
100
AcDbSpline
210
0.0
220
0.0
230
1.0
 70
     8
 71
     3
 72
     9
 73
     5
 74
     0
 42
0.0000000001
 43
0.0000000001
 40
0.0
 40
0.0
 40
0.0
 40
0.0
 40
0.5005729471964174
 40
1.0
 40
1.0
 40
1.0
 40
1.0
 10
0.1195791292454844
 20
0.2563703990625963
 30
0.0
 10
0.1178189101488618
 20
0.2533454801220389
 30
0.0
 10
0.1143025013886989
 20
0.2473025667814377
 30
0.0
 10
0.1107730748881623
 20
0.2412665128684481
 30
0.0
 10
0.1090103838129135
 20
0.2382519442521196
 30
0.0
  0
SPLINE
  5
DAA
330
1F
100
AcDbEntity
  8
0
  6
Continuous
 62
     7
370
    15
100
AcDbSpline
210
0.0
220
0.0
230
1.0
 70
     8
 71
     3
 72
     9
 73
     5
 74
     0
 42
0.0000000001
 43
0.0000000001
 40
0.0
 40
0.0
 40
0.0
 40
0.0
 40
0.5005780639825162
 40
1.0
 40
1.0
 40
1.0
 40
1.0
 10
0.088332546064053
 20
0.256376266459307
 30
0.0
 10
0.086572175472524
 20
0.2533511396116004
 30
0.0
 10
0.0830555000163047
 20
0.2473078727060565
 30
0.0
 10
0.0795256869647583
 20
0.2412710345443778
 30
0.0
 10
0.0777628208967745
 20
0.238256105142248
 30
0.0
  0
SPLINE
  5
DAB
330
1F
100
AcDbEntity
  8
0
  6
Continuous
 62
     7
370
    15
100
AcDbSpline
210
0.0
220
0.0
230
1.0
 70
     8
 71
     3
 72
     9
 73
     5
 74
     0
 42
0.0000000001
 43
0.0000000001
 40
0.0
 40
0.0
 40
0.0
 40
0.0
 40
0.5625102757292766
 40
1.0
 40
1.0
 40
1.0
 40
1.0
 10
0.0933896577199613
 20
0.137309787629531
 30
0.0
 10
0.095375238104336
 20
0.1339133526434257
 30
0.0
 10
0.0989050943043859
 20
0.1278753563033548
 30
0.0
 10
0.102422103030662
 20
0.1218314255139652
 30
0.0
 10
0.1039607582085793
 20
0.1191872678994046
 30
0.0
  0
SPLINE
  5
DAC
330
1F
100
AcDbEntity
  8
0
  6
Continuous
 62
     7
370
    15
100
AcDbSpline
210
0.0
220
0.0
230
1.0
 70
     8
 71
     3
 72
     9
 73
     5
 74
     0
 42
0.0000000001
 43
0.0000000001
 40
0.0
 40
0.0
 40
0.0
 40
0.0
 40
0.4994445274192277
 40
1.0
 40
1.0
 40
1.0
 40
1.0
 10
0.1246422174521813
 20
0.1373054391072475
 30
0.0
 10
0.1264042889622692
 20
0.1342918135502731
 30
0.0
 10
0.1299323514664135
 20
0.1282578590437589
 30
0.0
 10
0.1334477943437777
 20
0.1222167817692088
 30
0.0
 10
0.1352074685145874
 20
0.1191928874791484
 30
0.0
  0
SPLINE
  5
DAD
330
1F
100
AcDbEntity
  8
0
  6
Continuous
 62
     7
370
    15
100
AcDbSpline
210
0.0
220
0.0
230
1.0
 70
     8
 71
     3
 72
     9
 73
     5
 74
     0
 42
0.0000000001
 43
0.0000000001
 40
0.0
 40
0.0
 40
0.0
 40
0.0
 40
0.4994470217643093
 40
1.0
 40
1.0
 40
1.0
 40
1.0
 10
0.1558908312500664
 20
0.1373077924180266
 30
0.0
 10
0.1576528162503239
 20
0.1342943496192377
 30
0.0
 10
0.1611806879233466
 20
0.1282607911686466
 30
0.0
 10
0.1646959984682015
 20
0.1222198884597891
 30
0.0
 10
0.1664555976308524
 20
0.1191960966176384
 30
0.0
  0
SPLINE
  5
DAE
330
1F
100
AcDbEntity
  8
0
  6
Continuous
 62
     7
370
    15
100
AcDbSpline
210
0.0
220
0.0
230
1.0
 70
     8
 71
     3
 72
     9
 73
     5
 74
     0
 42
0.0000000001
 43
0.0000000001
 40
0.0
 40
0.0
 40
0.0
 40
0.0
 40
0.4064325555924599
 40
1.0
 40
1.0
 40
1.0
 40
1.0
 10
0.1871368542463747
 20
0.1373145649731051
 30
0.0
 10
0.1885714227077138
 20
0.134861579296405
 30
0.0
 10
0.1921010820364257
 20
0.1288261728237994
 30
0.0
 10
0.1956179281978949
 20
0.1227832782921676
 30
0.0
 10
0.1977054135863323
 20
0.1191964128282028
 30
0.0
  0
SPLINE
  5
DAF
330
1F
100
AcDbEntity
  8
0
  6
Continuous
 62
     7
370
    15
100
AcDbSpline
210
0.0
220
0.0
230
1.0
 70
     8
 71
     3
 72
     9
 73
     5
 74
     0
 42
0.0000000001
 43
0.0000000001
 40
0.0
 40
0.0
 40
0.0
 40
0.0
 40
0.4994337571695306
 40
1.0
 40
1.0
 40
1.0
 40
1.0
 10
0.2183845968006866
 20
0.1373184230442495
 30
0.0
 10
0.2201470548745714
 20
0.1343042839631852
 30
0.0
 10
0.2236759674652493
 20
0.1282691711222994
 30
0.0
 10
0.2271920175252449
 20
0.1222268291454243
 30
0.0
 10
0.228952033493381
 20
0.119202236724163
 30
0.0
  0
SPLINE
  5
DB0
330
1F
100
AcDbEntity
  8
0
  6
Continuous
 62
     7
370
    15
100
AcDbSpline
210
0.0
220
0.0
230
1.0
 70
     8
 71
     3
 72
     9
 73
     5
 74
     0
 42
0.0000000001
 43
0.0000000001
 40
0.0
 40
0.0
 40
0.0
 40
0.0
 40
0.4994278484563475
 40
1.0
 40
1.0
 40
1.0
 40
1.0
 10
0.2496407691244329
 20
0.1373078979749995
 30
0.0
 10
0.2514034265509126
 20
0.1342932741455427
 30
0.0
 10
0.2549327800539816
 20
0.1282571192959998
 30
0.0
 10
0.2584491302259133
 20
0.122214495189962
 30
0.0
 10
0.2602093171970576
 20
0.1191897258402341
 30
0.0
  0
SPLINE
  5
DB1
330
1F
100
AcDbEntity
  8
0
  6
Continuous
 62
     7
370
    15
100
AcDbSpline
210
0.0
220
0.0
230
1.0
 70
     8
 71
     3
 72
    10
 73
     6
 74
     0
 42
0.0000000001
 43
0.0000000001
 40
0.0
 40
0.0
 40
0.0
 40
0.0
 40
0.4401364422295794
 40
0.9153711813162747
 40
1.0
 40
1.0
 40
1.0
 40
1.0
 10
0.2808886840051485
 20
0.1373114451701878
 30
0.0
 10
0.2816610678135953
 20
0.1359928574825733
 30
0.0
 10
0.2832674285039003
 20
0.1332505324817945
 30
0.0
 10
0.2850548794517058
 20
0.1301954220960009
 30
0.0
 10
0.2860503400682308
 20
0.1284866208099316
 30
0.0
 10
0.2862008136163894
 20
0.128228318885832
 30
0.0
  0
LINE
  5
DB2
330
1F
100
AcDbEntity
  8
0
  6
Continuous
 62
     7
370
    15
100
AcDbLine
 10
0.2607344461133563
 20
0.1187845105621492
 30
0.0
 11
0.2646406961132524
 21
0.1187845105621492
 31
0.0
  0
LINE
  5
DB3
330
1F
100
AcDbEntity
  8
0
  6
Continuous
 62
     7
370
    15
100
AcDbLine
 10
0.2294844461131484
 20
0.1187845105621492
 30
0.0
 11
0.2333906961133554
 21
0.1187845105621492
 31
0.0
  0
LINE
  5
DB4
330
1F
100
AcDbEntity
  8
0
  6
Continuous
 62
     7
370
    15
100
AcDbLine
 10
0.1982344461132523
 20
0.1187845105621492
 30
0.0
 11
0.2021406961131484
 21
0.1187845105621492
 31
0.0
  0
LINE
  5
DB5
330
1F
100
AcDbEntity
  8
0
  6
Continuous
 62
     7
370
    15
100
AcDbLine
 10
0.1669844461133563
 20
0.1187845105621492
 30
0.0
 11
0.1708906961132524
 21
0.1187845105621492
 31
0.0
  0
LINE
  5
DB6
330
1F
100
AcDbEntity
  8
0
  6
Continuous
 62
     7
370
    15
100
AcDbLine
 10
0.1357344461131493
 20
0.1187845105621492
 30
0.0
 11
0.1396406961133563
 21
0.1187845105621492
 31
0.0
  0
LINE
  5
DB7
330
1F
100
AcDbEntity
  8
0
  6
Continuous
 62
     7
370
    15
100
AcDbLine
 10
0.1044844461132524
 20
0.1187845105621492
 30
0.0
 11
0.1083906961131484
 21
0.1187845105621492
 31
0.0
  0
LINE
  5
DB8
330
1F
100
AcDbEntity
  8
0
  6
Continuous
 62
     7
370
    15
100
AcDbLine
 10
0.0927656960101517
 20
0.2567845105621491
 30
0.0
 11
0.0888594459902947
 21
0.2567845105621491
 31
0.0
  0
LINE
  5
DB9
330
1F
100
AcDbEntity
  8
0
  6
Continuous
 62
     7
370
    15
100
AcDbLine
 10
0.1240156961132524
 20
0.2567845105621491
 30
0.0
 11
0.1201094461132524
 21
0.2567845105621491
 31
0.0
  0
LINE
  5
DBA
330
1F
100
AcDbEntity
  8
0
  6
Continuous
 62
     7
370
    15
100
AcDbLine
 10
0.1552656961132524
 20
0.2567845105621491
 30
0.0
 11
0.1513594461132524
 21
0.2567845105621491
 31
0.0
  0
LINE
  5
DBB
330
1F
100
AcDbEntity
  8
0
  6
Continuous
 62
     7
370
    15
100
AcDbLine
 10
0.1865156961132523
 20
0.2567845105621491
 30
0.0
 11
0.1826094461132523
 21
0.2567845105621491
 31
0.0
  0
LINE
  5
DBC
330
1F
100
AcDbEntity
  8
0
  6
Continuous
 62
     7
370
    15
100
AcDbLine
 10
0.2177656961132524
 20
0.2567845105621491
 30
0.0
 11
0.2138594461132524
 21
0.2567845105621491
 31
0.0
  0
LINE
  5
DBD
330
1F
100
AcDbEntity
  8
0
  6
Continuous
 62
     7
370
    15
100
AcDbLine
 10
0.2490156961132524
 20
0.2567845105621491
 30
0.0
 11
0.2451094461132524
 21
0.2567845105621491
 31
0.0
  0
LINE
  5
DBE
330
1F
100
AcDbEntity
  8
0
  6
Continuous
 62
     7
370
    15
100
AcDbLine
 10
0.2775631749599601
 20
0.2567845105621491
 30
0.0
 11
0.2763594461132524
 21
0.2567845105621491
 31
0.0
  0
LINE
  5
DBF
330
1F
100
AcDbEntity
  8
0
  6
Continuous
 62
     7
370
    15
100
AcDbLine
 10
0.2839949234341601
 20
0.2503527620874064
 30
0.0
 11
0.2775631749599601
 21
0.2567845105611561
 31
0.0
  0
LINE
  5
DC0
330
1F
100
AcDbEntity
  8
0
  6
Continuous
 62
     7
370
    15
100
AcDbLine
 10
0.3095631749601804
 20
0.2247845105631732
 30
0.0
 11
0.2964399318737012
 21
0.2379077536487348
 31
0.0
  0
LINE
  5
DC1
330
1F
100
AcDbEntity
  8
0
  6
Continuous
 62
     7
370
    15
100
AcDbLine
 10
0.2867201934976231
 20
0.1279415290985661
 30
0.0
 11
0.3095631749601804
 21
0.1507845105611243
 31
0.0
  0
LINE
  5
DC2
330
1F
100
AcDbEntity
  8
0
  6
Continuous
 62
     7
370
    15
100
AcDbLine
 10
0.0675476003501476
 20
0.2462689359471608
 30
0.0
 11
0.0666397085568056
 21
0.2453610441538188
 31
0.0
  0
LINE
  5
DC3
330
1F
100
AcDbEntity
  8
0
  6
Continuous
 62
     7
370
    15
100
AcDbLine
 10
0.0666397456340482
 20
0.1302079398932361
 30
0.0
 11
0.0774531488157955
 21
0.1193945367114888
 31
0.0
  0
LINE
  5
DC4
330
1F
100
AcDbEntity
  8
0
  6
Continuous
 62
     7
370
    15
100
AcDbLine
 10
0.2913817200789621
 20
0.2382417407847952
 30
0.0
 11
0.2913439382842613
 21
0.2382895692985065
 31
0.0
  0
SPLINE
  5
DC5
330
1F
100
AcDbEntity
  8
0
  6
Continuous
 62
     7
370
    15
100
AcDbSpline
210
0.0
220
0.0
230
1.0
 70
     8
 71
     3
 72
    18
 73
    14
 74
     0
 42
0.0000000001
 43
0.0000000001
 40
0.0
 40
0.0
 40
0.0
 40
0.0
 40
0.0195436436249883
 40
0.1901371178603964
 40
0.3195728784395806
 40
0.4087491921841253
 40
0.4461585260195224
 40
0.4854442709259553
 40
0.5680143081016497
 40
0.6595633381168225
 40
0.7768464764962481
 40
0.920359566223766
 40
1.0
 40
1.0
 40
1.0
 40
1.0
 10
0.2961389931816596
 20
0.2378262138933072
 30
0.0
 10
0.2961263798038471
 20
0.2378108419648721
 30
0.0
 10
0.2960036661814636
 20
0.2376612908256557
 30
0.0
 10
0.2955367806248015
 20
0.237368599031043
 30
0.0
 10
0.2948753628318208
 20
0.237118177473659
 30
0.0
 10
0.2943602320035339
 20
0.2370264266320388
 30
0.0
 10
0.293962410467552
 20
0.2370064371954439
 30
0.0
 10
0.2935737047510836
 20
0.2370206581451408
 30
0.0
 10
0.293159414667616
 20
0.2370860634388383
 30
0.0
 10
0.2926225392549151
 20
0.2372486290553621
 30
0.0
 10
0.2920936724658904
 20
0.2375186547253247
 30
0.0
 10
0.2916866867448462
 20
0.2378313593602717
 30
0.0
 10
0.2915617145058453
 20
0.2380074867183359
 30
0.0
 10
0.291517113626738
 20
0.238070344158253
 30
0.0
  0
LINE
  5
DC6
330
1F
100
AcDbEntity
  8
0
  6
Continuous
 62
     7
370
    15
100
AcDbLine
 10
0.2601278910560856
 20
0.2382484323751792
 30
0.0
 11
0.2600915949796994
 21
0.2382935661287129
 31
0.0
  0
SPLINE
  5
DC7
330
1F
100
AcDbEntity
  8
0
  6
Continuous
 62
     7
370
    15
100
AcDbSpline
210
0.0
220
0.0
230
1.0
 70
     8
 71
     3
 72
    17
 73
    13
 74
     0
 42
0.0000000001
 43
0.0000000001
 40
0.0
 40
0.0
 40
0.0
 40
0.0
 40
0.1651379776942428
 40
0.3069164647142961
 40
0.4113173453463347
 40
0.4798002906630262
 40
0.5260726887833566
 40
0.5929909739168991
 40
0.6809075342925452
 40
0.7901482640285281
 40
0.9212165976266625
 40
0.9999999999999998
 40
0.9999999999999998
 40
0.9999999999999998
 40
0.9999999999999998
 10
0.2652503478685313
 20
0.2382505039395402
 30
0.0
 10
0.2651649732038921
 20
0.2381239737867342
 30
0.0
 10
0.2650063004950871
 20
0.2378888117257625
 30
0.0
 10
0.264441776512224
 20
0.2374639233251625
 30
0.0
 10
0.263848603990291
 20
0.2371891570858424
 30
0.0
 10
0.263246482339051
 20
0.2370422066850524
 30
0.0
 10
0.2627058146291867
 20
0.2369992176217139
 30
0.0
 10
0.2621903820024114
 20
0.2370296133898004
 30
0.0
 10
0.2615656714126979
 20
0.2371700132056191
 30
0.0
 10
0.2609332944804574
 20
0.2374561435698816
 30
0.0
 10
0.2604576797311644
 20
0.2378072499399759
 30
0.0
 10
0.2603174268987871
 20
0.2380042595769081
 30
0.0
 10
0.2602647726032385
 20
0.2380782217456079
 30
0.0
  0
SPLINE
  5
DC8
330
1F
100
AcDbEntity
  8
0
  6
Continuous
 62
     7
370
    15
100
AcDbSpline
210
0.0
220
0.0
230
1.0
 70
     8
 71
     3
 72
    20
 73
    16
 74
     0
 42
0.0000000001
 43
0.0000000001
 40
0.0
 40
0.0
 40
0.0
 40
0.0
 40
0.1632082980503343
 40
0.29296284231986
 40
0.390205626496736
 40
0.4421568765348022
 40
0.4762891350119482
 40
0.5060430168474636
 40
0.5332129705302319
 40
0.5627912524182934
 40
0.5948119710595574
 40
0.6293111572770432
 40
0.7336838132018585
 40
0.8568817465556588
 40
0.9999999999999998
 40
0.9999999999999998
 40
0.9999999999999998
 40
0.9999999999999998
 10
0.2340358010936754
 20
0.2382953455334307
 30
0.0
 10
0.2339184101247973
 20
0.2381254099157899
 30
0.0
 10
0.2337076904964688
 20
0.2378203713720999
 30
0.0
 10
0.233045524568209
 20
0.2373700076306302
 30
0.0
 10
0.2324338730843909
 20
0.2371381018445979
 30
0.0
 10
0.2319688551553902
 20
0.2370458483529574
 30
0.0
 10
0.2316684153894197
 20
0.237013996487859
 30
0.0
 10
0.2313628829705498
 20
0.2370071717593265
 30
0.0
 10
0.2310872485942141
 20
0.2370249250421845
 30
0.0
 10
0.2308235040694502
 20
0.2370618230576897
 30
0.0
 10
0.2305581773535668
 20
0.237120336887759
 30
0.0
 10
0.2301249221541726
 20
0.237252798207265
 30
0.0
 10
0.2295843287761849
 20
0.2375222140077251
 30
0.0
 10
0.2290702147326939
 20
0.2379467982017958
 30
0.0
 10
0.2289234214528744
 20
0.2381690903989253
 30
0.0
 10
0.2288445347803165
 20
0.2382885501711223
 30
0.0
  0
LINE
  5
DC9
330
1F
100
AcDbEntity
  8
0
  6
Continuous
 62
     7
370
    15
100
AcDbLine
 10
0.1976316194877219
 20
0.2382480271220069
 30
0.0
 11
0.1975881880055814
 21
0.2382993579638399
 31
0.0
  0
SPLINE
  5
DCA
330
1F
100
AcDbEntity
  8
0
  6
Continuous
 62
     7
370
    15
100
AcDbSpline
210
0.0
220
0.0
230
1.0
 70
     8
 71
     3
 72
    19
 73
    15
 74
     0
 42
0.0000000001
 43
0.0000000001
 40
0.0
 40
0.0
 40
0.0
 40
0.0
 40
0.1382666953532145
 40
0.2729539162723234
 40
0.3870117899249589
 40
0.4596491782165476
 40
0.5215826282930026
 40
0.5354370578853506
 40
0.5539973800918565
 40
0.5912103800068497
 40
0.6479308088130186
 40
0.7541796298196141
 40
0.8960086907941223
 40
1.0
 40
1.0
 40
1.0
 40
1.0
 10
0.2027495497412275
 20
0.2382486598688653
 30
0.0
 10
0.2026787577790916
 20
0.2381421643301516
 30
0.0
 10
0.2025390065305617
 20
0.2379319302294296
 30
0.0
 10
0.202043128288647
 20
0.237523589907195
 30
0.0
 10
0.2014378156006442
 20
0.2372206357661981
 30
0.0
 10
0.2008335037376216
 20
0.237057073101981
 30
0.0
 10
0.2004202861979705
 20
0.2370114373734835
 30
0.0
 10
0.2001271029679437
 20
0.2370098214644609
 30
0.0
 10
0.1999276393016513
 20
0.2370176468313789
 30
0.0
 10
0.1996572726133125
 20
0.2370456032739061
 30
0.0
 10
0.199193252027217
 20
0.2371380407827117
 30
0.0
 10
0.1985841061067166
 20
0.2373696806137908
 30
0.0
 10
0.1980166241325394
 20
0.2377447836186275
 30
0.0
 10
0.197845215511359
 20
0.2379812491343061
 30
0.0
 10
0.1977727031849294
 20
0.2380812829864207
 30
0.0
  0
SPLINE
  5
DCB
330
1F
100
AcDbEntity
  8
0
  6
Continuous
 62
     7
370
    15
100
AcDbSpline
210
0.0
220
0.0
230
1.0
 70
     8
 71
     3
 72
    17
 73
    13
 74
     0
 42
0.0000000001
 43
0.0000000001
 40
0.0
 40
0.0
 40
0.0
 40
0.0
 40
0.1513231096788151
 40
0.2820260771817558
 40
0.3789148501317825
 40
0.4432257653297848
 40
0.4858843376256381
 40
0.548103253569458
 40
0.6302223129512977
 40
0.7325536681548966
 40
0.8555782404787128
 40
1.0
 40
1.0
 40
1.0
 40
1.0
 10
0.171504440763826
 20
0.238257481296142
 30
0.0
 10
0.1714186659767503
 20
0.2381297392424835
 30
0.0
 10
0.1712588045598684
 20
0.2378916619893734
 30
0.0
 10
0.1706968067059105
 20
0.2374665306482586
 30
0.0
 10
0.1701012401378623
 20
0.2371902288953884
 30
0.0
 10
0.169504854232394
 20
0.2370435918739964
 30
0.0
 10
0.1689633878128909
 20
0.2369993384366356
 30
0.0
 10
0.1684503924459353
 20
0.2370284276414911
 30
0.0
 10
0.1678256977265446
 20
0.2371667870929328
 30
0.0
 10
0.1671852940700464
 20
0.2374531360970402
 30
0.0
 10
0.1666186804545804
 20
0.237882912440543
 30
0.0
 10
0.1664394205663573
 20
0.2381484360930934
 30
0.0
 10
0.1663426197305018
 20
0.2382918196004735
 30
0.0
  0
LINE
  5
DCC
330
1F
100
AcDbEntity
  8
0
  6
Continuous
 62
     7
370
    15
100
AcDbLine
 10
0.1351303808333242
 20
0.2382438579997497
 30
0.0
 11
0.1350950096597998
 21
0.2382877383292876
 31
0.0
  0
SPLINE
  5
DCD
330
1F
100
AcDbEntity
  8
0
  6
Continuous
 62
     7
370
    15
100
AcDbSpline
210
0.0
220
0.0
230
1.0
 70
     8
 71
     3
 72
    20
 73
    16
 74
     0
 42
0.0000000001
 43
0.0000000001
 40
0.0
 40
0.0
 40
0.0
 40
0.0
 40
0.1515583838881012
 40
0.2775784395437181
 40
0.3787728586175632
 40
0.4386788525826292
 40
0.4850259595137196
 40
0.5179162342665996
 40
0.5374525393915605
 40
0.5569777885164072
 40
0.6112871057598838
 40
0.6959273033009397
 40
0.7969707662592523
 40
0.9227886564208922
 40
1.0
 40
1.0
 40
1.0
 40
1.0
 10
0.1402804412767686
 20
0.238286200974914
 30
0.0
 10
0.1401846259556736
 20
0.2381449251613854
 30
0.0
 10
0.1400091406632624
 20
0.2378861791992128
 30
0.0
 10
0.1394750564782594
 20
0.2374775866450069
 30
0.0
 10
0.1389346269228238
 20
0.237224346435251
 30
0.0
 10
0.1384797317029403
 20
0.2370938001769365
 30
0.0
 10
0.1381457724140471
 20
0.2370364771206366
 30
0.0
 10
0.137899668424641
 20
0.2370144940245029
 30
0.0
 10
0.137688188993093
 20
0.2370088471925844
 30
0.0
 10
0.1374149523632475
 20
0.2370161587298338
 30
0.0
 10
0.137032384805118
 20
0.2370605778021377
 30
0.0
 10
0.1364857279032607
 20
0.2372024726730895
 30
0.0
 10
0.1359055419798949
 20
0.2374770157784316
 30
0.0
 10
0.1354563561263173
 20
0.2378093762570983
 30
0.0
 10
0.1353195027224343
 20
0.2380009499079017
 30
0.0
 10
0.1352674578272612
 20
0.2380738047313202
 30
0.0
  0
LINE
  5
DCE
330
1F
100
AcDbEntity
  8
0
  6
Continuous
 62
     7
370
    15
100
AcDbLine
 10
0.1038797591468175
 20
0.2382465537719027
 30
0.0
 11
0.103840455455086
 21
0.2382955058502731
 31
0.0
  0
SPLINE
  5
DCF
330
1F
100
AcDbEntity
  8
0
  6
Continuous
 62
     7
370
    15
100
AcDbSpline
210
0.0
220
0.0
230
1.0
 70
     8
 71
     3
 72
    16
 73
    12
 74
     0
 42
0.0000000001
 43
0.0000000001
 40
0.0
 40
0.0
 40
0.0
 40
0.0
 40
0.1634238777487573
 40
0.3056795182840836
 40
0.4104816668356818
 40
0.4792926156488751
 40
0.5570145059704271
 40
0.6814946312370896
 40
0.7910460925859165
 40
0.9223752539977583
 40
1.0
 40
1.0
 40
1.0
 40
1.0
 10
0.108996146037577
 20
0.2382455817367668
 30
0.0
 10
0.1089114968848994
 20
0.2381201459818327
 30
0.0
 10
0.1087531631544198
 20
0.2378855221210361
 30
0.0
 10
0.1081885441126849
 20
0.2374623941655183
 30
0.0
 10
0.107598096818748
 20
0.237188284596153
 30
0.0
 10
0.1069032361464277
 20
0.2370208216628273
 30
0.0
 10
0.1061248463892994
 20
0.2369915451007469
 30
0.0
 10
0.1053881152816656
 20
0.2371395806047283
 30
0.0
 10
0.1046803945437853
 20
0.2374569851270372
 30
0.0
 10
0.1042083379734127
 20
0.2378070674823749
 30
0.0
 10
0.1040684680446171
 20
0.2380033271470041
 30
0.0
 10
0.1040165074575654
 20
0.238076236080873
 30
0.0
  0
SPLINE
  5
DD0
330
1F
100
AcDbEntity
  8
0
  6
Continuous
 62
     7
370
    15
100
AcDbSpline
210
0.0
220
0.0
230
1.0
 70
     8
 71
     3
 72
    20
 73
    16
 74
     0
 42
0.0000000001
 43
0.0000000001
 40
0.0
 40
0.0
 40
0.0
 40
0.0
 40
0.152035088956604
 40
0.2835084735143306
 40
0.382025049801772
 40
0.4346416328300463
 40
0.4691916459887855
 40
0.4993032409765698
 40
0.5268294148561558
 40
0.5567989273878043
 40
0.5892465423928883
 40
0.624208934366545
 40
0.7299985796976284
 40
0.8548914115908392
 40
1.0
 40
1.0
 40
1.0
 40
1.0
 10
0.0777513470935292
 20
0.2382552935274922
 30
0.0
 10
0.0776422935500572
 20
0.2380984821331995
 30
0.0
 10
0.0774389352078924
 20
0.2378060670115949
 30
0.0
 10
0.0767948456336454
 20
0.2373698970712561
 30
0.0
 10
0.0761834327757685
 20
0.237137942463487
 30
0.0
 10
0.0757181960887987
 20
0.2370457386301807
 30
0.0
 10
0.0754178146167455
 20
0.2370139541014109
 30
0.0
 10
0.0751122032608711
 20
0.2370071855637099
 30
0.0
 10
0.0748365869040342
 20
0.2370249970033948
 30
0.0
 10
0.0745727457310137
 20
0.2370619749032126
 30
0.0
 10
0.0743073411566453
 20
0.237120591000608
 30
0.0
 10
0.0738739352625704
 20
0.2372532672990819
 30
0.0
 10
0.0733332006520664
 20
0.2375230818884888
 30
0.0
 10
0.0728189796794867
 20
0.2379482880141457
 30
0.0
 10
0.0726721223445202
 20
0.2381710931628063
 30
0.0
 10
0.072593195868687
 20
0.2382908367574008
 30
0.0
  0
SPLINE
  5
DD1
330
1F
100
AcDbEntity
  8
0
  6
Continuous
 62
     7
370
    15
100
AcDbSpline
210
0.0
220
0.0
230
1.0
 70
     8
 71
     3
 72
    17
 73
    13
 74
     0
 42
0.0000000001
 43
0.0000000001
 40
0.0
 40
0.0
 40
0.0
 40
0.0
 40
0.1727407746662312
 40
0.3108267860939059
 40
0.4153701281713189
 40
0.487024886023681
 40
0.5271879635211175
 40
0.5640051603095619
 40
0.637816899793528
 40
0.7345256448064493
 40
0.8549128258495157
 40
1.0
 40
1.0
 40
1.0
 40
1.0
 10
0.0882171543966601
 20
0.1372764081792241
 30
0.0
 10
0.0883436144155709
 20
0.1374569883692707
 30
0.0
 10
0.0885711644038319
 20
0.1377819212648927
 30
0.0
 10
0.089310430347032
 20
0.1382609736276543
 30
0.0
 10
0.0900559319680055
 20
0.1384982001051012
 30
0.0
 10
0.0906252945638881
 20
0.1385663843363658
 30
0.0
 10
0.0911038997159182
 20
0.1385533758422777
 30
0.0
 10
0.0915712369478969
 20
0.1384868946118636
 30
0.0
 10
0.0920893849126108
 20
0.1383342720831933
 30
0.0
 10
0.0926680957776833
 20
0.138042938818749
 30
0.0
 10
0.0931693725520724
 20
0.1376361505026726
 30
0.0
 10
0.0933220372793748
 20
0.1374076489160063
 30
0.0
 10
0.0934054716806392
 20
0.1372827681173532
 30
0.0
  0
LINE
  5
DD2
330
1F
100
AcDbEntity
  8
0
  6
Continuous
 62
     7
370
    15
100
AcDbLine
 10
0.1246280088519072
 20
0.1373111985463598
 30
0.0
 11
0.1246637305639959
 21
0.1372687013626481
 31
0.0
  0
SPLINE
  5
DD3
330
1F
100
AcDbEntity
  8
0
  6
Continuous
 62
     7
370
    15
100
AcDbSpline
210
0.0
220
0.0
230
1.0
 70
     8
 71
     3
 72
    18
 73
    14
 74
     0
 42
0.0000000001
 43
0.0000000001
 40
0.0
 40
0.0
 40
0.0
 40
0.0
 40
0.1571751994212138
 40
0.3023766768034464
 40
0.418370659630712
 40
0.4546195650118488
 40
0.4869853999332957
 40
0.51607929377888
 40
0.5642108537477437
 40
0.6433023997919275
 40
0.7537352920492252
 40
0.8961037014455184
 40
1.0
 40
1.0
 40
1.0
 40
1.0
 10
0.1195038617744917
 20
0.1373197926460592
 30
0.0
 10
0.1195905824836005
 20
0.1374479316447874
 30
0.0
 10
0.1197574174545553
 20
0.1376944479192805
 30
0.0
 10
0.120354790362998
 20
0.1381418853827863
 30
0.0
 10
0.1209660191694972
 20
0.1383987416030332
 30
0.0
 10
0.1214305910664608
 20
0.1385039271470956
 30
0.0
 10
0.1216940493977399
 20
0.1385425694571816
 30
0.0
 10
0.1220291925860915
 20
0.138564208446748
 30
0.0
 10
0.1224317789589193
 20
0.1385498044700806
 30
0.0
 10
0.1229972487787778
 20
0.1384542122332477
 30
0.0
 10
0.1236710447975389
 20
0.1381995158688825
 30
0.0
 10
0.1242441275674713
 20
0.1378157695309139
 30
0.0
 10
0.124415264999068
 20
0.1375785000608736
 30
0.0
 10
0.1244874659483433
 20
0.1374783987515866
 30
0.0
  0
LINE
  5
DD4
330
1F
100
AcDbEntity
  8
0
  6
Continuous
 62
     7
370
    15
100
AcDbLine
 10
0.1558718316159258
 20
0.137322188514355
 30
0.0
 11
0.1559105056050809
 21
0.1372741782648847
 31
0.0
  0
SPLINE
  5
DD5
330
1F
100
AcDbEntity
  8
0
  6
Continuous
 62
     7
370
    15
100
AcDbSpline
210
0.0
220
0.0
230
1.0
 70
     8
 71
     3
 72
    17
 73
    13
 74
     0
 42
0.0000000001
 43
0.0000000001
 40
0.0
 40
0.0
 40
0.0
 40
0.0
 40
0.1755074458371462
 40
0.3138060357689569
 40
0.4165507196001091
 40
0.4850194510972817
 40
0.5302341298461545
 40
0.5961667613694097
 40
0.6831713319797851
 40
0.7915716546760115
 40
0.9218680394346163
 40
1.0
 40
1.0
 40
1.0
 40
1.0
 10
0.1507128311293338
 20
0.1372690577919191
 30
0.0
 10
0.1508061620672283
 20
0.1374095558088739
 30
0.0
 10
0.1509730371048983
 20
0.1376607652406094
 30
0.0
 10
0.1515525740548611
 20
0.1381015988576721
 30
0.0
 10
0.1521497005659897
 20
0.1383785531323789
 30
0.0
 10
0.1527437035801151
 20
0.1385249299044298
 30
0.0
 10
0.1532847886011135
 20
0.1385696303602208
 30
0.0
 10
0.1537974891270561
 20
0.1385411109925898
 30
0.0
 10
0.1544236889169683
 20
0.1384030694728175
 30
0.0
 10
0.1550603384693785
 20
0.1381176119161345
 30
0.0
 10
0.1555403992650808
 20
0.1377650692539345
 30
0.0
 10
0.1556818037515528
 20
0.1375666624578939
 30
0.0
 10
0.1557348109840566
 20
0.1374922871998643
 30
0.0
  0
SPLINE
  5
DD6
330
1F
100
AcDbEntity
  8
0
  6
Continuous
 62
     7
370
    15
100
AcDbSpline
210
0.0
220
0.0
230
1.0
 70
     8
 71
     3
 72
    17
 73
    13
 74
     0
 42
0.0000000001
 43
0.0000000001
 40
0.0
 40
0.0
 40
0.0
 40
0.0
 40
0.1474040966176325
 40
0.2788385329850116
 40
0.3800437098850418
 40
0.4517531332906512
 40
0.483449701435461
 40
0.5171476976630168
 40
0.5844594412705594
 40
0.6868553614719256
 40
0.8249940510580252
 40
1.0
 40
1.0
 40
1.0
 40
1.0
 10
0.1820085251203549
 20
0.1373278798066981
 30
0.0
 10
0.1821047693455631
 20
0.1374667414451367
 30
0.0
 10
0.1822868307616385
 20
0.1377294205459134
 30
0.0
 10
0.1828824263893223
 20
0.1381570870694762
 30
0.0
 10
0.183532019840432
 20
0.1384223566362723
 30
0.0
 10
0.1840474102587226
 20
0.1385304613275502
 30
0.0
 10
0.1844654172160194
 20
0.1385620221108277
 30
0.0
 10
0.1848793261992734
 20
0.1385541482386254
 30
0.0
 10
0.1853878747951336
 20
0.138479170796487
 30
0.0
 10
0.1860917058205187
 20
0.1382454144445453
 30
0.0
 10
0.1868077959145102
 20
0.1377776540299522
 30
0.0
 10
0.1870322367201567
 20
0.1374577794382223
 30
0.0
 10
0.1871576690965755
 20
0.137279012346021
 30
0.0
  0
LINE
  5
DD7
330
1F
100
AcDbEntity
  8
0
  6
Continuous
 62
     7
370
    15
100
AcDbLine
 10
0.2183752407652255
 20
0.1373186154342165
 30
0.0
 11
0.2184091424251617
 21
0.1372764994745306
 31
0.0
  0
SPLINE
  5
DD8
330
1F
100
AcDbEntity
  8
0
  6
Continuous
 62
     7
370
    15
100
AcDbSpline
210
0.0
220
0.0
230
1.0
 70
     8
 71
     3
 72
    17
 73
    13
 74
     0
 42
0.0000000001
 43
0.0000000001
 40
0.0
 40
0.0
 40
0.0
 40
0.0
 40
0.1637115212690682
 40
0.3055167560921694
 40
0.4099223222512849
 40
0.4783884885937329
 40
0.5245756795196712
 40
0.5914728915111697
 40
0.6794362115691727
 40
0.7887947424062247
 40
0.9200562557155071
 40
1.0
 40
1.0
 40
1.0
 40
1.0
 10
0.213253629436883
 20
0.1373215914010761
 30
0.0
 10
0.2133381969764025
 20
0.1374469106804068
 30
0.0
 10
0.2134960160482944
 20
0.1376807802297209
 30
0.0
 10
0.2140584026908892
 20
0.1381043232788177
 30
0.0
 10
0.2146512534519438
 20
0.1383793328815268
 30
0.0
 10
0.2152534764862288
 20
0.1385266076670972
 30
0.0
 10
0.2157946750318267
 20
0.1385698056166871
 30
0.0
 10
0.2163098061696296
 20
0.1385395466629826
 30
0.0
 10
0.2169346186587226
 20
0.1383993632622062
 30
0.0
 10
0.2175672919606866
 20
0.1381133848623839
 30
0.0
 10
0.2180442617410634
 20
0.1377613263413777
 30
0.0
 10
0.2181850061392234
 20
0.1375636027663449
 30
0.0
 10
0.2182382795960693
 20
0.1374887620019556
 30
0.0
  0
LINE
  5
DD9
330
1F
100
AcDbEntity
  8
0
  6
Continuous
 62
     7
370
    15
100
AcDbLine
 10
0.2496210138780963
 20
0.1373261710791591
 30
0.0
 11
0.2496562160699396
 21
0.1372814947635663
 31
0.0
  0
SPLINE
  5
DDA
330
1F
100
AcDbEntity
  8
0
  6
Continuous
 62
     7
370
    15
100
AcDbSpline
210
0.0
220
0.0
230
1.0
 70
     8
 71
     3
 72
    20
 73
    16
 74
     0
 42
0.0000000001
 43
0.0000000001
 40
0.0
 40
0.0
 40
0.0
 40
0.0
 40
0.1776094433970665
 40
0.3188135410355462
 40
0.4246398969244986
 40
0.4811805130992992
 40
0.5183329195529533
 40
0.5507180786251583
 40
0.5802810750688418
 40
0.6124640563527345
 40
0.6473040938735722
 40
0.6848403588812963
 40
0.7983990694501131
 40
0.9324366213557501
 40
1.0
 40
1.0
 40
1.0
 40
1.0
 10
0.2444658205013459
 20
0.1372741363855296
 30
0.0
 10
0.2445830858873377
 20
0.1374438767063428
 30
0.0
 10
0.2447935802858003
 20
0.13774856496897
 30
0.0
 10
0.2454553922424862
 20
0.1381987750887172
 30
0.0
 10
0.2460668404371953
 20
0.1384307175241397
 30
0.0
 10
0.2465317862485827
 20
0.1385230567030589
 30
0.0
 10
0.2468322076107752
 20
0.1385549752078234
 30
0.0
 10
0.2471377389654554
 20
0.1385618650815172
 30
0.0
 10
0.2474133873866879
 20
0.1385441718117977
 30
0.0
 10
0.2476771302162044
 20
0.1385073311973701
 30
0.0
 10
0.2479423864467698
 20
0.1384489101415416
 30
0.0
 10
0.2483760796094536
 20
0.1383164076142687
 30
0.0
 10
0.2489109682166433
 20
0.1380493076626315
 30
0.0
 10
0.2493362678974451
 20
0.1377089717204449
 30
0.0
 10
0.2494482897988295
 20
0.1375507577582673
 30
0.0
 10
0.2494858321758366
 20
0.1374977348391551
 30
0.0
  0
SPLINE
  5
DDB
330
1F
100
AcDbEntity
  8
0
  6
Continuous
 62
     7
370
    15
100
AcDbSpline
210
0.0
220
0.0
230
1.0
 70
     8
 71
     3
 72
    19
 73
    15
 74
     0
 42
0.0000000001
 43
0.0000000001
 40
0.0
 40
0.0
 40
0.0
 40
0.0
 40
0.1275078746168073
 40
0.2530016922778094
 40
0.3592676550113981
 40
0.4269382039267157
 40
0.4846325480748729
 40
0.4975380320945068
 40
0.5148167118751389
 40
0.5494866736013306
 40
0.602351362575769
 40
0.7013984697870549
 40
0.8336309689790388
 40
1.0
 40
1.0
 40
1.0
 40
1.0
 10
0.2757535847519099
 20
0.1373222878411862
 30
0.0
 10
0.2758237461699817
 20
0.1374278939087294
 30
0.0
 10
0.2759629607679654
 20
0.1376374379379404
 30
0.0
 10
0.2764573884483052
 20
0.1380448066394444
 30
0.0
 10
0.2770626729434857
 20
0.138348035499154
 30
0.0
 10
0.2776670845438378
 20
0.1385118052376177
 30
0.0
 10
0.2780803873394344
 20
0.1385575420191318
 30
0.0
 10
0.2783736212178454
 20
0.138559210705425
 30
0.0
 10
0.2785731204401092
 20
0.1385514193361295
 30
0.0
 10
0.2788434527479948
 20
0.1385235126830753
 30
0.0
 10
0.2793070418470931
 20
0.1384312147954696
 30
0.0
 10
0.279920496063589
 20
0.1381991614195255
 30
0.0
 10
0.2805837730688942
 20
0.1377474436155004
 30
0.0
 10
0.280795345154023
 20
0.1374405487144767
 30
0.0
 10
0.2809132248004156
 20
0.1372695589433515
 30
0.0
  0
ARC
  5
DDC
330
1F
100
AcDbEntity
  8
0
  6
Continuous
 62
     7
370
    15
100
AcDbCircle
 10
0.0595631749625119
 20
0.2409166284274176
 30
0.0
 40
0.0039062500002033
100
AcDbArc
 50
270.0000000000008
 51
330.0000000119662
  0
SPLINE
  5
DDD
330
1F
100
AcDbEntity
  8
0
  6
Continuous
 62
     7
370
    15
100
AcDbSpline
210
0.0
220
0.0
230
1.0
 70
     8
 71
     3
 72
    48
 73
    44
 74
     0
 42
0.0000000001
 43
0.0000000001
 40
0.0
 40
0.0
 40
0.0
 40
0.0
 40
0.0095493916861445
 40
0.0324525779149838
 40
0.0556576959932359
 40
0.0790159873862502
 40
0.1026883808526674
 40
0.1264805365680282
 40
0.1506121794029483
 40
0.1749162486367998
 40
0.199574638443779
 40
0.2233668010668748
 40
0.2474853546867482
 40
0.2717631932945837
 40
0.2963714044338996
 40
0.3208700613262901
 40
0.3457102075571155
 40
0.3707237358283298
 40
0.3960933229379526
 40
0.4208688067724639
 40
0.4459944453433091
 40
0.4712986877639598
 40
0.4969588885066119
 40
0.5220713800557961
 40
0.5475237499707742
 40
0.573148608993188
 40
0.599127418033226
 40
0.6248863435374662
 40
0.6510128191490762
 40
0.6773259744095798
 40
0.7040227394221971
 40
0.7297802635017851
 40
0.7557039145262087
 40
0.7821490076568132
 40
0.8087736043830833
 40
0.8355016517339441
 40
0.8624150741949575
 40
0.8899131263221256
 40
0.9176131848930214
 40
0.9432559214061193
 40
0.9692268572898225
 40
0.9953599184171526
 40
1.0
 40
1.0
 40
1.0
 40
1.0
 10
0.067572419003926
 20
0.2462441172933834
 30
0.0
 10
0.0676064666310987
 20
0.2462905563523603
 30
0.0
 10
0.0677221738206226
 20
0.2464483744866741
 30
0.0
 10
0.0679239260323135
 20
0.2463045138215052
 30
0.0
 10
0.0681806962129601
 20
0.2458308410481416
 30
0.0
 10
0.0684433374924245
 20
0.2449351029841273
 30
0.0
 10
0.0687095041925128
 20
0.2436458604755916
 30
0.0
 10
0.0689780612240849
 20
0.2419487432471414
 30
0.0
 10
0.0692466736259787
 20
0.2398497598231191
 30
0.0
 10
0.0695141611230712
 20
0.2373441950853468
 30
0.0
 10
0.0697747690707082
 20
0.2344849831462166
 30
0.0
 10
0.0700255476534206
 20
0.2312918025733546
 30
0.0
 10
0.0702714622295533
 20
0.227807131896284
 30
0.0
 10
0.0705288295619626
 20
0.224002160592899
 30
0.0
 10
0.070790834985119
 20
0.2199145821433466
 30
0.0
 10
0.0710573046759215
 20
0.2155583591548233
 30
0.0
 10
0.0713256153179955
 20
0.2109677623792971
 30
0.0
 10
0.0715956449575517
 20
0.2061404818468033
 30
0.0
 10
0.0718622098542845
 20
0.2011664817154934
 30
0.0
 10
0.072123938165257
 20
0.196070364122519
 30
0.0
 10
0.0723793782322178
 20
0.190899546275578
 30
0.0
 10
0.0726269474897672
 20
0.1856241797585576
 30
0.0
 10
0.0728817031481972
 20
0.1803442670423974
 30
0.0
 10
0.0731417961853191
 20
0.1750840032822638
 30
0.0
 10
0.0734049285354583
 20
0.1698903676357886
 30
0.0
 10
0.0736723974191813
 20
0.1647386293261666
 30
0.0
 10
0.0739404511672364
 20
0.1597040675750425
 30
0.0
 10
0.0742079520915748
 20
0.1548111259559666
 30
0.0
 10
0.0744723632861675
 20
0.1501065785756448
 30
0.0
 10
0.0747344526584835
 20
0.1455932367696389
 30
0.0
 10
0.0749857619874099
 20
0.1413838066415329
 30
0.0
 10
0.0752332545135728
 20
0.1374990821400908
 30
0.0
 10
0.0754882834251314
 20
0.133941589332847
 30
0.0
 10
0.0757494960455709
 20
0.1306927408620129
 30
0.0
 10
0.076015866683953
 20
0.1277887443874781
 30
0.0
 10
0.0762842225031895
 20
0.1252698728202009
 30
0.0
 10
0.0765541272107413
 20
0.1231500898029219
 30
0.0
 10
0.0768240302816201
 20
0.1214566999132214
 30
0.0
 10
0.077084510204049
 20
0.1202569228697574
 30
0.0
 10
0.0773340533165738
 20
0.1195172680371157
 30
0.0
 10
0.0775691680927908
 20
0.1192629261375075
 30
0.0
 10
0.0777443522824752
 20
0.1192786158157744
 30
0.0
 10
0.0778416837936025
 20
0.1195109605977191
 30
0.0
 10
0.0778563597776731
 20
0.119545994352761
 30
0.0
  0
LINE
  5
DDE
330
1F
100
AcDbEntity
  8
0
  6
Continuous
 62
     7
370
    15
100
AcDbLine
 10
0.2444886575505007
 20
0.1373337699414283
 30
0.0
 11
0.2444730618075459
 21
0.137315354975772
 31
0.0
  0
LINE
  5
DDF
330
1F
100
AcDbEntity
  8
0
  6
Continuous
 62
     7
370
    15
100
AcDbLine
 10
0.2288621340537675
 20
0.238218123933057
 30
0.0
 11
0.2288480641251951
 21
0.2382482406614215
 31
0.0
  0
LINE
  5
DE0
330
1F
100
AcDbEntity
  8
0
  6
Continuous
 62
     7
370
    15
100
AcDbLine
 10
0.1663629950030074
 20
0.2382252839129646
 30
0.0
 11
0.1663477588106952
 21
0.2382439270571202
 31
0.0
  0
LINE
  5
DE1
330
1F
100
AcDbEntity
  8
0
  6
Continuous
 62
     7
370
    15
100
AcDbLine
 10
0.1507379153778272
 20
0.1373427677597685
 30
0.0
 11
0.1507191562803234
 21
0.1373018373636845
 31
0.0
  0
LINE
  5
DE2
330
1F
100
AcDbEntity
  8
0
  6
Continuous
 62
     7
370
    15
100
AcDbLine
 10
0.088239360068525
 20
0.1373552971128302
 30
0.0
 11
0.0882214340663019
 21
0.1373325961351219
 31
0.0
  0
LINE
  5
DE3
330
1F
100
AcDbEntity
  8
0
  6
Continuous
 62
     7
370
    15
100
AcDbLine
 10
0.0726123068424451
 20
0.2382382955345048
 30
0.0
 11
0.0726007830009889
 21
0.2382639158016615
 31
0.0
  0
SPLINE
  5
DE4
330
1F
100
AcDbEntity
  8
0
  6
Continuous
 62
     7
370
    15
100
AcDbSpline
210
0.0
220
0.0
230
1.0
 70
     8
 71
     3
 72
    19
 73
    15
 74
     0
 42
0.0000000001
 43
0.0000000001
 40
0.0
 40
0.0
 40
0.0
 40
0.0
 40
0.0518060781498992
 40
0.153643837530165
 40
0.2464275857308693
 40
0.3399816441348355
 40
0.4359907211715096
 40
0.5328547507003046
 40
0.6177893991034022
 40
0.7033141987543401
 40
0.7907246503671938
 40
0.8788155359146289
 40
0.9392605224958638
 40
1.0
 40
1.0
 40
1.0
 40
1.0
 10
0.2839631105701219
 20
0.2503209492233656
 30
0.0
 10
0.2841359526876834
 20
0.2501595221241479
 30
0.0
 10
0.2846485590685823
 20
0.2496807698253636
 30
0.0
 10
0.2855117723175722
 20
0.2483320615779525
 30
0.0
 10
0.2865547353694371
 20
0.246358155921397
 30
0.0
 10
0.2876084631779196
 20
0.2439517816358863
 30
0.0
 10
0.2887025556972986
 20
0.2410759939068439
 30
0.0
 10
0.2897819983473031
 20
0.2378740564745878
 30
0.0
 10
0.2908296719175718
 20
0.2344475349823187
 30
0.0
 10
0.2918424361890484
 20
0.2308510659863079
 30
0.0
 10
0.2928613929037382
 20
0.2269394077102595
 30
0.0
 10
0.2937723193880748
 20
0.2231737031100347
 30
0.0
 10
0.2946207662189497
 20
0.2196760440726071
 30
0.0
 10
0.2951290450166866
 20
0.2175701467104552
 30
0.0
 10
0.2953838020008765
 20
0.2165146392539525
 30
0.0
  0
SPLINE
  5
DE5
330
1F
100
AcDbEntity
  8
0
  6
Continuous
 62
     7
370
    15
100
AcDbSpline
210
0.0
220
0.0
230
1.0
 70
     8
 71
     3
 72
    47
 73
    43
 74
     0
 42
0.0000000001
 43
0.0000000001
 40
0.0
 40
0.0
 40
0.0
 40
0.0
 40
0.0063894729483396
 40
0.0327653260548575
 40
0.0582041659340304
 40
0.084005879830322
 40
0.1099918390855409
 40
0.1363563851841995
 40
0.161802026654974
 40
0.1876107904194925
 40
0.213604025965495
 40
0.2399764644239316
 40
0.2654152687789937
 40
0.2912172347689086
 40
0.3172035721031508
 40
0.3435687095801747
 40
0.369007071776088
 40
0.3948081019107248
 40
0.4207933381872722
 40
0.4471571773974131
 40
0.4811567969559884
 40
0.5056261329342752
 40
0.5304177025578456
 40
0.5553726676752183
 40
0.5806626290076708
 40
0.606100477553858
 40
0.6319009656739658
 40
0.657885641967294
 40
0.6842488788179362
 40
0.7096953736059179
 40
0.7355051786120989
 40
0.7614995818898941
 40
0.7878731406658824
 40
0.8133118572750738
 40
0.8391132757979862
 40
0.865098882116669
 40
0.8914630016139152
 40
0.9169114783746945
 40
0.9425367774468973
 40
0.9687198594068055
 40
0.9950957125723295
 40
1.0
 40
1.0
 40
1.0
 40
1.0
 10
0.0927656960101517
 20
0.2567380020589947
 30
0.0
 10
0.0927988095496888
 20
0.2567520464415405
 30
0.0
 10
0.0929686163441659
 20
0.256824066274334
 30
0.0
 10
0.093274051794193
 20
0.2564545807992089
 30
0.0
 10
0.09369298827108
 20
0.255622838777088
 30
0.0
 10
0.0941166438308772
 20
0.2542792411285455
 30
0.0
 10
0.0945497949198817
 20
0.2524527680731112
 30
0.0
 10
0.0949821732335163
 20
0.2501642150288217
 30
0.0
 10
0.095411718611711
 20
0.2474367229804923
 30
0.0
 10
0.0958341516162609
 20
0.2443025419152449
 30
0.0
 10
0.0962546030596858
 20
0.2407242067169242
 30
0.0
 10
0.0966586104439582
 20
0.2367789152124957
 30
0.0
 10
0.0970603302034379
 20
0.2324938790212792
 30
0.0
 10
0.0974749940764666
 20
0.2279165530258509
 30
0.0
 10
0.0979017742634296
 20
0.2229963608733638
 30
0.0
 10
0.0983320949329416
 20
0.2178445860918585
 30
0.0
 10
0.0987633227661942
 20
0.2124914138226575
 30
0.0
 10
0.0991915874938014
 20
0.2069906325754451
 30
0.0
 10
0.0996206974352685
 20
0.2012854127533656
 30
0.0
 10
0.100087923929391
 20
0.1948732803561151
 30
0.0
 10
0.1005298270932959
 20
0.1884997694730255
 30
0.0
 10
0.1009607123934133
 20
0.1822475621920678
 30
0.0
 10
0.1013588799117624
 20
0.1767105772070656
 30
0.0
 10
0.1017681186366532
 20
0.1711863317200568
 30
0.0
 10
0.102186316341248
 20
0.1657266422654069
 30
0.0
 10
0.1026114828269442
 20
0.1603580368570525
 30
0.0
 10
0.1030399847914127
 20
0.1551329983907448
 30
0.0
 10
0.1034700295616417
 20
0.1500795522409768
 30
0.0
 10
0.1038912692312364
 20
0.1453208399823747
 30
0.0
 10
0.1043023608691129
 20
0.1408760521349559
 30
0.0
 10
0.1046972364984136
 20
0.1367812759239944
 30
0.0
 10
0.1051124170019415
 20
0.1330048872507521
 30
0.0
 10
0.1055343624713085
 20
0.1296428415949458
 30
0.0
 10
0.1059618450575126
 20
0.1267048268609225
 30
0.0
 10
0.1063904896145607
 20
0.1242103366573937
 30
0.0
 10
0.1068246099638284
 20
0.1221427797437671
 30
0.0
 10
0.1072540957714754
 20
0.1205580257120169
 30
0.0
 10
0.1076754600239846
 20
0.1194624408766702
 30
0.0
 10
0.1080883522281066
 20
0.1188366444754956
 30
0.0
 10
0.1084901218350156
 20
0.1187420582077263
 30
0.0
 10
0.1087900266610635
 20
0.1189248050842413
 30
0.0
 10
0.1089588434749853
 20
0.1192859387808087
 30
0.0
 10
0.1089853115842203
 20
0.1193425594805304
 30
0.0
  0
SPLINE
  5
DE6
330
1F
100
AcDbEntity
  8
0
  6
Continuous
 62
     7
370
    15
100
AcDbSpline
210
0.0
220
0.0
230
1.0
 70
     8
 71
     3
 72
    47
 73
    43
 74
     0
 42
0.0000000001
 43
0.0000000001
 40
0.0
 40
0.0
 40
0.0
 40
0.0
 40
0.0063934082362577
 40
0.0327692482969953
 40
0.0582080754336138
 40
0.0840097763746701
 40
0.1099957225699714
 40
0.1363602553985659
 40
0.1618058848425217
 40
0.1876146364510438
 40
0.2136078597794663
 40
0.2399802858998165
 40
0.2654190765137548
 40
0.291221028572646
 40
0.3172073518421044
 40
0.34357247501887
 40
0.3690108241657596
 40
0.3948118410606002
 40
0.4207970640042529
 40
0.4471608896954587
 40
0.4811565708489646
 40
0.5056258946696738
 40
0.5304174519755628
 40
0.5553724046940384
 40
0.5806623534611246
 40
0.6061001893692286
 40
0.6319006646711182
 40
0.6578853280547446
 40
0.6842485518076693
 40
0.7096950339515217
 40
0.7353184066514205
 40
0.7614992117313501
 40
0.7878727574024521
 40
0.8133114613725808
 40
0.8391128670762084
 40
0.8650984604840916
 40
0.8914625668824841
 40
0.9169110309992868
 40
0.9425363173396947
 40
0.9687193862906481
 40
0.9950952263514441
 40
1.0
 40
1.0
 40
1.0
 40
1.0
 10
0.1240156961132524
 20
0.2567379826432661
 30
0.0
 10
0.124048829945508
 20
0.2567520312212674
 30
0.0
 10
0.1242186565444197
 20
0.2568240368438901
 30
0.0
 10
0.1245241151217087
 20
0.2564544931337784
 30
0.0
 10
0.124943052540563
 20
0.2556226689784915
 30
0.0
 10
0.1253667090802217
 20
0.2542790008949765
 30
0.0
 10
0.1257998605619468
 20
0.2524524555431493
 30
0.0
 10
0.1262322388249712
 20
0.2501638334981924
 30
0.0
 10
0.1266617837184984
 20
0.247436275087344
 30
0.0
 10
0.1270842156560334
 20
0.2443020310851431
 30
0.0
 10
0.1275046660791057
 20
0.2407236358155189
 30
0.0
 10
0.1279086700446248
 20
0.2367782885801977
 30
0.0
 10
0.1283103930516676
 20
0.2324932017012959
 30
0.0
 10
0.1287250580075057
 20
0.2279158300837945
 30
0.0
 10
0.1291518392952167
 20
0.2229955969931443
 30
0.0
 10
0.1295821604719203
 20
0.2178437869318119
 30
0.0
 10
0.1300133883826469
 20
0.2124905851157046
 30
0.0
 10
0.1304416527273817
 20
0.2069897801795864
 30
0.0
 10
0.1308707618073619
 20
0.2012845425660932
 30
0.0
 10
0.1313379656621834
 20
0.1948726882446743
 30
0.0
 10
0.1317798473648493
 20
0.1884994734207939
 30
0.0
 10
0.1322107125525882
 20
0.1822475603694778
 30
0.0
 10
0.1326088800299088
 20
0.176710575463273
 30
0.0
 10
0.1330181187727684
 20
0.1711863299860332
 30
0.0
 10
0.1334363164589449
 20
0.1657266405884097
 30
0.0
 10
0.1338614830079425
 20
0.1603580351883269
 30
0.0
 10
0.1342899847355969
 20
0.1551329969524269
 30
0.0
 10
0.134720030397915
 20
0.1500795502537335
 30
0.0
 10
0.1351412667179224
 20
0.1453208404261885
 30
0.0
 10
0.1355513831662609
 20
0.1408867192667444
 30
0.0
 10
0.1359462650591485
 20
0.136790779151799
 30
0.0
 10
0.1363614039930452
 20
0.133012932525324
 30
0.0
 10
0.1367843631709631
 20
0.129642842871021
 30
0.0
 10
0.1372118450358348
 20
0.1267048254295191
 30
0.0
 10
0.1376404897877332
 20
0.1242103361248943
 30
0.0
 10
0.138074610083688
 20
0.1221427791398804
 30
0.0
 10
0.1385040959047536
 20
0.120558025330268
 30
0.0
 10
0.1389254601497187
 20
0.1194624405510622
 30
0.0
 10
0.1393383523577505
 20
0.1188366445898592
 30
0.0
 10
0.1397401219373027
 20
0.11874205737309
 30
0.0
 10
0.1400400293826793
 20
0.1189248089364905
 30
0.0
 10
0.1402088488586965
 20
0.1192859494560348
 30
0.0
 10
0.1402353196090793
 20
0.1193425759826163
 30
0.0
  0
SPLINE
  5
DE7
330
1F
100
AcDbEntity
  8
0
  6
Continuous
 62
     7
370
    15
100
AcDbSpline
210
0.0
220
0.0
230
1.0
 70
     8
 71
     3
 72
    47
 73
    43
 74
     0
 42
0.0000000001
 43
0.0000000001
 40
0.0
 40
0.0
 40
0.0
 40
0.0
 40
0.0063934051745277
 40
0.0327692326043395
 40
0.0582080475587513
 40
0.0840097361438266
 40
0.1099956698949158
 40
0.1363601900979993
 40
0.1618058073564908
 40
0.187614546605656
 40
0.2136077574863807
 40
0.2399801709774406
 40
0.2654189494091901
 40
0.2912208891119797
 40
0.3172071999370446
 40
0.3435723104880169
 40
0.3690106474529291
 40
0.3948116519921159
 40
0.4207968624919013
 40
0.447160675557935
 40
0.4811563364888796
 40
0.505625648591662
 40
0.5304171940253502
 40
0.5553721347933964
 40
0.5806620714496606
 40
0.6060998951748554
 40
0.6319003581201171
 40
0.6578850090588763
 40
0.6842482201855729
 40
0.7096946901440712
 40
0.7353180505739262
 40
0.7614988431168857
 40
0.7878723761587518
 40
0.8133110679466494
 40
0.8391124612943613
 40
0.8650980422581246
 40
0.8914621360311286
 40
0.9169105879610588
 40
0.9425358620298991
 40
0.968718918442185
 40
0.9950947458719973
 40
1.0
 40
1.0
 40
1.0
 40
1.0
 10
0.1552656961132524
 20
0.256737982643267
 30
0.0
 10
0.155298829945508
 20
0.2567520312212674
 30
0.0
 10
0.1554686565444197
 20
0.2568240368438901
 30
0.0
 10
0.1557741151217078
 20
0.2564544931337793
 30
0.0
 10
0.1561930525405621
 20
0.2556226689784933
 30
0.0
 10
0.1566167090802208
 20
0.2542790008949782
 30
0.0
 10
0.1570498605619459
 20
0.2524524555431529
 30
0.0
 10
0.1574822388249712
 20
0.2501638334981959
 30
0.0
 10
0.1579117837184976
 20
0.2474362750873484
 30
0.0
 10
0.1583342156560326
 20
0.2443020310851485
 30
0.0
 10
0.1587546660791057
 20
0.2407236358155242
 30
0.0
 10
0.1591586700446239
 20
0.2367782885802039
 30
0.0
 10
0.1595603930516676
 20
0.232493201701303
 30
0.0
 10
0.1599750580075057
 20
0.2279158300838016
 30
0.0
 10
0.1604018392952167
 20
0.2229955969931523
 30
0.0
 10
0.1608321604719176
 20
0.2178437869318182
 30
0.0
 10
0.1612633883826522
 20
0.2124905851157162
 30
0.0
 10
0.1616916527273586
 20
0.2069897801795775
 30
0.0
 10
0.1621207618074445
 20
0.2012845425661651
 30
0.0
 10
0.1625879656404958
 20
0.1948726885371888
 30
0.0
 10
0.1630298473256371
 20
0.1884994740157864
 30
0.0
 10
0.1634607124896927
 20
0.1822475612568124
 30
0.0
 10
0.1638588799658871
 20
0.1767105763419514
 30
0.0
 10
0.1642681187076516
 20
0.1711863308500567
 30
0.0
 10
0.164686316393257
 20
0.1657266414319696
 30
0.0
 10
0.1651114829420956
 20
0.1603580360054955
 30
0.0
 10
0.1655399846700343
 20
0.1551329977373324
 30
0.0
 10
0.1659700303331633
 20
0.1500795510003647
 30
0.0
 10
0.1663912666542382
 20
0.1453208411291924
 30
0.0
 10
0.1668013831048931
 20
0.1408867199212493
 30
0.0
 10
0.1671962649975764
 20
0.1367907797530958
 30
0.0
 10
0.1676114039292855
 20
0.1330129330683536
 30
0.0
 10
0.1680343631061376
 20
0.1296428433522183
 30
0.0
 10
0.1684618449702206
 20
0.1267048258453198
 30
0.0
 10
0.1688904897218748
 20
0.1242103364746048
 30
0.0
 10
0.1693246100178891
 20
0.1221427794131666
 30
0.0
 10
0.169754095840057
 20
0.120558025551841
 30
0.0
 10
0.170175460084514
 20
0.1194624406233911
 30
0.0
 10
0.1705883523001797
 20
0.1188366448715361
 30
0.0
 10
0.1709901218584928
 20
0.1187420564929114
 30
0.0
 10
0.1712900318849124
 20
0.118924812521096
 30
0.0
 10
0.1714588539897877
 20
0.1192859596932263
 30
0.0
 10
0.1714853273495818
 20
0.119342591963234
 30
0.0
  0
SPLINE
  5
DE8
330
1F
100
AcDbEntity
  8
0
  6
Continuous
 62
     7
370
    15
100
AcDbSpline
210
0.0
220
0.0
230
1.0
 70
     8
 71
     3
 72
    47
 73
    43
 74
     0
 42
0.0000000001
 43
0.0000000001
 40
0.0
 40
0.0
 40
0.0
 40
0.0
 40
0.0063934022257882
 40
0.0327692174903351
 40
0.0582080207116578
 40
0.0840096973962763
 40
0.1099956191619308
 40
0.1363601272049646
 40
0.1618057327272298
 40
0.1876144600726863
 40
0.21360765896462
 40
0.2399800602919898
 40
0.2654188269906673
 40
0.2912207547928858
 40
0.317207053632341
 40
0.3435721520229902
 40
0.369010477255034
 40
0.39481146989408
 40
0.4207966684087646
 40
0.4471604693150752
 40
0.4811561106235296
 40
0.5056254114403688
 40
0.5304169454394537
 40
0.5553718746975493
 40
0.5806617996893485
 40
0.606099611682375
 40
0.6319000627282224
 40
0.6578847016826198
 40
0.6842479006503544
 40
0.7096943588727514
 40
0.7353177074849399
 40
0.7614984879531456
 40
0.7878720088313952
 40
0.8133106888861778
 40
0.8391120703334935
 40
0.8650976393119085
 40
0.891461720924979
 40
0.9169101611173246
 40
0.9425354233670068
 40
0.9687184677028842
 40
0.9950942829673717
 40
1.0
 40
1.0
 40
1.0
 40
1.0
 10
0.1865156961132523
 20
0.2567379826432661
 30
0.0
 10
0.1865488299455089
 20
0.2567520312212665
 30
0.0
 10
0.1867186565444205
 20
0.2568240368438892
 30
0.0
 10
0.1870241151217096
 20
0.2564544931337775
 30
0.0
 10
0.187443052540563
 20
0.2556226689784897
 30
0.0
 10
0.1878667090802226
 20
0.2542790008949738
 30
0.0
 10
0.1882998605619477
 20
0.2524524555431467
 30
0.0
 10
0.1887322388249721
 20
0.2501638334981888
 30
0.0
 10
0.1891617837184993
 20
0.2474362750873396
 30
0.0
 10
0.1895842156560343
 20
0.2443020310851387
 30
0.0
 10
0.1900046660791066
 20
0.2407236358155127
 30
0.0
 10
0.1904086700446248
 20
0.2367782885801914
 30
0.0
 10
0.1908103930516685
 20
0.2324932017012897
 30
0.0
 10
0.1912250580075065
 20
0.2279158300837873
 30
0.0
 10
0.1916518392952193
 20
0.2229955969931381
 30
0.0
 10
0.1920821604719176
 20
0.2178437869318013
 30
0.0
 10
0.1925133883826584
 20
0.2124905851157046
 30
0.0
 10
0.1929416527273382
 20
0.2069897801795446
 30
0.0
 10
0.193370761807528
 20
0.2012845425662113
 30
0.0
 10
0.1938379656188092
 20
0.1948726888296863
 30
0.0
 10
0.1942798472864249
 20
0.1884994746107718
 30
0.0
 10
0.1947107124267973
 20
0.1822475621441577
 30
0.0
 10
0.1951088799018636
 20
0.1767105772206565
 30
0.0
 10
0.1955181186425321
 20
0.1711863317141291
 30
0.0
 10
0.1959363163275736
 20
0.1657266422754771
 30
0.0
 10
0.1963614828762701
 20
0.1603580368223869
 30
0.0
 10
0.1967899846045204
 20
0.1551329985216321
 30
0.0
 10
0.1972200302684905
 20
0.1500795517460847
 30
0.0
 10
0.1976412665906499
 20
0.1453208418311287
 30
0.0
 10
0.1980513830436266
 20
0.1408867205746636
 30
0.0
 10
0.1984462649361074
 20
0.1367907803533908
 30
0.0
 10
0.1988614038656307
 20
0.1330129336104799
 30
0.0
 10
0.1992843630414196
 20
0.1296428438326109
 30
0.0
 10
0.1997118449047166
 20
0.1267048262604384
 30
0.0
 10
0.2001404896561256
 20
0.1242103368236918
 30
0.0
 10
0.2005746099522039
 20
0.1221427796861509
 30
0.0
 10
0.2010040957754544
 20
0.1205580257724699
 30
0.0
 10
0.201425460019462
 20
0.119462440697665
 30
0.0
 10
0.2018383522425369
 20
0.1188366451448934
 30
0.0
 10
0.2022401217804548
 20
0.1187420556443013
 30
0.0
 10
0.202540034293424
 20
0.1189248159719587
 30
0.0
 10
0.2027088589309809
 20
0.1192859695522848
 30
0.0
 10
0.2027353348047374
 20
0.1193426073554966
 30
0.0
  0
SPLINE
  5
DE9
330
1F
100
AcDbEntity
  8
0
  6
Continuous
 62
     7
370
    15
100
AcDbSpline
210
0.0
220
0.0
230
1.0
 70
     8
 71
     3
 72
    47
 73
    43
 74
     0
 42
0.0000000001
 43
0.0000000001
 40
0.0
 40
0.0
 40
0.0
 40
0.0
 40
0.0063933994205882
 40
0.0327692031125135
 40
0.0582079951723359
 40
0.0840096605362416
 40
0.109995570900343
 40
0.1363600673757158
 40
0.1618056617334967
 40
0.1874279092405951
 40
0.213607560422057
 40
0.2399799501783017
 40
0.265418705715495
 40
0.2912206221968893
 40
0.3172069096346273
 40
0.3435719964573566
 40
0.3690103105281106
 40
0.3948112918467432
 40
0.4207964789601927
 40
0.4471602682991519
 40
0.4811559025770866
 40
0.5056251926578179
 40
0.5304167157794107
 40
0.55537163408829
 40
0.580661547983865
 40
0.6060993488165403
 40
0.6318997885429697
 40
0.6578844160971638
 40
0.6842476034986725
 40
0.7096940505551733
 40
0.7353173879238126
 40
0.761498156903857
 40
0.7878716662093098
 40
0.8133103351028129
 40
0.8391117052296973
 40
0.8650972628068657
 40
0.8914613328526247
 40
0.9169097618793443
 40
0.9425350128858534
 40
0.9687180457337985
 40
0.9950938494257828
 40
0.9999999999999998
 40
0.9999999999999998
 40
0.9999999999999998
 40
0.9999999999999998
 10
0.2177656961132524
 20
0.2567379826432661
 30
0.0
 10
0.2177988299455169
 20
0.2567520312211866
 30
0.0
 10
0.2179686565444783
 20
0.2568240368433945
 30
0.0
 10
0.2182741151205212
 20
0.2564544931438619
 30
0.0
 10
0.2186930525446957
 20
0.2556226689434049
 30
0.0
 10
0.2191167090645258
 20
0.2542790010282041
 30
0.0
 10
0.2195498606213198
 20
0.2524524550391862
 30
0.0
 10
0.2199822386031753
 20
0.2501638353808127
 30
0.0
 10
0.2204107525935735
 20
0.2474428209010937
 30
0.0
 10
0.220833199078144
 20
0.2443101366258999
 30
0.0
 10
0.2212536969421128
 20
0.2407330846024478
 30
0.0
 10
0.2216586702800853
 20
0.2367782902634556
 30
0.0
 10
0.2220603929885669
 20
0.2324932012502034
 30
0.0
 10
0.222475058024644
 20
0.2279158302063062
 30
0.0
 10
0.2229018392905315
 20
0.2229955969596458
 30
0.0
 10
0.2233321604731326
 20
0.2178437869404859
 30
0.0
 10
0.2237633883823209
 20
0.2124905851133794
 30
0.0
 10
0.2241916527274697
 20
0.206989780180217
 30
0.0
 10
0.2246207618073379
 20
0.2012845425659226
 30
0.0
 10
0.2250879656621922
 20
0.1948726882447356
 30
0.0
 10
0.2255298473648466
 20
0.1884994734207814
 30
0.0
 10
0.2259607125525891
 20
0.1822475603694813
 30
0.0
 10
0.2263588800299088
 20
0.1767105754632721
 30
0.0
 10
0.2267681187727684
 20
0.1711863299860341
 30
0.0
 10
0.2271863164589449
 20
0.1657266405884097
 30
0.0
 10
0.2276114830079434
 20
0.1603580351883269
 30
0.0
 10
0.2280399847355969
 20
0.1551329969524269
 30
0.0
 10
0.228470030397915
 20
0.1500795502537335
 30
0.0
 10
0.2288912667179215
 20
0.1453208404261894
 30
0.0
 10
0.2293013831662609
 20
0.14088671926674
 30
0.0
 10
0.2296962650591494
 20
0.1367907791518159
 30
0.0
 10
0.2301114039930443
 20
0.1330129325252582
 30
0.0
 10
0.2305343631709675
 20
0.1296428428712635
 30
0.0
 10
0.2309618450358162
 20
0.1267048254286442
 30
0.0
 10
0.2313904897878034
 20
0.1242103361282267
 30
0.0
 10
0.2318246100834198
 20
0.12214277912727
 30
0.0
 10
0.2322540959057555
 20
0.1205580253773788
 30
0.0
 10
0.2326754601461163
 20
0.1194624403816156
 30
0.0
 10
0.2330883523714409
 20
0.1188366452337415
 30
0.0
 10
0.2334901218848149
 20
0.1187420549044815
 30
0.0
 10
0.2337900367336658
 20
0.1189248194227548
 30
0.0
 10
0.2339588637448973
 20
0.1192859790930316
 30
0.0
 10
0.2339853419735602
 20
0.1193426220926557
 30
0.0
  0
SPLINE
  5
DEA
330
1F
100
AcDbEntity
  8
0
  6
Continuous
 62
     7
370
    15
100
AcDbSpline
210
0.0
220
0.0
230
1.0
 70
     8
 71
     3
 72
    47
 73
    43
 74
     0
 42
0.0000000001
 43
0.0000000001
 40
0.0
 40
0.0
 40
0.0
 40
0.0
 40
0.0063933966962939
 40
0.0327691891493685
 40
0.0582079703696042
 40
0.0840096247393012
 40
0.109995524030685
 40
0.1363600092720245
 40
0.1618055927873206
 40
0.1874278293766603
 40
0.2136074694028528
 40
0.2399798479217013
 40
0.265418592619324
 40
0.2912204981064022
 40
0.3172067744712614
 40
0.3435718500597065
 40
0.3690101532910786
 40
0.3948111236157941
 40
0.4207962996568341
 40
0.4471600777620625
 40
0.481155693611677
 40
0.5056249732659329
 40
0.5304164858237841
 40
0.5553713934993164
 40
0.5806612966188317
 40
0.6060990866111644
 40
0.6318995153426743
 40
0.6578841318234306
 40
0.6842473079901189
 40
0.7096937442042908
 40
0.7353170706552456
 40
0.7614978284801017
 40
0.7878713265482704
 40
0.8133099846021563
 40
0.8391113437348804
 40
0.8650968902394085
 40
0.8914609490512342
 40
0.9169093672342111
 40
0.9425346073216147
 40
0.9687176290127951
 40
0.9950934214658675
 40
0.9999999999999998
 40
0.9999999999999998
 40
0.9999999999999998
 40
0.9999999999999998
 10
0.2490156961132524
 20
0.256737982643267
 30
0.0
 10
0.2490488299455178
 20
0.2567520312211866
 30
0.0
 10
0.2492186565444774
 20
0.2568240368433954
 30
0.0
 10
0.2495241151205203
 20
0.2564544931438628
 30
0.0
 10
0.2499430525446957
 20
0.2556226689434058
 30
0.0
 10
0.250366709064525
 20
0.2542790010282068
 30
0.0
 10
0.2507998606213189
 20
0.2524524550391889
 30
0.0
 10
0.2512322386031744
 20
0.2501638353808162
 30
0.0
 10
0.2516607525935726
 20
0.2474428209010981
 30
0.0
 10
0.252083199078144
 20
0.2443101366259053
 30
0.0
 10
0.2525036969421119
 20
0.2407330846024531
 30
0.0
 10
0.2529086702800845
 20
0.236778290263461
 30
0.0
 10
0.2533103929885669
 20
0.2324932012502097
 30
0.0
 10
0.2537250580246431
 20
0.2279158302063133
 30
0.0
 10
0.2541518392905306
 20
0.2229955969596538
 30
0.0
 10
0.2545821604731309
 20
0.2178437869404921
 30
0.0
 10
0.2550133883823271
 20
0.2124905851133918
 30
0.0
 10
0.2554416527274466
 20
0.206989780180209
 30
0.0
 10
0.2558707618074196
 20
0.2012845425659937
 30
0.0
 10
0.2563379656405038
 20
0.19487268853725
 30
0.0
 10
0.2567798473256353
 20
0.1884994740157739
 30
0.0
 10
0.2572107124896927
 20
0.1822475612568151
 30
0.0
 10
0.2576088799658871
 20
0.1767105763419505
 30
0.0
 10
0.2580181187076516
 20
0.1711863308500576
 30
0.0
 10
0.258436316393257
 20
0.1657266414319705
 30
0.0
 10
0.2588614829420948
 20
0.1603580360054955
 30
0.0
 10
0.2592899846700343
 20
0.1551329977373324
 30
0.0
 10
0.2597200303331633
 20
0.1500795510003638
 30
0.0
 10
0.2601412666542382
 20
0.1453208411291933
 30
0.0
 10
0.2605513831048931
 20
0.1408867199212449
 30
0.0
 10
0.2609462649975773
 20
0.1367907797531127
 30
0.0
 10
0.2613614039292837
 20
0.1330129330682914
 30
0.0
 10
0.2617843631061421
 20
0.1296428433524519
 30
0.0
 10
0.2622118449702029
 20
0.1267048258444787
 30
0.0
 10
0.2626404897219423
 20
0.1242103364778111
 30
0.0
 10
0.2630746100176315
 20
0.1221427794010377
 30
0.0
 10
0.2635040958410197
 20
0.1205580255971532
 30
0.0
 10
0.2639254600810483
 20
0.1194624404604121
 30
0.0
 10
0.2643383523133469
 20
0.1188366454908398
 30
0.0
 10
0.2647401218080079
 20
0.1187420541185395
 30
0.0
 10
0.2650400389555134
 20
0.1189248226073265
 30
0.0
 10
0.2652088683081919
 20
0.1192859881997212
 30
0.0
 10
0.2652353488610295
 20
0.119342636314522
 30
0.0
  0
SPLINE
  5
DEB
330
1F
100
AcDbEntity
  8
0
  6
Continuous
 62
     7
370
    15
100
AcDbSpline
210
0.0
220
0.0
230
1.0
 70
     8
 71
     3
 72
    12
 73
     8
 74
     0
 42
0.0000000001
 43
0.0000000001
 40
0.0
 40
0.0
 40
0.0
 40
0.0
 40
0.2499999999999999
 40
0.2499999999999999
 40
0.5
 40
0.5
 40
1.0
 40
1.0
 40
1.0
 40
1.0
 10
0.2775631749612133
 20
0.2547203936173159
 30
0.0
 10
0.2779090552833336
 20
0.252574610997581
 30
0.0
 10
0.2782565673912023
 20
0.2493463584442863
 30
0.0
 10
0.2789551812904119
 20
0.2407290213672302
 30
0.0
 10
0.2792730936043926
 20
0.235567658417803
 30
0.0
 10
0.2803093632399669
 20
0.2174794818416186
 30
0.0
 10
0.281065090777246
 20
0.2027061249527802
 30
0.0
 10
0.2817533508081826
 20
0.1877845105621883
 30
0.0
  0
SPLINE
  5
DEC
330
1F
100
AcDbEntity
  8
0
  6
Continuous
 62
     7
370
    15
100
AcDbSpline
210
0.0
220
0.0
230
1.0
 70
     8
 71
     3
 72
    27
 73
    23
 74
     0
 42
0.0000000001
 43
0.0000000001
 40
0.0
 40
0.0
 40
0.0
 40
0.0
 40
0.0078348527364922
 40
0.0591587584302522
 40
0.1092897243473803
 40
0.1597485725874266
 40
0.2112384620508678
 40
0.2630838528422971
 40
0.3147167846271104
 40
0.3667082126748252
 40
0.4198303166045284
 40
0.4733431172890217
 40
0.5249745277402067
 40
0.5769414524503802
 40
0.629954924142827
 40
0.6833267427525859
 40
0.7368734995372445
 40
0.7907896158573517
 40
0.8458702794462899
 40
0.901353246232238
 40
0.9505338079254343
 40
1.0
 40
1.0
 40
1.0
 40
1.0
 10
0.2867067794033726
 20
0.1279549431928157
 30
0.0
 10
0.2866938361588263
 20
0.127933431059104
 30
0.0
 10
0.2865961053777619
 20
0.1277709990180198
 30
0.0
 10
0.2864156811893244
 20
0.1278686979032924
 30
0.0
 10
0.2861575602760355
 20
0.1282616074910767
 30
0.0
 10
0.2858962021007212
 20
0.1290925427752154
 30
0.0
 10
0.2856299910211621
 20
0.1303252824011758
 30
0.0
 10
0.2853618520727021
 20
0.1319734661498786
 30
0.0
 10
0.2850947269560207
 20
0.1340197732452197
 30
0.0
 10
0.2848291221790813
 20
0.1364662907897345
 30
0.0
 10
0.2845658252775527
 20
0.1393180075834093
 30
0.0
 10
0.284310750295365
 20
0.142523368163237
 30
0.0
 10
0.284065514491707
 20
0.1460334053125778
 30
0.0
 10
0.2838121651411045
 20
0.1498177231904072
 30
0.0
 10
0.2835522869621716
 20
0.153914702723998
 30
0.0
 10
0.2832868890022375
 20
0.1583009596619811
 30
0.0
 10
0.283019151998408
 20
0.1629333207769945
 30
0.0
 10
0.2827495087680569
 20
0.1678077095919943
 30
0.0
 10
0.2824794341062944
 20
0.1729035187911001
 30
0.0
 10
0.2822218822498481
 20
0.1779783466095322
 30
0.0
 10
0.2819786231153065
 20
0.1829534720458379
 30
0.0
 10
0.2818285863874923
 20
0.186171058896544
 30
0.0
 10
0.2817533508088958
 20
0.1877845105621554
 30
0.0
  0
LINE
  5
DED
330
1F
100
AcDbEntity
  8
0
  6
Continuous
 62
     7
370
    15
100
AcDbLine
 10
0.0666443255871947
 20
0.1301999800388809
 30
0.0
 11
0.0629460866960452
 21
0.136605517696879
 31
0.0
  0
SPLINE
  5
DEE
330
1F
100
AcDbEntity
  8
0
  6
Continuous
 62
     7
370
    15
100
AcDbSpline
210
0.0
220
0.0
230
1.0
 70
     8
 71
     3
 72
    46
 73
    42
 74
     0
 42
0.0000000001
 43
0.0000000001
 40
0.0
 40
0.0
 40
0.0
 40
0.0
 40
0.0177314512219604
 40
0.0439184715145226
 40
0.0702982920050074
 40
0.0957409583561244
 40
0.1215465533132933
 40
0.1475364213456927
 40
0.1739049331719547
 40
0.1993544019988634
 40
0.225167047729643
 40
0.2511641929839218
 40
0.2775405981763539
 40
0.3029832291908665
 40
0.3287890764679988
 40
0.3547793228303146
 40
0.3811484263227905
 40
0.4065906149780126
 40
0.432395526125681
 40
0.4583846711234292
 40
0.484752476002957
 40
0.518757972529193
 40
0.5432309891289411
 40
0.5680262878436561
 40
0.5929850066297339
 40
0.6182787720202598
 40
0.6437204468688699
 40
0.6695248158387993
 40
0.6955134006871085
 40
0.7218806030349411
 40
0.747330925425839
 40
0.7731446126831923
 40
0.799142925979017
 40
0.8255204518046902
 40
0.8509629948474227
 40
0.8767682943606606
 40
0.9027578093747738
 40
0.9291258945025408
 40
0.9545781991649288
 40
0.9802073527359647
 40
1.0
 40
1.0
 40
1.0
 40
1.0
 10
0.0882681310245577
 20
0.2562162018473599
 30
0.0
 10
0.0883631520922457
 20
0.2563769776903952
 30
0.0
 10
0.0885985067737254
 20
0.2567751982981838
 30
0.0
 10
0.0889580074552665
 20
0.2568423435695917
 30
0.0
 10
0.0893679127150016
 20
0.2564823071073818
 30
0.0
 10
0.0897866928603462
 20
0.2556154462754141
 30
0.0
 10
0.0902103901936906
 20
0.2542813041189693
 30
0.0
 10
0.0906435297938702
 20
0.2524522770299433
 30
0.0
 10
0.0910759112025721
 20
0.2501644315225282
 30
0.0
 10
0.0915054558694601
 20
0.2474367711837151
 30
0.0
 10
0.0919278892963931
 20
0.2443026509526507
 30
0.0
 10
0.0923483408780044
 20
0.2407243141137036
 30
0.0
 10
0.0927523489382996
 20
0.2367790369499461
 30
0.0
 10
0.0931540680666512
 20
0.2324940096134216
 30
0.0
 10
0.0935687317316614
 20
0.2279166926784728
 30
0.0
 10
0.0939955117057672
 20
0.2229965083630137
 30
0.0
 10
0.0944258322774152
 20
0.2178447404125685
 30
0.0
 10
0.0948570600956682
 20
0.2124915738441513
 30
0.0
 10
0.0952853248972439
 20
0.2069907971726876
 30
0.0
 10
0.0957144350049069
 20
0.2012855807857741
 30
0.0
 10
0.0961816659008585
 20
0.1948733942871734
 30
0.0
 10
0.0966235732332051
 20
0.1884998258158146
 30
0.0
 10
0.0970544624499086
 20
0.1822475613139534
 30
0.0
 10
0.0974526299775223
 20
0.1767105763258416
 30
0.0
 10
0.0978618687012993
 20
0.1711863308567474
 30
0.0
 10
0.0982800664070611
 20
0.1657266414214251
 30
0.0
 10
0.0987052328927316
 20
0.1603580360413246
 30
0.0
 10
0.099133734856947
 20
0.1551329976022147
 30
0.0
 10
0.0995637796262674
 20
0.1500795515112263
 30
0.0
 10
0.0999850192949907
 20
0.1453208392208052
 30
0.0
 10
0.1003961109297755
 20
0.1408760516968068
 30
0.0
 10
0.1007909865621599
 20
0.136781274504719
 30
0.0
 10
0.101206167057029
 20
0.1330048898079128
 30
0.0
 10
0.1016281125680187
 20
0.1296428295399106
 30
0.0
 10
0.1020555950076858
 20
0.1267048681707998
 30
0.0
 10
0.1024842401194048
 20
0.124210177449767
 30
0.0
 10
0.1029183583682283
 20
0.1221433804999701
 30
0.0
 10
0.1033478520424165
 20
0.1205557801259656
 30
0.0
 10
0.1037691877660833
 20
0.1194705169304426
 30
0.0
 10
0.1041480092423876
 20
0.1188609516180281
 30
0.0
 10
0.1043823372017192
 20
0.1188401171466702
 30
0.0
 10
0.1044844461132524
 20
0.1188310384810305
 30
0.0
  0
SPLINE
  5
DEF
330
1F
100
AcDbEntity
  8
0
  6
Continuous
 62
     7
370
    15
100
AcDbSpline
210
0.0
220
0.0
230
1.0
 70
     8
 71
     3
 72
    46
 73
    42
 74
     0
 42
0.0000000001
 43
0.0000000001
 40
0.0
 40
0.0
 40
0.0
 40
0.0
 40
0.0179441680140105
 40
0.0441256426292837
 40
0.0704998766162071
 40
0.0959371547354658
 40
0.1217372845631033
 40
0.1477216484259518
 40
0.1740845758692506
 40
0.1995286558816416
 40
0.2253358359474173
 40
0.2513274765002677
 40
0.2776982967546851
 40
0.3031355383534882
 40
0.3289359192836697
 40
0.3549206601977133
 40
0.3812841779532359
 40
0.4067209781118716
 40
0.4325204239349465
 40
0.4585040645901854
 40
0.4848662849391545
 40
0.5188598881476949
 40
0.543327721985884
 40
0.5681177696878605
 40
0.5930712028530071
 40
0.6183596116682594
 40
0.6437958986186473
 40
0.6695948028809924
 40
0.695577884009491
 40
0.7219395024559727
 40
0.747384435117374
 40
0.7730062475636707
 40
0.7991854584469401
 40
0.8255573981851183
 40
0.8509945531452208
 40
0.8767943877532552
 40
0.902778398850015
 40
0.9291408998889162
 40
0.9545878144014439
 40
0.9802115403705082
 40
0.9999999999999998
 40
0.9999999999999998
 40
0.9999999999999998
 40
0.9999999999999998
 10
0.1195147469594406
 20
0.2562111512960823
 30
0.0
 10
0.1196109319387313
 20
0.2563740034269828
 30
0.0
 10
0.1198474558064957
 20
0.2567744652886827
 30
0.0
 10
0.1202080849809652
 20
0.2568425037404229
 30
0.0
 10
0.1206179867479555
 20
0.256482147904785
 30
0.0
 10
0.1210367699483541
 20
0.2556152583240405
 30
0.0
 10
0.1214604679318025
 20
0.2542810135232787
 30
0.0
 10
0.121893608141697
 20
0.252451905238503
 30
0.0
 10
0.1223259894518662
 20
0.2501639760382024
 30
0.0
 10
0.1227555335504586
 20
0.2474362368791643
 30
0.0
 10
0.1231779657016725
 20
0.2443020414620469
 30
0.0
 10
0.1235984160666277
 20
0.2407236329780757
 30
0.0
 10
0.1240024200478551
 20
0.2367782893146857
 30
0.0
 10
0.1244041430508025
 20
0.2324932015044543
 30
0.0
 10
0.1248188080077419
 20
0.2279158301372459
 30
0.0
 10
0.1252455892951545
 20
0.2229955969785204
 30
0.0
 10
0.1256759104719336
 20
0.2178437869355867
 30
0.0
 10
0.126107138382654
 20
0.2124905851146903
 30
0.0
 10
0.1265354027273391
 20
0.2069897801798199
 30
0.0
 10
0.1269645118075289
 20
0.2012845425661367
 30
0.0
 10
0.1274317156188092
 20
0.1948726888297139
 30
0.0
 10
0.1278735972864249
 20
0.1884994746107638
 30
0.0
 10
0.1283044624267973
 20
0.1822475621441639
 30
0.0
 10
0.1287026299018636
 20
0.1767105772206361
 30
0.0
 10
0.1291118686425312
 20
0.1711863317142073
 30
0.0
 10
0.1295300663275736
 20
0.1657266422751831
 30
0.0
 10
0.1299552328762665
 20
0.1603580368234971
 30
0.0
 10
0.130383734604532
 20
0.1551329985174124
 30
0.0
 10
0.1308137802684461
 20
0.1500795517620479
 30
0.0
 10
0.1312350165908152
 20
0.1453208417714937
 30
0.0
 10
0.1316451330430342
 20
0.1408867207891498
 30
0.0
 10
0.1320400149383598
 20
0.1367907795383645
 30
0.0
 10
0.1324551538569967
 20
0.1330129367352035
 30
0.0
 10
0.1328781130733994
 20
0.1296428322601284
 30
0.0
 10
0.1333055947894133
 20
0.126704867985953
 30
0.0
 10
0.1337342400951229
 20
0.1242101779608089
 30
0.0
 10
0.134168358291288
 20
0.1221433807324002
 30
0.0
 10
0.1345978519804172
 20
0.1205557803431287
 30
0.0
 10
0.1350191877014595
 20
0.1194705170556536
 30
0.0
 10
0.1353980092012348
 20
0.118860951657735
 30
0.0
 10
0.1356323371811587
 20
0.118840117145893
 30
0.0
 10
0.1357344461131493
 20
0.1188310384615918
 30
0.0
  0
SPLINE
  5
DF0
330
1F
100
AcDbEntity
  8
0
  6
Continuous
 62
     7
370
    15
100
AcDbSpline
210
0.0
220
0.0
230
1.0
 70
     8
 71
     3
 72
    46
 73
    42
 74
     0
 42
0.0000000001
 43
0.0000000001
 40
0.0
 40
0.0
 40
0.0
 40
0.0
 40
0.0177468982181566
 40
0.0439336320195672
 40
0.0703131639130375
 40
0.0957555517284623
 40
0.1215608641398594
 40
0.1475504475943546
 40
0.1739186706730057
 40
0.1993678617478885
 40
0.225180225813635
 40
0.2511770874198333
 40
0.2775532048950668
 40
0.3029955561826993
 40
0.3288011197470804
 40
0.3547910803285117
 40
0.3811598938379653
 40
0.4066018035967569
 40
0.4324064318661922
 40
0.4583952919678049
 40
0.4847628078100892
 40
0.5187632473473367
 40
0.5432359961452374
 40
0.5680310235314169
 40
0.5929894692006786
 40
0.6182829578080291
 40
0.6437243542561968
 40
0.6695284408568742
 40
0.6955167413201389
 40
0.7218836551398887
 40
0.7473336990340206
 40
0.7729606582436123
 40
0.7991451278571811
 40
0.8255223650398695
 40
0.8509646296715651
 40
0.8767696468042089
 40
0.902758877421906
 40
0.9291266740106676
 40
0.9545787001551671
 40
0.9802075732731216
 40
1.0
 40
1.0
 40
1.0
 40
1.0
 10
0.1507679565091777
 20
0.2562159569094695
 30
0.0
 10
0.1508630612717061
 20
0.2563768638758925
 30
0.0
 10
0.1510984994642772
 20
0.2567751998197472
 30
0.0
 10
0.1514580798687115
 20
0.2568423344505679
 30
0.0
 10
0.1518679880671376
 20
0.2564821915888875
 30
0.0
 10
0.152286769594852
 20
0.2556152466180044
 30
0.0
 10
0.1527104680278084
 20
0.2542810167024743
 30
0.0
 10
0.153143608115446
 20
0.252451904369233
 30
0.0
 10
0.1535759894586643
 20
0.2501639762633663
 30
0.0
 10
0.1540055335486361
 20
0.2474362368188134
 30
0.0
 10
0.1544279657021663
 20
0.2443020414784436
 30
0.0
 10
0.1548484160664918
 20
0.2407236329735993
 30
0.0
 10
0.1552524200478897
 20
0.2367782893158528
 30
0.0
 10
0.1556541430507927
 20
0.2324932015041488
 30
0.0
 10
0.1560688080077437
 20
0.2279158301373374
 30
0.0
 10
0.1564955892951527
 20
0.2229955969785045
 30
0.0
 10
0.1569259104719363
 20
0.2178437869356027
 30
0.0
 10
0.1573571383826415
 20
0.2124905851146877
 30
0.0
 10
0.1577854027273826
 20
0.2069897801798617
 30
0.0
 10
0.158214511807361
 20
0.2012845425660186
 30
0.0
 10
0.1586817156621842
 20
0.1948726882447018
 30
0.0
 10
0.1591235973648493
 20
0.1884994734207868
 30
0.0
 10
0.1595544625525882
 20
0.182247560369484
 30
0.0
 10
0.1599526300299088
 20
0.1767105754632516
 30
0.0
 10
0.1603618687727675
 20
0.1711863299861105
 30
0.0
 10
0.1607800664589458
 20
0.1657266405881157
 30
0.0
 10
0.161205233007939
 20
0.1603580351894371
 30
0.0
 10
0.1616337347356085
 20
0.1551329969482071
 30
0.0
 10
0.1620637803978715
 20
0.1500795502696977
 30
0.0
 10
0.1624850167180867
 20
0.1453208403665545
 30
0.0
 10
0.1628951331656676
 20
0.1408867194812271
 30
0.0
 10
0.1632900150614009
 20
0.1367907783367834
 30
0.0
 10
0.1637051539844094
 20
0.133012935650004
 30
0.0
 10
0.1641281132029455
 20
0.1296428312986966
 30
0.0
 10
0.1645555949205182
 20
0.1267048671544644
 30
0.0
 10
0.1649842402267785
 20
0.1242101772641795
 30
0.0
 10
0.1654183584225874
 20
0.1221433801779281
 30
0.0
 10
0.1658478521104048
 20
0.1205557799315655
 30
0.0
 10
0.1662691878292435
 20
0.1194705167988475
 30
0.0
 10
0.1666480092839002
 20
0.1188609515794003
 30
0.0
 10
0.1668823372224022
 20
0.1188401171477964
 30
0.0
 10
0.1669844461133563
 20
0.118831038500502
 30
0.0
  0
SPLINE
  5
DF1
330
1F
100
AcDbEntity
  8
0
  6
Continuous
 62
     7
370
    15
100
AcDbSpline
210
0.0
220
0.0
230
1.0
 70
     8
 71
     3
 72
    46
 73
    42
 74
     0
 42
0.0000000001
 43
0.0000000001
 40
0.0
 40
0.0
 40
0.0
 40
0.0
 40
0.0179005885936791
 40
0.0440832250304917
 40
0.0704586293927884
 40
0.0958970363093383
 40
0.1216983110360691
 40
0.1476838279735267
 40
0.1740479252904627
 40
0.1994931344019836
 40
0.2253014596797105
 40
0.2512942536300787
 40
0.277666244108383
 40
0.3031046145028564
 40
0.3289061403432735
 40
0.3548920343486585
 40
0.3812567220040141
 40
0.4066946509387314
 40
0.4324952416305458
 40
0.4584800353283017
 40
0.4848434255195304
 40
0.5188385411610491
 40
0.5433074607767675
 40
0.5680986085547798
 40
0.593053149046291
 40
0.6183426800526969
 40
0.643780095755929
 40
0.6695801448625041
 40
0.6955643790082067
 40
0.7219271672697545
 40
0.7473732290676049
 40
0.772996178499494
 40
0.7991765511032922
 40
0.8255496611144451
 40
0.8509879448664563
 40
0.8767889243605594
 40
0.9027740885163508
 40
0.9291377594100474
 40
0.954585803147539
 40
0.9802106661877186
 40
1.0
 40
1.0
 40
1.0
 40
1.0
 10
0.1820154561009746
 20
0.2562122130836619
 30
0.0
 10
0.1821114024051971
 20
0.2563746353022176
 30
0.0
 10
0.1823476863965174
 20
0.25677462746857
 30
0.0
 10
0.1827080838557808
 20
0.2568424664804874
 30
0.0
 10
0.1831179870383002
 20
0.2564821575194611
 30
0.0
 10
0.1835367698705488
 20
0.2556152557475975
 30
0.0
 10
0.1839604679529314
 20
0.2542810142230087
 30
0.0
 10
0.1843936081359176
 20
0.2524519050471858
 30
0.0
 10
0.184825989453361
 20
0.2501639760877663
 30
0.0
 10
0.1852555335500563
 20
0.2474362368658887
 30
0.0
 10
0.18567796570178
 20
0.2443020414656645
 30
0.0
 10
0.1860984160665966
 20
0.2407236329771014
 30
0.0
 10
0.1865024200478613
 20
0.2367782893149539
 30
0.0
 10
0.1869041430507989
 20
0.2324932015043992
 30
0.0
 10
0.187318808007741
 20
0.2279158301372788
 30
0.0
 10
0.1877455892951527
 20
0.2229955969785302
 30
0.0
 10
0.1881759104719345
 20
0.2178437869356045
 30
0.0
 10
0.1886071383826469
 20
0.2124905851147019
 30
0.0
 10
0.1890354027273604
 20
0.2069897801798537
 30
0.0
 10
0.1894645118074436
 20
0.2012845425660905
 30
0.0
 10
0.1899317156404958
 20
0.1948726885372163
 30
0.0
 10
0.1903735973256362
 20
0.1884994740157784
 30
0.0
 10
0.1908044624896927
 20
0.1822475612568195
 30
0.0
 10
0.1912026299658871
 20
0.176710576341931
 30
0.0
 10
0.1916118687076516
 20
0.171186330850134
 30
0.0
 10
0.1920300663932579
 20
0.1657266414316765
 30
0.0
 10
0.1924552329420921
 20
0.1603580360066057
 30
0.0
 10
0.1928837346700458
 20
0.1551329977331126
 30
0.0
 10
0.1933137803331197
 20
0.150079551016328
 30
0.0
 10
0.1937350166544034
 20
0.1453208410695583
 30
0.0
 10
0.1941451331042998
 20
0.1408867201357347
 30
0.0
 10
0.1945400149998289
 20
0.1367907789380749
 30
0.0
 10
0.1949551539206498
 20
0.1330129361930568
 30
0.0
 10
0.1953781131381174
 20
0.1296428317798139
 30
0.0
 10
0.1958055948549111
 20
0.1267048675705555
 30
0.0
 10
0.1962342401608961
 20
0.1242101776127851
 30
0.0
 10
0.1966683583568827
 20
0.122143380455396
 30
0.0
 10
0.1970978520453563
 20
0.120555780137519
 30
0.0
 10
0.1975191877652991
 20
0.119470516927358
 30
0.0
 10
0.1978980092425333
 20
0.1188609516186001
 30
0.0
 10
0.1981323372017627
 20
0.1188401171468434
 30
0.0
 10
0.1982344461132523
 20
0.1188310384810305
 30
0.0
  0
SPLINE
  5
DF2
330
1F
100
AcDbEntity
  8
0
  6
Continuous
 62
     7
370
    15
100
AcDbSpline
210
0.0
220
0.0
230
1.0
 70
     8
 71
     3
 72
    46
 73
    42
 74
     0
 42
0.0000000001
 43
0.0000000001
 40
0.0
 40
0.0
 40
0.0
 40
0.0
 40
0.0177562431812732
 40
0.0439427279754966
 40
0.0703220090284799
 40
0.0957641549146325
 40
0.1215692219457407
 40
0.1475585582677327
 40
0.1739265306134314
 40
0.1993754796943504
 40
0.22500110521437
 40
0.2511842078963284
 40
0.2775600745635425
 40
0.3030021839222506
 40
0.3288075021039559
 40
0.3547972155492973
 40
0.3811657783201832
 40
0.4066074461542478
 40
0.4324118290498998
 40
0.4584004420258877
 40
0.4847677071419453
 40
0.5187678154858039
 40
0.5432403315746238
 40
0.568035123187208
 40
0.5929933315289776
 40
0.6182865796229714
 40
0.6437277341505801
 40
0.6695315753818681
 40
0.6955196287240413
 40
0.721886291822428
 40
0.7473360937155237
 40
0.7729628092418506
 40
0.799147029870874
 40
0.8255240162360756
 40
0.850966038939504
 40
0.8767708106945155
 40
0.9027597941829116
 40
0.9291273400426153
 40
0.9545791241660911
 40
0.9802077535813641
 40
1.0
 40
1.0
 40
1.0
 40
1.0
 10
0.2132678044985203
 20
0.2562157293060641
 30
0.0
 10
0.2133629604211897
 20
0.256376728364375
 30
0.0
 10
0.2135984500336248
 20
0.2567751650016441
 30
0.0
 10
0.2139580801122953
 20
0.2568423425037225
 30
0.0
 10
0.2143679880032199
 20
0.25648218952001
 30
0.0
 10
0.2147867696157926
 20
0.2556152471394504
 30
0.0
 10
0.215210468007557
 20
0.25428101668671
 30
0.0
 10
0.2156436081760278
 20
0.2524519038978501
 30
0.0
 10
0.2160759892366926
 20
0.2501639781681004
 30
0.0
 10
0.2165045024252032
 20
0.2474427829522283
 30
0.0
 10
0.2169269491244812
 20
0.2443101470695308
 30
0.0
 10
0.2173474469294678
 20
0.2407330817522273
 30
0.0
 10
0.2177524202833485
 20
0.2367782909990326
 30
0.0
 10
0.2181541429876939
 20
0.2324932010530687
 30
0.0
 10
0.2185688080248811
 20
0.2279158302598367
 30
0.0
 10
0.2189955892904676
 20
0.2229955969449997
 30
0.0
 10
0.2194259104731477
 20
0.2178437869442651
 30
0.0
 10
0.2198571383823289
 20
0.2124905851123642
 30
0.0
 10
0.220285402727427
 20
0.2069897801804514
 30
0.0
 10
0.220714511807504
 20
0.2012845425659653
 30
0.0
 10
0.2211817156188172
 20
0.1948726888297752
 30
0.0
 10
0.2216235972864231
 20
0.1884994746107513
 30
0.0
 10
0.2220544624267973
 20
0.1822475621441666
 30
0.0
 10
0.2224526299018628
 20
0.1767105772206352
 30
0.0
 10
0.2228618686425312
 20
0.1711863317142073
 30
0.0
 10
0.2232800663275736
 20
0.1657266422751831
 30
0.0
 10
0.2237052328762674
 20
0.1603580368234971
 30
0.0
 10
0.224133734604532
 20
0.1551329985174124
 30
0.0
 10
0.2245637802684461
 20
0.1500795517620479
 30
0.0
 10
0.2249850165908152
 20
0.1453208417714928
 30
0.0
 10
0.2253951330430342
 20
0.1408867207891498
 30
0.0
 10
0.2257900149383598
 20
0.1367907795383645
 30
0.0
 10
0.2262051538569967
 20
0.1330129367352026
 30
0.0
 10
0.2266281130733994
 20
0.1296428322601284
 30
0.0
 10
0.2270555947894133
 20
0.126704867985953
 30
0.0
 10
0.2274842400951238
 20
0.1242101779608089
 30
0.0
 10
0.227918358291288
 20
0.1221433807324002
 30
0.0
 10
0.2283478519804181
 20
0.1205557803431287
 30
0.0
 10
0.2287691877014595
 20
0.1194705170556536
 30
0.0
 10
0.2291480092012348
 20
0.118860951657735
 30
0.0
 10
0.2293823371811596
 20
0.118840117145893
 30
0.0
 10
0.2294844461131484
 20
0.1188310384615918
 30
0.0
  0
SPLINE
  5
DF3
330
1F
100
AcDbEntity
  8
0
  6
Continuous
 62
     7
370
    15
100
AcDbSpline
210
0.0
220
0.0
230
1.0
 70
     8
 71
     3
 72
    46
 73
    42
 74
     0
 42
0.0000000001
 43
0.0000000001
 40
0.0
 40
0.0
 40
0.0
 40
0.0
 40
0.017547922812148
 40
0.0437399613993123
 40
0.0701248371346705
 40
0.0955723789497285
 40
0.1213829188803226
 40
0.1473777671827791
 40
0.1737513318124309
 40
0.1992056782651199
 40
0.2248367386275502
 40
0.2510253943851514
 40
0.2774068550105948
 40
0.3028543602904615
 40
0.3286651514249169
 40
0.3546603769307057
 40
0.3810345321107671
 40
0.4064815957723496
 40
0.432291451422391
 40
0.4582855762254312
 40
0.4846584334754475
 40
0.5186657606623225
 40
0.5431434670349318
 40
0.5679435172815045
 40
0.5929070189156685
 40
0.6182056313593492
 40
0.6436521816063242
 40
0.6694614954778801
 40
0.6954550605292025
 40
0.72182731563473
 40
0.7472825150794275
 40
0.7729146656782613
 40
0.7991044396189153
 40
0.8254870201786392
 40
0.8509344387850145
 40
0.8767446833770385
 40
0.9027391787712209
 40
0.9291123168245871
 40
0.9545694989212085
 40
0.9802035638161143
 40
0.9999999999999998
 40
0.9999999999999998
 40
0.9999999999999998
 40
0.9999999999999998
 10
0.2445211925046316
 20
0.2562208021196528
 30
0.0
 10
0.2446152081975326
 20
0.256379749477277
 30
0.0
 10
0.2448495517618658
 20
0.2567759417423896
 30
0.0
 10
0.245208074662961
 20
0.2568421620516204
 30
0.0
 10
0.2456179894093831
 20
0.2564822360844539
 30
0.0
 10
0.2460367692389829
 20
0.2556152346615685
 30
0.0
 10
0.2464604681098939
 20
0.2542810200755317
 30
0.0
 10
0.2468936081480466
 20
0.2524519029712482
 30
0.0
 10
0.247325989243941
 20
0.2501639784081644
 30
0.0
 10
0.2477545024232768
 20
0.2474427828884314
 30
0.0
 10
0.2481769491250114
 20
0.2443101470870945
 30
0.0
 10
0.2485974469293231
 20
0.24073308174744
 30
0.0
 10
0.2490024202833858
 20
0.2367782910002751
 30
0.0
 10
0.2494041429876832
 20
0.2324932010527436
 30
0.0
 10
0.2498188080248838
 20
0.2279158302599344
 30
0.0
 10
0.2502455892904658
 20
0.2229955969449828
 30
0.0
 10
0.2506759104731504
 20
0.217843786944282
 30
0.0
 10
0.2511071383823165
 20
0.2124905851123624
 30
0.0
 10
0.2515354027274714
 20
0.2069897801804932
 30
0.0
 10
0.251964511807337
 20
0.2012845425658472
 30
0.0
 10
0.2524317156621931
 20
0.1948726882447631
 30
0.0
 10
0.2528735973648475
 20
0.1884994734207734
 30
0.0
 10
0.2533044625525882
 20
0.1822475603694875
 30
0.0
 10
0.2537026300299088
 20
0.1767105754632507
 30
0.0
 10
0.2541118687727684
 20
0.1711863299861105
 30
0.0
 10
0.2545300664589458
 20
0.1657266405881157
 30
0.0
 10
0.2549552330079399
 20
0.1603580351894371
 30
0.0
 10
0.2553837347356085
 20
0.1551329969482071
 30
0.0
 10
0.2558137803978706
 20
0.1500795502696968
 30
0.0
 10
0.2562350167180876
 20
0.1453208403665545
 30
0.0
 10
0.2566451331656676
 20
0.1408867194812271
 30
0.0
 10
0.2570400150614009
 20
0.1367907783367834
 30
0.0
 10
0.2574551539844094
 20
0.133012935650004
 30
0.0
 10
0.2578781132029455
 20
0.1296428312986966
 30
0.0
 10
0.2583055949205191
 20
0.1267048671544644
 30
0.0
 10
0.2587342402267794
 20
0.1242101772641795
 30
0.0
 10
0.2591683584225874
 20
0.1221433801779281
 30
0.0
 10
0.2595978521104039
 20
0.1205557799315655
 30
0.0
 10
0.2600191878292435
 20
0.1194705167988475
 30
0.0
 10
0.2603980092839002
 20
0.1188609515794003
 30
0.0
 10
0.2606323372224022
 20
0.1188401171477964
 30
0.0
 10
0.2607344461133554
 20
0.118831038500502
 30
0.0
  0
SPLINE
  5
DF4
330
1F
100
AcDbEntity
  8
0
  6
Continuous
 62
     7
370
    15
100
AcDbSpline
210
0.0
220
0.0
230
1.0
 70
     8
 71
     3
 72
    12
 73
     8
 74
     0
 42
0.0000000001
 43
0.0000000001
 40
0.0
 40
0.0
 40
0.0
 40
0.0
 40
0.1563664093771043
 40
0.3891240386880113
 40
0.6235953306184628
 40
0.8113500882591841
 40
1.0
 40
1.0
 40
1.0
 40
1.0
 10
0.2757704277969735
 20
0.2562196571337023
 30
0.0
 10
0.2758647015867943
 20
0.2563790066550085
 30
0.0
 10
0.2760993056682199
 20
0.2567755542865666
 30
0.0
 10
0.2764580593978358
 20
0.2568435579698893
 30
0.0
 10
0.2768453515691389
 20
0.2564975259122915
 30
0.0
 10
0.2772150968024452
 20
0.2557856132107692
 30
0.0
 10
0.2774469651017828
 20
0.2550760293201724
 30
0.0
 10
0.2775631749625091
 20
0.2547203936194955
 30
0.0
  0
LINE
  5
DF5
330
1F
100
AcDbEntity
  8
0
  6
Continuous
 62
     7
370
    15
100
AcDbLine
 10
0.2775631749599601
 20
0.2567845105621491
 30
0.0
 11
0.2775631749618617
 21
0.2547203936184057
 31
0.0
  0
LWPOLYLINE
  5
DF6
330
1F
100
AcDbEntity
  8
0
  6
Continuous
 62
     7
370
    15
100
AcDbPolyline
 90
       26
 70
   128
 43
0.0
 10
0.2961642126808659
 20
0.2378060627936294
 10
0.2962446163664465
 20
0.2379249609231651
 10
0.2964232892950296
 20
0.2379236399022271
 10
0.296589812416518
 20
0.2376213927087591
 10
0.296762565120674
 20
0.2369351447621946
 10
0.2969216018474965
 20
0.2358765220238062
 10
0.2970645725530865
 20
0.234423217097659
 10
0.2971839383407309
 20
0.2325936392050614
 10
0.2972756064145816
 20
0.2303386612420222
 10
0.2973284935981555
 20
0.2277122269624612
 10
0.2973312443338472
 20
0.2246849248879417
 10
0.2972630697518257
 20
0.2213253567470947
 10
0.2971196474469799
 20
0.2184485079225049
 10
0.2967733760105444
 20
0.2155014277913918
 10
0.2966050402330618
 20
0.2148720740114878
 10
0.2965218137083916
 20
0.2146780219144007
 10
0.2964000522067707
 20
0.2145075936133431
 10
0.2963314820080534
 20
0.214463792383262
 10
0.2962453563806235
 20
0.2144561970455068
 10
0.2961789746762759
 20
0.2144834774823852
 10
0.2961141362200061
 20
0.214535918974502
 10
0.2960222364045721
 20
0.2146508644917087
 10
0.2958502510999477
 20
0.2149820907012736
 10
0.2954607414558454
 20
0.216205837447053
 10
0.2953838020008668
 20
0.2165146392539978
 10
0.2953838020008668
 20
0.2165146392539978
  0
LINE
  5
DF7
330
1F
100
AcDbEntity
  8
0
  6
Continuous
 62
     7
370
    15
100
AcDbLine
 10
0.3095631749601804
 20
0.1877845105621483
 30
0.0
 11
0.3095631749601804
 21
0.2247845105631732
 31
0.0
  0
LINE
  5
DF9
330
1F
100
AcDbEntity
  8
0
  6
Continuous
 62
     7
370
    15
100
AcDbLine
 10
0.3095631749601804
 20
0.1507845105611243
 30
0.0
 11
0.3095631749601804
 21
0.1877845105621483
 31
0.0
  0
LINE
  5
DFA
330
1F
100
AcDbEntity
  8
0
  6
Continuous
 62
     7
370
    15
100
AcDbLine
 10
0.0666397085593502
 20
0.2453610441586016
 30
0.0
 11
0.0666397085568056
 21
0.1302079769704885
 31
0.0
  0
LINE
  5
DFB
330
1F
100
AcDbEntity
  8
0
  6
Continuous
 62
     7
370
    15
100
AcDbLine
 10
0.0629460866966287
 20
0.2389635034276147
 30
0.0
 11
0.0629460866966287
 21
0.1366055176966827
 31
0.0
  0
LINE
  5
DFC
330
1F
100
AcDbEntity
  8
0
  6
Continuous
 62
     7
370
    15
100
AcDbLine
 10
0.0629460866921532
 20
0.238963503420901
 30
0.0
 11
0.0666397085593502
 21
0.2453610441586016
 31
0.0
  0
ARC
  5
DFD
330
1F
100
AcDbEntity
  8
0
  6
Continuous
 62
     7
370
    15
100
AcDbCircle
 10
0.0595631749625119
 20
0.134652392696879
 30
0.0
 40
0.0039062500000009
100
AcDbArc
 50
29.9999999999973
 51
90.0
  0
LINE
  5
DFE
330
1F
100
AcDbEntity
  8
0
  6
Continuous
 62
     7
370
    15
100
AcDbLine
 10
0.0595631749625119
 20
0.1385586426968799
 30
0.0
 11
0.0595631749625119
 21
0.2370103784274184
 31
0.0
  0
SPLINE
  5
DFF
330
1F
100
AcDbEntity
  8
0
  6
Continuous
 62
     8
370
    15
100
AcDbSpline
210
0.0
220
0.0
230
1.0
 70
     8
 71
     3
 72
    14
 73
    10
 74
     0
 42
0.0000000001
 43
0.0000000001
 40
0.0
 40
0.0
 40
0.0
 40
0.0
 40
0.1489761795745441
 40
0.2956526688901087
 40
0.4442702786831252
 40
0.5949389339627663
 40
0.7465359817799008
 40
0.8978958709895771
 40
1.0
 40
1.0
 40
1.0
 40
1.0
 10
0.2953840128591141
 20
0.2165144986614158
 30
0.0
 10
0.2951832414917952
 20
0.2181841530119057
 30
0.0
 10
0.2947847979905997
 20
0.2214976878753752
 30
0.0
 10
0.2942202239899769
 20
0.2258795647979706
 30
0.0
 10
0.293625740181608
 20
0.2297520580935211
 30
0.0
 10
0.2930088982543966
 20
0.2330429459399643
 30
0.0
 10
0.2923812100068126
 20
0.2356442821646056
 30
0.0
 10
0.2918203593169481
 20
0.2374164688781453
 30
0.0
 10
0.291478849804272
 20
0.2379857791928468
 30
0.0
 10
0.2913412778854427
 20
0.2382151172039273
 30
0.0
  0
SPLINE
  5
E00
330
1F
100
AcDbEntity
  8
0
  6
Continuous
 62
     8
370
    15
100
AcDbSpline
210
0.0
220
0.0
230
1.0
 70
     8
 71
     3
 72
    34
 73
    30
 74
     0
 42
0.0000000001
 43
0.0000000001
 40
0.0
 40
0.0
 40
0.0
 40
0.0
 40
0.0212975129408095
 40
0.0592835086198658
 40
0.0975081560138852
 40
0.1363345310652814
 40
0.1754775308335174
 40
0.2146375048402067
 40
0.2535140123884807
 40
0.2918196714422685
 40
0.329757622126478
 40
0.368346116709429
 40
0.4073826183098893
 40
0.4465724103236956
 40
0.4856136613512562
 40
0.5242114356379225
 40
0.5621549587249078
 40
0.6004494167897217
 40
0.6393190886557269
 40
0.6784769035827737
 40
0.7176225214463328
 40
0.7564561699540514
 40
0.7946924160678486
 40
0.8326704624473229
 40
0.871314545551111
 40
0.9103788950727073
 40
0.9495675082618692
 40
0.9885786087608906
 40
1.0
 40
1.0
 40
1.0
 40
1.0
 10
0.27574036538602
 20
0.1374048015773348
 30
0.0
 10
0.2756287205142298
 20
0.1372013153576597
 30
0.0
 10
0.2753179471512777
 20
0.1366348934899189
 30
0.0
 10
0.2748363327348819
 20
0.1365152722100196
 30
0.0
 10
0.2742512325584387
 20
0.1369839840996128
 30
0.0
 10
0.2736389181900076
 20
0.1382425513600531
 30
0.0
 10
0.2730124774432552
 20
0.1402467329129684
 30
0.0
 10
0.2723851551299488
 20
0.142972851147801
 30
0.0
 10
0.2717707500516173
 20
0.1463492953230667
 30
0.0
 10
0.2711818492825238
 20
0.1502979760276548
 30
0.0
 10
0.2706145661394519
 20
0.1547790861070948
 30
0.0
 10
0.2700113377313018
 20
0.1597682599416168
 30
0.0
 10
0.269390388458473
 20
0.165229444825314
 30
0.0
 10
0.2687613009098761
 20
0.1710522710816531
 30
0.0
 10
0.2681401357641731
 20
0.1771055923412974
 30
0.0
 10
0.2675364922287473
 20
0.183252899822604
 30
0.0
 10
0.2669688736887199
 20
0.1894284883088795
 30
0.0
 10
0.2663805930686651
 20
0.1955934878656325
 30
0.0
 10
0.2657664514984503
 20
0.2017066763364004
 30
0.0
 10
0.2651392362086771
 20
0.2076543610462314
 30
0.0
 10
0.2645127065346484
 20
0.213300025830462
 30
0.0
 10
0.2638999129163375
 20
0.2185209180496428
 30
0.0
 10
0.2633149186156087
 20
0.2232410865749652
 30
0.0
 10
0.2627451989833176
 20
0.2274433125718152
 30
0.0
 10
0.2621396368580866
 20
0.2310907773762651
 30
0.0
 10
0.2615170673764746
 20
0.2341429539592084
 30
0.0
 10
0.2608892696992644
 20
0.2364475554227687
 30
0.0
 10
0.260409965324004
 20
0.2378072893188343
 30
0.0
 10
0.2601496426710588
 20
0.2381438605247106
 30
0.0
 10
0.2600906876845963
 20
0.2382200834375525
 30
0.0
  0
SPLINE
  5
E01
330
1F
100
AcDbEntity
  8
0
  6
Continuous
 62
     8
370
    15
100
AcDbSpline
210
0.0
220
0.0
230
1.0
 70
     8
 71
     3
 72
    33
 73
    29
 74
     0
 42
0.0000000001
 43
0.0000000001
 40
0.0
 40
0.0
 40
0.0
 40
0.0
 40
0.0351063975992068
 40
0.0731031534192528
 40
0.1116872371331367
 40
0.1507668113193625
 40
0.1900488825912283
 40
0.2292310801430261
 40
0.2680156768842693
 40
0.3061328431835318
 40
0.3444025588768568
 40
0.3832935091307087
 40
0.4225213016057725
 40
0.4617860937529365
 40
0.5007863207803015
 40
0.5392326231308955
 40
0.5772450614114403
 40
0.6158891801991122
 40
0.6550013086390698
 40
0.6942869558627925
 40
0.7334435841219435
 40
0.7721746493435438
 40
0.8102392986999754
 40
0.8485806529819194
 40
0.8875168329595432
 40
0.9267613955900138
 40
0.9660137183346812
 40
1.0
 40
1.0
 40
1.0
 40
1.0
 10
0.2444730618075459
 20
0.137315354975772
 30
0.0
 10
0.2442914099942541
 20
0.1370567904817084
 30
0.0
 10
0.2439131507228947
 20
0.1365183735215258
 30
0.0
 10
0.2433658281935198
 20
0.1366078569932188
 30
0.0
 10
0.2427669710630855
 20
0.1373793160077592
 30
0.0
 10
0.242148414902247
 20
0.1389275488635175
 30
0.0
 10
0.2415195663587273
 20
0.1412164230200283
 30
0.0
 10
0.2408962762923368
 20
0.1442031985749659
 30
0.0
 10
0.2402887917761616
 20
0.1478069224654885
 30
0.0
 10
0.239716369387545
 20
0.151964680177739
 30
0.0
 10
0.2391348747312874
 20
0.1566435317964081
 30
0.0
 10
0.2385234926360091
 20
0.1618248350041678
 30
0.0
 10
0.2378977591972067
 20
0.167440162202475
 30
0.0
 10
0.2372699531037741
 20
0.1733681524478885
 30
0.0
 10
0.2366544865067333
 20
0.1794731087431027
 30
0.0
 10
0.2360630677219486
 20
0.1856355904709983
 30
0.0
 10
0.2354969328850327
 20
0.1918118204768828
 30
0.0
 10
0.2348955159530872
 20
0.1979628095027066
 30
0.0
 10
0.2342754838223993
 20
0.2040288270208319
 30
0.0
 10
0.2336464453307032
 20
0.2098755847174138
 30
0.0
 10
0.2330243949582398
 20
0.2153709038227505
 30
0.0
 10
0.2324191006072196
 20
0.2204009534640705
 30
0.0
 10
0.2318498218623546
 20
0.2249245768926849
 30
0.0
 10
0.2312642345391973
 20
0.22891688005959
 30
0.0
 10
0.2306510951780725
 20
0.2323468898637526
 30
0.0
 10
0.2300248011949142
 20
0.2351130842501843
 30
0.0
 10
0.2294229364257481
 20
0.2371479525137112
 30
0.0
 10
0.2290398874473158
 20
0.2378789195876911
 30
0.0
 10
0.2288621340537675
 20
0.238218123933057
 30
0.0
  0
SPLINE
  5
E02
330
1F
100
AcDbEntity
  8
0
  6
Continuous
 62
     8
370
    15
100
AcDbSpline
210
0.0
220
0.0
230
1.0
 70
     8
 71
     3
 72
    34
 73
    30
 74
     0
 42
0.0000000001
 43
0.0000000001
 40
0.0
 40
0.0
 40
0.0
 40
0.0
 40
0.012500386321859
 40
0.0506281618411175
 40
0.0886677380834274
 40
0.1273674518210155
 40
0.1664505041241911
 40
0.2056194947825761
 40
0.2445730264926849
 40
0.2830196722198425
 40
0.3209072752797833
 40
0.3593405169559536
 40
0.3982864661664462
 40
0.4374540436692494
 40
0.4765419181071645
 40
0.5152524657024286
 40
0.55330659900969
 40
0.591418521615986
 40
0.6301677842002207
 40
0.669272256215913
 40
0.7084335437261024
 40
0.7473506088134339
 40
0.7857336951724926
 40
0.8236270069271931
 40
0.8621218396924639
 40
0.9011021181427684
 40
0.9402751867584415
 40
0.9793394578930577
 40
1.0
 40
1.0
 40
1.0
 40
1.0
 10
0.2132396829577594
 20
0.1373937411067927
 30
0.0
 10
0.213173925802705
 20
0.137259668307093
 30
0.0
 10
0.2129076009226107
 20
0.1367166563371494
 30
0.0
 10
0.2124635215596919
 20
0.1365163164371634
 30
0.0
 10
0.2118882861366922
 20
0.1368022720899309
 30
0.0
 10
0.2112801543863405
 20
0.1378905692858887
 30
0.0
 10
0.2106562160772398
 20
0.1397232555592178
 30
0.0
 10
0.2100275703385925
 20
0.1422903148854364
 30
0.0
 10
0.2094095915836807
 20
0.1455256025828588
 30
0.0
 10
0.2088125019879143
 20
0.1493479168054557
 30
0.0
 10
0.2082474506336975
 20
0.153710073696161
 30
0.0
 10
0.2076510392611217
 20
0.1585843896038406
 30
0.0
 10
0.2070333759718927
 20
0.1639462666765357
 30
0.0
 10
0.2064047942066409
 20
0.1696975779466068
 30
0.0
 10
0.2057806791540484
 20
0.1757104450874816
 30
0.0
 10
0.2051718599758008
 20
0.181846062072935
 30
0.0
 10
0.2045967855686026
 20
0.1880184155295352
 30
0.0
 10
0.2040182507966675
 20
0.1941892296591132
 30
0.0
 10
0.2034080371710081
 20
0.2003204213729082
 30
0.0
 10
0.2027830212343158
 20
0.2063182435273831
 30
0.0
 10
0.2021548147009691
 20
0.2120443114324648
 30
0.0
 10
0.2015383092698686
 20
0.2173719907223428
 30
0.0
 10
0.2009445007014721
 20
0.222207886355005
 30
0.0
 10
0.2003790898782594
 20
0.2265307860843388
 30
0.0
 10
0.1997796706462376
 20
0.2303085401630018
 30
0.0
 10
0.1991603596052389
 20
0.2335040466206943
 30
0.0
 10
0.1985322824020708
 20
0.2359869977323012
 30
0.0
 10
0.1980026646158732
 20
0.2375850792685941
 30
0.0
 10
0.1976924315642368
 20
0.2380525668064721
 30
0.0
 10
0.1975851129695281
 20
0.2382142842809451
 30
0.0
  0
SPLINE
  5
E03
330
1F
100
AcDbEntity
  8
0
  6
Continuous
 62
     8
370
    15
100
AcDbSpline
210
0.0
220
0.0
230
1.0
 70
     8
 71
     3
 72
    34
 73
    30
 74
     0
 42
0.0000000001
 43
0.0000000001
 40
0.0
 40
0.0
 40
0.0
 40
0.0
 40
0.0273760476705151
 40
0.0653567107340518
 40
0.1037512414820812
 40
0.1427049087354978
 40
0.1819290260758871
 40
0.2211224357702079
 40
0.2599854095281334
 40
0.2982333836547617
 40
0.3363009645182965
 40
0.3750365494212953
 40
0.414175346167718
 40
0.4534201601927277
 40
0.4924688683857458
 40
0.5310284320129246
 40
0.5689903107269378
 40
0.6074507507117496
 40
0.6464433860327734
 40
0.6856777497268247
 40
0.7248522063251822
 40
0.7636679080854144
 40
0.8018424284154573
 40
0.8399738806523068
 40
0.8787608974634805
 40
0.9179230564800473
 40
0.9571620805951443
 40
0.9961761169210681
 40
1.0
 40
1.0
 40
1.0
 40
1.0
 10
0.1819901873073384
 20
0.1373894241398852
 30
0.0
 10
0.1818473679563706
 20
0.1371517126420048
 30
0.0
 10
0.1815064055530042
 20
0.1365842077270494
 30
0.0
 10
0.1809971503134431
 20
0.1365387841490118
 30
0.0
 10
0.1804059642261135
 20
0.1371319392105481
 30
0.0
 10
0.1797909768408301
 20
0.1385085782360709
 30
0.0
 10
0.1791632701259314
 20
0.1406298401877835
 30
0.0
 10
0.1785373363200708
 20
0.1434636818739343
 30
0.0
 10
0.1779255908787629
 20
0.146934596742835
 30
0.0
 10
0.1773431935907395
 20
0.1509692855651781
 30
0.0
 10
0.1767715184618472
 20
0.1555315974775939
 30
0.0
 10
0.176164480894669
 20
0.1605996368109284
 30
0.0
 10
0.1755414466529626
 20
0.1661258788110644
 30
0.0
 10
0.174912561785062
 20
0.171994050750333
 30
0.0
 10
0.1742936160917381
 20
0.178070996887778
 30
0.0
 10
0.1736944396928015
 20
0.1842251722056285
 30
0.0
 10
0.1731291197718336
 20
0.1904017538690712
 30
0.0
 10
0.1725349592706946
 20
0.1965616890542736
 30
0.0
 10
0.1719183020637613
 20
0.2026581628435671
 30
0.0
 10
0.1712900409126696
 20
0.2085670823161849
 30
0.0
 10
0.1706651388313896
 20
0.2141535063195561
 30
0.0
 10
0.1700551002874269
 20
0.2192976377116458
 30
0.0
 10
0.1694770268314913
 20
0.2239376018074055
 30
0.0
 10
0.1689014901476522
 20
0.2280558238662125
 30
0.0
 10
0.1682925984977315
 20
0.231611547813245
 30
0.0
 10
0.1676679223328259
 20
0.2345643155837362
 30
0.0
 10
0.1670410322331399
 20
0.2367367971205057
 30
0.0
 10
0.1666026296269303
 20
0.237943755173053
 30
0.0
 10
0.1663826327952647
 20
0.2382022129442611
 30
0.0
 10
0.1663629950030074
 20
0.2382252839129646
 30
0.0
  0
SPLINE
  5
E04
330
1F
100
AcDbEntity
  8
0
  6
Continuous
 62
     8
370
    15
100
AcDbSpline
210
0.0
220
0.0
230
1.0
 70
     8
 71
     3
 72
    34
 73
    30
 74
     0
 42
0.0000000001
 43
0.0000000001
 40
0.0
 40
0.0
 40
0.0
 40
0.0
 40
0.0024722748938761
 40
0.0408388174159738
 40
0.0788320192782697
 40
0.117475504906517
 40
0.1565690654105159
 40
0.1958176104871293
 40
0.2349188568278749
 40
0.2735773594862374
 40
0.3115795789801019
 40
0.3499279953209294
 40
0.3888538329355764
 40
0.4280696872224321
 40
0.4672747993905088
 40
0.5061689107484768
 40
0.544466059047025
 40
0.5824986836557732
 40
0.6211979711107614
 40
0.6603195606071508
 40
0.6995670674769449
 40
0.7386382568880149
 40
0.7772390695706964
 40
0.8152125602731537
 40
0.8536285718713381
 40
0.8925952223394942
 40
0.93182324626917
 40
0.9710113178014697
 40
1.0
 40
1.0
 40
1.0
 40
1.0
 10
0.1507191562803234
 20
0.1373018373636845
 30
0.0
 10
0.1507061474223104
 20
0.1372730416166212
 30
0.0
 10
0.1504912577357009
 20
0.1367973727257774
 30
0.0
 10
0.1500918993957629
 20
0.1365635575535244
 30
0.0
 10
0.149523388537963
 20
0.1366573522108072
 30
0.0
 10
0.1489206503826725
 20
0.137578843850918
 30
0.0
 10
0.1482996694454703
 20
0.1392378415547584
 30
0.0
 10
0.147670609372839
 20
0.1416428299208774
 30
0.0
 10
0.1470493709662479
 20
0.144732183486902
 30
0.0
 10
0.1464456029788304
 20
0.148426024212648
 30
0.0
 10
0.145877875869119
 20
0.1526677244453976
 30
0.0
 10
0.1452897880804551
 20
0.1574265796326686
 30
0.0
 10
0.1446757266525589
 20
0.1626834687711391
 30
0.0
 10
0.1440485499434807
 20
0.1683565659382151
 30
0.0
 10
0.1434219756491917
 20
0.1743216894710655
 30
0.0
 10
0.1428091011231443
 20
0.1804416714902772
 30
0.0
 10
0.1422238978409602
 20
0.1866087975774167
 30
0.0
 10
0.1416543433741531
 20
0.1927835482637259
 30
0.0
 10
0.1410488107939072
 20
0.1989272064751408
 30
0.0
 10
0.1404266306946953
 20
0.2049679130946118
 30
0.0
 10
0.1397976063777664
 20
0.2107677431153747
 30
0.0
 10
0.1391777131099428
 20
0.2161966349170128
 30
0.0
 10
0.1385765810201862
 20
0.2211476427710148
 30
0.0
 10
0.1380105732343013
 20
0.2255898108438701
 30
0.0
 10
0.137418824757507
 20
0.2294953170600684
 30
0.0
 10
0.1368030619429401
 20
0.232830956313848
 30
0.0
 10
0.1361757152773642
 20
0.2354838780017991
 30
0.0
 10
0.1356009042578821
 20
0.2373383760440668
 30
0.0
 10
0.1352453479367277
 20
0.2379571708610517
 30
0.0
 10
0.1350941657722275
 20
0.2382202817502343
 30
0.0
  0
SPLINE
  5
E05
330
1F
100
AcDbEntity
  8
0
  6
Continuous
 62
     8
370
    15
100
AcDbSpline
210
0.0
220
0.0
230
1.0
 70
     8
 71
     3
 72
    34
 73
    30
 74
     0
 42
0.0000000001
 43
0.0000000001
 40
0.0
 40
0.0
 40
0.0
 40
0.0
 40
0.0185787918942561
 40
0.0565979231585348
 40
0.0947625075612124
 40
0.133548000935598
 40
0.1726708710785467
 40
0.2118321130583082
 40
0.2507309358550897
 40
0.2890786559041483
 40
0.3269891750363789
 40
0.3655278777813148
 40
0.4045347363081512
 40
0.4437161129208557
 40
0.4827702772379589
 40
0.5214014089114122
 40
0.5593674313848935
 40
0.5976035857448295
 40
0.6364343229496143
 40
0.6755740598258044
 40
0.7147230070125135
 40
0.7535809463608972
 40
0.7918610580176973
 40
0.8298010111071597
 40
0.8683971738319062
 40
0.9074338958938598
 40
0.9466161626668274
 40
0.9856422022054651
 40
1.0
 40
1.0
 40
1.0
 40
1.0
 10
0.1194903594230539
 20
0.1374057621839593
 30
0.0
 10
0.1193928362266785
 20
0.1372212780748971
 30
0.0
 10
0.1190957442302718
 20
0.1366592707340479
 30
0.0
 10
0.1186260073691789
 20
0.1365110940838101
 30
0.0
 10
0.1180438675208517
 20
0.1369235266256239
 30
0.0
 10
0.1174328053509264
 20
0.1381291496049095
 30
0.0
 10
0.1168070588127454
 20
0.1400803755781008
 30
0.0
 10
0.116179237959777
 20
0.1427575311667906
 30
0.0
 10
0.1155636892989618
 20
0.1460907338370387
 30
0.0
 10
0.1149720908620182
 20
0.1500004526148193
 30
0.0
 10
0.114406024236354
 20
0.1544448394600537
 30
0.0
 10
0.1138047461044378
 20
0.1593984676212412
 30
0.0
 10
0.1131847826832297
 20
0.1648294857569206
 30
0.0
 10
0.1125557507974353
 20
0.1706308650101405
 30
0.0
 10
0.1119336367009129
 20
0.1766724278401264
 30
0.0
 10
0.1113282236382762
 20
0.1828163346252185
 30
0.0
 10
0.110758813618502
 20
0.1889911476689004
 30
0.0
 10
0.110173402179182
 20
0.1951581396996587
 30
0.0
 10
0.1095604428632395
 20
0.2012776970678742
 30
0.0
 10
0.1089338233899406
 20
0.2072416969242172
 30
0.0
 10
0.108306687028402
 20
0.2129129904991109
 30
0.0
 10
0.1076927068656177
 20
0.2181675713099236
 30
0.0
 10
0.1071048233658196
 20
0.2229236866397009
 30
0.0
 10
0.1065369630977004
 20
0.227163477191779
 30
0.0
 10
0.1059331404104995
 20
0.2308516302505503
 30
0.0
 10
0.1053115512662135
 20
0.2339485249395508
 30
0.0
 10
0.1046835526681047
 20
0.2363094709122531
 30
0.0
 10
0.1041882857135494
 20
0.2377402444656105
 30
0.0
 10
0.1039121730458463
 20
0.2381147761117233
 30
0.0
 10
0.1038379114331667
 20
0.2382155079045503
 30
0.0
  0
SPLINE
  5
E06
330
1F
100
AcDbEntity
  8
0
  6
Continuous
 62
     8
370
    15
100
AcDbSpline
210
0.0
220
0.0
230
1.0
 70
     8
 71
     3
 72
    33
 73
    29
 74
     0
 42
0.0000000001
 43
0.0000000001
 40
0.0
 40
0.0
 40
0.0
 40
0.0
 40
0.0322716473002936
 40
0.070272841704927
 40
0.1088180300721336
 40
0.1478788350339362
 40
0.1871633883360884
 40
0.2263694724191608
 40
0.2651985200176864
 40
0.3033701805414198
 40
0.3415925099288098
 40
0.3804554047168256
 40
0.4196759994950835
 40
0.4589550536715141
 40
0.497990606232169
 40
0.5364919455256175
 40
0.5744981308446608
 40
0.6131052219695068
 40
0.6522005968621328
 40
0.6914908001571721
 40
0.7306733505962954
 40
0.7694507712926404
 40
0.8075592406889475
 40
0.8458549843297426
 40
0.8847650679436441
 40
0.9240044923606138
 40
0.9632731421090303
 40
1.0
 40
1.0
 40
1.0
 40
1.0
 10
0.0882214340663019
 20
0.1373325961351219
 30
0.0
 10
0.08805406436122
 20
0.1370820028657653
 30
0.0
 10
0.087689609932168
 20
0.1365363256963943
 30
0.0
 10
0.0871568134756737
 20
0.1365824821557724
 30
0.0
 10
0.0865601715684621
 20
0.1372983107675574
 30
0.0
 10
0.085942688735531
 20
0.138793465705326
 30
0.0
 10
0.0853140990457746
 20
0.1410306081416341
 30
0.0
 10
0.0846899324263326
 20
0.1439704001702835
 30
0.0
 10
0.0840810176866231
 20
0.1475333298694195
 30
0.0
 10
0.0835057322194306
 20
0.1516531101718663
 30
0.0
 10
0.0829274202856416
 20
0.156295927654567
 30
0.0
 10
0.0823172939943673
 20
0.1614424541334132
 30
0.0
 10
0.0816923337119704
 20
0.167030829543481
 30
0.0
 10
0.0810640999989687
 20
0.1729410270073175
 30
0.0
 10
0.0804475202478461
 20
0.1790380876210933
 30
0.0
 10
0.0798535357875094
 20
0.1851981969515033
 30
0.0
 10
0.0792881787160518
 20
0.1913747627877931
 30
0.0
 10
0.0786888491563245
 20
0.1975287340181562
 30
0.0
 10
0.0780698306342567
 20
0.2036049846846004
 30
0.0
 10
0.0774409325062084
 20
0.2094717612485621
 30
0.0
 10
0.0768179617784615
 20
0.2149959991299375
 30
0.0
 10
0.0762110354790817
 20
0.2200614677019499
 30
0.0
 10
0.0756395301126229
 20
0.2246214642900122
 30
0.0
 10
0.0750569362048657
 20
0.2286524782170676
 30
0.0
 10
0.0744450256189415
 20
0.2321240657903272
 30
0.0
 10
0.0738193369752418
 20
0.2349407770044611
 30
0.0
 10
0.0732027073325901
 20
0.2370677015683653
 30
0.0
 10
0.0728046693323403
 20
0.2378568961729832
 30
0.0
 10
0.0726123068424451
 20
0.2382382955345048
 30
0.0
  0
SPLINE
  5
E07
330
1F
100
AcDbEntity
  8
0
  6
Continuous
 62
     8
370
    15
100
AcDbSpline
210
0.0
220
0.0
230
1.0
 70
     8
 71
     3
 72
    34
 73
    30
 74
     0
 42
0.0000000001
 43
0.0000000001
 40
0.0
 40
0.0
 40
0.0
 40
0.0
 40
0.0351961840641198
 40
0.0731179998870813
 40
0.1110398157100454
 40
0.1486892273903648
 40
0.1858055902461773
 40
0.2225265211773996
 40
0.259848348052875
 40
0.297618335524171
 40
0.3355706660591172
 40
0.3734316018698993
 40
0.4109313897054152
 40
0.447815732972709
 40
0.4847000762400052
 40
0.5221998640755209
 40
0.5600607998863023
 40
0.5980131304212481
 40
0.6357831178925411
 40
0.6731049447680189
 40
0.709825875699241
 40
0.7469422385550534
 40
0.7845916502353728
 40
0.8225134660583341
 40
0.8604352818812984
 40
0.8980846935616176
 40
0.9352010564174301
 40
0.9719219873486524
 40
1.0
 40
1.0
 40
1.0
 40
1.0
 10
0.2809053783337054
 20
0.1373039856165543
 30
0.0
 10
0.2807208750895969
 20
0.1376609375740352
 30
0.0
 10
0.2803375804643222
 20
0.1384024842467997
 30
0.0
 10
0.2797427304992164
 20
0.1403992009444051
 30
0.0
 10
0.2791361222216508
 20
0.1430510786463182
 30
0.0
 10
0.2785417306385627
 20
0.1463270186216357
 30
0.0
 10
0.2779707846211652
 20
0.1501332177296706
 30
0.0
 10
0.2774228783849901
 20
0.1544394145317098
 30
0.0
 10
0.2768415294458162
 20
0.1592235339216583
 30
0.0
 10
0.2762422593659464
 20
0.1644586895331535
 30
0.0
 10
0.2756336474404382
 20
0.1700483900936383
 30
0.0
 10
0.2750300261186354
 20
0.1758756568593962
 30
0.0
 10
0.2744412848043956
 20
0.1818143140096011
 30
0.0
 10
0.2738835866926479
 20
0.1877845105809839
 30
0.0
 10
0.2733258885833711
 20
0.193754707038726
 30
0.0
 10
0.272737147261572
 20
0.1996933645366696
 30
0.0
 10
0.2721335259678677
 20
0.2055206300099575
 30
0.0
 10
0.2715249139373581
 20
0.211110335400257
 30
0.0
 10
0.2709256442461179
 20
0.2163454731355601
 30
0.0
 10
0.2703442938823501
 20
0.2211296580542554
 30
0.0
 10
0.2697963928858087
 20
0.2254356138425915
 30
0.0
 10
0.2692254270802579
 20
0.2292427231699743
 30
0.0
 10
0.2686311107341401
 20
0.2325152023801347
 30
0.0
 10
0.268024218890468
 20
0.2351801236124964
 30
0.0
 10
0.2674172839657372
 20
0.2371723251813838
 30
0.0
 10
0.266823095331028
 20
0.2384648994203542
 30
0.0
 10
0.266251670012247
 20
0.2390258182763563
 30
0.0
 10
0.2657508895578413
 20
0.23898112933519
 30
0.0
 10
0.2654130163198181
 20
0.2384363694849783
 30
0.0
 10
0.2652666125587793
 20
0.2382003197421816
 30
0.0
  0
SPLINE
  5
E08
330
1F
100
AcDbEntity
  8
0
  6
Continuous
 62
     8
370
    15
100
AcDbSpline
210
0.0
220
0.0
230
1.0
 70
     8
 71
     3
 72
    35
 73
    31
 74
     0
 42
0.0000000001
 43
0.0000000001
 40
0.0
 40
0.0
 40
0.0
 40
0.0
 40
0.0230684650222998
 40
0.0609062641003969
 40
0.0988354020515476
 40
0.1365823083684814
 40
0.1738813279595317
 40
0.2105798188124857
 40
0.2476734999424706
 40
0.285299904152025
 40
0.3231985460386629
 40
0.3610971879253034
 40
0.3987235921348579
 40
0.4358172732648428
 40
0.472515764117797
 40
0.5098147837088448
 40
0.5475616900257814
 40
0.5854908279769325
 40
0.6233286270550296
 40
0.6608054988545755
 40
0.6976673021826905
 40
0.7345291055108079
 40
0.7720059773103537
 40
0.8098437763884508
 40
0.8477729143396015
 40
0.8855198206565352
 40
0.9228188402475854
 40
0.9595173311005394
 40
0.9966110122305241
 40
1.0
 40
1.0
 40
1.0
 40
1.0
 10
0.2496614573234428
 20
0.137353038865665
 30
0.0
 10
0.2495414054956218
 20
0.1375450828022857
 30
0.0
 10
0.2492244399617682
 20
0.1380521247190924
 30
0.0
 10
0.2486955131649564
 20
0.1396667741311837
 30
0.0
 10
0.248087550804251
 20
0.142089271532821
 30
0.0
 10
0.2474881081210958
 20
0.1451741897067396
 30
0.0
 10
0.2469068033034745
 20
0.1488065473677467
 30
0.0
 10
0.2463588904726466
 20
0.1529495181535254
 30
0.0
 10
0.2457879272728034
 20
0.157575264070037
 30
0.0
 10
0.2451936124591016
 20
0.1626688783551624
 30
0.0
 10
0.2445867117439011
 20
0.1681527202067801
 30
0.0
 10
0.2439798107243716
 20
0.1739145211216804
 30
0.0
 10
0.2433854968128335
 20
0.1798302859804441
 30
0.0
 10
0.2428145303669522
 20
0.1857932824923982
 30
0.0
 10
0.2422666295400013
 20
0.1917672660393168
 30
0.0
 10
0.2416852791299746
 20
0.1977198532241178
 30
0.0
 10
0.2410860094519167
 20
0.203598490304008
 30
0.0
 10
0.2404773974157317
 20
0.2092809889496441
 30
0.0
 10
0.2398737761313985
 20
0.2146464500317555
 30
0.0
 10
0.2392850347782556
 20
0.2195880453267818
 30
0.0
 10
0.2387273367830547
 20
0.2240548051050255
 30
0.0
 10
0.2381696382448677
 20
0.2280311625626639
 30
0.0
 10
0.2375808985532632
 20
0.2314881766994543
 30
0.0
 10
0.2369772710933242
 20
0.23436340742786
 30
0.0
 10
0.2363686821346791
 20
0.2365870925808751
 30
0.0
 10
0.2357693270416581
 20
0.2381078135926518
 30
0.0
 10
0.2351882897372022
 20
0.2389366455852522
 30
0.0
 10
0.2346392373128916
 20
0.2389949736951027
 30
0.0
 10
0.2342467338268177
 20
0.2387436595861856
 30
0.0
 10
0.2340334339971086
 20
0.2382724125115438
 30
0.0
 10
0.2340155777012223
 20
0.2382329622822046
 30
0.0
  0
SPLINE
  5
E09
330
1F
100
AcDbEntity
  8
0
  6
Continuous
 62
     8
370
    15
100
AcDbSpline
210
0.0
220
0.0
230
1.0
 70
     8
 71
     3
 72
    35
 73
    31
 74
     0
 42
0.0000000001
 43
0.0000000001
 40
0.0
 40
0.0
 40
0.0
 40
0.0
 40
0.0103539091265098
 40
0.0480988221703554
 40
0.0860259572254436
 40
0.1238617582307425
 40
0.1613366510167113
 40
0.198196507810717
 40
0.2350563646047251
 40
0.2725312573906939
 40
0.3103670583959925
 40
0.3482941934510805
 40
0.3860391064949233
 40
0.423336156464107
 40
0.4600327094068735
 40
0.4971244317581487
 40
0.5347488490578782
 40
0.5726454896588363
 40
0.6105421302597973
 40
0.6481665475595266
 40
0.6852582699108019
 40
0.7219548228535686
 40
0.7592518728227498
 40
0.7969967858665953
 40
0.8349239209216834
 40
0.8727597219269823
 40
0.9102346147129511
 40
0.9470944715069567
 40
0.983954328300965
 40
1.0
 40
1.0
 40
1.0
 40
1.0
 10
0.2184089394158875
 20
0.1373443871391733
 30
0.0
 10
0.2183555016123426
 20
0.1374134439709729
 30
0.0
 10
0.218107257651682
 20
0.1377342457311372
 30
0.0
 10
0.2176475752666906
 20
0.1390167619248674
 30
0.0
 10
0.2170401476586301
 20
0.1411962828403568
 30
0.0
 10
0.2164362098155559
 20
0.1440833169248648
 30
0.0
 10
0.2158475521744121
 20
0.1475372108186517
 30
0.0
 10
0.2152898320736005
 20
0.1515143882671475
 30
0.0
 10
0.2147321398436937
 20
0.1559809288008105
 30
0.0
 10
0.214143396917712
 20
0.1609225839082753
 30
0.0
 10
0.2135397760613058
 20
0.1662880287170396
 30
0.0
 10
0.212931163909948
 20
0.1719705317424771
 30
0.0
 10
0.2123318942624799
 20
0.1778491676591636
 30
0.0
 10
0.2117505438446852
 20
0.1838017551390911
 30
0.0
 10
0.2112026430187033
 20
0.1897757386503076
 30
0.0
 10
0.2106316765766216
 20
0.1957387350132982
 30
0.0
 10
0.2100373626486078
 20
0.2016545005155756
 30
0.0
 10
0.209430461691726
 20
0.2074162989842132
 30
0.0
 10
0.2088235607428146
 20
0.2129001499616145
 30
0.0
 10
0.2082292467911762
 20
0.2179937305855639
 30
0.0
 10
0.2076582804340976
 20
0.222619599783425
 30
0.0
 10
0.2071103792937707
 20
0.2267621140872316
 30
0.0
 10
0.2065290300699019
 20
0.2303962056902713
 30
0.0
 10
0.2059297558919582
 20
0.2334745441982862
 30
0.0
 10
0.2053211607536181
 20
0.235921749829489
 30
0.0
 10
0.2047174766967412
 20
0.2376799989196079
 30
0.0
 10
0.2041289660599084
 20
0.238738608683676
 30
0.0
 10
0.2035704223668642
 20
0.2390531218574998
 30
0.0
 10
0.2031227558802948
 20
0.2388705242761042
 30
0.0
 10
0.2028450239572415
 20
0.2383330959486662
 30
0.0
 10
0.2027607908839766
 20
0.2381700997789005
 30
0.0
  0
SPLINE
  5
E0A
330
1F
100
AcDbEntity
  8
0
  6
Continuous
 62
     8
370
    15
100
AcDbSpline
210
0.0
220
0.0
230
1.0
 70
     8
 71
     3
 72
    34
 73
    30
 74
     0
 42
0.0000000001
 43
0.0000000001
 40
0.0
 40
0.0
 40
0.0
 40
0.0
 40
0.0348729965284488
 40
0.0727972190328334
 40
0.1107214415372206
 40
0.1483732426110254
 40
0.1854919610307538
 40
0.2222152224300826
 40
0.2595394179091039
 40
0.2973118024261434
 40
0.3352665415791077
 40
0.3731298802076058
 40
0.4106320479408349
 40
0.4475187320470847
 40
0.4844054161533368
 40
0.5219075838865657
 40
0.5597709225150637
 40
0.5977256616680277
 40
0.6354980461850644
 40
0.6728222416640881
 40
0.7095455030634169
 40
0.7466642214831453
 40
0.78431602255695
 40
0.8222402450613344
 40
0.8601644675657217
 40
0.8978162686395265
 40
0.9349349870592547
 40
0.9716582484585837
 40
1.0
 40
1.0
 40
1.0
 40
1.0
 10
0.1871502429445249
 20
0.1373151140933682
 30
0.0
 10
0.1869674426111638
 20
0.1376689626106082
 30
0.0
 10
0.186585847760373
 20
0.1384076197544801
 30
0.0
 10
0.1859927275871973
 20
0.1403993995608803
 30
0.0
 10
0.185386122996074
 20
0.1430510258261957
 30
0.0
 10
0.1847917304348838
 20
0.1463270325137445
 30
0.0
 10
0.1842207846747374
 20
0.1501332140757277
 30
0.0
 10
0.1836728783704453
 20
0.1544394155237225
 30
0.0
 10
0.1830915294497917
 20
0.1592235336504912
 30
0.0
 10
0.1824922593648699
 20
0.1644586896065792
 30
0.0
 10
0.1818836474407259
 20
0.1700483900739695
 30
0.0
 10
0.181280026118559
 20
0.1758756568646071
 30
0.0
 10
0.1806912848044169
 20
0.1818143140082378
 30
0.0
 10
0.1801335866926426
 20
0.1877845105813401
 30
0.0
 10
0.1795758885833729
 20
0.1937547070386541
 30
0.0
 10
0.1789871472615676
 20
0.1996933645365941
 30
0.0
 10
0.1783835259678828
 20
0.2055206300103367
 30
0.0
 10
0.1777749139373039
 20
0.2111103353988146
 30
0.0
 10
0.1771756442463195
 20
0.2163454731408945
 30
0.0
 10
0.1765942938816138
 20
0.2211296580347386
 30
0.0
 10
0.1760463928885194
 20
0.2254356139144833
 30
0.0
 10
0.1754754270699506
 20
0.2292427228966454
 30
0.0
 10
0.1748811107733301
 20
0.2325152034193745
 30
0.0
 10
0.1742742187431068
 20
0.2351801197046996
 30
0.0
 10
0.1736672845138747
 20
0.2371723397171892
 30
0.0
 10
0.1730730933138744
 20
0.2384648459284722
 30
0.0
 10
0.1725016773902395
 20
0.2390260139296161
 30
0.0
 10
0.1719995778646517
 20
0.2389803621459667
 30
0.0
 10
0.1716603248883031
 20
0.2384330306519682
 30
0.0
 10
0.1715125492538903
 20
0.238194617832042
 30
0.0
  0
SPLINE
  5
E0B
330
1F
100
AcDbEntity
  8
0
  6
Continuous
 62
     8
370
    15
100
AcDbSpline
210
0.0
220
0.0
230
1.0
 70
     8
 71
     3
 72
    35
 73
    31
 74
     0
 42
0.0000000001
 43
0.0000000001
 40
0.0
 40
0.0
 40
0.0
 40
0.0
 40
0.02316810698597
 40
0.061008805704463
 40
0.0989408502956212
 40
0.13669064928753
 40
0.1739925272304552
 40
0.210693830414706
 40
0.2477903541607749
 40
0.2854196418108111
 40
0.3233211880004417
 40
0.3612227341900715
 40
0.3988520218401078
 40
0.4359485455861768
 40
0.4726498487704278
 40
0.5099517267133537
 40
0.547701525705262
 40
0.5856335702964202
 40
0.6234742690149133
 40
0.6609540127957592
 40
0.6978186409703696
 40
0.7346832691449793
 40
0.772163012925825
 40
0.810003711644318
 40
0.847935756235476
 40
0.8856855552273849
 40
0.9229874331703101
 40
0.9596887363545608
 40
0.9967852601006295
 40
1.0
 40
1.0
 40
1.0
 40
1.0
 10
0.1559129907277361
 20
0.1373502976832923
 30
0.0
 10
0.1557924306586971
 20
0.1375430981130479
 30
0.0
 10
0.1554749586342403
 20
0.1380508013952295
 30
0.0
 10
0.1549455147943268
 20
0.1396666855917323
 30
0.0
 10
0.1543375503693642
 20
0.1420892951643924
 30
0.0
 10
0.1537381082359106
 20
0.1451741834677827
 30
0.0
 10
0.1531568032734247
 20
0.1488065490005828
 30
0.0
 10
0.1526088904807343
 20
0.1529495177140121
 30
0.0
 10
0.1520379272705918
 20
0.1575752641902004
 30
0.0
 10
0.1514436124597029
 20
0.1626688783225094
 30
0.0
 10
0.1508367117437395
 20
0.1681527202155588
 30
0.0
 10
0.1502298107244142
 20
0.1739145211193453
 30
0.0
 10
0.1496354968128228
 20
0.1798302859810588
 30
0.0
 10
0.1490645303669549
 20
0.1857932824922322
 30
0.0
 10
0.1485166295400004
 20
0.1917672660393737
 30
0.0
 10
0.1479352791299737
 20
0.1977198532240538
 30
0.0
 10
0.1473360094519203
 20
0.2035984903042096
 30
0.0
 10
0.1467273974157157
 20
0.2092809889488998
 30
0.0
 10
0.146123776131458
 20
0.2146464500345098
 30
0.0
 10
0.1455350347780344
 20
0.2195880453166805
 30
0.0
 10
0.1449773367838647
 20
0.2240548051420492
 30
0.0
 10
0.1444196382418212
 20
0.2280311624234357
 30
0.0
 10
0.1438308985648895
 20
0.2314881772309021
 30
0.0
 10
0.1432272710494455
 20
0.2343634054222536
 30
0.0
 10
0.1426186822984805
 20
0.2365871000680797
 30
0.0
 10
0.1420193264367207
 20
0.2381077859416796
 30
0.0
 10
0.1414382919502515
 20
0.2389367467411252
 30
0.0
 10
0.1408892291614237
 20
0.2389946011011976
 30
0.0
 10
0.1404976401162425
 20
0.2387450917584082
 30
0.0
 10
0.1402852693385341
 20
0.2382763173063975
 30
0.0
 10
0.1402683332082608
 20
0.2382389335134216
 30
0.0
  0
SPLINE
  5
E0C
330
1F
100
AcDbEntity
  8
0
  6
Continuous
 62
     8
370
    15
100
AcDbSpline
210
0.0
220
0.0
230
1.0
 70
     8
 71
     3
 72
    35
 73
    31
 74
     0
 42
0.0000000001
 43
0.0000000001
 40
0.0
 40
0.0
 40
0.0
 40
0.0
 40
0.0106118277745487
 40
0.048344383543052
 40
0.0862591016652868
 40
0.1240825156395101
 40
0.1615451395518419
 40
0.1983929288283299
 40
0.2352407181048173
 40
0.2727033420171489
 40
0.3105267559913722
 40
0.3484414741136069
 40
0.3861740298821108
 40
0.4234588692014678
 40
0.4601434080906241
 40
0.4972229870141087
 40
0.5348350864874964
 40
0.5727193201391584
 40
0.6106035537908199
 40
0.6482156532642076
 40
0.6852952321876923
 40
0.7219797710768486
 40
0.7592646103962063
 40
0.7969971661647096
 40
0.8349118842869444
 40
0.8727352982611677
 40
0.9101979221734994
 40
0.9470457114499877
 40
0.9838935007264749
 40
1.0
 40
1.0
 40
1.0
 40
1.0
 10
0.1246629969395752
 20
0.1373386933416163
 30
0.0
 10
0.1246082126974048
 20
0.1374093739741204
 30
0.0
 10
0.1243586317136325
 20
0.137731374262803
 30
0.0
 10
0.1238975840512184
 20
0.1390163651525298
 30
0.0
 10
0.1232901453055089
 20
0.1411963891241981
 30
0.0
 10
0.1226862104390873
 20
0.1440832887616605
 30
0.0
 10
0.1220975520110592
 20
0.1475372181968191
 30
0.0
 10
0.1215398321170387
 20
0.1515143863051445
 30
0.0
 10
0.1209821398318418
 20
0.1559809293361298
 30
0.0
 10
0.1203933969209441
 20
0.1609225837622961
 30
0.0
 10
0.1197897760604336
 20
0.1662880287564259
 30
0.0
 10
0.1191811639101816
 20
0.1719705317319646
 30
0.0
 10
0.1185818942624186
 20
0.1778491676619391
 30
0.0
 10
0.1180005438447012
 20
0.1838017551383655
 30
0.0
 10
0.1174526430186988
 20
0.1897757386505004
 30
0.0
 10
0.1168816765766225
 20
0.1957387350132556
 30
0.0
 10
0.1162873626486061
 20
0.2016545005155499
 30
0.0
 10
0.1156804616917313
 20
0.2074162989843624
 30
0.0
 10
0.1150735607427959
 20
0.2129001499610461
 30
0.0
 10
0.1144792467912437
 20
0.2179937305876591
 30
0.0
 10
0.1139082804338498
 20
0.2226195997757636
 30
0.0
 10
0.1133603792946909
 20
0.226762114115695
 30
0.0
 10
0.1127790300663873
 20
0.2303962055815147
 30
0.0
 10
0.1121797559052693
 20
0.2334745446102278
 30
0.0
 10
0.1115711607037459
 20
0.2359217482860854
 30
0.0
 10
0.1109674768815809
 20
0.2376800046399796
 30
0.0
 10
0.1103789653820852
 20
0.2387385877065209
 30
0.0
 10
0.1098204248511587
 20
0.2390531987409639
 30
0.0
 10
0.1093724191527592
 20
0.2388701710089243
 30
0.0
 10
0.1090943363708368
 20
0.2383319520805309
 30
0.0
 10
0.1090097551169347
 20
0.2381682481952265
 30
0.0
  0
SPLINE
  5
E0D
330
1F
100
AcDbEntity
  8
0
  6
Continuous
 62
     8
370
    15
100
AcDbSpline
210
0.0
220
0.0
230
1.0
 70
     8
 71
     3
 72
    34
 73
    30
 74
     0
 42
0.0000000001
 43
0.0000000001
 40
0.0
 40
0.0
 40
0.0
 40
0.0
 40
0.03432530347622
 40
0.0722705966772918
 40
0.1102158898783629
 40
0.1478886102915144
 40
0.1850279518698858
 40
0.2217716167119509
 40
0.2591165495126651
 40
0.2969099203652079
 40
0.3348857471699048
 40
0.3727701226680074
 40
0.4102931266043044
 40
0.4472003049509438
 40
0.4841074832975826
 40
0.5216304872338798
 40
0.5595148627319824
 40
0.5974906895366794
 40
0.6352840603892222
 40
0.672628993189936
 40
0.7093726580320011
 40
0.7465119996103727
 40
0.7841847200235245
 40
0.8221300132245955
 40
0.8600753064256668
 40
0.8977480268388184
 40
0.9348873684171898
 40
0.971631033259255
 40
1.0
 40
1.0
 40
1.0
 40
1.0
 10
0.0933912991511452
 20
0.1373344954476834
 30
0.0
 10
0.093211464669853
 20
0.1376829347270809
 30
0.0
 10
0.0928328301364374
 20
0.1384165601310152
 30
0.0
 10
0.0922427224482396
 20
0.1403997500673095
 30
0.0
 10
0.0916361243627302
 20
0.1430509326124141
 30
0.0
 10
0.0910417300754425
 20
0.1463270570297026
 30
0.0
 10
0.0904707847692779
 20
0.1501332076274671
 30
0.0
 10
0.0899228783447779
 20
0.1544394172743657
 30
0.0
 10
0.0893415294568074
 20
0.1592235331719523
 30
0.0
 10
0.0887422593629701
 20
0.1644586897361555
 30
0.0
 10
0.0881336474412349
 20
0.1700483900392595
 30
0.0
 10
0.087530026118424
 20
0.1758756568738042
 30
0.0
 10
0.0869412848044515
 20
0.1818143140058282
 30
0.0
 10
0.0863835866926328
 20
0.1877845105819804
 30
0.0
 10
0.0858258885833756
 20
0.19375470703848
 30
0.0
 10
0.0852371472615667
 20
0.1996933645366368
 30
0.0
 10
0.0846335259678837
 20
0.2055206300103403
 30
0.0
 10
0.0840249139373013
 20
0.2111103353987551
 30
0.0
 10
0.0834256442463275
 20
0.2163454731411263
 30
0.0
 10
0.0828442938815819
 20
0.2211296580338886
 30
0.0
 10
0.0822963928886376
 20
0.2254356139176141
 30
0.0
 10
0.0817254270695021
 20
0.2292427228847402
 30
0.0
 10
0.0811311107750363
 20
0.2325152034646414
 30
0.0
 10
0.0805242187366879
 20
0.2351801195344874
 30
0.0
 10
0.0799172845377498
 20
0.2371723403503263
 30
0.0
 10
0.0793230932260123
 20
0.2384648435985208
 30
0.0
 10
0.0787516777116038
 20
0.2390260224517022
 30
0.0
 10
0.0782495204715161
 20
0.2389803286073442
 30
0.0
 10
0.0779102071237201
 20
0.238432884594348
 30
0.0
 10
0.0777623714604339
 20
0.2381943683399812
 30
0.0
  0
LINE
  5
E0F
330
1F
100
AcDbEntity
  8
0
  6
HIDDEN
 62
     7
370
     0
100
AcDbLine
 10
0.0778563597776731
 20
0.119545994352761
 30
0.0
 11
0.078063174963801
 21
0.1200163528847855
 31
0.0
  0
LINE
  5
E24
330
1F
100
AcDbEntity
  8
0
  6
HIDDEN
 62
     7
370
     0
100
AcDbLine
 10
0.2775631749634275
 20
0.2469598948891485
 30
0.0
 11
0.2775631749599601
 21
0.2547203936184057
 31
0.0
  0
LINE
  5
E28
330
1F
100
AcDbEntity
  8
0
  6
HIDDEN
 62
     7
370
     0
100
AcDbLine
 10
0.0629460866966287
 20
0.1769082147870775
 30
0.0
 11
0.0629460866966287
 21
0.2389635034276147
 31
0.0
  0
LINE
  5
E29
330
1F
100
AcDbEntity
  8
0
  6
HIDDEN
 62
     7
370
     0
100
AcDbLine
 10
0.1395631749625119
 20
0.2192845105621486
 30
0.0
 11
0.1395631749625119
 21
0.1877845105621483
 31
0.0
  0
LINE
  5
E2A
330
1F
100
AcDbEntity
  8
0
  6
HIDDEN
 62
     7
370
     0
100
AcDbLine
 10
0.1395631749625119
 20
0.1877845105621483
 30
0.0
 11
0.0595631749625119
 21
0.1877845105621483
 31
0.0
  0
LINE
  5
E2B
330
1F
100
AcDbEntity
  8
0
  6
HIDDEN
 62
     7
370
     0
100
AcDbLine
 10
0.1395631749625119
 20
0.156284510562148
 30
0.0
 11
0.1395631749625119
 21
0.1877845105621483
 31
0.0
  0
LINE
  5
E2C
330
1F
100
AcDbEntity
  8
0
  6
HIDDEN
 62
     7
370
     0
100
AcDbLine
 10
0.0595631749625119
 20
0.2192845105621486
 30
0.0
 11
0.1395631749625119
 21
0.2192845105621486
 31
0.0
  0
LINE
  5
E2D
330
1F
100
AcDbEntity
  8
0
  6
HIDDEN
 62
     7
370
     0
100
AcDbLine
 10
0.0595631749625119
 20
0.156284510562148
 30
0.0
 11
0.1395631749625119
 21
0.156284510562148
 31
0.0
  0
LINE
  5
E2E
330
1F
100
AcDbEntity
  8
0
  6
HIDDEN
 62
     7
370
     0
100
AcDbLine
 10
0.3095631749601804
 20
0.2247845105582571
 30
0.0
 11
0.2873313320584989
 21
0.1877845105621483
 31
0.0
  0
LINE
  5
E2F
330
1F
100
AcDbEntity
  8
0
  6
HIDDEN
 62
     7
370
     0
100
AcDbLine
 10
0.2873313320584989
 20
0.1877845105621483
 30
0.0
 11
0.3095631749601804
 21
0.1507845105660404
 31
0.0
  0
LINE
  5
E40
330
1F
100
AcDbEntity
  8
0
100
AcDbLine
 10
0.5391111899112027
 20
0.353378362086415
 30
0.0
 11
0.5467556103032065
 21
0.3489638974119573
 31
0.0
  0
LINE
  5
E41
330
1F
100
AcDbEntity
  8
0
100
AcDbLine
 10
0.7080981737498855
 20
0.4182675850043161
 30
0.0
 11
0.7108603096135646
 21
0.4198621320975285
 31
0.0
  0
LINE
  5
E42
330
1F
100
AcDbEntity
  8
0
100
AcDbLine
 10
0.686001086837144
 20
0.4055112082567048
 30
0.0
 11
0.688763222701817
 21
0.4071057553504901
 31
0.0
  0
LINE
  5
E43
330
1F
100
AcDbEntity
  8
0
100
AcDbLine
 10
0.6639039999253964
 20
0.3927548315096654
 30
0.0
 11
0.6666661357890755
 21
0.3943493786028787
 31
0.0
  0
LINE
  5
E44
330
1F
100
AcDbEntity
  8
0
100
AcDbLine
 10
0.641806913013647
 20
0.3799984547626269
 30
0.0
 11
0.6445690488773261
 21
0.3815930018558393
 31
0.0
  0
LINE
  5
E45
330
1F
100
AcDbEntity
  8
0
100
AcDbLine
 10
0.6197098261009055
 20
0.3672420780150147
 30
0.0
 11
0.6224719619655776
 21
0.3688366251088009
 31
0.0
  0
LINE
  5
E46
330
1F
100
AcDbEntity
  8
0
100
AcDbLine
 10
0.5976133267648562
 20
0.3544860404682069
 30
0.0
 11
0.600375462628745
 21
0.3560805875615409
 31
0.0
  0
LINE
  5
E47
330
1F
100
AcDbEntity
  8
0
100
AcDbLine
 10
0.520332526500541
 20
0.469217142127026
 30
0.0
 11
0.5175703906132665
 21
0.4676225950201925
 31
0.0
  0
LINE
  5
E48
330
1F
100
AcDbEntity
  8
0
100
AcDbLine
 10
0.5424290259573186
 20
0.4819731797435284
 30
0.0
 11
0.5396668900933081
 21
0.480378632650125
 31
0.0
  0
LINE
  5
E49
330
1F
100
AcDbEntity
  8
0
100
AcDbLine
 10
0.5645261128693975
 20
0.4947295564907586
 30
0.0
 11
0.5617639770053888
 21
0.4931350093973544
 31
0.0
  0
LINE
  5
E4A
330
1F
100
AcDbEntity
  8
0
100
AcDbLine
 10
0.5866231997814781
 20
0.507485933237988
 30
0.0
 11
0.5838610639174677
 21
0.5058913861445847
 31
0.0
  0
LINE
  5
E4B
330
1F
100
AcDbEntity
  8
0
100
AcDbLine
 10
0.608720286693557
 20
0.5202423099852183
 30
0.0
 11
0.6059581508295466
 21
0.5186477628918141
 31
0.0
  0
LINE
  5
E4C
330
1F
100
AcDbEntity
  8
0
100
AcDbLine
 10
0.6308173736056368
 20
0.5329986867324477
 30
0.0
 11
0.6280552377416273
 21
0.5314041396390444
 31
0.0
  0
LINE
  5
E4D
330
1F
100
AcDbEntity
  8
0
100
AcDbLine
 10
0.6529147274110401
 20
0.5457552175539132
 30
0.0
 11
0.6501523246537071
 21
0.5441605163862738
 31
0.0
  0
LINE
  5
E4E
330
1F
100
AcDbEntity
  8
0
100
AcDbLine
 10
0.6928204608625956
 20
0.5401975679955705
 30
0.0
 11
0.6882699865709754
 21
0.542825354927669
 31
0.0
  0
LINE
  5
E4F
330
1F
100
AcDbEntity
  8
0
100
AcDbLine
 10
0.7108937259790597
 20
0.5297607021108738
 30
0.0
 11
0.7016160399182152
 21
0.5351183375194938
 31
0.0
  0
SPLINE
  5
E50
330
1F
100
AcDbEntity
  8
0
100
AcDbSpline
210
0.0
220
0.0
230
1.0
 70
     8
 71
     3
 72
    12
 73
     8
 74
     0
 42
0.0000000001
 43
0.0000000001
 40
0.0
 40
0.0
 40
0.0
 40
0.0
 40
0.2499999999999999
 40
0.2499999999999999
 40
0.5
 40
0.5
 40
1.0
 40
1.0
 40
1.0
 40
1.0
 10
0.7001066242850282
 20
0.5343067744429496
 30
0.0
 10
0.7054068543785867
 20
0.5297772771569623
 30
0.0
 10
0.7103331408832718
 20
0.5245811042345759
 30
0.0
 10
0.7194394684285463
 20
0.5128580798816163
 30
0.0
 10
0.7233831633780012
 20
0.5066265159459017
 30
0.0
 10
0.7333841618589079
 20
0.4869293469637562
 30
0.0
 10
0.7370524246687859
 20
0.473365637182387
 30
0.0
 10
0.7370524246688259
 20
0.461743431125522
 30
0.0
  0
SPLINE
  5
E51
330
1F
100
AcDbEntity
  8
0
100
AcDbSpline
210
0.0
220
0.0
230
1.0
 70
     8
 71
     3
 72
    18
 73
    14
 74
     0
 42
0.0000000001
 43
0.0000000001
 40
0.0
 40
0.0
 40
0.0
 40
0.0
 40
0.0795316537525474
 40
0.1697708570922928
 40
0.2605964581146829
 40
0.3532511698491896
 40
0.446532185224347
 40
0.5401189501693632
 40
0.634351266144916
 40
0.7306189287606723
 40
0.8275897199503324
 40
0.9137948599261211
 40
1.0
 40
1.0
 40
1.0
 40
1.0
 10
0.7210058788994014
 20
0.4341383266524631
 30
0.0
 10
0.7217906554004714
 20
0.4343608591962783
 30
0.0
 10
0.7234658648664693
 20
0.434835884408402
 30
0.0
 10
0.7258067969684225
 20
0.4360364341088399
 30
0.0
 10
0.7280724544604864
 20
0.4376055261867052
 30
0.0
 10
0.7301282878601649
 20
0.4395535986974507
 30
0.0
 10
0.7319562638342856
 20
0.4418627546714367
 30
0.0
 10
0.7335295907207098
 20
0.4445185463770505
 30
0.0
 10
0.7348395603104472
 20
0.4475222798990222
 30
0.0
 10
0.7358701723727548
 20
0.4508677818270196
 30
0.0
 10
0.7365669077012023
 20
0.4544025868086824
 30
0.0
 10
0.7369785309251331
 20
0.4580289336107447
 30
0.0
 10
0.7370277934218363
 20
0.4605052652866347
 30
0.0
 10
0.7370524246702017
 20
0.461743431125284
 30
0.0
  0
LINE
  5
E52
330
1F
100
AcDbEntity
  8
0
100
AcDbLine
 10
0.5391199080959013
 20
0.3533705683429884
 30
0.0
 11
0.5376403389693076
 21
0.3554757298215809
 31
0.0
  0
SPLINE
  5
E53
330
1F
100
AcDbEntity
  8
0
100
AcDbSpline
210
0.0
220
0.0
230
1.0
 70
     8
 71
     3
 72
    10
 73
     6
 74
     0
 42
0.0000000001
 43
0.0000000001
 40
0.0
 40
0.0
 40
0.0
 40
0.0
 40
0.3925334553142817
 40
0.7850668348301224
 40
0.9999999999999998
 40
0.9999999999999998
 40
0.9999999999999998
 40
0.9999999999999998
 10
0.5391156781929436
 20
0.3533757706307392
 30
0.0
 10
0.5381467461570806
 20
0.3539738486807227
 30
0.0
 10
0.5362088822724547
 20
0.3551700046652007
 30
0.0
 10
0.5337084079854677
 20
0.3570511340935158
 30
0.0
 10
0.5321903905630017
 20
0.3584238774765989
 30
0.0
 10
0.5316532872570694
 20
0.3589095800768056
 30
0.0
  0
SPLINE
  5
E54
330
1F
100
AcDbEntity
  8
0
100
AcDbSpline
210
0.0
220
0.0
230
1.0
 70
     8
 71
     3
 72
    61
 73
    57
 74
     0
 42
0.0000000001
 43
0.0000000001
 40
0.0
 40
0.0
 40
0.0
 40
0.0
 40
0.0087060939600458
 40
0.0242166352931426
 40
0.0422716846703846
 40
0.0606247257640667
 40
0.0789777786907876
 40
0.0976383381951635
 40
0.1164080188395437
 40
0.1355131746861815
 40
0.1546183243829196
 40
0.1740708160362186
 40
0.1928468764817242
 40
0.2119590525846956
 40
0.2310712219083133
 40
0.2505313298350326
 40
0.2693016505119923
 40
0.2884074888892391
 40
0.3075133278407216
 40
0.3269664702716265
 40
0.345743992644597
 40
0.3646519858724898
 40
0.383971547189995
 40
0.4034333474947611
 40
0.4222037592162826
 40
0.4413098334687157
 40
0.460415914992513
 40
0.4798693722926365
 40
0.4986448025632981
 40
0.5177561721926443
 40
0.5368675285627845
 40
0.5563268092200529
 40
0.575097194871877
 40
0.5942034984674608
 40
0.6133098157031684
 40
0.6327637095070093
 40
0.6515337688067956
 40
0.6706393311890132
 40
0.6897448867286961
 40
0.7091978224765154
 40
0.7342854906392585
 40
0.7523405400317031
 40
0.7706935811663123
 40
0.7890466341332311
 40
0.8077071936758397
 40
0.8264768739130891
 40
0.845582029338551
 40
0.8646871786131789
 40
0.884139669841236
 40
0.9029157298315695
 40
0.9220279054518744
 40
0.9411400742949926
 40
0.960600181703162
 40
0.9793705024535128
 40
0.998476340897773
 40
1.0
 40
1.0
 40
1.0
 40
1.0
 10
0.5004563891431089
 20
0.4280251005640377
 30
0.0
 10
0.5004302370608127
 20
0.428810466949672
 30
0.0
 10
0.500357493136611
 20
0.4309950208287912
 30
0.0
 10
0.5004896145742868
 20
0.4346760549033551
 30
0.0
 10
0.5008869113029146
 20
0.4390584245828649
 30
0.0
 10
0.5016457331088404
 20
0.443466500321655
 30
0.0
 10
0.5027324595847162
 20
0.4476839903948296
 30
0.0
 10
0.504152039926572
 20
0.4516587496056255
 30
0.0
 10
0.5059109971509585
 20
0.4553799257518641
 30
0.0
 10
0.5079997950940129
 20
0.4587897942507702
 30
0.0
 10
0.5104190085401685
 20
0.4618706012821371
 30
0.0
 10
0.5131159698432592
 20
0.4645383711506275
 30
0.0
 10
0.5160808827713874
 20
0.4667958813647165
 30
0.0
 10
0.5192752709768984
 20
0.4686196663756073
 30
0.0
 10
0.5227492383033472
 20
0.4700338443752095
 30
0.0
 10
0.5264271695519842
 20
0.470997326279332
 30
0.0
 10
0.5302960068848439
 20
0.4715152498446321
 30
0.0
 10
0.5343045210583333
 20
0.4715867353372677
 30
0.0
 10
0.5384978742808564
 20
0.4712088478498407
 30
0.0
 10
0.5427759511497963
 20
0.4703812294168842
 30
0.0
 10
0.5471147101603979
 20
0.469117125624665
 30
0.0
 10
0.5514891878688275
 20
0.4674328277261351
 30
0.0
 10
0.5559277816978902
 20
0.4653029846603703
 30
0.0
 10
0.5603546260868246
 20
0.4627758867808359
 30
0.0
 10
0.5647350619849469
 20
0.4598841115009183
 30
0.0
 10
0.569027860110592
 20
0.4566601722097257
 30
0.0
 10
0.5732801626226476
 20
0.4530658325515978
 30
0.0
 10
0.5773850074830202
 20
0.4491825188027362
 30
0.0
 10
0.5813387392973601
 20
0.4450215352631071
 30
0.0
 10
0.5850918311623146
 20
0.4406393521141564
 30
0.0
 10
0.588684073707791
 20
0.4359870993230473
 30
0.0
 10
0.5920186956385545
 20
0.4311736357289096
 30
0.0
 10
0.5951058336419506
 20
0.4262169460934223
 30
0.0
 10
0.5979214165483146
 20
0.4211915956144948
 30
0.0
 10
0.6004909854595131
 20
0.4160392099470956
 30
0.0
 10
0.6027458149648865
 20
0.4108866455617911
 30
0.0
 10
0.6046879433829508
 20
0.4057417919427796
 30
0.0
 10
0.6062960186966102
 20
0.4006709853000262
 30
0.0
 10
0.6075846399739426
 20
0.3956189534094709
 30
0.0
 10
0.608618013011806
 20
0.3901731536857003
 30
0.0
 10
0.6091809901056184
 20
0.3850046814290262
 30
0.0
 10
0.6093091544978606
 20
0.3801725570277987
 30
0.0
 10
0.6091161009158814
 20
0.3760880597607643
 30
0.0
 10
0.6086073295236505
 20
0.372205140435846
 30
0.0
 10
0.6077786765105062
 20
0.3685713751351656
 30
0.0
 10
0.6066215983639422
 20
0.3651978131196596
 30
0.0
 10
0.6051387740197385
 20
0.362137841493533
 30
0.0
 10
0.6033275598821899
 20
0.3594081468961636
 30
0.0
 10
0.6012259722556374
 20
0.357084117933282
 30
0.0
 10
0.5988415863182992
 20
0.3551620674864162
 30
0.0
 10
0.5962111652472626
 20
0.3536631081016528
 30
0.0
 10
0.5933181410127564
 20
0.3525876035969071
 30
0.0
 10
0.5902405797258849
 20
0.351958808257901
 30
0.0
 10
0.5869659264602849
 20
0.3518276797393776
 30
0.0
 10
0.5846412658103814
 20
0.3519225855411105
 30
0.0
 10
0.5833606141514054
 20
0.3521898138230515
 30
0.0
 10
0.5832660274290407
 20
0.3522095508429774
 30
0.0
  0
SPLINE
  5
E55
330
1F
100
AcDbEntity
  8
0
100
AcDbSpline
210
0.0
220
0.0
230
1.0
 70
     8
 71
     3
 72
    52
 73
    48
 74
     0
 42
0.0000000001
 43
0.0000000001
 40
0.0
 40
0.0
 40
0.0
 40
0.0
 40
0.0131105175682373
 40
0.0362649022593956
 40
0.05861412791402
 40
0.0811187136271114
 40
0.1041128830075325
 40
0.127276333270916
 40
0.1496187274832928
 40
0.1723604898621628
 40
0.1951022529234147
 40
0.2182574128286412
 40
0.2406083792169254
 40
0.2631146456483855
 40
0.2861108033488573
 40
0.3092762687363043
 40
0.331618771123851
 40
0.3543608140377464
 40
0.3771028656056746
 40
0.4002584000375869
 40
0.4226068767794979
 40
0.4453552236672479
 40
0.4681035547714746
 40
0.4912660217513754
 40
0.513608492061655
 40
0.5363508069261118
 40
0.5590931380254406
 40
0.5822491909504169
 40
0.6045912735274668
 40
0.6273327068675422
 40
0.6500741320618136
 40
0.6732290454266181
 40
0.7030868846689819
 40
0.7245778882812726
 40
0.7464235927568863
 40
0.7682693113165503
 40
0.7904810562871829
 40
0.8128226880944435
 40
0.8355636374734954
 40
0.8583045795311841
 40
0.8814589642227675
 40
0.9038081898778468
 40
0.9263127755914121
 40
0.9493069449723215
 40
0.9724703952362233
 40
0.9948127894485271
 40
1.0
 40
1.0
 40
1.0
 40
1.0
 10
0.5311651936127169
 20
0.4727805633823426
 30
0.0
 10
0.5316180346800199
 20
0.4733799284217833
 30
0.0
 10
0.5328706348889229
 20
0.4750378274680943
 30
0.0
 10
0.5352217645789594
 20
0.4772844687351795
 30
0.0
 10
0.5381663199704099
 20
0.4795475145960129
 30
0.0
 10
0.5413591572485006
 20
0.4813692208161856
 30
0.0
 10
0.5448342714134491
 20
0.4827873303010833
 30
0.0
 10
0.5485248142262959
 20
0.4837537473120105
 30
0.0
 10
0.552393845628391
 20
0.4842717044192318
 30
0.0
 10
0.5564023435573999
 20
0.4843430779249765
 30
0.0
 10
0.5605957308524083
 20
0.4839651169382674
 30
0.0
 10
0.5648738211899575
 20
0.4831374156112254
 30
0.0
 10
0.5692125920991373
 20
0.4818732334034886
 30
0.0
 10
0.5735870750229541
 20
0.4801888583334505
 30
0.0
 10
0.5780256689303427
 20
0.4780589399609008
 30
0.0
 10
0.5824525114942027
 20
0.4755317726245999
 30
0.0
 10
0.5868329388389075
 20
0.4726399309900885
 30
0.0
 10
0.5911257231825584
 20
0.4694159298739054
 30
0.0
 10
0.5953780061507212
 20
0.4658215320260187
 30
0.0
 10
0.599482826202766
 20
0.4619381652528201
 30
0.0
 10
0.6034365280867899
 20
0.4577771338295456
 30
0.0
 10
0.6071895851966176
 20
0.4533949083896223
 30
0.0
 10
0.6107817882171747
 20
0.4487426189016269
 30
0.0
 10
0.6141163646523211
 20
0.4439291240175692
 30
0.0
 10
0.6172034586408659
 20
0.4389724135169411
 30
0.0
 10
0.6200189926179116
 20
0.4339470479088304
 30
0.0
 10
0.6225885089431851
 20
0.428794653787606
 30
0.0
 10
0.6248432829947605
 20
0.4236420875812728
 30
0.0
 10
0.6267853533402221
 20
0.4184972387397091
 30
0.0
 10
0.6283933686919563
 20
0.4134264432807971
 30
0.0
 10
0.6296819274176431
 20
0.4083744293285435
 30
0.0
 10
0.6307151736275334
 20
0.4029289524442542
 30
0.0
 10
0.6312780840242331
 20
0.3977607869910746
 30
0.0
 10
0.6314062414688693
 20
0.3929289344076714
 30
0.0
 10
0.6312131878092624
 20
0.388844437157897
 30
0.0
 10
0.6307044167867668
 20
0.3849615177444059
 30
0.0
 10
0.6298757626497686
 20
0.3813277525345613
 30
0.0
 10
0.6287186889847167
 20
0.3779541899633194
 30
0.0
 10
0.6272358478442854
 20
0.3748942202019518
 30
0.0
 10
0.6254246972247099
 20
0.3721645183175244
 30
0.0
 10
0.6233228714399754
 20
0.3698405164252188
 30
0.0
 10
0.6209478991435786
 20
0.3679252589445017
 30
0.0
 10
0.618315637688774
 20
0.3664244319546073
 30
0.0
 10
0.6154295534579044
 20
0.3653381379646745
 30
0.0
 10
0.6123272496746861
 20
0.3647469858321608
 30
0.0
 10
0.6099302533469066
 20
0.3645403323150853
 30
0.0
 10
0.6085458291433012
 20
0.3646681491916366
 30
0.0
 10
0.6082849717899805
 20
0.364692232830192
 30
0.0
  0
SPLINE
  5
E56
330
1F
100
AcDbEntity
  8
0
100
AcDbSpline
210
0.0
220
0.0
230
1.0
 70
     8
 71
     3
 72
    52
 73
    48
 74
     0
 42
0.0000000001
 43
0.0000000001
 40
0.0
 40
0.0
 40
0.0
 40
0.0
 40
0.0131105176157029
 40
0.0362649022966605
 40
0.0586141279414388
 40
0.0811187136446158
 40
0.1041128830149074
 40
0.1272763332680862
 40
0.1496187274706203
 40
0.1723604898394717
 40
0.1951022528907049
 40
0.2182574127857306
 40
0.2406083791641683
 40
0.2631146455857132
 40
0.2861108032760542
 40
0.3092762686532958
 40
0.3316187710309999
 40
0.3543608139348762
 40
0.3771028654927852
 40
0.4002583999144964
 40
0.422606876646562
 40
0.4453552235242902
 40
0.4681035546184952
 40
0.4912660215881925
 40
0.5136084918886287
 40
0.5363508067430668
 40
0.559093137832377
 40
0.5822491907471518
 40
0.6045912733143592
 40
0.6273327066444161
 40
0.6500741318286689
 40
0.6732290451832727
 40
0.7030868913380813
 40
0.7245778949409173
 40
0.7464235994069042
 40
0.7682693179569399
 40
0.7904810629177466
 40
0.8128226947157919
 40
0.8355636440855048
 40
0.8583045861338524
 40
0.8814589708159898
 40
0.9038081964603133
 40
0.926312782163016
 40
0.9493069515328185
 40
0.9724704017854786
 40
0.9948127959880858
 40
1.0
 40
1.0
 40
1.0
 40
1.0
 10
0.5532622805191683
 20
0.485536940122408
 30
0.0
 10
0.5537151215882885
 20
0.4861363051643116
 30
0.0
 10
0.5549677217989706
 20
0.4877942042131361
 30
0.0
 10
0.557318851491001
 20
0.4900408454824497
 30
0.0
 10
0.5602634068824941
 20
0.4923038913432272
 30
0.0
 10
0.5634562441605733
 20
0.4941255975634159
 30
0.0
 10
0.5669313583255244
 20
0.4955437070483109
 30
0.0
 10
0.5706219011383704
 20
0.496510124059239
 30
0.0
 10
0.5744909325404646
 20
0.4970280811664612
 30
0.0
 10
0.5784994304694735
 20
0.4970994546722059
 30
0.0
 10
0.5826928177644828
 20
0.4967214936854976
 30
0.0
 10
0.5869709081020302
 20
0.4958937923584575
 30
0.0
 10
0.59130967901121
 20
0.4946296101507207
 30
0.0
 10
0.5956841619350268
 20
0.4929452350806825
 30
0.0
 10
0.6001227558424162
 20
0.4908153167081347
 30
0.0
 10
0.6045495984062754
 20
0.4882881493718328
 30
0.0
 10
0.6089300257509802
 20
0.4853963077373232
 30
0.0
 10
0.6132228100946329
 20
0.4821723066211402
 30
0.0
 10
0.6174750930627948
 20
0.4785779087732543
 30
0.0
 10
0.6215799131148387
 20
0.4746945420000558
 30
0.0
 10
0.6255336149988635
 20
0.4705335105767812
 30
0.0
 10
0.6292866721086912
 20
0.4661512851368589
 30
0.0
 10
0.63287887512925
 20
0.4614989956488634
 30
0.0
 10
0.6362134515643956
 20
0.4566855007648057
 30
0.0
 10
0.6393005455529404
 20
0.4517287902641776
 30
0.0
 10
0.6421160795299869
 20
0.4467034246560687
 30
0.0
 10
0.6446855958552604
 20
0.4415510305348425
 30
0.0
 10
0.6469403699068394
 20
0.4363984643285138
 30
0.0
 10
0.6488824402522904
 20
0.4312536154869349
 30
0.0
 10
0.6504904556040671
 20
0.4261828200280789
 30
0.0
 10
0.6517790143295967
 20
0.4211308060756139
 30
0.0
 10
0.6528122606346012
 20
0.4156853286943683
 30
0.0
 10
0.6533751710215878
 20
0.4105171627814411
 30
0.0
 10
0.6535033283688458
 20
0.405685309815495
 30
0.0
 10
0.6533102746099531
 20
0.4016008126390281
 30
0.0
 10
0.6528015034883492
 20
0.3977178933084537
 30
0.0
 10
0.6519728492527783
 20
0.3940841281899086
 30
0.0
 10
0.6508157754899664
 20
0.3907105657186765
 30
0.0
 10
0.6493329342538303
 20
0.3876505960650636
 30
0.0
 10
0.6475217835408726
 20
0.3849208942959332
 30
0.0
 10
0.6454199576678612
 20
0.3825968925241916
 30
0.0
 10
0.6430449852873166
 20
0.3806816351672564
 30
0.0
 10
0.6404127237579245
 20
0.3791808083084376
 30
0.0
 10
0.6375266394628316
 20
0.3780945144509127
 30
0.0
 10
0.6344243356152559
 20
0.3775033624705448
 30
0.0
 10
0.6320273395702058
 20
0.3772967090423316
 30
0.0
 10
0.6306429156825068
 20
0.3774245259289486
 30
0.0
 10
0.6303820586555171
 20
0.3774486095447675
 30
0.0
  0
SPLINE
  5
E57
330
1F
100
AcDbEntity
  8
0
100
AcDbSpline
210
0.0
220
0.0
230
1.0
 70
     8
 71
     3
 72
    52
 73
    48
 74
     0
 42
0.0000000001
 43
0.0000000001
 40
0.0
 40
0.0
 40
0.0
 40
0.0
 40
0.0131105176182086
 40
0.0362649023036526
 40
0.0586141279527613
 40
0.0811187136602997
 40
0.1041128830350464
 40
0.1272763332927139
 40
0.1496187274995772
 40
0.1723604898728351
 40
0.1951022529284747
 40
0.2182574128279869
 40
0.2406083792107559
 40
0.2631146456366618
 40
0.286110803331459
 40
0.3092762687131895
 40
0.331618771095223
 40
0.3543608140035062
 40
0.377102865565822
 40
0.4002583999920201
 40
0.4226068767284163
 40
0.4453552236105521
 40
0.4681035547091645
 40
0.4912660216833499
 40
0.513608491988116
 40
0.5363508068469605
 40
0.559093137940677
 40
0.5822491908599391
 40
0.604591273431476
 40
0.6273327067659396
 40
0.6500741319545988
 40
0.6732290453136894
 40
0.7030868880115352
 40
0.7245778916185378
 40
0.7464235960888014
 40
0.7682693146431143
 40
0.7904810596083043
 40
0.8128226914096451
 40
0.8355636407826636
 40
0.858304582834318
 40
0.8814589675197629
 40
0.9038081931688724
 40
0.9263127788764098
 40
0.9493069482511568
 40
0.9724703985088245
 40
0.9948127927156878
 40
1.0
 40
1.0
 40
1.0
 40
1.0
 10
0.575359367431248
 20
0.4982933168696383
 30
0.0
 10
0.5758122085003683
 20
0.4988926819115401
 30
0.0
 10
0.5770648087110477
 20
0.5005505809603628
 30
0.0
 10
0.5794159384030773
 20
0.5027972222296765
 30
0.0
 10
0.5823604937945694
 20
0.5050602680904549
 30
0.0
 10
0.5855533310726477
 20
0.5068819743106435
 30
0.0
 10
0.589028445237598
 20
0.5083000837955386
 30
0.0
 10
0.592718988050444
 20
0.5092665008064675
 30
0.0
 10
0.5965880194525381
 20
0.5097844579136915
 30
0.0
 10
0.6005965173815471
 20
0.5098558314194362
 30
0.0
 10
0.6047899046765564
 20
0.5094778704327288
 30
0.0
 10
0.6090679950141047
 20
0.5086501691056887
 30
0.0
 10
0.6134067659232845
 20
0.5073859868979528
 30
0.0
 10
0.6177812488470995
 20
0.5057016118279155
 30
0.0
 10
0.6222198427544889
 20
0.5035716934553668
 30
0.0
 10
0.6266466853183481
 20
0.5010445261190667
 30
0.0
 10
0.6310271126630547
 20
0.498152684484557
 30
0.0
 10
0.6353198970067055
 20
0.4949286833683749
 30
0.0
 10
0.6395721799748693
 20
0.4913342855204891
 30
0.0
 10
0.6436770000269123
 20
0.4874509187472923
 30
0.0
 10
0.6476307019109371
 20
0.4832898873240178
 30
0.0
 10
0.6513837590207656
 20
0.4789076618840954
 30
0.0
 10
0.6549759620413245
 20
0.4742553723960999
 30
0.0
 10
0.6583105384764709
 20
0.4694418775120431
 30
0.0
 10
0.6613976324650166
 20
0.4644851670114159
 30
0.0
 10
0.6642131664420623
 20
0.4594598014033052
 30
0.0
 10
0.6667826827673366
 20
0.4543074072820808
 30
0.0
 10
0.6690374568189139
 20
0.4491548410757494
 30
0.0
 10
0.6709795271643719
 20
0.4440099922341786
 30
0.0
 10
0.6725875425161283
 20
0.4389391967752941
 30
0.0
 10
0.6738761012417369
 20
0.4338871828229348
 30
0.0
 10
0.6749093474991856
 20
0.4284417056901633
 30
0.0
 10
0.6754722578910306
 20
0.4232735400071047
 30
0.0
 10
0.6756004152869768
 20
0.4184416872324242
 30
0.0
 10
0.6754073615777261
 20
0.4143571900192978
 30
0.0
 10
0.6748985905056746
 20
0.410474270647258
 30
0.0
 10
0.6740699363193958
 20
0.4068405054830978
 30
0.0
 10
0.6729128626054914
 20
0.4034669429619296
 30
0.0
 10
0.6714300214172708
 20
0.400406973254526
 30
0.0
 10
0.6696188707510882
 20
0.3976772714278114
 30
0.0
 10
0.6675170449222956
 20
0.3953532695957971
 30
0.0
 10
0.6651420725838879
 20
0.3934380121769425
 30
0.0
 10
0.6625098110918197
 20
0.3919371852525317
 30
0.0
 10
0.6596237268288665
 20
0.3908508913287469
 30
0.0
 10
0.6565214230134961
 20
0.3902597392722435
 30
0.0
 10
0.654124426826961
 20
0.3900530857995619
 30
0.0
 10
0.652740002781176
 20
0.390180902681142
 30
0.0
 10
0.6524791455908832
 20
0.3902049863083385
 30
0.0
  0
SPLINE
  5
E58
330
1F
100
AcDbEntity
  8
0
100
AcDbSpline
210
0.0
220
0.0
230
1.0
 70
     8
 71
     3
 72
    52
 73
    48
 74
     0
 42
0.0000000001
 43
0.0000000001
 40
0.0
 40
0.0
 40
0.0
 40
0.0
 40
0.0131105158096432
 40
0.0362648973008731
 40
0.0586141198668416
 40
0.081118702469806
 40
0.1041128686724401
 40
0.127276315734643
 40
0.1496187068593085
 40
0.1723604660952742
 40
0.1951022260136216
 40
0.218257382718813
 40
0.2406083460182006
 40
0.263114609339302
 40
0.2861107638617131
 40
0.3092762260477005
 40
0.3316187253475208
 40
0.3543607651184732
 40
0.377102813543457
 40
0.400258344775282
 40
0.4226068184286408
 40
0.4451104438225237
 40
0.4681036282793888
 40
0.491266092058245
 40
0.5136085592808023
 40
0.5363508710022791
 40
0.5590931989586259
 40
0.5822492486834424
 40
0.6045913281728234
 40
0.6273327583700406
 40
0.6500741804214544
 40
0.6732290905862581
 40
0.7030869257022783
 40
0.7245779263445195
 40
0.7464236278010638
 40
0.7682693433416562
 40
0.7904810852426336
 40
0.8128227139622886
 40
0.8355636601985489
 40
0.8583045991134467
 40
0.881458980605101
 40
0.9038082031715251
 40
0.9263127857749635
 40
0.9493069519780863
 40
0.9724703990408062
 40
0.9948127901653986
 40
0.9999999999999998
 40
0.9999999999999998
 40
0.9999999999999998
 40
0.9999999999999998
 10
0.5974564543433278
 20
0.5110496936168677
 30
0.0
 10
0.5979092954124499
 20
0.5116490586587722
 30
0.0
 10
0.5991618956231328
 20
0.5133069577075985
 30
0.0
 10
0.601513025315165
 20
0.5155535989769139
 30
0.0
 10
0.6044575807066572
 20
0.5178166448376896
 30
0.0
 10
0.6076504179847373
 20
0.5196383510578782
 30
0.0
 10
0.6111255321496884
 20
0.5210564605427715
 30
0.0
 10
0.6148160749625371
 20
0.522022877553704
 30
0.0
 10
0.6186851063646197
 20
0.5225408346609076
 30
0.0
 10
0.6226936042936748
 20
0.5226122081667198
 30
0.0
 10
0.6268869915885118
 20
0.5222342471797531
 30
0.0
 10
0.6311650819267058
 20
0.5214065458536819
 30
0.0
 10
0.6355038528335426
 20
0.5201423636424208
 30
0.0
 10
0.6398783357661613
 20
0.5184579885856174
 30
0.0
 10
0.6443169296398665
 20
0.5163280701624185
 30
0.0
 10
0.648743772329379
 20
0.5138009030150588
 30
0.0
 10
0.65312419921791
 20
0.5109090606946081
 30
0.0
 10
0.6574169852802252
 20
0.5076850621627454
 30
0.0
 10
0.6616692617695838
 20
0.5040906545728097
 30
0.0
 10
0.6657741061360325
 20
0.5002073243606978
 30
0.0
 10
0.6697135438197421
 20
0.4960610796216559
 30
0.0
 10
0.6734679007105309
 20
0.491680678514874
 30
0.0
 10
0.6770610063131912
 20
0.4870289151562338
 30
0.0
 10
0.6804076460194655
 20
0.4821982806461829
 30
0.0
 10
0.6834947138250087
 20
0.4772415366575008
 30
0.0
 10
0.6863102548521909
 20
0.4722161800665131
 30
0.0
 10
0.6888797692694235
 20
0.4670637835049048
 30
0.0
 10
0.6911345438373095
 20
0.4619112179589323
 30
0.0
 10
0.6930766140478497
 20
0.4567663689448061
 30
0.0
 10
0.6946846294359112
 20
0.4516955735323539
 30
0.0
 10
0.6959731881517881
 20
0.4466435595675556
 30
0.0
 10
0.6970064343645286
 20
0.4411980826869114
 30
0.0
 10
0.6975693447603171
 20
0.4360299172325649
 30
0.0
 10
0.697697502205145
 20
0.4311980646494077
 30
0.0
 10
0.6975044485454911
 20
0.4271135673995737
 30
0.0
 10
0.6969956775230079
 20
0.4232306479860986
 30
0.0
 10
0.6961670233860062
 20
0.4195968827762496
 30
0.0
 10
0.695009949720957
 20
0.4162233202050095
 30
0.0
 10
0.6935271085805248
 20
0.413163350443641
 30
0.0
 10
0.6917159579609493
 20
0.4104336485592145
 30
0.0
 10
0.6896141321762139
 20
0.4081096466669088
 30
0.0
 10
0.687239159879818
 20
0.4061943891861909
 30
0.0
 10
0.6846068984250124
 20
0.4046935621962965
 30
0.0
 10
0.6817208141941429
 20
0.4036072682063646
 30
0.0
 10
0.6786185104109255
 20
0.4030161160738509
 30
0.0
 10
0.6762215140831451
 20
0.4028094625567745
 30
0.0
 10
0.6748370898795397
 20
0.4029372794333267
 30
0.0
 10
0.674576232526219
 20
0.4029613630718821
 30
0.0
  0
SPLINE
  5
E59
330
1F
100
AcDbEntity
  8
0
100
AcDbSpline
210
0.0
220
0.0
230
1.0
 70
     8
 71
     3
 72
    52
 73
    48
 74
     0
 42
0.0000000001
 43
0.0000000001
 40
0.0
 40
0.0
 40
0.0
 40
0.0
 40
0.0131105158045312
 40
0.0362648972867936
 40
0.0586141198441074
 40
0.0811187024383565
 40
0.1041128686320863
 40
0.1272763156853184
 40
0.1496187068013312
 40
0.1723604660284903
 40
0.1951022259380311
 40
0.2182573826342542
 40
0.2406083459249864
 40
0.2631146092373722
 40
0.2861107637508768
 40
0.3092762259278934
 40
0.3316187252190606
 40
0.3543607649812059
 40
0.3771028133973828
 40
0.4002583446202403
 40
0.4226068182649443
 40
0.4451104436501123
 40
0.4681036280980731
 40
0.4912660918679583
 40
0.5136085590818628
 40
0.5363508707945321
 40
0.5590931987420711
 40
0.5822492484579211
 40
0.6045913279386498
 40
0.6273327581270597
 40
0.6500741801696661
 40
0.6732290903255019
 40
0.703086932355558
 40
0.7245779329894898
 40
0.746423634437571
 40
0.7682693499696991
 40
0.7904810918620333
 40
0.8128227205736628
 40
0.8355636668017952
 40
0.8583046057085635
 40
0.8814589871920068
 40
0.9038082097488643
 40
0.9263127923426402
 40
0.949306958535881
 40
0.972470405588594
 40
0.9948127967046799
 40
0.9999999999999998
 40
0.9999999999999998
 40
0.9999999999999998
 40
0.9999999999999998
 10
0.6195535412554076
 20
0.523806070364098
 30
0.0
 10
0.6200063823245279
 20
0.5244054354060007
 30
0.0
 10
0.6212589825352099
 20
0.5260633344548252
 30
0.0
 10
0.6236101122272395
 20
0.5283099757241397
 30
0.0
 10
0.6265546676187326
 20
0.5305730215849172
 30
0.0
 10
0.6297475048968126
 20
0.532394727805105
 30
0.0
 10
0.633222619061762
 20
0.5338128372899991
 30
0.0
 10
0.6369131618746124
 20
0.5347792543009325
 30
0.0
 10
0.6407821932766933
 20
0.535297211408137
 30
0.0
 10
0.6447906912057484
 20
0.5353685849139501
 30
0.0
 10
0.6489840785005863
 20
0.5349906239269833
 30
0.0
 10
0.6532621688387794
 20
0.5341629226009131
 30
0.0
 10
0.6576009397456153
 20
0.5328987403896529
 30
0.0
 10
0.6619754226782348
 20
0.5312143653328504
 30
0.0
 10
0.6664140165519401
 20
0.5290844469096524
 30
0.0
 10
0.6708408592414516
 20
0.5265572797622936
 30
0.0
 10
0.6752212861299835
 20
0.523665437441842
 30
0.0
 10
0.6795140721922988
 20
0.5204414389099802
 30
0.0
 10
0.6837663486816565
 20
0.5168470313200454
 30
0.0
 10
0.6878711930481069
 20
0.5129637011079343
 30
0.0
 10
0.6918106307318166
 20
0.5088174563688924
 30
0.0
 10
0.6955649876226044
 20
0.5044370552621106
 30
0.0
 10
0.6991580932252657
 20
0.4997852919034703
 30
0.0
 10
0.7025047329315399
 20
0.4949546573934203
 30
0.0
 10
0.705591800737084
 20
0.4899979134047382
 30
0.0
 10
0.7084073417642662
 20
0.4849725568137514
 30
0.0
 10
0.7109768561814989
 20
0.4798201602521404
 30
0.0
 10
0.7132316307493876
 20
0.4746675947061732
 30
0.0
 10
0.7151737009599179
 20
0.4695227456920311
 30
0.0
 10
0.7167817163480212
 20
0.4644519502796357
 30
0.0
 10
0.7180702750637427
 20
0.459399936314626
 30
0.0
 10
0.7191035213715973
 20
0.4539544589370255
 30
0.0
 10
0.7196664317576717
 20
0.4487862930229304
 30
0.0
 10
0.7197945891051225
 20
0.4439544400572303
 30
0.0
 10
0.7196015353461818
 20
0.4398699428807048
 30
0.0
 10
0.7190927642245903
 20
0.4359870235501456
 30
0.0
 10
0.7182641099890177
 20
0.4323532584315969
 30
0.0
 10
0.7171070362262049
 20
0.4289796959603665
 30
0.0
 10
0.7156241949900697
 20
0.4259197263067536
 30
0.0
 10
0.713813044277112
 20
0.4231900245376224
 30
0.0
 10
0.7117112184041006
 20
0.4208660227658808
 30
0.0
 10
0.709336246023555
 20
0.4189507654089456
 30
0.0
 10
0.7067039844941638
 20
0.4174499385501277
 30
0.0
 10
0.703817900199071
 20
0.4163636446926028
 30
0.0
 10
0.7007155963514944
 20
0.4157724927122349
 30
0.0
 10
0.6983186003064452
 20
0.4155658392840208
 30
0.0
 10
0.6969341764187462
 20
0.4156936561706387
 30
0.0
 10
0.6966733193917565
 20
0.4157177397864576
 30
0.0
  0
SPLINE
  5
E5A
330
1F
100
AcDbEntity
  8
0
100
AcDbSpline
210
0.0
220
0.0
230
1.0
 70
     8
 71
     3
 72
    23
 73
    19
 74
     0
 42
0.0000000001
 43
0.0000000001
 40
0.0
 40
0.0
 40
0.0
 40
0.0
 40
0.0378408665006198
 40
0.1046713308118753
 40
0.1691778658555809
 40
0.2341328163929869
 40
0.3005008515035081
 40
0.3673574817616936
 40
0.4318442992243254
 40
0.4974838124011362
 40
0.5631233275475044
 40
0.6299560293579127
 40
0.6944675886784536
 40
0.7594273902706657
 40
0.8258011642662328
 40
0.8926636107738506
 40
0.9463317953555881
 40
1.0
 40
1.0
 40
1.0
 40
1.0
 10
0.6416506281674874
 20
0.5365624471113274
 30
0.0
 10
0.6421034692366103
 20
0.537161812153247
 30
0.0
 10
0.6433560694473013
 20
0.5388197112021186
 30
0.0
 10
0.6457071991392109
 20
0.5410663524708575
 30
0.0
 10
0.6486517545311801
 20
0.5433293983339514
 30
0.0
 10
0.6518445918074776
 20
0.5451511045454723
 30
0.0
 10
0.6553197059792384
 20
0.5465692140635293
 30
0.0
 10
0.6590102487666816
 20
0.5475356309507518
 30
0.0
 10
0.6628792802610059
 20
0.5480535885071152
 30
0.0
 10
0.6668877778425266
 20
0.548124960320682
 30
0.0
 10
0.6710811664474499
 20
0.5477470057129129
 30
0.0
 10
0.675359251868809
 20
0.5469192804453379
 30
0.0
 10
0.6796980406192337
 20
0.5456551851197283
 30
0.0
 10
0.6840724565381484
 20
0.5439704837535969
 30
0.0
 10
0.6885113068627888
 20
0.5418418140650248
 30
0.0
 10
0.6926950190725016
 20
0.5394485240193524
 30
0.0
 10
0.6965735790404326
 20
0.5369318881439459
 30
0.0
 10
0.6989289423909464
 20
0.5351818124537101
 30
0.0
 10
0.7001066242863294
 20
0.534306774445035
 30
0.0
  0
LWPOLYLINE
  5
E5B
330
1F
100
AcDbEntity
  8
0
100
AcDbPolyline
 90
       51
 70
   128
 43
0.0
 10
0.5391166433642047
 20
0.4474023924474409
 10
0.5416730180726204
 20
0.4458338581957876
 10
0.5442193039417165
 20
0.4440859731399279
 10
0.5467454519482084
 20
0.4421656353810687
 10
0.5492414925437192
 20
0.4400804236121985
 10
0.5516975750000317
 20
0.4378385672084518
 10
0.5541040062853846
 20
0.4354489137495471
 10
0.5564512893184335
 20
0.4329208941024366
 10
0.5587301604488764
 20
0.4302644852020013
 10
0.5609316260168342
 20
0.4274901706766599
 10
0.5630469978467103
 20
0.4246088994742932
 10
0.5650679275354264
 20
0.4216320426517662
 10
0.5669864393997568
 20
0.4185713484985748
 10
0.5687949619526809
 20
0.415438896171734
 10
0.5704863577845833
 20
0.4122470480248824
 10
0.5720539517313317
 20
0.4090084008197382
 10
0.5734915572180921
 20
0.4057357360124499
 10
0.5747935006749085
 20
0.4024419693110549
 10
0.5759546439276735
 20
0.3991400997030909
 10
0.576970404476157
 20
0.3958431581545561
 10
0.5778367735790246
 20
0.392564156182656
 10
0.578550332074512
 20
0.3893160345053113
 10
0.5791082638742815
 20
0.3861116119700705
 10
0.579508367077237
 20
0.3829635349639993
 10
0.5797490626594153
 20
0.3798842275041829
 10
0.5798294007056699
 20
0.3768858422058272
 10
0.5797490641585556
 20
0.3739802123214566
 10
0.5795083700696033
 20
0.3711788050404887
 10
0.5791082683480637
 20
0.3684926762334919
 10
0.5785503380120531
 20
0.3659324268197357
 10
0.5778367809568936
 20
0.3635081609302186
 10
0.576970413265234
 20
0.3612294460312924
 10
0.5759546540932752
 20
0.3591052751662616
 10
0.574793512176915
 20
0.3571440314639582
 10
0.5734915700111103
 20
0.3553534550543815
 10
0.5720539657648713
 20
0.3537406125219442
 10
0.5704863730032621
 20
0.3523118690169091
 10
0.5687949782964374
 20
0.3510728631350533
 10
0.5669864568040908
 20
0.3500284846647215
 10
0.5650679459316505
 20
0.3491828552890659
 10
0.5630470171622213
 20
0.3485393123196541
 10
0.560931646175405
 20
0.348100395525633
 10
0.5587301813709484
 20
0.3478678371104189
 10
0.5564513109214382
 20
0.3478425548754893
 10
0.5541040284840639
 20
0.3480246485982368
 10
0.5516975977067784
 20
0.3484133996381959
 10
0.5492415156689196
 20
0.3490072737731908
 10
0.5467454754005978
 20
0.3498039272541991
 10
0.5442193276287404
 20
0.3508002160550603
 10
0.5416730419007953
 20
0.3519922082805083
 10
0.5391166672412917
 20
0.3533751996884973
  0
ARC
  5
E5C
330
1F
100
AcDbEntity
  8
0
100
AcDbCircle
 10
0.5173261746977007
 20
0.4106671769434572
 30
0.0
 40
0.0427118318833321
100
AcDbArc
 50
59.32457553794282
 51
76.69970422500509
  0
SPLINE
  5
E5D
330
1F
100
AcDbEntity
  8
0
100
AcDbSpline
210
0.0
220
0.0
230
1.0
 70
     8
 71
     3
 72
    49
 73
    45
 74
     0
 42
0.0000000001
 43
0.0000000001
 40
0.0
 40
0.0
 40
0.0
 40
0.0
 40
0.0218756721277434
 40
0.0441423895882178
 40
0.0664091071018283
 40
0.0890797702338609
 40
0.1110458174111063
 40
0.1333748351494442
 40
0.1557038528602017
 40
0.1784076333074338
 40
0.2012262756426173
 40
0.2244531267215764
 40
0.2476799778379832
 40
0.2713294102096669
 40
0.2941480591699388
 40
0.3173559859647659
 40
0.3405642144447829
 40
0.3641655213299002
 40
0.3876617566440848
 40
0.411568580552105
 40
0.4354754044724633
 40
0.4598069337954668
 40
0.4835686690103988
 40
0.5077510727537908
 40
0.5319345420682396
 40
0.5565447938672204
 40
0.5806297473141325
 40
0.6051233185340256
 40
0.6296168897436122
 40
0.6545327132137793
 40
0.6792376502128427
 40
0.7043845396674591
 40
0.7295314291579482
 40
0.7551358317021048
 40
0.7798394246191825
 40
0.8047023469968518
 40
0.8300653754204715
 40
0.8556005626176123
 40
0.8812349675077658
 40
0.9070471624387641
 40
0.9334200655044149
 40
0.959986709433398
 40
0.9845802115938582
 40
1.0
 40
1.0
 40
1.0
 40
1.0
 10
0.5271522349721878
 20
0.4522333786252187
 30
0.0
 10
0.5282727652819006
 20
0.4520772635588573
 30
0.0
 10
0.5305338562869182
 20
0.4517622427430553
 30
0.0
 10
0.534033983603811
 20
0.4508274467066763
 30
0.0
 10
0.5376185193319503
 20
0.4495468564362176
 30
0.0
 10
0.541211432869747
 20
0.4479050782038464
 30
0.0
 10
0.5448164142250056
 20
0.4459438306861186
 30
0.0
 10
0.548389356619593
 20
0.4436867464545092
 30
0.0
 10
0.5519640558319898
 20
0.441110608819243
 30
0.0
 10
0.5555023255235334
 20
0.4382320966691048
 30
0.0
 10
0.5589992126759757
 20
0.4350460016436804
 30
0.0
 10
0.5624081274643873
 20
0.431582178888262
 30
0.0
 10
0.5657170979747337
 20
0.4278445278405297
 30
0.0
 10
0.5688418814363694
 20
0.423921129041818
 30
0.0
 10
0.5717777069009797
 20
0.4198208903927537
 30
0.0
 10
0.5744987946908522
 20
0.4156057918043031
 30
0.0
 10
0.5770465970439471
 20
0.4112370601785667
 30
0.0
 10
0.5793792057613445
 20
0.4067702751776715
 30
0.0
 10
0.5814899261653388
 20
0.4022084140559493
 30
0.0
 10
0.5833468277549783
 20
0.3976064822606851
 30
0.0
 10
0.5849459370504182
 20
0.3929622388363672
 30
0.0
 10
0.5862471694771545
 20
0.3883714051688762
 30
0.0
 10
0.5872513619724515
 20
0.383840154848089
 30
0.0
 10
0.5879412171302107
 20
0.3794259533144
 30
0.0
 10
0.5883236629013189
 20
0.3751018760321398
 30
0.0
 10
0.5884007404207783
 20
0.3709583395173703
 30
0.0
 10
0.588177596872913
 20
0.3669997834207812
 30
0.0
 10
0.5876545084285303
 20
0.3632759446221578
 30
0.0
 10
0.5868249814857684
 20
0.3597666301693454
 30
0.0
 10
0.5856927275727355
 20
0.3565325869393037
 30
0.0
 10
0.5842554299905018
 20
0.3535807991825226
 30
0.0
 10
0.582524962849057
 20
0.3509548485966973
 30
0.0
 10
0.5804942183952495
 20
0.3486558404417781
 30
0.0
 10
0.5782046612607037
 20
0.3467495091106041
 30
0.0
 10
0.5756848915029267
 20
0.3452341323597368
 30
0.0
 10
0.5729699234278265
 20
0.3441048305145944
 30
0.0
 10
0.5700301473055662
 20
0.3433623497916167
 30
0.0
 10
0.5668822313576733
 20
0.3430258924024609
 30
0.0
 10
0.5635568893499177
 20
0.3431076971237192
 30
0.0
 10
0.56005694903564
 20
0.3436183926293503
 30
0.0
 10
0.5563980989756978
 20
0.3445653240865194
 30
0.0
 10
0.5527043749107074
 20
0.3459413575891774
 30
0.0
 10
0.5494822243505599
 20
0.3474185158044889
 30
0.0
 10
0.5475269367296429
 20
0.3485565760962206
 30
0.0
 10
0.5467734340568857
 20
0.3489951465972572
 30
0.0
  0
ARC
  5
E5E
330
1F
100
AcDbEntity
  8
0
100
AcDbCircle
 10
0.6638793030876553
 20
0.4980304413733883
 30
0.0
 40
0.0512678373079471
100
AcDbArc
 50
45.03873146871699
 51
90.79329728937935
  0
SPLINE
  5
E5F
330
1F
100
AcDbEntity
  8
0
100
AcDbSpline
210
0.0
220
0.0
230
1.0
 70
     8
 71
     3
 72
    45
 73
    41
 74
     0
 42
0.0000000001
 43
0.0000000001
 40
0.0
 40
0.0
 40
0.0
 40
0.0
 40
0.0143676294770565
 40
0.041283698962375
 40
0.0686897776837711
 40
0.095124414664187
 40
0.1220315682695091
 40
0.1489387226833224
 40
0.1763349918849871
 40
0.2027797711586781
 40
0.2294082952820392
 40
0.2566164393902646
 40
0.2840249016532683
 40
0.3104596668162046
 40
0.3373671525658033
 40
0.3642746485556056
 40
0.391671361143747
 40
0.4181131941791798
 40
0.4450281376847454
 40
0.4719430625168946
 40
0.4993479764490557
 40
0.5257827046971197
 40
0.552690513236815
 40
0.5795983409859867
 40
0.6069956681048332
 40
0.6334299368833099
 40
0.6603367016993392
 40
0.6872434568786713
 40
0.7146394349037568
 40
0.7499701324878063
 40
0.7753974378740308
 40
0.8012444112913613
 40
0.8270914013723828
 40
0.8533714594244978
 40
0.8798051944439686
 40
0.9067113862191689
 40
0.9336175693320216
 40
0.9610129214153593
 40
0.9874556411751903
 40
1.0
 40
1.0
 40
1.0
 40
1.0
 10
0.5203632410202099
 20
0.4691637284358297
 30
0.0
 10
0.5209281748332766
 20
0.4695015377547181
 30
0.0
 10
0.5225514459170386
 20
0.4704721932306234
 30
0.0
 10
0.5255192020278081
 20
0.4716149695254391
 30
0.0
 10
0.5291874144483339
 20
0.4725953832386612
 30
0.0
 10
0.5330587975894157
 20
0.4731088669455684
 30
0.0
 10
0.5370666321212794
 20
0.4731815312259851
 30
0.0
 10
0.5412601740827985
 20
0.4728033079145425
 30
0.0
 10
0.5455382035437932
 20
0.4719757637334191
 30
0.0
 10
0.5498769774124741
 20
0.4707116243864887
 30
0.0
 10
0.5542514525022659
 20
0.4690273201200011
 30
0.0
 10
0.5586900472952865
 20
0.4668974631841792
 30
0.0
 10
0.5631168911323494
 20
0.4643703545168635
 30
0.0
 10
0.5674973257129763
 20
0.4614785683795331
 30
0.0
 10
0.5717901215901346
 20
0.4582546191138917
 30
0.0
 10
0.5760424209440027
 20
0.4546602700292651
 30
0.0
 10
0.5801472617879704
 20
0.4507769477008397
 30
0.0
 10
0.5841009887585866
 20
0.4466159564107109
 30
0.0
 10
0.5878540749984966
 20
0.4422337664171881
 30
0.0
 10
0.5914463111470616
 20
0.4375815076866763
 30
0.0
 10
0.5947809257145649
 20
0.4327680390283034
 30
0.0
 10
0.5978680565942602
 20
0.4278113460157334
 30
0.0
 10
0.600683631581653
 20
0.4227859930880785
 30
0.0
 10
0.6032531919819075
 20
0.4176336060525488
 30
0.0
 10
0.6055080125126804
 20
0.4124810413717464
 30
0.0
 10
0.6074501315304659
 20
0.4073361885283687
 30
0.0
 10
0.609058197144891
 20
0.4022653836861803
 30
0.0
 10
0.6103468082780961
 20
0.3972133547343224
 30
0.0
 10
0.6113801608339247
 20
0.3917676073219123
 30
0.0
 10
0.6119431267680817
 20
0.3865991855531774
 30
0.0
 10
0.6120712911528152
 20
0.3817671034376857
 30
0.0
 10
0.6118782338419362
 20
0.3776826126641273
 30
0.0
 10
0.6113694767411675
 20
0.3737996686651799
 30
0.0
 10
0.6105407696612659
 20
0.3701659969223952
 30
0.0
 10
0.6093838965847758
 20
0.366792080233673
 30
0.0
 10
0.6079002930626907
 20
0.3637334563727801
 30
0.0
 10
0.6060920152782503
 20
0.360998682816289
 30
0.0
 10
0.6039794079947811
 20
0.3586937144650386
 30
0.0
 10
0.6020523594499585
 20
0.3570566646977091
 30
0.0
 10
0.6007604352450777
 20
0.3563586047660301
 30
0.0
 10
0.6003447498080343
 20
0.3561339992151111
 30
0.0
  0
SPLINE
  5
E60
330
1F
100
AcDbEntity
  8
0
100
AcDbSpline
210
0.0
220
0.0
230
1.0
 70
     8
 71
     3
 72
    45
 73
    41
 74
     0
 42
0.0000000001
 43
0.0000000001
 40
0.0
 40
0.0
 40
0.0
 40
0.0
 40
0.0140822932242983
 40
0.0412880798255209
 40
0.0686941528341944
 40
0.0951287849814145
 40
0.1220359336580718
 40
0.1489430831420962
 40
0.1763393473287536
 40
0.2027841217335427
 40
0.2294126409722462
 40
0.2566207800746658
 40
0.2840292372979785
 40
0.310463997433757
 40
0.3373714780282978
 40
0.364278968861946
 40
0.3916756761736808
 40
0.4181175049279088
 40
0.4450324441335694
 40
0.4719473646647931
 40
0.4993522742915609
 40
0.5257869964747919
 40
0.5526947988304204
 40
0.579602620394504
 40
0.6069999411666086
 40
0.6334342045993054
 40
0.6603409639703492
 40
0.6872477137036013
 40
0.7146436861934374
 40
0.7499703021619749
 40
0.7753976028158651
 40
0.8012445714227373
 40
0.8270915566932956
 40
0.8533716098543045
 40
0.8798053399548585
 40
0.9067115267232727
 40
0.9336177048293386
 40
0.9610130518149409
 40
0.9874557666523642
 40
0.9999999999999998
 40
0.9999999999999998
 40
0.9999999999999998
 40
0.9999999999999998
 10
0.5424590341618221
 20
0.4819210305182836
 30
0.0
 10
0.5430123075783639
 20
0.4822522025687926
 30
0.0
 10
0.5446344579358142
 20
0.4832231707086832
 30
0.0
 10
0.547604368250455
 20
0.4843681446735263
 30
0.0
 10
0.5512848958428036
 20
0.4853518379933196
 30
0.0
 10
0.5551565342984424
 20
0.4858652979192513
 30
0.0
 10
0.5591643302671463
 20
0.4859378823102699
 30
0.0
 10
0.5633579075383273
 20
0.4855595936136526
 30
0.0
 10
0.5676359464607075
 20
0.4847319809780507
 30
0.0
 10
0.5719747307787035
 20
0.4834677756400348
 30
0.0
 10
0.5763492101120946
 20
0.4817834067634993
 30
0.0
 10
0.5807878050058177
 20
0.4796534866895187
 30
0.0
 10
0.5852146473036426
 20
0.4771263198121279
 30
0.0
 10
0.5895950747175933
 20
0.474234478058169
 30
0.0
 10
0.5938878590426013
 20
0.4710104769741477
 30
0.0
 10
0.598140142015809
 20
0.4674160791175578
 30
0.0
 10
0.6022449620664878
 20
0.4635327123467146
 30
0.0
 10
0.6061986639508696
 20
0.4593716809228246
 30
0.0
 10
0.6099517210606014
 20
0.4549894554830674
 30
0.0
 10
0.6135439240811851
 20
0.4503371659950285
 30
0.0
 10
0.6168785005163262
 20
0.4455236711109797
 30
0.0
 10
0.6199655945048657
 20
0.4405669606103614
 30
0.0
 10
0.6227811284819389
 20
0.4355415950022044
 30
0.0
 10
0.6253506448071102
 20
0.4303892008811568
 30
0.0
 10
0.6276054188590756
 20
0.4252366346741601
 30
0.0
 10
0.6295474892031179
 20
0.4200917858350149
 30
0.0
 10
0.6311555045601989
 20
0.4150209903669911
 30
0.0
 10
0.6324440632657364
 20
0.4099689764490851
 30
0.0
 10
0.6334773096540245
 20
0.4045234989238676
 30
0.0
 10
0.634040219680011
 20
0.39935533363501
 30
0.0
 10
0.6341683780809328
 20
0.3945234788475627
 30
0.0
 10
0.6339753206424208
 20
0.390438988032171
 30
0.0
 10
0.6334665634151275
 20
0.3865560446820522
 30
0.0
 10
0.6326378563774144
 20
0.3829223708442722
 30
0.0
 10
0.6314809826599463
 20
0.3795484625482179
 30
0.0
 10
0.6299973811094823
 20
0.3764898072744429
 30
0.0
 10
0.6281890954407585
 20
0.3737551526111849
 30
0.0
 10
0.6260765173077794
 20
0.3714497386171149
 30
0.0
 10
0.6241493847326789
 20
0.369814026523225
 30
0.0
 10
0.6228575936116034
 20
0.3691140084342004
 30
0.0
 10
0.622441953762537
 20
0.3688887743324016
 30
0.0
  0
SPLINE
  5
E61
330
1F
100
AcDbEntity
  8
0
100
AcDbSpline
210
0.0
220
0.0
230
1.0
 70
     8
 71
     3
 72
    45
 73
    41
 74
     0
 42
0.0000000001
 43
0.0000000001
 40
0.0
 40
0.0
 40
0.0
 40
0.0
 40
0.0140822932241717
 40
0.0412880798252268
 40
0.0686941528337324
 40
0.0951287849807901
 40
0.1220359336572829
 40
0.1489430831411428
 40
0.1763393473276317
 40
0.2027841217322589
 40
0.2294126409707986
 40
0.2566207800730497
 40
0.2840292372961943
 40
0.3104639974318106
 40
0.3373714780261864
 40
0.3642789688596695
 40
0.3916756761712361
 40
0.4181175049253019
 40
0.4450324441307973
 40
0.4719473646618557
 40
0.4993522742884559
 40
0.5257869964715254
 40
0.5526947988269883
 40
0.5796026203909062
 40
0.6069999411628429
 40
0.6334342045953781
 40
0.6603409639662558
 40
0.6872477136993418
 40
0.7146436861890102
 40
0.7499702980603472
 40
0.7753975987140832
 40
0.8012445673208475
 40
0.827091552591299
 40
0.8533716057522395
 40
0.8798053358514083
 40
0.9067115226183561
 40
0.933617700722957
 40
0.9610130477069947
 40
0.9874557625447945
 40
1.0
 40
1.0
 40
1.0
 40
1.0
 10
0.5645561210739018
 20
0.4946774072655139
 30
0.0
 10
0.5651093944904419
 20
0.4950085793160211
 30
0.0
 10
0.5667315448478905
 20
0.4959795474559109
 30
0.0
 10
0.5697014551625286
 20
0.4971245214207539
 30
0.0
 10
0.5733819827548781
 20
0.4981082147405481
 30
0.0
 10
0.577253621210515
 20
0.4986216746664807
 30
0.0
 10
0.5812614171792199
 20
0.4986942590575002
 30
0.0
 10
0.5854549944503999
 20
0.4983159703608829
 30
0.0
 10
0.5897330333727802
 20
0.4974883577252819
 30
0.0
 10
0.5940718176907762
 20
0.4962241523872669
 30
0.0
 10
0.5984462970241682
 20
0.4945397835107313
 30
0.0
 10
0.6028848919178904
 20
0.4924098634367516
 30
0.0
 10
0.6073117342157153
 20
0.4898826965593626
 30
0.0
 10
0.611692161629666
 20
0.4869908548054037
 30
0.0
 10
0.6159849459546749
 20
0.4837668537213825
 30
0.0
 10
0.6202372289278826
 20
0.4801724558647934
 30
0.0
 10
0.6243420489785614
 20
0.4762890890939512
 30
0.0
 10
0.6282957508629441
 20
0.4721280576700611
 30
0.0
 10
0.6320488079726758
 20
0.4677458322303039
 30
0.0
 10
0.6356410109932604
 20
0.4630935427422659
 30
0.0
 10
0.6389755874284007
 20
0.4582800478582162
 30
0.0
 10
0.642062681416941
 20
0.4533233373575987
 30
0.0
 10
0.6448782153940142
 20
0.4482979717494418
 30
0.0
 10
0.6474477317191856
 20
0.4431455776283951
 30
0.0
 10
0.6497025057711501
 20
0.4379930114213958
 30
0.0
 10
0.6516445761151994
 20
0.4328481625822576
 30
0.0
 10
0.65325259147226
 20
0.4277773671142054
 30
0.0
 10
0.6545411501778766
 20
0.422725353196406
 30
0.0
 10
0.6555743965186089
 20
0.4172798759196617
 30
0.0
 10
0.6561373065494529
 20
0.4121117108606736
 30
0.0
 10
0.6562654649990638
 20
0.4072798562644929
 30
0.0
 10
0.6560724076101947
 20
0.4031953654124399
 30
0.0
 10
0.6555636504324511
 20
0.3993124220208617
 30
0.0
 10
0.6547349434440435
 20
0.3956787481374417
 30
0.0
 10
0.6535780697754314
 20
0.3923048397915447
 30
0.0
 10
0.6520944682730774
 20
0.3892461844636255
 30
0.0
 10
0.6502861826503887
 20
0.386511529744112
 30
0.0
 10
0.6481736045644102
 20
0.3842061156847849
 30
0.0
 10
0.6462464718965155
 20
0.3825704034535347
 30
0.0
 10
0.6449546806534452
 20
0.381870385264939
 30
0.0
 10
0.6445390406728226
 20
0.3816451510810841
 30
0.0
  0
SPLINE
  5
E62
330
1F
100
AcDbEntity
  8
0
100
AcDbSpline
210
0.0
220
0.0
230
1.0
 70
     8
 71
     3
 72
    45
 73
    41
 74
     0
 42
0.0000000001
 43
0.0000000001
 40
0.0
 40
0.0
 40
0.0
 40
0.0
 40
0.0140822932241667
 40
0.0412880798250545
 40
0.0686941528333928
 40
0.0951287849802887
 40
0.1220359336566157
 40
0.1489430831403098
 40
0.1763393473266314
 40
0.2027841217310957
 40
0.2294126409694723
 40
0.2566207800715572
 40
0.2840292372945336
 40
0.3104639974299875
 40
0.3373714780241981
 40
0.3642789688575161
 40
0.3916756761689148
 40
0.4181175049228182
 40
0.4450324441281487
 40
0.4719473646590421
 40
0.4993522742854746
 40
0.5257869964683817
 40
0.5526947988236798
 40
0.5796026203874327
 40
0.6069999411592005
 40
0.6334342045915735
 40
0.6603409639622865
 40
0.6872477136952079
 40
0.7146436861847088
 40
0.7499702939587199
 40
0.7753975946122834
 40
0.8012445632188413
 40
0.8270915484890872
 40
0.8533716016498219
 40
0.8798053317493097
 40
0.9067115185165903
 40
0.9336176966215246
 40
0.9610130436058971
 40
0.9874557584440733
 40
1.0
 40
1.0
 40
1.0
 40
1.0
 10
0.5866532079859807
 20
0.5074337840127433
 30
0.0
 10
0.5872064814025244
 20
0.5077649560632532
 30
0.0
 10
0.5888286317599765
 20
0.5087359242031438
 30
0.0
 10
0.5917985420746199
 20
0.5098808981679877
 30
0.0
 10
0.5954790696669694
 20
0.5108645914877802
 30
0.0
 10
0.5993507081226073
 20
0.511378051413711
 30
0.0
 10
0.6033585040913121
 20
0.5114506358047296
 30
0.0
 10
0.6075520813624922
 20
0.5110723471081105
 30
0.0
 10
0.6118301202848733
 20
0.5102447344725086
 30
0.0
 10
0.6161689046028693
 20
0.5089805291344918
 30
0.0
 10
0.6205433839362604
 20
0.5072961602579554
 30
0.0
 10
0.6249819788299835
 20
0.5051662401839748
 30
0.0
 10
0.6294088211278093
 20
0.5026390733065841
 30
0.0
 10
0.63378924854176
 20
0.4997472315526242
 30
0.0
 10
0.6380820328667662
 20
0.4965232304686021
 30
0.0
 10
0.6423343158399748
 20
0.4929288326120112
 30
0.0
 10
0.6464391358906536
 20
0.489045465841169
 30
0.0
 10
0.6503928377750354
 20
0.4848844344172781
 30
0.0
 10
0.6541458948847663
 20
0.4805022089775209
 30
0.0
 10
0.65773809790535
 20
0.475849919489481
 30
0.0
 10
0.6610726743404902
 20
0.4710364246054314
 30
0.0
 10
0.6641597683290297
 20
0.4660797141048131
 30
0.0
 10
0.666975302306102
 20
0.4610543484966561
 30
0.0
 10
0.6695448186312725
 20
0.4559019543756094
 30
0.0
 10
0.6717995926832352
 20
0.4507493881686083
 30
0.0
 10
0.673741663027289
 20
0.4456045393294782
 30
0.0
 10
0.6753496783843265
 20
0.4405337438613984
 30
0.0
 10
0.6766382370900212
 20
0.4354817299437047
 30
0.0
 10
0.6776714833831952
 20
0.4300362529154425
 30
0.0
 10
0.6782343934188957
 20
0.4248680880863328
 30
0.0
 10
0.6783625519171939
 20
0.4200362336814293
 30
0.0
 10
0.6781694945779695
 20
0.4159517427927265
 30
0.0
 10
0.6776607374497792
 20
0.4120687993597051
 30
0.0
 10
0.6768320305106654
 20
0.408435125430575
 30
0.0
 10
0.6756751568908543
 20
0.4050612170346975
 30
0.0
 10
0.6741915554364868
 20
0.4020025616524617
 30
0.0
 10
0.6723832698596646
 20
0.399267906876563
 30
0.0
 10
0.6702706918205206
 20
0.3969624927519664
 30
0.0
 10
0.668343559059932
 20
0.3953267803835387
 30
0.0
 10
0.667051767695072
 20
0.3946267620955399
 30
0.0
 10
0.6666361275831101
 20
0.3944015278297648
 30
0.0
  0
SPLINE
  5
E63
330
1F
100
AcDbEntity
  8
0
100
AcDbSpline
210
0.0
220
0.0
230
1.0
 70
     8
 71
     3
 72
    45
 73
    41
 74
     0
 42
0.0000000001
 43
0.0000000001
 40
0.0
 40
0.0
 40
0.0
 40
0.0
 40
0.014082290922558
 40
0.0412880730770131
 40
0.0686941416061832
 40
0.0951287694326806
 40
0.1220359137113826
 40
0.1489430587974516
 40
0.1763393185062075
 40
0.2027840885886162
 40
0.2294126034749067
 40
0.2566207381301739
 40
0.2840291908735935
 40
0.3104639466886277
 40
0.3373714228851594
 40
0.3642789093207968
 40
0.3916756121545584
 40
0.4181174365868874
 40
0.444742830382698
 40
0.4719474509746378
 40
0.4993523561220917
 40
0.5257870739845855
 40
0.5526948719421522
 40
0.5796026891081706
 40
0.6070000054022011
 40
0.6334342645142363
 40
0.6603410194873883
 40
0.6872477648227501
 40
0.7146437328347333
 40
0.7499703430291593
 40
0.7753976395269745
 40
0.8012446039091768
 40
0.8270915849550627
 40
0.8533716338206151
 40
0.8798053596005939
 40
0.9067115419712099
 40
0.9336177156794793
 40
0.9610130581873313
 40
0.9874557687027101
 40
1.0
 40
1.0
 40
1.0
 40
1.0
 10
0.6087502948980614
 20
0.5201901607599736
 30
0.0
 10
0.6093035683146024
 20
0.5205213328104817
 30
0.0
 10
0.6109257186720536
 20
0.5214923009503723
 30
0.0
 10
0.6138956289866935
 20
0.5226372749152145
 30
0.0
 10
0.6175761565790465
 20
0.5236209682350131
 30
0.0
 10
0.621447795034672
 20
0.5241344281609262
 30
0.0
 10
0.6254555910034221
 20
0.524207012552014
 30
0.0
 10
0.6296491682744298
 20
0.5238287238551374
 30
0.0
 10
0.6339272071974566
 20
0.5230011112205072
 30
0.0
 10
0.6382659915131079
 20
0.521736905878967
 30
0.0
 10
0.6426404708553017
 20
0.5200525370156662
 30
0.0
 10
0.6470790657153416
 20
0.5179226168910363
 30
0.0
 10
0.6515059081388197
 20
0.5153954502025887
 30
0.0
 10
0.6558863350965967
 20
0.5125036077626886
 30
0.0
 10
0.6601791211402672
 20
0.5092796092629877
 30
0.0
 10
0.6644313976346716
 20
0.5056852016643488
 30
0.0
 10
0.668536241999756
 20
0.5018018714545932
 30
0.0
 10
0.6724756796838218
 20
0.4976556267149375
 30
0.0
 10
0.6762300365745146
 20
0.49327522560832
 30
0.0
 10
0.6798231421772016
 20
0.4886234622496362
 30
0.0
 10
0.6831697818834697
 20
0.4837928277395934
 30
0.0
 10
0.6862568496890093
 20
0.478836083750921
 30
0.0
 10
0.6890723907162182
 20
0.4738107271598871
 30
0.0
 10
0.6916419051333487
 20
0.4686583305984556
 30
0.0
 10
0.6938966797016237
 20
0.4635057650518187
 30
0.0
 10
0.6958387499107463
 20
0.4583609160401111
 30
0.0
 10
0.6974467653041529
 20
0.453290120618547
 30
0.0
 10
0.6987353239998824
 20
0.4482381066880972
 30
0.0
 10
0.6997685703910197
 20
0.4427926291665239
 30
0.0
 10
0.700331480416094
 20
0.4376244638765002
 30
0.0
 10
0.7004596388172077
 20
0.4327926090892989
 30
0.0
 10
0.7002665813786495
 20
0.4287081182738487
 30
0.0
 10
0.6997578241513696
 20
0.4248251749237458
 30
0.0
 10
0.6989291171136529
 20
0.4211915010859605
 30
0.0
 10
0.6977722433961857
 20
0.417817592789908
 30
0.0
 10
0.6962886418457208
 20
0.4147589375161321
 30
0.0
 10
0.694480356176997
 20
0.4120242828528749
 30
0.0
 10
0.6923677780440178
 20
0.4097188688588041
 30
0.0
 10
0.6904406454689174
 20
0.4080831567649151
 30
0.0
 10
0.6891488543478428
 20
0.4073831386758896
 30
0.0
 10
0.6887332144987763
 20
0.4071579045740908
 30
0.0
  0
SPLINE
  5
E64
330
1F
100
AcDbEntity
  8
0
100
AcDbSpline
210
0.0
220
0.0
230
1.0
 70
     8
 71
     3
 72
    45
 73
    41
 74
     0
 42
0.0000000001
 43
0.0000000001
 40
0.0
 40
0.0
 40
0.0
 40
0.0
 40
0.0140822909224323
 40
0.0412880730767214
 40
0.0686941416057217
 40
0.0951287694320568
 40
0.1220359137105938
 40
0.1489430587964978
 40
0.1763393185050859
 40
0.2027840885873315
 40
0.2294126034734591
 40
0.2566207381285585
 40
0.2840291908718108
 40
0.3104639466866825
 40
0.3373714228830484
 40
0.3642789093185198
 40
0.3916756121521134
 40
0.4181174365842804
 40
0.4447428303799267
 40
0.4719474509717
 40
0.4993523561189865
 40
0.5257870739813184
 40
0.5526948719387186
 40
0.5796026891045706
 40
0.6070000053984338
 40
0.6334342645103077
 40
0.6603410194832939
 40
0.6872477648184898
 40
0.7146437328303064
 40
0.7499703389275311
 40
0.7753976354251922
 40
0.8012445998072871
 40
0.8270915808530665
 40
0.8533716297185501
 40
0.8798053554971422
 40
0.9067115378662929
 40
0.9336177115730979
 40
0.9610130540793846
 40
0.9874557645951409
 40
0.9999999999999998
 40
0.9999999999999998
 40
0.9999999999999998
 40
0.9999999999999998
 10
0.6308473818101403
 20
0.532946537507203
 30
0.0
 10
0.6314006552266804
 20
0.5332777095577111
 30
0.0
 10
0.6330228055841289
 20
0.5342486776976008
 30
0.0
 10
0.6359927158987679
 20
0.5353936516624421
 30
0.0
 10
0.6396732434911201
 20
0.5363773449822416
 30
0.0
 10
0.6435448819467455
 20
0.5368908049081556
 30
0.0
 10
0.6475526779154956
 20
0.5369633892992443
 30
0.0
 10
0.6517462551865034
 20
0.5365851006023677
 30
0.0
 10
0.6560242941095293
 20
0.5357574879677383
 30
0.0
 10
0.6603630784251806
 20
0.5344932826261991
 30
0.0
 10
0.6647375577673753
 20
0.5328089137628992
 30
0.0
 10
0.6691761526274151
 20
0.5306789936382702
 30
0.0
 10
0.6736029950508933
 20
0.5281518269498225
 30
0.0
 10
0.6779834220086693
 20
0.5252599845099225
 30
0.0
 10
0.6822762080523399
 20
0.5220359860102225
 30
0.0
 10
0.6865284845467443
 20
0.5184415784115844
 30
0.0
 10
0.6906333289118296
 20
0.5145582482018288
 30
0.0
 10
0.6945727665958954
 20
0.5104120034621732
 30
0.0
 10
0.6983271234865891
 20
0.5060316023555556
 30
0.0
 10
0.7019202290892761
 20
0.5013798389968727
 30
0.0
 10
0.705266868795545
 20
0.4965492044868308
 30
0.0
 10
0.7083539366010847
 20
0.4915924604981584
 30
0.0
 10
0.7111694776282935
 20
0.4865671039071245
 30
0.0
 10
0.7137389920454249
 20
0.481414707345693
 30
0.0
 10
0.7159937666136982
 20
0.4762621417990552
 30
0.0
 10
0.7179358368228279
 20
0.4711172927873538
 30
0.0
 10
0.7195438522162132
 20
0.4660464973657622
 30
0.0
 10
0.7208324109120217
 20
0.4609944834354181
 30
0.0
 10
0.7218656572556041
 20
0.4555490061623181
 30
0.0
 10
0.7224285672855368
 20
0.4503808411021638
 30
0.0
 10
0.7225567257353396
 20
0.4455489865062282
 30
0.0
 10
0.7223636683464234
 20
0.4414644956541166
 30
0.0
 10
0.7218549111686932
 20
0.4375815522625544
 30
0.0
 10
0.7210262041802811
 20
0.43394787837913
 30
0.0
 10
0.7198693305116708
 20
0.4305739700332348
 30
0.0
 10
0.7183857290093167
 20
0.4275153147053155
 30
0.0
 10
0.7165774433866272
 20
0.424780659985802
 30
0.0
 10
0.7144648653006487
 20
0.4224752459264741
 30
0.0
 10
0.712537732632754
 20
0.4208395336952238
 30
0.0
 10
0.7112459413896845
 20
0.4201395155066291
 30
0.0
 10
0.7108303014090611
 20
0.4199142813227733
 30
0.0
  0
SPLINE
  5
E65
330
1F
100
AcDbEntity
  8
0
100
AcDbSpline
210
0.0
220
0.0
230
1.0
 70
     8
 71
     3
 72
    10
 73
     6
 74
     0
 42
0.0000000001
 43
0.0000000001
 40
0.0
 40
0.0
 40
0.0
 40
0.0
 40
0.2374680605273614
 40
0.6170743669217695
 40
1.0
 40
1.0
 40
1.0
 40
1.0
 10
0.6529469472463465
 20
0.5456984361646569
 30
0.0
 10
0.6536805849283473
 20
0.5461242219211247
 30
0.0
 10
0.6555869844970525
 20
0.5472306506152938
 30
0.0
 10
0.6589914019078142
 20
0.5484790821047348
 30
0.0
 10
0.6617727576926502
 20
0.5490211506140435
 30
0.0
 10
0.6631694892518045
 20
0.5492933646897481
 30
0.0
  0
LWPOLYLINE
  5
E67
330
1F
100
AcDbEntity
  8
0
100
AcDbPolyline
 90
       26
 70
   128
 43
0.0
 10
0.6975712973744239
 20
0.5371848642611282
 10
0.6984807960198707
 20
0.536782869178105
 10
0.7014034363749071
 20
0.535240456175046
 10
0.704325723986652
 20
0.5334426091040506
 10
0.7075088736662354
 20
0.5311857031618662
 10
0.7106523767467305
 20
0.5286364276641667
 10
0.7137764447939727
 20
0.5257629812282561
 10
0.7168065973653876
 20
0.5226172375625112
 10
0.7197850577430336
 20
0.5191313660079249
 10
0.7226077261477235
 20
0.5154004609692898
 10
0.7252851749455076
 20
0.5113851327077706
 10
0.7277410760725209
 20
0.5071684883859538
 10
0.7295166688588506
 20
0.5036773048807433
 10
0.7310929130444734
 20
0.5000782484685871
 10
0.7314089994848738
 20
0.4992444519099325
 10
0.7315080539610925
 20
0.4989608707112215
 10
0.7316001990315588
 20
0.4986691077533675
 10
0.7316284271442071
 20
0.4985610652523674
 10
0.7316427368214706
 20
0.4984762888873905
 10
0.7316390940355462
 20
0.4984464728511141
 10
0.7316241342036511
 20
0.498444994955136
 10
0.7315849121426672
 20
0.4984864673201307
 10
0.731459226468169
 20
0.4986890736358703
 10
0.7309482557548004
 20
0.4996652910781981
 10
0.7308123326470624
 20
0.4999330931010729
 10
0.7308123326470624
 20
0.4999330931010729
  0
LWPOLYLINE
  5
E68
330
1F
100
AcDbEntity
  8
0
100
AcDbPolyline
 90
       95
 70
   128
 43
0.0
 10
0.5341127784705855
 20
0.3573052031305151
 10
0.5364376927908767
 20
0.3560528188194343
 10
0.5387522234794304
 20
0.3549855482760582
 10
0.541046033280334
 20
0.3541081581897172
 10
0.5433088774821837
 20
0.3534245671975265
 10
0.5455306496734604
 20
0.3529378283828002
 10
0.5477014268802132
 20
0.3526501156392443
 10
0.5498115138844766
 20
0.3525627139618146
 10
0.551851486525454
 20
0.3526760137076186
 10
0.5538122337901206
 20
0.3529895088524888
 10
0.5556849985052159
 20
0.3535017992510052
 10
0.5574614164489005
 20
0.3542105968898876
 10
0.5591335537074056
 20
0.3551127361068189
 10
0.5606939421098185
 20
0.3562041877290569
 10
0.5621356125827408
 20
0.3574800770687039
 10
0.5634521262758734
 20
0.3589347056942411
 10
0.5646376033194722
 20
0.3605615768811112
 10
0.5656867490852815
 20
0.3623534246276649
 10
0.5665948778336276
 20
0.3643022461068879
 10
0.567357933641069
 20
0.3663993374089702
 10
0.5679725085151344
 20
0.3686353324150813
 10
0.5684358576152475
 20
0.3710002446287264
 10
0.5687459115118447
 20
0.3734835117778681
 10
0.5689012854289592
 20
0.3760740429885974
 10
0.5689012854289592
 20
0.3787602683196647
 10
0.5687459115118447
 20
0.3815301904366517
 10
0.5684358576152475
 20
0.3843714381949741
 10
0.5679725085151344
 20
0.3872713218924202
 10
0.567357933641069
 20
0.3902168899444403
 10
0.5665948778336276
 20
0.3931949867290656
 10
0.5656867490852815
 20
0.3961923113431121
 10
0.5646376033194722
 20
0.3991954770072421
 10
0.5634521262758734
 20
0.4021910708545711
 10
0.5621356125827408
 20
0.4051657138357835
 10
0.5606939421098185
 20
0.4081061204732207
 10
0.5591335537074056
 20
0.410999158197045
 10
0.5574614164489005
 20
0.4138319059984868
 10
0.5556849985052159
 20
0.4165917121382038
 10
0.5538122337901206
 20
0.4192662506520238
 10
0.551851486525454
 20
0.4218435764016898
 10
0.5498115138844766
 20
0.4243121784247482
 10
0.5477014268802132
 20
0.4266610313453024
 10
0.5455306496734587
 20
0.4288796446160158
 10
0.5433088774821837
 20
0.4309581093714446
 10
0.541046033280334
 20
0.4328871426834374
 10
0.5387522234794304
 20
0.4346581290209411
 10
0.5364376927908749
 20
0.4362631587290603
 10
0.5341127784705855
 20
0.4376950633554902
 10
0.5317878641502942
 20
0.438947447666571
 10
0.5294733334617387
 20
0.4400147182099471
 10
0.5271795236608361
 20
0.440892108296289
 10
0.5249166794589872
 20
0.4415756992884797
 10
0.5226949072677105
 20
0.4420624381032051
 10
0.520524130060956
 20
0.442350150846761
 10
0.5184140430566944
 20
0.4424375525241907
 10
0.5163740704157169
 20
0.4423242527783867
 10
0.5144133231510486
 20
0.4420107576335165
 10
0.5125405584359532
 20
0.4414984672350001
 10
0.5107641404922687
 20
0.4407896695961176
 10
0.5090920032337636
 20
0.4398875303791863
 10
0.5075316148313524
 20
0.4387960787569483
 10
0.5060899443584284
 20
0.4375201894173014
 10
0.5047734306652958
 20
0.4360655607917641
 10
0.5035879536216978
 20
0.434438689604894
 10
0.5025388078558886
 20
0.4326468418583403
 10
0.5016306791075424
 20
0.4306980203791174
 10
0.500867623300101
 20
0.428600929077035
 10
0.5002530484260357
 20
0.4263649340709249
 10
0.4997896993259234
 20
0.4240000218572798
 10
0.4994796454293253
 20
0.4215167547081372
 10
0.4993242715122108
 20
0.4189262234974079
 10
0.4993242715122108
 20
0.4162399981663406
 10
0.4994796454293253
 20
0.4134700760493536
 10
0.4997896993259234
 20
0.4106288282910312
 10
0.5002530484260357
 20
0.4077289445935851
 10
0.500867623300101
 20
0.404783376541565
 10
0.5016306791075433
 20
0.4018052797569397
 10
0.5025388078558886
 20
0.3988079551428931
 10
0.5035879536216987
 20
0.3958047894787631
 10
0.5047734306652976
 20
0.3928091956314341
 10
0.5060899443584284
 20
0.3898345526502218
 10
0.5075316148313524
 20
0.3868941460127846
 10
0.5090920032337645
 20
0.3840011082889603
 10
0.5107641404922696
 20
0.3811683604875184
 10
0.512540558435955
 20
0.3784085543478015
 10
0.5144133231510486
 20
0.3757340158339815
 10
0.5163740704157169
 20
0.3731566900843155
 10
0.5184140430566944
 20
0.3706880880612571
 10
0.5205241300609569
 20
0.3683392351407029
 10
0.5226949072677105
 20
0.3661206218699895
 10
0.5249166794589872
 20
0.3640421571145607
 10
0.527179523660837
 20
0.3621131238025688
 10
0.5294733334617405
 20
0.3603421374650642
 10
0.5317878641502942
 20
0.3587371077569459
 10
0.5341127784705855
 20
0.3573052031305151
  0
LINE
  5
E69
330
1F
100
AcDbEntity
  8
0
100
AcDbLine
 10
0.5212529573209743
 20
0.3792029143978899
 30
0.0
 11
0.5469725996201966
 21
0.3643552809393131
 31
0.0
  0
LINE
  5
E6A
330
1F
100
AcDbEntity
  8
0
100
AcDbLine
 10
0.5598324207698078
 20
0.3826524997844254
 30
0.0
 11
0.5469725996201966
 21
0.3643552809393131
 31
0.0
  0
LINE
  5
E6B
330
1F
100
AcDbEntity
  8
0
100
AcDbLine
 10
0.5598324207698078
 20
0.3826524997844254
 30
0.0
 11
0.5469725996201966
 21
0.4157973520881154
 31
0.0
  0
LINE
  5
E6C
330
1F
100
AcDbEntity
  8
0
100
AcDbLine
 10
0.5212529573209743
 20
0.4306449855466921
 30
0.0
 11
0.5469725996201966
 21
0.4157973520881154
 31
0.0
  0
LINE
  5
E6D
330
1F
100
AcDbEntity
  8
0
100
AcDbLine
 10
0.5083931361713614
 20
0.4123477667015799
 30
0.0
 11
0.5212529573209743
 21
0.4306449855466921
 31
0.0
  0
LINE
  5
E6E
330
1F
100
AcDbEntity
  8
0
100
AcDbLine
 10
0.5083931361713614
 20
0.4123477667015799
 30
0.0
 11
0.5212529573209743
 21
0.3792029143978899
 31
0.0
  0
SPLINE
  5
E6F
330
1F
100
AcDbEntity
  8
0
100
AcDbSpline
210
0.0
220
0.0
230
1.0
 70
     8
 71
     3
 72
    18
 73
    14
 74
     0
 42
0.0000000001
 43
0.0000000001
 40
0.0
 40
0.0
 40
0.0
 40
0.0
 40
0.0817101972630774
 40
0.1727734879211923
 40
0.2635719221135362
 40
0.3584642545657615
 40
0.4536591252699593
 40
0.5485519782747606
 40
0.6433129227151327
 40
0.7383461382000318
 40
0.8331152422584356
 40
0.9165576108671839
 40
1.0
 40
1.0
 40
1.0
 40
1.0
 10
0.5001923048762917
 20
0.4257786269956119
 30
0.0
 10
0.5003281723015471
 20
0.4271766299634726
 30
0.0
 10
0.5006154594424761
 20
0.430132660630046
 30
0.0
 10
0.5015917021868497
 20
0.4342621779294954
 30
0.0
 10
0.5030032649606702
 20
0.4382529722724725
 30
0.0
 10
0.5048894741873451
 20
0.4418477628779679
 30
0.0
 10
0.5072186002018741
 20
0.4450027638284454
 30
0.0
 10
0.509938827056333
 20
0.4476188672297095
 30
0.0
 10
0.5130232236112688
 20
0.4496650356276913
 30
0.0
 10
0.5164200691919876
 20
0.4511668052779746
 30
0.0
 10
0.5199527653808122
 20
0.4520566885316891
 30
0.0
 10
0.5235358833784105
 20
0.4524374993173151
 30
0.0
 10
0.525946784341212
 20
0.4523014188624151
 30
0.0
 10
0.5271522349708635
 20
0.4522333786265972
 30
0.0
  0
LINE
  5
E70
330
1F
100
AcDbEntity
  8
0
100
AcDbLine
 10
0.5306706202022273
 20
0.4252082844887804
 30
0.0
 11
0.5083931361713614
 21
0.4123477667015799
 31
0.0
  0
LINE
  5
E71
330
1F
100
AcDbEntity
  8
0
100
AcDbLine
 10
0.5212529573209743
 20
0.3792029143978899
 30
0.0
 11
0.5538660969830815
 21
0.3980300791773546
 31
0.0
  0
ARC
  5
E72
330
1F
100
AcDbEntity
  8
0
100
AcDbCircle
 10
0.6802482443892475
 20
0.4818623420176199
 30
0.0
 40
0.0568629795340918
100
AcDbArc
 50
2.605830479820575
 51
57.38879298979558
  0
LINE
  5
E73
330
1F
100
AcDbEntity
  8
0
100
AcDbLine
 10
0.7370524246702008
 20
0.4844475971507512
 30
0.0
 11
0.7370524246694095
 21
0.4617434311252218
 31
0.0
  0
SPLINE
  5
E74
330
1F
100
AcDbEntity
  8
0
100
AcDbSpline
210
0.0
220
0.0
230
1.0
 70
     8
 71
     3
 72
    19
 73
    15
 74
     0
 42
0.0000000001
 43
0.0000000001
 40
0.0
 40
0.0
 40
0.0
 40
0.0
 40
0.0520844136534615
 40
0.1534671823467352
 40
0.2466547645241132
 40
0.3398423031948645
 40
0.4362981284320184
 40
0.5327539097270324
 40
0.6180008096804466
 40
0.7032477058440632
 40
0.7910323946827612
 40
0.8787907551598193
 40
0.9392481020085458
 40
1.0
 40
1.0
 40
1.0
 40
1.0
 10
0.6927975950926541
 20
0.5401580541049532
 30
0.0
 10
0.6936094752955484
 20
0.5396984754699739
 30
0.0
 10
0.6960016874450423
 20
0.5383443229850043
 30
0.0
 10
0.6997788309828776
 20
0.535767520527436
 30
0.0
 10
0.7041012057958114
 20
0.5325114592934835
 30
0.0
 10
0.708222049166958
 20
0.5290265999823694
 30
0.0
 10
0.7122288512284911
 20
0.5252587002706875
 30
0.0
 10
0.7159323055232216
 20
0.521386004759356
 30
0.0
 10
0.7192818140951485
 20
0.5175115352610521
 30
0.0
 10
0.722316933689146
 20
0.5136479692724104
 30
0.0
 10
0.7251475129933145
 20
0.5096489269905823
 30
0.0
 10
0.7274737254842096
 20
0.505979283968056
 30
0.0
 10
0.729354771726433
 20
0.5027328429775134
 30
0.0
 10
0.7303256925271671
 20
0.5008678537661425
 30
0.0
 10
0.7308123326470837
 20
0.4999330931010329
 30
0.0
  0
SPLINE
  5
E75
330
1F
100
AcDbEntity
  8
0
100
AcDbSpline
210
0.0
220
0.0
230
1.0
 70
     8
 71
     3
 72
    23
 73
    19
 74
     0
 42
0.0000000001
 43
0.0000000001
 40
0.0
 40
0.0
 40
0.0
 40
0.0
 40
0.0572044925373823
 40
0.1221971469852497
 40
0.187189801433121
 40
0.2532669099504123
 40
0.3199803851068199
 40
0.3868549038172068
 40
0.4534081219789822
 40
0.519171651504311
 40
0.583876362598711
 40
0.6492778509204105
 40
0.7156186065568068
 40
0.782439356324713
 40
0.8492601060926238
 40
0.9156008617290201
 40
0.9810023500507195
 40
1.0
 40
1.0
 40
1.0
 40
1.0
 10
0.7217180554361591
 20
0.4560073623296147
 30
0.0
 10
0.7218399045012271
 20
0.4571921981407881
 30
0.0
 10
0.7221001918921941
 20
0.4597231804002114
 30
0.0
 10
0.7219227862955757
 20
0.4640547495460402
 30
0.0
 10
0.7212930457877287
 20
0.4688352135889014
 30
0.0
 10
0.7201317375787533
 20
0.4738748558809379
 30
0.0
 10
0.7184606785239895
 20
0.4791047380529382
 30
0.0
 10
0.7163001487704588
 20
0.4844193845812928
 30
0.0
 10
0.7136996179164694
 20
0.4897060836076584
 30
0.0
 10
0.7107188686064803
 20
0.4948586865216738
 30
0.0
 10
0.7074022390856947
 20
0.4998420638483746
 30
0.0
 10
0.703727524086353
 20
0.5046057582350797
 30
0.0
 10
0.6997055695003216
 20
0.5091152240158533
 30
0.0
 10
0.6953987780433046
 20
0.5132792656396628
 30
0.0
 10
0.6908953512588261
 20
0.5170205420905594
 30
0.0
 10
0.6862923110439658
 20
0.5202101830942539
 30
0.0
 10
0.6827462898926824
 20
0.5223574581197131
 30
0.0
 10
0.6807608207088267
 20
0.5232436321361165
 30
0.0
 10
0.6803139056180723
 20
0.5234431036485353
 30
0.0
  0
SPLINE
  5
E76
330
1F
100
AcDbEntity
  8
0
100
AcDbSpline
210
0.0
220
0.0
230
1.0
 70
     8
 71
     3
 72
    23
 73
    19
 74
     0
 42
0.0000000001
 43
0.0000000001
 40
0.0
 40
0.0
 40
0.0
 40
0.0
 40
0.0337173825577536
 40
0.0992471778445313
 40
0.164078828941672
 40
0.2299713756973804
 40
0.2966551603287885
 40
0.3636608758476432
 40
0.4305052318715486
 40
0.4967119728096394
 40
0.5618321321577558
 40
0.6269522915058765
 40
0.6931590324439671
 40
0.7600033884678723
 40
0.8270091039867264
 40
0.8936928886181295
 40
0.959585435373842
 40
1.0
 40
1.0
 40
1.0
 40
1.0
 10
0.6996005810523533
 20
0.4433791793976381
 30
0.0
 10
0.699695545274982
 20
0.4440561536888391
 30
0.0
 10
0.6999750726397169
 20
0.4460488287655567
 30
0.0
 10
0.6999189548325495
 20
0.4497684951198345
 30
0.0
 10
0.6994691355671982
 20
0.4544534494797528
 30
0.0
 10
0.6984777366401176
 20
0.4594131543663556
 30
0.0
 10
0.6969771080956744
 20
0.4645899459942039
 30
0.0
 10
0.6949747953526668
 20
0.4698890808025159
 30
0.0
 10
0.6925147622474947
 20
0.4751975169061085
 30
0.0
 10
0.6896540110070932
 20
0.4804033563696465
 30
0.0
 10
0.6864479419313103
 20
0.4854461822162105
 30
0.0
 10
0.682895114926912
 20
0.4902886557866342
 30
0.0
 10
0.6789845791162945
 20
0.4948886013248196
 30
0.0
 10
0.674763788211908
 20
0.4991790135735535
 30
0.0
 10
0.6703153476776775
 20
0.5030701646064067
 30
0.0
 10
0.6657346036567138
 20
0.5064512590503439
 30
0.0
 10
0.6616864296615443
 20
0.5090161100839053
 30
0.0
 10
0.6591892860212598
 20
0.5102139684599328
 30
0.0
 10
0.658239951854249
 20
0.5106693559135261
 30
0.0
  0
SPLINE
  5
E77
330
1F
100
AcDbEntity
  8
0
100
AcDbSpline
210
0.0
220
0.0
230
1.0
 70
     8
 71
     3
 72
    24
 73
    20
 74
     0
 42
0.0000000001
 43
0.0000000001
 40
0.0
 40
0.0
 40
0.0
 40
0.0
 40
0.0126320054805647
 40
0.0782393901506615
 40
0.1427904703827945
 40
0.2080366734574932
 40
0.2742199137086958
 40
0.3408820084230432
 40
0.4075441031373954
 40
0.473727343388598
 40
0.5389735464632965
 40
0.60352462669543
 40
0.6691320113655224
 40
0.7355272096842363
 40
0.8022429456754153
 40
0.8687980204844649
 40
0.9347182396039693
 40
0.9995565795146886
 40
1.0
 40
1.0
 40
1.0
 40
1.0
 10
0.6775188833829138
 20
0.4305402770430245
 30
0.0
 10
0.6775625914326728
 20
0.4307877865055091
 30
0.0
 10
0.6778333078413301
 20
0.432320796400976
 30
0.0
 10
0.6778606765193127
 20
0.4355191211298085
 30
0.0
 10
0.6775882250448995
 20
0.4400969883410778
 30
0.0
 10
0.676766118894234
 20
0.4449771978112212
 30
0.0
 10
0.6754378241136394
 20
0.4500885219498983
 30
0.0
 10
0.6735983715492317
 20
0.4553598825599846
 30
0.0
 10
0.6712852756471286
 20
0.4606774577570415
 30
0.0
 10
0.6685509253200659
 20
0.4659298990537442
 30
0.0
 10
0.6654551888654823
 20
0.4710280720700382
 30
0.0
 10
0.6620229841699567
 20
0.4759447497841947
 30
0.0
 10
0.6582289867226649
 20
0.4806274166086933
 30
0.0
 10
0.6541034112841875
 20
0.4850346378588045
 30
0.0
 10
0.6497206360471337
 20
0.4890614832219703
 30
0.0
 10
0.6451729524491532
 20
0.4926469389816094
 30
0.0
 10
0.6405587073311436
 20
0.4956310183349684
 30
0.0
 10
0.6374592009645961
 20
0.4974430942907196
 30
0.0
 10
0.6359208510142758
 20
0.4980831909403179
 30
0.0
 10
0.6359104019106143
 20
0.4980875387392317
 30
0.0
  0
SPLINE
  5
E78
330
1F
100
AcDbEntity
  8
0
100
AcDbSpline
210
0.0
220
0.0
230
1.0
 70
     8
 71
     3
 72
    23
 73
    19
 74
     0
 42
0.0000000001
 43
0.0000000001
 40
0.0
 40
0.0
 40
0.0
 40
0.0
 40
0.0572044925373844
 40
0.1221971469852515
 40
0.1871898014331229
 40
0.253266909950414
 40
0.3199803851068217
 40
0.3868549038172087
 40
0.4534081219789841
 40
0.5191716515043128
 40
0.5838763625987125
 40
0.6492778509204115
 40
0.715618606556807
 40
0.7824393563247126
 40
0.8492601060926229
 40
0.9156008617290185
 40
0.9810023500507172
 40
1.0
 40
1.0
 40
1.0
 40
1.0
 10
0.6554267946999206
 20
0.4177382320879247
 30
0.0
 10
0.6555486437649887
 20
0.418923067899099
 30
0.0
 10
0.6558089311559556
 20
0.4214540501585214
 30
0.0
 10
0.6556315255593372
 20
0.4257856193043511
 30
0.0
 10
0.6550017850514884
 20
0.4305660833472123
 30
0.0
 10
0.6538404768425139
 20
0.4356057256392488
 30
0.0
 10
0.6521694177877502
 20
0.4408356078112491
 30
0.0
 10
0.6500088880342194
 20
0.4461502543396037
 30
0.0
 10
0.6474083571802309
 20
0.4514369533659684
 30
0.0
 10
0.6444276078702418
 20
0.4565895562799847
 30
0.0
 10
0.6411109783494544
 20
0.4615729336066855
 30
0.0
 10
0.6374362633501145
 20
0.4663366279933906
 30
0.0
 10
0.6334143087640822
 20
0.4708460937741642
 30
0.0
 10
0.6291075173070661
 20
0.4750101353979737
 30
0.0
 10
0.6246040905225876
 20
0.4787514118488695
 30
0.0
 10
0.6200010503077264
 20
0.4819410528525648
 30
0.0
 10
0.6164550291564439
 20
0.484088327878024
 30
0.0
 10
0.6144695599725873
 20
0.4849745018944266
 30
0.0
 10
0.6140226448818338
 20
0.4851739734068453
 30
0.0
  0
SPLINE
  5
E79
330
1F
100
AcDbEntity
  8
0
100
AcDbSpline
210
0.0
220
0.0
230
1.0
 70
     8
 71
     3
 72
    23
 73
    19
 74
     0
 42
0.0000000001
 43
0.0000000001
 40
0.0
 40
0.0
 40
0.0
 40
0.0
 40
0.0337173825577491
 40
0.099247177844526
 40
0.1640788289416657
 40
0.229971375697379
 40
0.2966551603287859
 40
0.3636608758476395
 40
0.4305052318715438
 40
0.4967119728096338
 40
0.5618321321577548
 40
0.6269522915058747
 40
0.6931590324439642
 40
0.7600033884678686
 40
0.8270091039867219
 40
0.8936928886181298
 40
0.9595854353738417
 40
1.0
 40
1.0
 40
1.0
 40
1.0
 10
0.6333093203161149
 20
0.405110049155949
 30
0.0
 10
0.6334042845387435
 20
0.40578702344715
 30
0.0
 10
0.6336838119034784
 20
0.4077796985238667
 30
0.0
 10
0.633627694096311
 20
0.4114993648781454
 30
0.0
 10
0.6331778748309589
 20
0.4161843192380628
 30
0.0
 10
0.6321864759038791
 20
0.4211440241246665
 30
0.0
 10
0.6306858473594359
 20
0.4263208157525148
 30
0.0
 10
0.6286835346164283
 20
0.4316199505608268
 30
0.0
 10
0.6262235015112572
 20
0.4369283866644185
 30
0.0
 10
0.6233627502708547
 20
0.4421342261279565
 30
0.0
 10
0.6201566811950718
 20
0.4471770519745214
 30
0.0
 10
0.6166038541906735
 20
0.4520195255449443
 30
0.0
 10
0.6126933183800551
 20
0.4566194710831296
 30
0.0
 10
0.6084725274756695
 20
0.4609098833318644
 30
0.0
 10
0.6040240869414382
 20
0.4648010343647167
 30
0.0
 10
0.5994433429204744
 20
0.4681821288086539
 30
0.0
 10
0.595395168925305
 20
0.4707469798422153
 30
0.0
 10
0.5928980252850213
 20
0.4719448382182437
 30
0.0
 10
0.5919486911180096
 20
0.4724002256718361
 30
0.0
  0
SPLINE
  5
E7A
330
1F
100
AcDbEntity
  8
0
100
AcDbSpline
210
0.0
220
0.0
230
1.0
 70
     8
 71
     3
 72
    24
 73
    20
 74
     0
 42
0.0000000001
 43
0.0000000001
 40
0.0
 40
0.0
 40
0.0
 40
0.0
 40
0.0126340395826447
 40
0.0782412889559509
 40
0.1427922360696243
 40
0.2080383045923679
 40
0.2742214083592398
 40
0.3408833656017596
 40
0.4075453228442783
 40
0.4737284266111502
 40
0.5389744951338939
 40
0.6035254422475673
 40
0.6691326916208747
 40
0.7355277530181535
 40
0.8022433514268788
 40
0.868798288984793
 40
0.9347183721623736
 40
0.9995565783622465
 40
1.0
 40
1.0
 40
1.0
 40
1.0
 10
0.6112276023487537
 20
0.3922710247692727
 30
0.0
 10
0.6112713178233167
 20
0.3925185743437198
 30
0.0
 10
0.6115420431962024
 20
0.3940516230300524
 30
0.0
 10
0.6115694171873793
 20
0.3972499896829784
 30
0.0
 10
0.6112969639306629
 20
0.4018278584237781
 30
0.0
 10
0.6104748582613395
 20
0.4067080674808431
 30
0.0
 10
0.6091465633493167
 20
0.4118193917323091
 30
0.0
 10
0.6073071108205428
 20
0.4170907523118162
 30
0.0
 10
0.6049940149088819
 20
0.4224083275170754
 30
0.0
 10
0.6022596645843541
 20
0.4276607688116013
 30
0.0
 10
0.5991639281291052
 20
0.4327589418284691
 30
0.0
 10
0.5957317234337547
 20
0.4376756195424701
 30
0.0
 10
0.5919377259864149
 20
0.4423582863670255
 30
0.0
 10
0.5878121505479517
 20
0.4467655076170621
 30
0.0
 10
0.5834293753108908
 20
0.4507923529804704
 30
0.0
 10
0.5788816917129254
 20
0.4543778087392204
 30
0.0
 10
0.5742674465948661
 20
0.4573618880958462
 30
0.0
 10
0.5711679401796108
 20
0.4591739640721098
 30
0.0
 10
0.5696295901806245
 20
0.4598140607392346
 30
0.0
 10
0.5696191410282589
 20
0.459818408558397
 30
0.0
  0
SPLINE
  5
E7B
330
1F
100
AcDbEntity
  8
0
100
AcDbSpline
210
0.0
220
0.0
230
1.0
 70
     8
 71
     3
 72
    28
 73
    24
 74
     0
 42
0.0000000001
 43
0.0000000001
 40
0.0
 40
0.0
 40
0.0
 40
0.0
 40
0.0000662872495898
 40
0.0521142536413523
 40
0.1036657447802828
 40
0.1543711755269736
 40
0.2050766062736637
 40
0.2566280974125943
 40
0.3086760638043569
 40
0.360849671821975
 40
0.4127726102392411
 40
0.4640794559179174
 40
0.5145602414044243
 40
0.565584632776009
 40
0.6173418139402647
 40
0.6694734729497643
 40
0.7216051319592639
 40
0.7733623131235195
 40
0.8243867044951041
 40
0.874867489981611
 40
0.926174335660287
 40
0.9780972740775533
 40
1.0
 40
1.0
 40
1.0
 40
1.0
 10
0.5882721440215815
 20
0.3751104311259066
 30
0.0
 10
0.5882726946468619
 20
0.3751118359307071
 30
0.0
 10
0.5887055897468312
 20
0.3762162768923278
 30
0.0
 10
0.5891348309870372
 20
0.3788622441042901
 30
0.0
 10
0.5895066294829274
 20
0.3829941958665051
 30
0.0
 10
0.589345436913397
 20
0.387512609784278
 30
0.0
 10
0.5887091131440842
 20
0.3922980115288215
 30
0.0
 10
0.5875496009253986
 20
0.3973363068189399
 30
0.0
 10
0.5858780532264787
 20
0.4025665552476586
 30
0.0
 10
0.5837176550005225
 20
0.4078811040477327
 30
0.0
 10
0.5811170891628292
 20
0.4131678258973491
 30
0.0
 10
0.5781363489204632
 20
0.4183204345323003
 30
0.0
 10
0.5748197175704537
 20
0.4233037671751479
 30
0.0
 10
0.5711450009578309
 20
0.4280676367077304
 30
0.0
 10
0.5671230548218802
 20
0.4325764348252433
 30
0.0
 10
0.5628162308899116
 20
0.4367429933240022
 30
0.0
 10
0.5583129253470205
 20
0.4404748862067878
 30
0.0
 10
0.5537094378980927
 20
0.4436991377505465
 30
0.0
 10
0.549089836988536
 20
0.4463707474617554
 30
0.0
 10
0.5444759152137248
 20
0.4484994337454785
 30
0.0
 10
0.5398642819263089
 20
0.4499971500037433
 30
0.0
 10
0.5361498058068579
 20
0.450823818078831
 30
0.0
 10
0.5340617884379626
 20
0.4509045598097793
 30
0.0
 10
0.5334423118296414
 20
0.4509285144063185
 30
0.0
  0
LWPOLYLINE
  5
E7C
330
1F
100
AcDbEntity
  8
0
100
AcDbPolyline
 90
       45
 70
   128
 43
0.0
 10
0.5365048582979341
 20
0.4406707879195223
 10
0.538871732985964
 20
0.4392149452126358
 10
0.5412284723532104
 20
0.4375863865808441
 10
0.5435649844798889
 20
0.4357920857622294
 10
0.5458712640623669
 20
0.4338397262283625
 10
0.5481374352574033
 20
0.4317376682824995
 10
0.5503537939720353
 20
0.4294949132594795
 10
0.5525108494179822
 20
0.427121064980623
 10
0.5545993647526697
 20
0.4246262886287012
 10
0.5566103966327971
 20
0.4220212672190574
 10
0.5585353335111185
 20
0.4193171558532985
 10
0.5603659325123955
 20
0.4165255339514341
 10
0.5620943547306674
 20
0.4136583556670271
 10
0.5637131987966442
 20
0.4107278986976687
 10
0.5652155325715047
 20
0.4077467117099925
 10
0.5665949228313833
 20
0.4047275606043604
 10
0.5678454628154184
 20
0.4016833738493152
 10
0.5689617975194123
 20
0.3986271871198939
 10
0.56993914662678
 20
0.395572087476866
 10
0.5707733249785989
 20
0.3925311573259307
 10
0.5714607604950992
 20
0.3895174183968473
 10
0.5719985094718647
 20
0.3865437759823862
 10
0.5723842691852179
 20
0.383622963675889
 10
0.5726163877528452
 20
0.3807674888440624
 10
0.5726938712074034
 20
0.3779895790685177
 10
0.5726163877528452
 20
0.3753011297853861
 10
0.5723842691852179
 20
0.3727136533472357
 10
0.5719985094718647
 20
0.3702382297254123
 10
0.5714607604950992
 20
0.3678854590638971
 10
0.5707733249785989
 20
0.3656654162878679
 10
0.56993914662678
 20
0.3635876079613183
 10
0.5689617975194123
 20
0.3616609315784929
 10
0.5678454628154184
 20
0.359893637463452
 10
0.5665949228313833
 20
0.3582932934409173
 10
0.5652155325715047
 20
0.3568667524296811
 10
0.5637131987966442
 20
0.3556201230973615
 10
0.5620943547306674
 20
0.354558743702144
 10
0.5603659325123955
 20
0.353687159233546
 10
0.5585353335111185
 20
0.3530091019500696
 10
0.5566103966327971
 20
0.3525274753970995
 10
0.5545993647526697
 20
0.3522443419734766
 10
0.5525108494179822
 20
0.3521609140999888
 10
0.5503537939720353
 20
0.3522775490275973
 10
0.5481374352574033
 20
0.3525937473076375
 10
0.547945539601929
 20
0.3526299959016732
  0
LWPOLYLINE
  5
E7D
330
1F
100
AcDbEntity
  8
0
100
AcDbPolyline
 90
       20
 70
   128
 43
0.0
 10
0.5021737097712224
 20
0.4319177217140727
 10
0.5029086020971001
 20
0.4338087686405111
 10
0.5038705919370809
 20
0.4357823733085791
 10
0.5049751548265535
 20
0.4375947629544504
 10
0.5062174651353717
 20
0.4392380195843283
 10
0.5075920954404964
 20
0.4407049641151504
 10
0.509093040237395
 20
0.4419891877386764
 10
0.5107137421769787
 20
0.4430850799203786
 10
0.5124471207134402
 20
0.4439878529108235
 10
0.5142856030378449
 20
0.4446935626624623
 10
0.5162211571623267
 20
0.4451991260604416
 10
0.5182453270103517
 20
0.4455023343921603
 10
0.5203492693597458
 20
0.4456018629967219
 10
0.52252379247709
 20
0.4454972770521362
 10
0.5247593962746981
 20
0.4451890334749747
 10
0.527046313814733
 20
0.4446784789241834
 10
0.5293745539791461
 20
0.4439678439177842
 10
0.5317339451190179
 20
0.443060233088154
 10
0.534114179492603
 20
0.4419596116184622
 10
0.5365048582979341
 20
0.4406707879195223
  0
INSERT
  5
E96
330
1F
100
AcDbEntity
  8
0
  6
Continuous
 62
     7
370
     0
100
AcDbBlockReference
  2
SW_CENTERMARKSYMBOL_0
 10
0.6253669017448367
 20
0.1876425055745707
 30
0.0
 41
0.19
 42
0.19
  0
DIMENSION
  5
E97
330
1F
100
AcDbEntity
  8
DIM
100
AcDbDimension
  2
*D6
 10
0.3095631749620256
 20
0.2885916694327275
 30
0.0
 11
0.1923641310743079
 21
0.2968431990044475
 31
0.0
 70
    32
 71
     5
 42
0.2343980877754352
 73
     0
 74
     0
 75
     0
  3
Standard
100
AcDbAlignedDimension
 13
0.0751650871865903
 23
0.2370105719529846
 33
0.0
 14
0.3095631749620256
 24
0.224784510561328
 34
0.0
100
AcDbRotatedDimension
  0
DIMENSION
  5
EA4
330
1F
100
AcDbEntity
  8
DIM
100
AcDbDimension
  2
*D7
 10
0.0595631749625119
 20
0.3254512945091963
 30
0.0
 11
0.1845631749613461
 21
0.3337028240809162
 31
0.0
 70
    32
 71
     5
 42
0.2499999999976685
 73
     0
 74
     0
 75
     0
  3
Standard
100
AcDbAlignedDimension
 13
0.3095631749601804
 23
0.2247845105582571
 33
0.0
 14
0.0595631749625119
 24
0.2370103784274184
 34
0.0
100
AcDbRotatedDimension
  0
DIMENSION
  5
EB1
330
1F
100
AcDbEntity
  8
DIM
100
AcDbDimension
  2
*D8
 10
0.3583848118747638
 20
0.1187845105621492
 30
0.0
 11
0.3501332823030439
 21
0.1877845105621492
 31
0.0
 70
    32
 71
     5
 42
0.1379999999999999
 73
     0
 74
     0
 75
     0
  3
Standard
100
AcDbAlignedDimension
 13
0.2478063207610113
 23
0.2567845105621491
 33
0.0
 14
0.2626875711133043
 24
0.1187845105621492
 34
0.0
 50
90.0
100
AcDbRotatedDimension
  0
DIMENSION
  5
EBE
330
1F
100
AcDbEntity
  8
DIM
100
AcDbDimension
  2
*D9
 10
0.6942173457198954
 20
0.2890821370598251
 30
0.0
 11
0.6252174947831695
 21
0.297333666631545
 31
0.0
 70
    32
 71
     5
 42
0.1379997018734517
 73
     0
 74
     0
 75
     0
  3
Standard
100
AcDbAlignedDimension
 13
0.5562176438464438
 23
0.1876425055745707
 33
0.0
 14
0.6942173457198954
 24
0.1879343463923716
 34
0.0
100
AcDbRotatedDimension
  0
TEXT
  5
ED0
330
1F
100
AcDbEntity
  8
FORMAT
 62
     7
100
AcDbText
 10
0.1763950218552045
 20
0.1006756020077507
 30
0.0
 40
0.0094872963365043
  1
TOP
100
AcDbText
  0
TEXT
  5
ED6
330
1F
100
AcDbEntity
  8
FORMAT
 62
     7
100
AcDbText
 10
0.6064752054161055
 20
0.0989513290054959
 30
0.0
 40
0.0094872963365043
  1
FRONT
100
AcDbText
  0
ENDSEC
  0
SECTION
  2
OBJECTS
  0
DICTIONARY
  5
C
330
0
100
AcDbDictionary
281
     1
  3
ACAD_COLOR
350
FC
  3
ACAD_GROUP
350
D
  3
ACAD_LAYOUT
350
1A
  3
ACAD_MATERIAL
350
E7
  3
ACAD_MLINESTYLE
350
17
  3
ACAD_PLOTSETTINGS
350
19
  3
ACAD_PLOTSTYLENAME
350
E
  3
ACAD_TABLESTYLE
350
FD
  3
ACAD_VISUALSTYLE
350
EB
  3
AcDbVariableDictionary
350
3CB
  0
DICTIONARY
  5
4DC
330
8
100
AcDbDictionary
280
     1
281
     1
  0
DICTIONARY
  5
61E
330
2
100
AcDbDictionary
280
     1
281
     1
  3
ACAD_LAYERFILTERS
360
622
  3
ACLYDICTIONARY
360
621
  0
DICTIONARY
  5
40A
330
409
100
AcDbDictionary
280
     1
281
     1
  3
ACAD_SORTENTS
360
40B
  0
DICTIONARY
  5
FC
102
{ACAD_REACTORS
330
C
102
}
330
C
100
AcDbDictionary
281
     1
  0
DICTIONARY
  5
D
102
{ACAD_REACTORS
330
C
102
}
330
C
100
AcDbDictionary
281
     1
  0
DICTIONARY
  5
1A
102
{ACAD_REACTORS
330
C
102
}
330
C
100
AcDbDictionary
281
     1
  3
Layout1
350
1E
  3
Layout2
350
26
  3
Model
350
22
  0
DICTIONARY
  5
E7
102
{ACAD_REACTORS
330
C
102
}
330
C
100
AcDbDictionary
281
     1
  3
ByBlock
350
E9
  3
ByLayer
350
E8
  3
Global
350
EA
  0
DICTIONARY
  5
17
102
{ACAD_REACTORS
330
C
102
}
330
C
100
AcDbDictionary
281
     1
  3
Standard
350
18
  0
DICTIONARY
  5
19
102
{ACAD_REACTORS
330
C
102
}
330
C
100
AcDbDictionary
281
     1
  3
JPG
350
C06
  3
PDF
350
BFD
  0
ACDBDICTIONARYWDFLT
  5
E
102
{ACAD_REACTORS
330
C
102
}
330
C
100
AcDbDictionary
281
     1
  3
Normal
350
F
100
AcDbDictionaryWithDefault
340
F
  0
DICTIONARY
  5
FD
102
{ACAD_REACTORS
330
C
102
}
330
C
100
AcDbDictionary
281
     1
  3
Standard
350
FE
  0
DICTIONARY
  5
EB
102
{ACAD_REACTORS
330
C
102
}
330
C
100
AcDbDictionary
281
     1
  3
2dWireframe
350
F1
  3
3D Hidden
350
F3
  3
3dWireframe
350
F2
  3
Basic
350
F0
  3
Brighten
350
F7
  3
ColorChange
350
FB
  3
Conceptual
350
F4
  3
Dim
350
F6
  3
Facepattern
350
FA
  3
Flat
350
EC
  3
FlatWithEdges
350
ED
  3
Gouraud
350
EE
  3
GouraudWithEdges
350
EF
  3
Linepattern
350
F9
  3
Realistic
350
F5
  3
Thicken
350
F8
  0
DICTIONARY
  5
3CB
102
{ACAD_REACTORS
330
C
102
}
330
C
100
AcDbDictionary
281
     1
  3
CTABLESTYLE
350
3CC
  0
DICTIONARY
  5
622
102
{ACAD_REACTORS
330
61E
102
}
330
61E
100
AcDbDictionary
281
     1
  0
DICTIONARY
  5
621
102
{ACAD_REACTORS
330
61E
102
}
330
61E
100
AcDbDictionary
281
     1
1001
ACAD
1000
<All
  0
SORTENTSTABLE
  5
40B
102
{ACAD_REACTORS
330
40A
102
}
330
40A
100
AcDbSortentsTable
330
409
331
410
  5
69
331
40E
  5
6B
331
40F
  5
6D
331
40D
  5
6A
  0
LAYOUT
  5
1E
102
{ACAD_REACTORS
330
1A
102
}
330
1A
100
AcDbPlotSettings
  1

  2
none_device
  4

  6

 40
0.0
 41
0.0
 42
0.0
 43
0.0
 44
0.0
 45
0.0
 46
0.0
 47
0.0
 48
0.0
 49
0.0
140
0.0
141
0.0
142
1.0
143
1.0
 70
   688
 72
     0
 73
     0
 74
     5
  7

 75
    16
147
1.0
 76
     0
 77
     2
 78
   300
148
0.0
149
0.0
100
AcDbLayout
  1
Layout1
 70
     1
 71
     1
 10
0.0
 20
0.0
 11
12.0
 21
9.0
 12
0.0
 22
0.0
 32
0.0
 14
1.000000000000000E+20
 24
1.000000000000000E+20
 34
1.000000000000000E+20
 15
-1.000000000000000E+20
 25
-1.000000000000000E+20
 35
-1.000000000000000E+20
146
0.0
 13
0.0
 23
0.0
 33
0.0
 16
1.0
 26
0.0
 36
0.0
 17
0.0
 27
1.0
 37
0.0
 76
     0
330
1B
  0
LAYOUT
  5
26
102
{ACAD_REACTORS
330
1A
102
}
330
1A
100
AcDbPlotSettings
  1

  2
none_device
  4

  6

 40
0.0
 41
0.0
 42
0.0
 43
0.0
 44
0.0
 45
0.0
 46
0.0
 47
0.0
 48
0.0
 49
0.0
140
0.0
141
0.0
142
1.0
143
1.0
 70
   688
 72
     0
 73
     0
 74
     5
  7

 75
    16
147
1.0
 76
     0
 77
     2
 78
   300
148
0.0
149
0.0
100
AcDbLayout
  1
Layout2
 70
     1
 71
     2
 10
0.0
 20
0.0
 11
0.0
 21
0.0
 12
0.0
 22
0.0
 32
0.0
 14
0.0
 24
0.0
 34
0.0
 15
0.0
 25
0.0
 35
0.0
146
0.0
 13
0.0
 23
0.0
 33
0.0
 16
1.0
 26
0.0
 36
0.0
 17
0.0
 27
1.0
 37
0.0
 76
     0
330
23
  0
LAYOUT
  5
22
102
{ACAD_REACTORS
330
1A
102
}
330
1A
100
AcDbPlotSettings
  1

  2
none_device
  4
Letter_(8.50_x_11.00_Inches)
  6

 40
6.349999904632568
 41
6.349999904632568
 42
6.350006103515625
 43
6.350006103515625
 44
215.8999938964844
 45
279.3999938964844
 46
0.0
 47
0.0
 48
0.0
 49
0.0
140
0.0
141
0.0
142
1.0
143
2.383658744906425
 70
 11952
 72
     0
 73
     1
 74
     0
  7

 75
     0
147
0.4195231394329716
 76
     0
 77
     2
 78
   300
148
135.2900774710282
149
-27.52084133435472
100
AcDbLayout
  1
Model
 70
     1
 71
     0
 10
0.0
 20
0.0
 11
16.53543307086614
 21
11.69291338582677
 12
0.0
 22
0.0
 32
0.0
 14
0.0
 24
0.0
 34
0.0
 15
16.53543307086614
 25
11.69291338582677
 35
0.0
146
0.0
 13
0.0
 23
0.0
 33
0.0
 16
1.0
 26
0.0
 36
0.0
 17
0.0
 27
1.0
 37
0.0
 76
     0
330
1F
331
29
1001
ACAD_PSEXT
1000
None
1000
None
1000
Not applicable
1000
The layout will not be plotted unless a new plotter configuration name is selected.
1070
     0
  0
MATERIAL
  5
E9
102
{ACAD_REACTORS
330
E7
102
}
330
E7
100
AcDbMaterial
  1
ByBlock
  0
MATERIAL
  5
E8
102
{ACAD_REACTORS
330
E7
102
}
330
E7
100
AcDbMaterial
  1
ByLayer
  0
MATERIAL
  5
EA
102
{ACAD_REACTORS
330
E7
102
}
330
E7
100
AcDbMaterial
  1
Global
  0
MLINESTYLE
  5
18
102
{ACAD_REACTORS
330
17
102
}
330
17
100
AcDbMlineStyle
  2
STANDARD
 70
     0
  3

 62
   256
 51
90.0
 52
90.0
 71
     2
 49
0.5
 62
   256
  6
BYLAYER
 49
-0.5
 62
   256
  6
BYLAYER
  0
PLOTSETTINGS
  5
C06
102
{ACAD_REACTORS
330
19
102
}
330
19
100
AcDbPlotSettings
  1
JPG
  2
PublishToWeb JPG.pc3
  4
User-1
  6

 40
75.0
 41
75.0
 42
75.000244140625
 43
75.000244140625
 44
2550.0
 45
3300.0
 46
7.281523769336217
 47
0.0
 48
0.0
 49
0.0
140
1.5635064362559
141
1.184014582795735
142
1.0
143
0.0004963512880747
 70
 11956
 72
     2
 73
     1
 74
     4
  7

 75
     0
147
2014.702135414691
 76
     0
 77
     2
 78
   300
148
0.0
149
0.0
1001
ACAD_PSEXT
1000
PublishToWeb JPG.pc3
1000
Independent JPEG Group JFIF (JPEG Compression)
1000
File
1000

1070
     0
  0
PLOTSETTINGS
  5
BFD
102
{ACAD_REACTORS
330
19
102
}
330
19
100
AcDbPlotSettings
  1
PDF
  2
DWG To PDF.pc3
  4
ISO_expand_A1_(841.00_x_594.00_MM)
  6

 40
5.793749809265136
 41
10.79374980926513
 42
5.79376220703125
 43
10.79376220703125
 44
841.0
 45
594.0
 46
36.76722948979284
 47
0.0
 48
0.0
 49
0.0
140
1.5635064362559
141
1.184014582795735
142
1.0
143
0.0020684639270649
 70
 11956
 72
     1
 73
     0
 74
     4
  7

 75
     0
147
483.4505387865272
 76
     0
 77
     2
 78
   300
148
0.0
149
0.0
1001
ACAD_PSEXT
1000
DWG To PDF.pc3
1000
PDF
1000
File
1000

1070
     0
  0
ACDBPLACEHOLDER
  5
F
102
{ACAD_REACTORS
330
E
102
}
330
E
  0
TABLESTYLE
  5
FE
102
{ACAD_REACTORS
330
FD
102
}
330
FD
100
AcDbTableStyle
  3
Standard
 70
     0
 71
     0
 40
0.06
 41
0.06
280
     0
281
     0
  7
Standard
140
0.18
170
     2
 62
     0
 63
     7
283
     0
 90
      512
 91
        0
  1

274
    -2
284
     1
 64
     0
275
    -2
285
     1
 65
     0
276
    -2
286
     1
 66
     0
277
    -2
287
     1
 67
     0
278
    -2
288
     1
 68
     0
279
    -2
289
     1
 69
     0
  7
Standard
140
0.25
170
     5
 62
     0
 63
     7
283
     0
 90
      512
 91
        0
  1

274
    -2
284
     1
 64
     0
275
    -2
285
     1
 65
     0
276
    -2
286
     1
 66
     0
277
    -2
287
     1
 67
     0
278
    -2
288
     1
 68
     0
279
    -2
289
     1
 69
     0
  7
Standard
140
0.18
170
     5
 62
     0
 63
     7
283
     0
 90
      512
 91
        0
  1

274
    -2
284
     1
 64
     0
275
    -2
285
     1
 65
     0
276
    -2
286
     1
 66
     0
277
    -2
287
     1
 67
     0
278
    -2
288
     1
 68
     0
279
    -2
289
     1
 69
     0
  0
VISUALSTYLE
  5
F1
102
{ACAD_REACTORS
330
EB
102
}
330
EB
100
AcDbVisualStyle
  2
2dWireframe
 70
     4
 71
     0
 72
     2
 73
     0
 90
        0
 40
-0.6
 41
-30.0
 62
     5
 63
     7
421
 16777215
 74
     1
 91
        4
 64
     7
 65
   257
 75
     1
175
     1
 42
1.0
 92
        0
 66
   257
 43
1.0
 76
     1
 77
     6
 78
     2
 67
     7
 79
     5
170
     0
171
     0
290
     0
174
     0
 93
        1
 44
0.0
173
     0
291
     0
 45
0.0
  0
VISUALSTYLE
  5
F3
102
{ACAD_REACTORS
330
EB
102
}
330
EB
100
AcDbVisualStyle
  2
3D Hidden
 70
     6
 71
     1
 72
     2
 73
     2
 90
        0
 40
-0.6
 41
-30.0
 62
     5
 63
     7
421
 16777215
 74
     2
 91
        2
 64
     7
 65
   257
 75
     2
175
     1
 42
40.0
 92
        0
 66
   257
 43
1.0
 76
     1
 77
     6
 78
     2
 67
     7
 79
     3
170
     0
171
     0
290
     0
174
     0
 93
        1
 44
0.0
173
     0
291
     0
 45
0.0
  0
VISUALSTYLE
  5
F2
102
{ACAD_REACTORS
330
EB
102
}
330
EB
100
AcDbVisualStyle
  2
3dWireframe
 70
     5
 71
     0
 72
     2
 73
     0
 90
        0
 40
-0.6
 41
-30.0
 62
     5
 63
     7
421
 16777215
 74
     1
 91
        4
 64
     7
 65
   257
 75
     1
175
     1
 42
1.0
 92
        0
 66
   257
 43
1.0
 76
     1
 77
     6
 78
     2
 67
     7
 79
     5
170
     0
171
     0
290
     0
174
     0
 93
        1
 44
0.0
173
     0
291
     0
 45
0.0
  0
VISUALSTYLE
  5
F0
102
{ACAD_REACTORS
330
EB
102
}
330
EB
100
AcDbVisualStyle
  2
Basic
 70
     7
 71
     1
 72
     0
 73
     1
 90
        0
 40
-0.6
 41
-30.0
 62
     5
 63
     7
421
 16777215
 74
     0
 91
        4
 64
     7
 65
   257
 75
     1
175
     1
 42
1.0
 92
        8
 66
     7
 43
1.0
 76
     1
 77
     6
 78
     2
 67
     7
 79
     5
170
     0
171
     0
290
     0
174
     0
 93
        1
 44
0.0
173
     0
291
     1
 45
0.0
  0
VISUALSTYLE
  5
F7
102
{ACAD_REACTORS
330
EB
102
}
330
EB
100
AcDbVisualStyle
  2
Brighten
 70
    12
 71
     2
 72
     2
 73
     0
 90
        0
 40
-0.6
 41
-30.0
 62
     5
 63
     7
421
 16777215
 74
     1
 91
        4
 64
     7
 65
   257
 75
     1
175
     1
 42
1.0
 92
        8
 66
     7
 43
1.0
 76
     1
 77
     6
 78
     2
 67
     7
 79
     5
170
     0
171
     0
290
     0
174
     0
 93
        1
 44
50.0
173
     0
291
     1
 45
0.0
  0
VISUALSTYLE
  5
FB
102
{ACAD_REACTORS
330
EB
102
}
330
EB
100
AcDbVisualStyle
  2
ColorChange
 70
    16
 71
     2
 72
     2
 73
     3
 90
        0
 40
-0.6
 41
-30.0
 62
     5
 63
     8
421
  8421504
 74
     1
 91
        4
 64
     7
 65
   257
 75
     1
175
     1
 42
1.0
 92
        8
 66
     8
424
  8421504
 43
1.0
 76
     1
 77
     6
 78
     2
 67
     7
 79
     5
170
     0
171
     0
290
     0
174
     0
 93
        1
 44
0.0
173
     0
291
     1
 45
0.0
  0
VISUALSTYLE
  5
F4
102
{ACAD_REACTORS
330
EB
102
}
330
EB
100
AcDbVisualStyle
  2
Conceptual
 70
     9
 71
     3
 72
     2
 73
     0
 90
        0
 40
-0.6
 41
-30.0
 62
     5
 63
     7
421
 16777215
 74
     2
 91
        2
 64
     7
 65
   257
 75
     1
175
     1
 42
40.0
 92
        8
 66
     7
 43
1.0
 76
     1
 77
     6
 78
     2
 67
     7
 79
     3
170
     0
171
     0
290
     0
174
     0
 93
        1
 44
0.0
173
     0
291
     0
 45
0.0
  0
VISUALSTYLE
  5
F6
102
{ACAD_REACTORS
330
EB
102
}
330
EB
100
AcDbVisualStyle
  2
Dim
 70
    11
 71
     2
 72
     2
 73
     0
 90
        0
 40
-0.6
 41
-30.0
 62
     5
 63
     7
421
 16777215
 74
     1
 91
        4
 64
     7
 65
   257
 75
     1
175
     1
 42
1.0
 92
        8
 66
     7
 43
1.0
 76
     1
 77
     6
 78
     2
 67
     7
 79
     5
170
     0
171
     0
290
     0
174
     0
 93
        1
 44
-50.0
173
     0
291
     1
 45
0.0
  0
VISUALSTYLE
  5
FA
102
{ACAD_REACTORS
330
EB
102
}
330
EB
100
AcDbVisualStyle
  2
Facepattern
 70
    15
 71
     2
 72
     2
 73
     0
 90
        0
 40
-0.6
 41
-30.0
 62
     5
 63
     7
421
 16777215
 74
     1
 91
        4
 64
     7
 65
   257
 75
     1
175
     1
 42
1.0
 92
        8
 66
     7
 43
1.0
 76
     1
 77
     6
 78
     2
 67
     7
 79
     5
170
     0
171
     0
290
     0
174
     0
 93
        1
 44
0.0
173
     0
291
     1
 45
0.0
  0
VISUALSTYLE
  5
EC
102
{ACAD_REACTORS
330
EB
102
}
330
EB
100
AcDbVisualStyle
  2
Flat
 70
     0
 71
     2
 72
     1
 73
     1
 90
        2
 40
-0.6
 41
30.0
 62
     5
 63
     7
421
 16777215
 74
     0
 91
        4
 64
     7
 65
   257
 75
     1
175
     1
 42
1.0
 92
        8
 66
     7
 43
1.0
 76
     1
 77
     6
 78
     2
 67
     7
 79
     5
170
     0
171
     0
290
     0
174
     0
 93
       13
 44
0.0
173
     0
291
     1
 45
0.0
  0
VISUALSTYLE
  5
ED
102
{ACAD_REACTORS
330
EB
102
}
330
EB
100
AcDbVisualStyle
  2
FlatWithEdges
 70
     1
 71
     2
 72
     1
 73
     1
 90
        2
 40
-0.6
 41
30.0
 62
     5
 63
     7
421
 16777215
 74
     1
 91
        4
 64
     7
 65
   257
 75
     1
175
     1
 42
1.0
 92
        0
 66
   257
 43
1.0
 76
     1
 77
     6
 78
     2
 67
     7
 79
     5
170
     0
171
     0
290
     0
174
     0
 93
       13
 44
0.0
173
     0
291
     1
 45
0.0
  0
VISUALSTYLE
  5
EE
102
{ACAD_REACTORS
330
EB
102
}
330
EB
100
AcDbVisualStyle
  2
Gouraud
 70
     2
 71
     2
 72
     2
 73
     1
 90
        2
 40
-0.6
 41
30.0
 62
     5
 63
     7
421
 16777215
 74
     0
 91
        4
 64
     7
 65
   257
 75
     1
175
     1
 42
1.0
 92
        0
 66
     7
 43
1.0
 76
     1
 77
     6
 78
     2
 67
     7
 79
     5
170
     0
171
     0
290
     0
174
     0
 93
       13
 44
0.0
173
     0
291
     1
 45
0.0
  0
VISUALSTYLE
  5
EF
102
{ACAD_REACTORS
330
EB
102
}
330
EB
100
AcDbVisualStyle
  2
GouraudWithEdges
 70
     3
 71
     2
 72
     2
 73
     1
 90
        2
 40
-0.6
 41
30.0
 62
     5
 63
     7
421
 16777215
 74
     1
 91
        4
 64
     7
 65
   257
 75
     1
175
     1
 42
1.0
 92
        0
 66
   257
 43
1.0
 76
     1
 77
     6
 78
     2
 67
     7
 79
     5
170
     0
171
     0
290
     0
174
     0
 93
       13
 44
0.0
173
     0
291
     1
 45
0.0
  0
VISUALSTYLE
  5
F9
102
{ACAD_REACTORS
330
EB
102
}
330
EB
100
AcDbVisualStyle
  2
Linepattern
 70
    14
 71
     2
 72
     2
 73
     0
 90
        0
 40
-0.6
 41
-30.0
 62
     5
 63
     7
421
 16777215
 74
     1
 91
        4
 64
     7
 65
   257
 75
     7
175
     7
 42
1.0
 92
        8
 66
     7
 43
1.0
 76
     1
 77
     6
 78
     2
 67
     7
 79
     5
170
     0
171
     0
290
     0
174
     0
 93
        1
 44
0.0
173
     0
291
     1
 45
0.0
  0
VISUALSTYLE
  5
F5
102
{ACAD_REACTORS
330
EB
102
}
330
EB
100
AcDbVisualStyle
  2
Realistic
 70
     8
 71
     2
 72
     2
 73
     0
 90
        0
 40
-0.6
 41
-30.0
 62
     5
 63
     7
421
 16777215
 74
     1
 91
        0
 64
     7
 65
   257
 75
     1
175
     1
 42
1.0
 92
        8
 66
     8
424
  7895160
 43
1.0
 76
     1
 77
     6
 78
     2
 67
     7
 79
     5
170
     0
171
     0
290
     0
174
     0
 93
       13
 44
0.0
173
     0
291
     0
 45
0.0
  0
VISUALSTYLE
  5
F8
102
{ACAD_REACTORS
330
EB
102
}
330
EB
100
AcDbVisualStyle
  2
Thicken
 70
    13
 71
     2
 72
     2
 73
     0
 90
        0
 40
-0.6
 41
-30.0
 62
     5
 63
     7
421
 16777215
 74
     1
 91
        4
 64
     7
 65
   257
 75
     1
175
     1
 42
1.0
 92
       12
 66
     7
 43
1.0
 76
     1
 77
     6
 78
     2
 67
     7
 79
     5
170
     0
171
     0
290
     0
174
     0
 93
        1
 44
0.0
173
     0
291
     1
 45
0.0
  0
DICTIONARYVAR
  5
3CC
102
{ACAD_REACTORS
330
3CB
102
}
330
3CB
100
DictionaryVariables
280
     0
  1
STANDARD
  0
ENDSEC
  0
EOF
