  0
SECTION
  2
HEADER
  9
$ACADVER
  1
AC1021
  9
$ACADMAINTVER
 70
     1
  9
$DWGCODEPAGE
  3
ANSI_1252
  9
$LASTSAVEDBY
  1
server
  9
$INSBASE
 10
0.0
 20
0.0
 30
0.0
  9
$EXTMIN
 10
0.0
 20
0.0
 30
0.0
  9
$EXTMAX
 10
3.908766090639749
 20
2.960036456989338
 30
0.0
  9
$LIMMIN
 10
0.0
 20
0.0
  9
$LIMMAX
 10
16.53543307086614
 20
11.69291338582677
  9
$ORTHOMODE
 70
     1
  9
$REGENMODE
 70
     1
  9
$FILLMODE
 70
     1
  9
$QTEXTMODE
 70
     0
  9
$MIRRTEXT
 70
     1
  9
$LTSCALE
 40
1.0
  9
$ATTMODE
 70
     1
  9
$TEXTSIZE
 40
0.2
  9
$TRACEWID
 40
0.05
  9
$TEXTSTYLE
  7
SLDTEXTSTYLE0
  9
$CLAYER
  8
DIM
  9
$CELTYPE
  6
ByLayer
  9
$CECOLOR
 62
   256
  9
$CELTSCALE
 40
1.0
  9
$DISPSILH
 70
     0
  9
$DIMSCALE
 40
1.0
  9
$DIMASZ
 40
0.045
  9
$DIMEXO
 40
0.04
  9
$DIMDLI
 40
0.38
  9
$DIMRND
 40
0.0
  9
$DIMDLE
 40
0.0
  9
$DIMEXE
 40
0.04
  9
$DIMTP
 40
0.0
  9
$DIMTM
 40
0.0
  9
$DIMTXT
 40
0.045
  9
$DIMCEN
 40
0.09
  9
$DIMTSZ
 40
0.0
  9
$DIMTOL
 70
     0
  9
$DIMLIM
 70
     0
  9
$DIMTIH
 70
     0
  9
$DIMTOH
 70
     0
  9
$DIMSE1
 70
     0
  9
$DIMSE2
 70
     0
  9
$DIMTAD
 70
     1
  9
$DIMZIN
 70
     0
  9
$DIMBLK
  1

  9
$DIMASO
 70
     1
  9
$DIMSHO
 70
     1
  9
$DIMPOST
  1

  9
$DIMAPOST
  1

  9
$DIMALT
 70
     0
  9
$DIMALTD
 70
     2
  9
$DIMALTF
 40
25.4
  9
$DIMLFAC
 40
1.0
  9
$DIMTOFL
 70
     1
  9
$DIMTVP
 40
0.0
  9
$DIMTIX
 70
     0
  9
$DIMSOXD
 70
     0
  9
$DIMSAH
 70
     0
  9
$DIMBLK1
  1

  9
$DIMBLK2
  1

  9
$DIMSTYLE
  2
Standard
  9
$DIMCLRD
 70
     0
  9
$DIMCLRE
 70
     0
  9
$DIMCLRT
 70
     0
  9
$DIMTFAC
 40
1.0
  9
$DIMGAP
 40
0.01
  9
$DIMJUST
 70
     0
  9
$DIMSD1
 70
     0
  9
$DIMSD2
 70
     0
  9
$DIMTOLJ
 70
     1
  9
$DIMTZIN
 70
     0
  9
$DIMALTZ
 70
     0
  9
$DIMALTTZ
 70
     0
  9
$DIMUPT
 70
     0
  9
$DIMDEC
 70
     3
  9
$DIMTDEC
 70
     3
  9
$DIMALTU
 70
     2
  9
$DIMALTTD
 70
     2
  9
$DIMTXSTY
  7
Standard
  9
$DIMAUNIT
 70
     0
  9
$DIMADEC
 70
     0
  9
$DIMALTRND
 40
0.0
  9
$DIMAZIN
 70
     0
  9
$DIMDSEP
 70
    46
  9
$DIMATFIT
 70
     3
  9
$DIMFRAC
 70
     0
  9
$DIMLDRBLK
  1

  9
$DIMLUNIT
 70
     2
  9
$DIMLWD
 70
    -2
  9
$DIMLWE
 70
    -2
  9
$DIMTMOVE
 70
     0
  9
$DIMFXL
 40
1.0
  9
$DIMFXLON
 70
     0
  9
$DIMJOGANG
 40
0.7853981633974483
  9
$DIMTFILL
 70
     0
  9
$DIMTFILLCLR
 70
     0
  9
$DIMARCSYM
 70
     0
  9
$DIMLTYPE
  6

  9
$DIMLTEX1
  6

  9
$DIMLTEX2
  6

  9
$LUNITS
 70
     2
  9
$LUPREC
 70
     2
  9
$SKETCHINC
 40
0.1
  9
$FILLETRAD
 40
0.5
  9
$AUNITS
 70
     0
  9
$AUPREC
 70
     2
  9
$MENU
  1
.
  9
$ELEVATION
 40
0.0
  9
$PELEVATION
 40
0.0
  9
$THICKNESS
 40
0.0
  9
$LIMCHECK
 70
     0
  9
$CHAMFERA
 40
0.5
  9
$CHAMFERB
 40
0.5
  9
$CHAMFERC
 40
1.0
  9
$CHAMFERD
 40
0.0
  9
$SKPOLY
 70
     0
  9
$TDCREATE
 40
2456770.618398797
  9
$TDUCREATE
 40
2456770.389232130
  9
$TDUPDATE
 40
2456771.993198056
  9
$TDUUPDATE
 40
2456771.764031389
  9
$TDINDWG
 40
0.0216639583
  9
$TDUSRTIMER
 40
0.0216639583
  9
$USRTIMER
 70
     1
  9
$ANGBASE
 50
0.0
  9
$ANGDIR
 70
     0
  9
$PDMODE
 70
     0
  9
$PDSIZE
 40
-1.0
  9
$PLINEWID
 40
0.0
  9
$SPLFRAME
 70
     0
  9
$SPLINETYPE
 70
     6
  9
$SPLINESEGS
 70
     8
  9
$HANDSEED
  5
DB6
  9
$SURFTAB1
 70
     6
  9
$SURFTAB2
 70
     6
  9
$SURFTYPE
 70
     6
  9
$SURFU
 70
     6
  9
$SURFV
 70
     6
  9
$UCSBASE
  2

  9
$UCSNAME
  2

  9
$UCSORG
 10
0.0
 20
0.0
 30
0.0
  9
$UCSXDIR
 10
1.0
 20
0.0
 30
0.0
  9
$UCSYDIR
 10
0.0
 20
1.0
 30
0.0
  9
$UCSORTHOREF
  2

  9
$UCSORTHOVIEW
 70
     0
  9
$UCSORGTOP
 10
0.0
 20
0.0
 30
0.0
  9
$UCSORGBOTTOM
 10
0.0
 20
0.0
 30
0.0
  9
$UCSORGLEFT
 10
0.0
 20
0.0
 30
0.0
  9
$UCSORGRIGHT
 10
0.0
 20
0.0
 30
0.0
  9
$UCSORGFRONT
 10
0.0
 20
0.0
 30
0.0
  9
$UCSORGBACK
 10
0.0
 20
0.0
 30
0.0
  9
$PUCSBASE
  2

  9
$PUCSNAME
  2

  9
$PUCSORG
 10
0.0
 20
0.0
 30
0.0
  9
$PUCSXDIR
 10
1.0
 20
0.0
 30
0.0
  9
$PUCSYDIR
 10
0.0
 20
1.0
 30
0.0
  9
$PUCSORTHOREF
  2

  9
$PUCSORTHOVIEW
 70
     0
  9
$PUCSORGTOP
 10
0.0
 20
0.0
 30
0.0
  9
$PUCSORGBOTTOM
 10
0.0
 20
0.0
 30
0.0
  9
$PUCSORGLEFT
 10
0.0
 20
0.0
 30
0.0
  9
$PUCSORGRIGHT
 10
0.0
 20
0.0
 30
0.0
  9
$PUCSORGFRONT
 10
0.0
 20
0.0
 30
0.0
  9
$PUCSORGBACK
 10
0.0
 20
0.0
 30
0.0
  9
$USERI1
 70
     0
  9
$USERI2
 70
     0
  9
$USERI3
 70
     0
  9
$USERI4
 70
     0
  9
$USERI5
 70
     0
  9
$USERR1
 40
0.0
  9
$USERR2
 40
0.0
  9
$USERR3
 40
0.0
  9
$USERR4
 40
0.0
  9
$USERR5
 40
0.0
  9
$WORLDVIEW
 70
     1
  9
$SHADEDGE
 70
     3
  9
$SHADEDIF
 70
    70
  9
$TILEMODE
 70
     1
  9
$MAXACTVP
 70
    64
  9
$PINSBASE
 10
0.0
 20
0.0
 30
0.0
  9
$PLIMCHECK
 70
     0
  9
$PEXTMIN
 10
1.000000000000000E+20
 20
1.000000000000000E+20
 30
1.000000000000000E+20
  9
$PEXTMAX
 10
-1.000000000000000E+20
 20
-1.000000000000000E+20
 30
-1.000000000000000E+20
  9
$PLIMMIN
 10
0.0
 20
0.0
  9
$PLIMMAX
 10
12.0
 20
9.0
  9
$UNITMODE
 70
     0
  9
$VISRETAIN
 70
     1
  9
$PLINEGEN
 70
     0
  9
$PSLTSCALE
 70
     1
  9
$TREEDEPTH
 70
  3020
  9
$CMLSTYLE
  2
Standard
  9
$CMLJUST
 70
     0
  9
$CMLSCALE
 40
1.0
  9
$PROXYGRAPHICS
 70
     1
  9
$MEASUREMENT
 70
     0
  9
$CELWEIGHT
370
    -1
  9
$ENDCAPS
280
     0
  9
$JOINSTYLE
280
     0
  9
$LWDISPLAY
290
     1
  9
$INSUNITS
 70
     1
  9
$HYPERLINKBASE
  1

  9
$STYLESHEET
  1

  9
$XEDIT
290
     1
  9
$CEPSNTYPE
380
     0
  9
$PSTYLEMODE
290
     1
  9
$FINGERPRINTGUID
  2
{F2AA3EC0-00D6-491C-8527-48725ABC683D}
  9
$VERSIONGUID
  2
{C0695797-FE66-4303-8A1F-9865E42A0792}
  9
$EXTNAMES
290
     1
  9
$PSVPSCALE
 40
0.0
  9
$OLESTARTUP
290
     0
  9
$SORTENTS
280
   127
  9
$INDEXCTL
280
     0
  9
$HIDETEXT
280
     0
  9
$XCLIPFRAME
290
     0
  9
$HALOGAP
280
     0
  9
$OBSCOLOR
 70
   257
  9
$OBSLTYPE
280
     0
  9
$INTERSECTIONDISPLAY
280
     0
  9
$INTERSECTIONCOLOR
 70
   257
  9
$DIMASSOC
280
     1
  9
$PROJECTNAME
  1

  9
$CAMERADISPLAY
290
     0
  9
$LENSLENGTH
 40
50.0
  9
$CAMERAHEIGHT
 40
0.0
  9
$STEPSPERSEC
 40
2.0
  9
$STEPSIZE
 40
6.0
  9
$3DDWFPREC
 40
2.0
  9
$PSOLWIDTH
 40
0.25
  9
$PSOLHEIGHT
 40
4.0
  9
$LOFTANG1
 40
1.570796326794896
  9
$LOFTANG2
 40
1.570796326794896
  9
$LOFTMAG1
 40
0.0
  9
$LOFTMAG2
 40
0.0
  9
$LOFTPARAM
 70
     7
  9
$LOFTNORMALS
280
     1
  9
$LATITUDE
 40
37.795
  9
$LONGITUDE
 40
-122.394
  9
$NORTHDIRECTION
 40
0.0
  9
$TIMEZONE
 70
 -8000
  9
$LIGHTGLYPHDISPLAY
280
     1
  9
$TILEMODELIGHTSYNCH
280
     1
  9
$CMATERIAL
347
E8
  9
$SOLIDHIST
280
     1
  9
$SHOWHIST
280
     1
  9
$DWFFRAME
280
     2
  9
$DGNFRAME
280
     0
  9
$REALWORLDSCALE
290
     1
  9
$INTERFERECOLOR
 62
     1
  9
$INTERFEREOBJVS
345
F5
  9
$INTERFEREVPVS
346
F2
  9
$CSHADOW
280
     0
  9
$SHADOWPLANELOCATION
 40
0.0
  0
ENDSEC
  0
SECTION
  2
CLASSES
  0
CLASS
  1
ACDBDICTIONARYWDFLT
  2
AcDbDictionaryWithDefault
  3
ObjectDBX Classes
 90
        0
 91
        1
280
     0
281
     0
  0
CLASS
  1
VISUALSTYLE
  2
AcDbVisualStyle
  3
ObjectDBX Classes
 90
     4095
 91
       16
280
     0
281
     0
  0
CLASS
  1
MATERIAL
  2
AcDbMaterial
  3
ObjectDBX Classes
 90
     1024
 91
        3
280
     0
281
     0
  0
CLASS
  1
TABLESTYLE
  2
AcDbTableStyle
  3
ObjectDBX Classes
 90
     4095
 91
        1
280
     0
281
     0
  0
CLASS
  1
DICTIONARYVAR
  2
AcDbDictionaryVar
  3
ObjectDBX Classes
 90
        0
 91
        1
280
     0
281
     0
  0
CLASS
  1
SORTENTSTABLE
  2
AcDbSortentsTable
  3
ObjectDBX Classes
 90
        0
 91
        1
280
     0
281
     0
  0
CLASS
  1
PLOTSETTINGS
  2
AcDbPlotSettings
  3
ObjectDBX Classes
 90
        0
 91
        2
280
     0
281
     0
  0
ENDSEC
  0
SECTION
  2
TABLES
  0
TABLE
  2
VPORT
  5
8
102
{ACAD_XDICTIONARY
360
4DC
102
}
330
0
100
AcDbSymbolTable
 70
     1
  0
VPORT
  5
29
330
8
100
AcDbSymbolTableRecord
100
AcDbViewportTableRecord
  2
*Active
 70
     0
 10
0.0
 20
0.0
 11
1.0
 21
1.0
 12
1.953995192017572
 22
1.480349792463695
 13
0.0
 23
0.0
 14
0.5
 24
0.5
 15
0.5
 25
0.5
 16
0.0
 26
0.0
 36
1.0
 17
0.0
 27
0.0
 37
0.0
 40
2.998372939173138
 41
1.922465208747514
 42
50.0
 43
0.0
 44
0.0
 50
0.0
 51
0.0
 71
     0
 72
  2000
 73
     1
 74
     3
 75
     0
 76
     0
 77
     0
 78
     0
281
     0
 65
     1
110
0.0
120
0.0
130
0.0
111
1.0
121
0.0
131
0.0
112
0.0
122
1.0
132
0.0
 79
     0
146
0.0
348
F1
 60
     3
 61
     5
292
     1
282
     1
141
0.0
142
0.0
 63
   250
421
  3355443
  0
ENDTAB
  0
TABLE
  2
LTYPE
  5
5
330
0
100
AcDbSymbolTable
 70
     2
  0
LTYPE
  5
14
330
5
100
AcDbSymbolTableRecord
100
AcDbLinetypeTableRecord
  2
ByBlock
 70
     0
  3

 72
    65
 73
     0
 40
0.0
  0
LTYPE
  5
15
330
5
100
AcDbSymbolTableRecord
100
AcDbLinetypeTableRecord
  2
ByLayer
 70
     0
  3

 72
    65
 73
     0
 40
0.0
  0
LTYPE
  5
16
330
5
100
AcDbSymbolTableRecord
100
AcDbLinetypeTableRecord
  2
Continuous
 70
     0
  3
Solid line
 72
    65
 73
     0
 40
0.0
  0
LTYPE
  5
C9A
330
5
100
AcDbSymbolTableRecord
100
AcDbLinetypeTableRecord
  2
HIDDEN
 70
     0
  3
Hidden __ __ __ __ __ __ __ __ __ __ __ __ __ __
 72
    65
 73
     2
 40
0.075
 49
0.05
 74
     0
 49
-0.025
 74
     0
  0
ENDTAB
  0
TABLE
  2
LAYER
  5
2
102
{ACAD_XDICTIONARY
360
61E
102
}
330
0
100
AcDbSymbolTable
 70
     4
  0
LAYER
  5
10
330
2
100
AcDbSymbolTableRecord
100
AcDbLayerTableRecord
  2
0
 70
     0
 62
     7
  6
Continuous
370
    -3
390
F
347
EA
  0
LAYER
  5
44
330
2
100
AcDbSymbolTableRecord
100
AcDbLayerTableRecord
  2
FORMAT
 70
     0
 62
     7
  6
Continuous
370
    -3
390
F
347
EA
  0
LAYER
  5
125
330
2
100
AcDbSymbolTableRecord
100
AcDbLayerTableRecord
  2
Defpoints
 70
     0
 62
     7
  6
Continuous
290
     0
370
    -3
390
F
347
EA
  0
LAYER
  5
61C
330
2
100
AcDbSymbolTableRecord
100
AcDbLayerTableRecord
  2
DIM
 70
     0
 62
     8
  6
Continuous
370
    -3
390
F
347
EA
1001
AcAecLayerStandard
1000

1000

  0
ENDTAB
  0
TABLE
  2
STYLE
  5
3
330
0
100
AcDbSymbolTable
 70
     5
  0
STYLE
  5
11
330
3
100
AcDbSymbolTableRecord
100
AcDbTextStyleTableRecord
  2
Standard
 70
     0
 40
0.0
 41
1.0
 50
0.0
 71
     0
 42
0.2
  3
GOTHIC.TTF
  4

1001
ACAD
1000
Century Gothic
1071
       34
  0
STYLE
  5
66
330
3
100
AcDbSymbolTableRecord
100
AcDbTextStyleTableRecord
  2
SLDTEXTSTYLE0
 70
     0
 40
0.0
 41
0.75
 50
0.0
 71
     0
 42
0.2
  3
GOTHIC.TTF
  4

1001
ACAD
1000
Century Gothic
1071
       34
  0
STYLE
  5
6A
330
3
100
AcDbSymbolTableRecord
100
AcDbTextStyleTableRecord
  2
SLDTEXTSTYLE1
 70
     0
 40
0.0
 41
0.6875
 50
0.0
 71
     0
 42
0.2
  3
GOTHIC.TTF
  4

1001
ACAD
1000
Century Gothic
1071
       34
  0
STYLE
  5
412
330
3
100
AcDbSymbolTableRecord
100
AcDbTextStyleTableRecord
  2
style2
 70
     0
 40
0.0
 41
1.0
 50
0.0
 71
     0
 42
0.2
  3

  4

1001
ACAD
1000
Euphemia
1071
       34
  0
STYLE
  5
B37
330
3
100
AcDbSymbolTableRecord
100
AcDbTextStyleTableRecord
  2
style1
 70
     0
 40
0.0
 41
1.0
 50
0.0
 71
     0
 42
0.2
  3

  4

1001
ACAD
1000
@MS PGothic
1071
    32802
  0
ENDTAB
  0
TABLE
  2
VIEW
  5
6
330
0
100
AcDbSymbolTable
 70
     0
  0
ENDTAB
  0
TABLE
  2
UCS
  5
7
330
0
100
AcDbSymbolTable
 70
     0
  0
ENDTAB
  0
TABLE
  2
APPID
  5
9
330
0
100
AcDbSymbolTable
 70
     5
  0
APPID
  5
12
330
9
100
AcDbSymbolTableRecord
100
AcDbRegAppTableRecord
  2
ACAD
 70
     0
  0
APPID
  5
3B8
330
9
100
AcDbSymbolTableRecord
100
AcDbRegAppTableRecord
  2
ACAD_EXEMPT_FROM_CAD_STANDARDS
 70
     0
  0
APPID
  5
413
330
9
100
AcDbSymbolTableRecord
100
AcDbRegAppTableRecord
  2
ACAD_PSEXT
 70
     0
  0
APPID
  5
61D
330
9
100
AcDbSymbolTableRecord
100
AcDbRegAppTableRecord
  2
AcAecLayerStandard
 70
     0
  0
APPID
  5
B19
330
9
100
AcDbSymbolTableRecord
100
AcDbRegAppTableRecord
  2
PE_URL
 70
     0
  0
ENDTAB
  0
TABLE
  2
DIMSTYLE
  5
A
330
0
100
AcDbSymbolTable
 70
     1
100
AcDbDimStyleTable
 71
     1
340
27
  0
DIMSTYLE
105
27
102
{ACAD_REACTORS
330
D11
330
D32
330
D40
102
}
330
A
100
AcDbSymbolTableRecord
100
AcDbDimStyleTableRecord
  2
Standard
 70
     0
 41
0.045
 42
0.04
 44
0.04
 73
     0
 74
     0
 77
     1
140
0.045
147
0.01
172
     1
271
     3
272
     3
340
11
  0
ENDTAB
  0
TABLE
  2
BLOCK_RECORD
  5
1
330
0
100
AcDbSymbolTable
 70
     9
  0
BLOCK_RECORD
  5
1F
330
1
100
AcDbSymbolTableRecord
100
AcDbBlockTableRecord
  2
*Model_Space
340
22
 70
     0
280
     1
281
     0
  0
BLOCK_RECORD
  5
1B
330
1
100
AcDbSymbolTableRecord
100
AcDbBlockTableRecord
  2
*Paper_Space
340
1E
 70
     0
280
     1
281
     0
  0
BLOCK_RECORD
  5
23
330
1
100
AcDbSymbolTableRecord
100
AcDbBlockTableRecord
  2
*Paper_Space0
340
26
 70
     0
280
     1
281
     0
  0
BLOCK_RECORD
  5
3F9
330
1
100
AcDbSymbolTableRecord
100
AcDbBlockTableRecord
  2
Block3
340
0
102
{BLKREFS
331
407
102
}
 70
     0
280
     1
281
     0
  0
BLOCK_RECORD
  5
405
330
1
100
AcDbSymbolTableRecord
100
AcDbBlockTableRecord
  2
Block2
340
0
102
{BLKREFS
331
44A
102
}
 70
     0
280
     1
281
     0
  0
BLOCK_RECORD
  5
409
102
{ACAD_XDICTIONARY
360
40A
102
}
330
1
100
AcDbSymbolTableRecord
100
AcDbBlockTableRecord
  2
amazon
340
0
310
2800000020000000200000000100080000000000000400000000000000000000000000000000000000000000000080000080000000808000800000008000800080800000C0C0C000C0DCC000F0CAA6000020400000206000002080000020A0000020C0000020E00000400000004020000040400000406000004080000040A0
310
000040C0000040E00000600000006020000060400000606000006080000060A0000060C0000060E00000800000008020000080400000806000008080000080A0000080C0000080E00000A0000000A0200000A0400000A0600000A0800000A0A00000A0C00000A0E00000C0000000C0200000C0400000C0600000C0800000C0
310
A00000C0C00000C0E00000E0000000E0200000E0400000E0600000E0800000E0A00000E0C00000E0E00040000000400020004000400040006000400080004000A0004000C0004000E00040200000402020004020400040206000402080004020A0004020C0004020E000404000004040200040404000404060004040800040
310
40A0004040C0004040E00040600000406020004060400040606000406080004060A0004060C0004060E00040800000408020004080400040806000408080004080A0004080C0004080E00040A0000040A0200040A0400040A0600040A0800040A0A00040A0C00040A0E00040C0000040C0200040C0400040C0600040C08000
310
40C0A00040C0C00040C0E00040E0000040E0200040E0400040E0600040E0800040E0A00040E0C00040E0E00080000000800020008000400080006000800080008000A0008000C0008000E00080200000802020008020400080206000802080008020A0008020C0008020E00080400000804020008040400080406000804080
310
008040A0008040C0008040E00080600000806020008060400080606000806080008060A0008060C0008060E00080800000808020008080400080806000808080008080A0008080C0008080E00080A0000080A0200080A0400080A0600080A0800080A0A00080A0C00080A0E00080C0000080C0200080C0400080C0600080C0
310
800080C0A00080C0C00080C0E00080E0000080E0200080E0400080E0600080E0800080E0A00080E0C00080E0E000C0000000C0002000C0004000C0006000C0008000C000A000C000C000C000E000C0200000C0202000C0204000C0206000C0208000C020A000C020C000C020E000C0400000C0402000C0404000C0406000C0
310
408000C040A000C040C000C040E000C0600000C0602000C0604000C0606000C0608000C060A000C060C000C060E000C0800000C0802000C0804000C0806000C0808000C080A000C080C000C080E000C0A00000C0A02000C0A04000C0A06000C0A08000C0A0A000C0A0C000C0A0E000C0C00000C0C02000C0C04000C0C06000
310
C0C08000C0C0A000F0FBFF00A4A0A000808080000000FF0000FF000000FFFF00FF000000FF00FF00FFFF0000FFFFFF0000000000000000000000000000000000000000000000000000000000000000000000000000000000000000000000000000000000000000000000000000000000000000000000000000000000000000
310
00000000000000000000000000000000000000000000000000000000000000000000000000000000000000000000000000000000000000000000000000000000000000000000000000000000000000000000000000000000000000000000000000000000000000000000000000000000000000000000000000000000000000
310
00000000000000000000000000000000000000000000000000000000000000000000000000000000000000000000000000000000000000000000000000000000000000000000000000000000000000000000000000000000000000000000000000000000000000000000000000000000000000000000000000000000000000
310
0000000000000000000000000000000000000000000000000000000000000000000000000000000000000000000000000000000000000000000000000000000000000000000000000000000000000000000000000000000000FFFFFFFFFF00000000000000000000000000000000000000000000000000FFFFFFFFFFFFFFFF
310
00000000000000000000FC00FC0000FCFC00000000FFFFFFFFFFFFFFFFFFFFFFFFFFFFFFFFFCFCFCFCFCFCFCFCFCFCFCFCFC00000000FFFFFFFFFFFFFFFFFFFFFFFFFFFFFFFCFCFC00FCFCFCFC00FCFCFCFC00000000FFFFFFFFFFFFFFFFFFFFFFFFFFFFFFFCFCFC00FCFCFCFCFCFCFCFCFC00000000000000000000000000
310
00000000000000000000000000000000FC0000000000000000000000000000000000000000000000000000000000000000000000000000000000000000000000000000000000000000000000000000000000000000000000000000000000000000000000000000000000000000000000000000000000000000000000000000
310
00000000000000000000000000000000000000000000000000000000000000000000000000000000000000000000000000000000000000000000000000000000000000000000000000000000000000000000000000000000000000000000000000000000000000000000000000000000000000000000000000000000000000
310
00000000000000000000000000000000000000000000000000000000000000000000000000000000000000000000000000000000000000000000000000000000000000000000000000000000000000000000000000000000000000000000000000000000000000000000000000000000000000000000000000000000000000
310
0000000000000000000000000000000000000000000000000000000000000000000000000000000000000000000000000000000000000000
 70
     1
280
     1
281
     0
  0
BLOCK_RECORD
  5
B30
330
1
100
AcDbSymbolTableRecord
100
AcDbBlockTableRecord
  2
amazon block
340
0
310
2800000020000000200000000100080000000000000400000000000000000000000000000000000000000000000080000080000000808000800000008000800080800000C0C0C000C0DCC000F0CAA6000020400000206000002080000020A0000020C0000020E00000400000004020000040400000406000004080000040A0
310
000040C0000040E00000600000006020000060400000606000006080000060A0000060C0000060E00000800000008020000080400000806000008080000080A0000080C0000080E00000A0000000A0200000A0400000A0600000A0800000A0A00000A0C00000A0E00000C0000000C0200000C0400000C0600000C0800000C0
310
A00000C0C00000C0E00000E0000000E0200000E0400000E0600000E0800000E0A00000E0C00000E0E00040000000400020004000400040006000400080004000A0004000C0004000E00040200000402020004020400040206000402080004020A0004020C0004020E000404000004040200040404000404060004040800040
310
40A0004040C0004040E00040600000406020004060400040606000406080004060A0004060C0004060E00040800000408020004080400040806000408080004080A0004080C0004080E00040A0000040A0200040A0400040A0600040A0800040A0A00040A0C00040A0E00040C0000040C0200040C0400040C0600040C08000
310
40C0A00040C0C00040C0E00040E0000040E0200040E0400040E0600040E0800040E0A00040E0C00040E0E00080000000800020008000400080006000800080008000A0008000C0008000E00080200000802020008020400080206000802080008020A0008020C0008020E00080400000804020008040400080406000804080
310
008040A0008040C0008040E00080600000806020008060400080606000806080008060A0008060C0008060E00080800000808020008080400080806000808080008080A0008080C0008080E00080A0000080A0200080A0400080A0600080A0800080A0A00080A0C00080A0E00080C0000080C0200080C0400080C0600080C0
310
800080C0A00080C0C00080C0E00080E0000080E0200080E0400080E0600080E0800080E0A00080E0C00080E0E000C0000000C0002000C0004000C0006000C0008000C000A000C000C000C000E000C0200000C0202000C0204000C0206000C0208000C020A000C020C000C020E000C0400000C0402000C0404000C0406000C0
310
408000C040A000C040C000C040E000C0600000C0602000C0604000C0606000C0608000C060A000C060C000C060E000C0800000C0802000C0804000C0806000C0808000C080A000C080C000C080E000C0A00000C0A02000C0A04000C0A06000C0A08000C0A0A000C0A0C000C0A0E000C0C00000C0C02000C0C04000C0C06000
310
C0C08000C0C0A000F0FBFF00A4A0A000808080000000FF0000FF000000FFFF00FF000000FF00FF00FFFF0000FFFFFF0000000000000000000000000000000000000000000000000000000000000000000000000000000000000000000000000000000000000000000000000000000000000000000000000000000000000000
310
00000000000000000000000000000000000000000000000000000000000000000000000000000000000000000000000000000000000000000000000000000000000000000000000000000000000000000000000000000000000000000000000000000000000000000000000000000000000000000000000000000000000000
310
00000000000000000000000000000000000000000000000000000000000000000000000000000000000000000000000000000000000000000000000000000000000000000000000000000000000000000000000000000000000000000000000000000000000000000000000000000000000000000000000000000000000000
310
0000000000000000000000000000000000000000000000000000000000000000000000000000000000000000000000000000000000000000000000000000000000000000000000000000000000000000000000000000000000FFFFFFFFFF00000000000000000000000000000000000000000000000000FFFFFFFFFFFFFFFF
310
00000000000000000000E000E0E000E0E0E0000000FFFFFFFFFFFFFFFFFFFFFFFFFFFFFFFFE0E0E0E0E0E0E0E0E0E0E0E0E000000000FFFFFFFFFFFFFFFFFFFFFFFFFFFFFFE0E0E0E0E0E0E0E0E0E0E0E0E000000000FFFFFFFFFFFFFFFFFFFFFFFFFFFFFFE0E0E0E0E0E0E0E0E0E0E0E0E0E0000000000000000000000000
310
00000000000000000000000000000000E00000000000000000000000000000000000000000000000000000000000000000000000000000000000000000000000000000000000000000000000000000000000000000000000000000000000000000000000000000000000000000000000000000000000000000000000000000
310
00000000000000000000000000000000000000000000000000000000000000000000000000000000000000000000000000000000000000000000000000000000000000000000000000000000000000000000000000000000000000000000000000000000000000000000000000000000000000000000000000000000000000
310
00000000000000000000000000000000000000000000000000000000000000000000000000000000000000000000000000000000000000000000000000000000000000000000000000000000000000000000000000000000000000000000000000000000000000000000000000000000000000000000000000000000000000
310
0000000000000000000000000000000000000000000000000000000000000000000000000000000000000000000000000000000000000000
102
{BLKREFS
331
B40
102
}
 70
     1
280
     1
281
     0
  0
BLOCK_RECORD
  5
C8F
330
1
100
AcDbSymbolTableRecord
100
AcDbBlockTableRecord
  2
SW_CENTERMARKSYMBOL_0
340
0
102
{BLKREFS
331
CDE
102
}
 70
     0
280
     1
281
     0
  0
BLOCK_RECORD
  5
D12
330
1
100
AcDbSymbolTableRecord
100
AcDbBlockTableRecord
  2
*D6
340
0
 70
     0
280
     1
281
     0
  0
BLOCK_RECORD
  5
D33
330
1
100
AcDbSymbolTableRecord
100
AcDbBlockTableRecord
  2
*D7
340
0
 70
     0
280
     1
281
     0
  0
BLOCK_RECORD
  5
D41
330
1
100
AcDbSymbolTableRecord
100
AcDbBlockTableRecord
  2
*D8
340
0
 70
     0
280
     1
281
     0
  0
ENDTAB
  0
ENDSEC
  0
SECTION
  2
BLOCKS
  0
BLOCK
  5
20
330
1F
100
AcDbEntity
  8
0
100
AcDbBlockBegin
  2
*Model_Space
 70
     0
 10
0.0
 20
0.0
 30
0.0
  3
*Model_Space
  1

  0
ENDBLK
  5
21
330
1F
100
AcDbEntity
  8
0
100
AcDbBlockEnd
  0
BLOCK
  5
1C
330
1B
100
AcDbEntity
 67
     1
  8
0
100
AcDbBlockBegin
  2
*Paper_Space
 70
     0
 10
0.0
 20
0.0
 30
0.0
  3
*Paper_Space
  1

  0
ENDBLK
  5
1D
330
1B
100
AcDbEntity
 67
     1
  8
0
100
AcDbBlockEnd
  0
BLOCK
  5
24
330
23
100
AcDbEntity
 67
     1
  8
0
100
AcDbBlockBegin
  2
*Paper_Space0
 70
     0
 10
0.0
 20
0.0
 30
0.0
  3
*Paper_Space0
  1

  0
ENDBLK
  5
25
330
23
100
AcDbEntity
 67
     1
  8
0
100
AcDbBlockEnd
  0
BLOCK
  5
3FA
330
3F9
100
AcDbEntity
  8
0
100
AcDbBlockBegin
  2
Block3
 70
     0
 10
0.0
 20
0.0
 30
0.0
  3
Block3
  1

  0
CIRCLE
  5
3FB
330
3F9
100
AcDbEntity
  8
FORMAT
 62
     7
370
    15
100
AcDbCircle
 10
9.623096090023436
 20
2.115622186524885
 30
0.0
 40
0.0998031496062924
  0
CIRCLE
  5
3FC
330
3F9
100
AcDbEntity
  8
FORMAT
 62
     7
370
    15
100
AcDbCircle
 10
9.623096090023436
 20
2.115622186524885
 30
0.0
 40
0.1996062992125948
  0
LINE
  5
3FD
330
3F9
100
AcDbEntity
  8
FORMAT
 62
     7
370
    15
100
AcDbLine
 10
10.05890680910872
 20
2.020396293772344
 30
0.0
 11
10.05890680910872
 21
2.210848079277426
 31
0.0
  0
LINE
  5
3FE
330
3F9
100
AcDbEntity
  8
FORMAT
 62
     7
370
    15
100
AcDbLine
 10
10.05890680910872
 20
2.210848079277426
 30
0.0
 11
10.55986477488565
 21
2.315228485737483
 31
0.0
  0
LINE
  5
3FF
330
3F9
100
AcDbEntity
  8
FORMAT
 62
     7
370
    15
100
AcDbLine
 10
10.55986477488565
 20
2.315228485737483
 30
0.0
 11
10.55986477488565
 21
1.916015887312285
 31
0.0
  0
LINE
  5
400
330
3F9
100
AcDbEntity
  8
FORMAT
 62
     7
370
    15
100
AcDbLine
 10
10.55986477488565
 20
1.916015887312285
 30
0.0
 11
10.05890680910872
 21
2.020396293772344
 31
0.0
  0
LINE
  5
401
330
3F9
100
AcDbEntity
  8
FORMAT
 62
     7
370
    15
100
AcDbLine
 10
9.987169396213419
 20
2.115622186524885
 30
0.0
 11
10.59626953693931
 21
2.115622186524885
 31
0.0
  0
LINE
  5
402
330
3F9
100
AcDbEntity
  8
FORMAT
 62
     7
370
    15
100
AcDbLine
 10
9.368122674365656
 20
2.115622186524885
 30
0.0
 11
9.87806950568121
 21
2.115622186524885
 31
0.0
  0
LINE
  5
403
330
3F9
100
AcDbEntity
  8
FORMAT
 62
     7
370
    15
100
AcDbLine
 10
9.623096090023436
 20
1.872691387914879
 30
0.0
 11
9.623096090023436
 21
2.382638219230431
 31
0.0
  0
ENDBLK
  5
404
330
3F9
100
AcDbEntity
  8
0
100
AcDbBlockEnd
  0
BLOCK
  5
406
330
405
100
AcDbEntity
  8
0
100
AcDbBlockBegin
  2
Block2
 70
     0
 10
0.0
 20
0.0
 30
0.0
  3
Block2
  1

  0
INSERT
  5
407
330
405
100
AcDbEntity
  8
0
  6
Continuous
 62
     7
100
AcDbBlockReference
  2
Block3
 10
-0.0282699124868556
 20
0.0201145539810274
 30
0.0
  0
ENDBLK
  5
408
330
405
100
AcDbEntity
  8
0
100
AcDbBlockEnd
  0
BLOCK
  5
40C
330
409
100
AcDbEntity
  8
0
100
AcDbBlockBegin
  2
amazon
 70
     0
 10
0.0
 20
0.0
 30
0.0
  3
amazon
  1

  0
HATCH
  5
40D
330
409
100
AcDbEntity
  8
0
100
AcDbHatch
 10
0.0
 20
0.0
 30
0.0
210
0.0
220
0.0
230
0.9999999999999998
  2
SOLID
 70
     1
 71
     0
 91
        1
 92
        5
 93
        1
 72
     4
 94
        3
 73
     0
 74
     0
 95
       18
 96
       14
 40
0.0
 40
0.0
 40
0.0
 40
0.0
 40
0.0596755466403443
 40
0.1035834707990989
 40
0.1695571134872838
 40
0.2000964637947284
 40
0.2237461165360023
 40
0.2565225897680324
 40
0.2756876256135649
 40
0.3018435697278741
 40
0.3302551352352805
 40
0.3457181605243852
 40
0.3618589112597388
 40
0.3618589112597388
 40
0.3618589112597388
 40
0.3618589112597388
 10
0.9280407135556529
 20
0.3678371450737368
 10
1.014164084729102
 20
0.3851494268204694
 10
1.144945011486449
 20
0.4024842103214663
 10
1.481904894757406
 20
0.3990648758382389
 10
1.309526957346704
 20
0.1657833910269666
 10
1.071996456892463
 20
0.0025828528301117
 10
1.213429780952147
 20
0.147260900816045
 10
1.269689397936616
 20
0.2055836989094448
 10
1.328770741103362
 20
0.3426132943554165
 10
1.182110533057802
 20
0.3629915346337151
 10
1.077363991359149
 20
0.3586993230536737
 10
1.01802908590988
 20
0.3618658313307459
 10
0.904746484263093
 20
0.3631546035627498
 10
0.9280407135556529
 20
0.3678371450737368
 97
        0
 75
     0
 76
     1
 47
0.0083360314226261
 98
        1
 10
1.350036184717041
 20
0.3275823953230534
450
        0
451
        0
460
0.0
461
0.0
452
        1
462
1.0
453
        2
463
0.0
 63
     5
421
      255
463
1.0
 63
     7
421
 16777215
470
LINEAR
1001
ACAD
1010
0.0
1020
0.0
1030
0.0
  0
HATCH
  5
40E
330
409
100
AcDbEntity
  8
0
100
AcDbHatch
 10
0.0
 20
0.0
 30
0.0
210
0.0
220
0.0
230
0.9999999999999998
  2
SOLID
 70
     1
 71
     0
 91
        9
 92
        7
 72
     1
 73
     1
 93
       20
 10
-1.397399278738596
 20
0.888299103756417
 42
0.0
 10
-1.517557092146972
 20
0.8521069912840207
 42
0.0
 10
-1.634457615432786
 20
0.8260486703038981
 42
0.113500075695427
 10
-1.796297882939342
 20
0.77249506361993
 42
0.335029435887297
 10
-1.882119182302076
 20
0.5660893728218724
 42
0.2523749963765925
 10
-1.737967057103837
 20
0.4398788302234422
 42
0.1008759599722844
 10
-1.585598263595066
 20
0.4319165654795154
 42
0.1558313267708922
 10
-1.397230403062579
 20
0.516966153393244
 42
0.0
 10
-1.397399278738596
 20
0.5017673425512395
 42
0.1600174655974661
 10
-1.372064800007926
 20
0.4395169090987201
 42
0.0
 10
-1.217886400875514
 20
0.4395169090987201
 42
-0.1096578030042886
 10
-1.250459302100694
 20
0.4735374948229208
 42
-0.1371553684281488
 10
-1.269279200586318
 20
0.540854824021424
 42
0.0
 10
-1.269279200586318
 20
0.9244912162288137
 42
0.267077244638994
 10
-1.391608540743007
 20
1.084460353356798
 42
0.1085027846705916
 10
-1.618171164820246
 20
1.110518674336923
 42
0.3343505200399534
 10
-1.854867580389672
 20
0.9063951599926172
 42
0.0
 10
-1.71371834174733
 20
0.9063951599926172
 42
-0.2815324590939715
 10
-1.623703637535193
 20
0.9970774848409384
 42
-0.1775171235246243
 10
-1.454582816445004
 20
0.984570122933
 42
-0.2483479329952881
 97
        0
 92
       22
 72
     1
 73
     1
 93
        8
 10
-1.397399278738596
 20
0.7768273973414295
 42
0.0
 10
-1.397399278738596
 20
0.658841110681435
 42
-0.2004737922071577
 10
-1.563882996111615
 20
0.5415786662708722
 42
-0.1115040980661369
 10
-1.686936178517754
 20
0.5404929028967014
 42
-0.2738586692622027
 10
-1.742672031725241
 20
0.6002098884761536
 42
-0.289643054085014
 10
-1.707203761502306
 20
0.6928616964054842
 42
-0.1190249358109779
 10
-1.625409587314685
 20
0.7261584398800891
 42
-0.0006545690929014
 10
-1.500908720409647
 20
0.7514929186107651
 42
0.031014715336947
 97
        0
 92
        7
 72
     1
 73
     1
 93
       27
 10
-1.062984159493659
 20
0.4395169090987201
 42
0.0
 10
-0.9348640813413879
 20
0.4395169090987201
 42
0.0
 10
-0.9348640813413879
 20
0.8535546757829193
 42
-0.1716644096531924
 10
-0.8769567013855592
 20
0.9534449062067299
 42
-0.1448545784781812
 10
-0.7799618399595332
 20
0.9997708101713946
 42
-0.1340090766267909
 10
-0.6862242686560336
 20
0.9885512553049524
 42
-0.2563461470910333
 10
-0.6192688605821033
 20
0.8998805797475881
 42
0.0
 10
-0.6192688605821033
 20
0.4395169090987201
 42
0.0
 10
-0.4904249401803611
 20
0.4395169090987201
 42
0.0
 10
-0.4904249401803753
 20
0.8641979875178154
 42
-0.1830801363087423
 10
-0.4212980053581035
 20
0.9621310132001053
 42
-0.1206854715101709
 10
-0.3311796453018374
 20
0.9975992834230517
 42
-0.2157527517618656
 10
-0.216674861049178
 20
0.9774303127070119
 42
-0.2679983488848178
 10
-0.1748297194210906
 20
0.9063951599927708
 42
0.0
 10
-0.1748297194210977
 20
0.4395169090987201
 42
0.0
 10
-0.0467096412688122
 20
0.4395169090987201
 42
0.0
 10
-0.0467096412688122
 20
0.9063951599926172
 42
0.0
 10
-0.0467096412688122
 20
0.9360726922199805
 42
0.2784603970195297
 10
-0.1675912969266093
 20
1.094594144849069
 42
0.1495326253440701
 10
-0.3521710705358245
 20
1.102556409592997
 42
0.1796241607690637
 10
-0.5034541006704388
 20
0.9896370186791244
 42
0.1190036376854939
 10
-0.5809052213613626
 20
1.073602719615081
 42
0.1510696384071214
 10
-0.753179676729971
 20
1.112690201085266
 42
0.122416550902687
 10
-0.8494506959065404
 20
1.081564984359008
 42
0.0903817772246913
 10
-0.9348640813413879
 20
1.001218494670287
 42
0.0
 10
-0.9348640813413879
 20
1.101108725094101
 42
0.0
 10
-1.062984159493659
 20
1.101108725094101
 42
0.0
 97
        0
 92
        7
 72
     1
 73
     1
 93
       20
 10
0.1120662149268909
 20
0.5660893728218764
 42
0.2523749963765703
 10
0.256218340125109
 20
0.4398788302234467
 42
0.100875959972303
 10
0.4085871336339224
 20
0.4319165654795159
 42
0.1558313267708855
 10
0.5969549941663886
 20
0.516966153393244
 42
0.0
 10
0.5967861184903711
 20
0.5017673425512395
 42
0.1600174655974661
 10
0.6221205972210555
 20
0.4395169090987201
 42
0.0
 10
0.7762989963534466
 20
0.4395169090987201
 42
-0.1096578030036369
 10
0.7437260951284089
 20
0.4735374948226645
 42
-0.1371553684287215
 10
0.7249061966426496
 20
0.540854824021424
 42
0.0
 10
0.7249061966426496
 20
0.9244912162288137
 42
0.2670772446390557
 10
0.6025768564859249
 20
1.084460353356814
 42
0.1085027846705556
 10
0.3760142324087567
 20
1.110518674336923
 42
0.3343505200399825
 10
0.1393178168393021
 20
0.9063951599926172
 42
0.0
 10
0.2804670554816368
 20
0.9063951599926172
 42
-0.2815324590939487
 10
0.370481759693746
 20
0.9970774848409313
 42
-0.1775171235246857
 10
0.539602580783992
 20
0.9845701229329858
 42
-0.2483479329952225
 10
0.5967861184903711
 20
0.888299103756417
 42
0.0
 10
0.4766283050820306
 20
0.8521069912840264
 42
0.0
 10
0.359727781796181
 20
0.8260486703038981
 42
0.113500075695427
 10
0.1978875142896257
 20
0.77249506361993
 42
0.335029435887291
 97
        0
 92
       22
 72
     1
 73
     1
 93
        8
 10
0.2869816357266757
 20
0.6928616964054842
 42
-0.1190249358109779
 10
0.3687758099142826
 20
0.7261584398800891
 42
-0.0006545690929014
 10
0.4932766768193205
 20
0.7514929186107651
 42
0.0310147153369478
 10
0.5967861184903711
 20
0.7768273973414419
 42
0.0
 10
0.5967861184903711
 20
0.658841110681435
 42
-0.2004737922071577
 10
0.430302401117352
 20
0.5415786662708722
 42
-0.1115040980661369
 10
0.3072492187112061
 20
0.5404929028967014
 42
-0.2738586692622027
 10
0.251513365503726
 20
0.6002098884761536
 42
-0.289643054085014
 97
        0
 92
        7
 72
     1
 73
     1
 93
       10
 10
1.490731296558529
 20
0.9717250567569255
 42
0.0
 10
1.490731296558529
 20
1.101108725094102
 42
0.0
 10
0.9246866574902696
 20
1.101108725094102
 42
0.0
 10
0.9246866574902767
 20
0.9648744605637409
 42
0.0
 10
1.298313112053691
 20
0.9648744605637409
 42
0.0
 10
0.8993521787595994
 20
0.5408548240214275
 42
0.0
 10
0.8993521787595994
 20
0.4395169090987241
 42
-0.1473109550280885
 10
1.52402804003313
 20
0.4395169090987184
 42
0.0
 10
1.52402804003313
 20
0.581774738538516
 42
0.0747823019347494
 10
1.16328520907988
 20
0.6214717791056393
 42
0.0
 97
        0
 92
        7
 72
     1
 73
     1
 93
        2
 10
1.658662698430447
 20
0.7829800564617493
 42
1.0
 10
2.353551257900427
 20
0.7829800564617493
 42
1.0
 97
        0
 92
       22
 72
     1
 73
     1
 93
        2
 10
2.212041370259932
 20
0.7829800564617493
 42
-1.0
 10
1.800172586070949
 20
0.7829800564617493
 42
-1.0
 97
        0
 92
        7
 72
     1
 73
     1
 93
       15
 10
2.520758817522896
 20
0.4395169090987201
 42
0.0
 10
2.649602737924617
 20
0.4395169090987201
 42
0.0
 10
2.649602737924617
 20
0.7753797128425455
 42
-0.1884880930389393
 10
2.726330016366098
 20
0.9404157457166672
 42
-0.0825504763720134
 10
2.808124190553712
 20
1.002666179169187
 42
-0.1879859195515259
 10
2.9333488997082
 20
1.010628443913113
 42
-0.3400688989443128
 10
3.022381496390295
 20
0.8948632846375158
 42
0.0
 10
3.022381496390295
 20
0.4395169090987201
 42
0.0
 10
3.151225416792009
 20
0.4395169090987201
 42
0.0
 10
3.151225416792023
 20
0.9382442189683235
 42
0.3709832727766776
 10
2.952118968473769
 20
1.109868265359158
 42
0.160618198198489
 10
2.773379762580219
 20
1.083012668857902
 42
0.0920112842116662
 10
2.649602737924617
 20
0.9831224384341012
 42
0.0
 10
2.649602737924631
 20
1.101108725094101
 42
0.0
 10
2.520758817522896
 20
1.1011087250941
 42
0.0
 97
        0
 75
     0
 76
     1
 47
0.0079344138681199
 98
        9
 10
-1.376638647914745
 20
0.8943652481782571
 10
-1.376638647914745
 20
0.8943652481782571
 10
-1.008011843667617
 20
0.7810537369378041
 10
0.2295103337683244
 20
0.706616395506853
 10
0.2295103337683244
 20
0.706616395506853
 10
1.173803717490862
 20
0.7215039733471374
 10
1.736822720547962
 20
0.9152585806937842
 10
1.736822720547962
 20
0.9152585806937842
 10
2.581717008623201
 20
0.8854836988984509
450
        0
451
        0
460
0.0
461
0.0
452
        1
462
1.0
453
        2
463
0.0
 63
     5
421
      255
463
1.0
 63
     7
421
 16777215
470
LINEAR
1001
ACAD
1010
0.0
1020
0.0
1030
0.0
  0
TEXT
  5
40F
330
409
100
AcDbEntity
  8
0
 62
   150
100
AcDbText
 10
3.411151618523078
 20
0.4239129498757777
 30
0.0
 40
1.05
  1
supply
 41
1.08
  7
style2
100
AcDbText
  0
HATCH
  5
410
330
409
100
AcDbEntity
  8
0
100
AcDbHatch
 10
0.0
 20
0.0
 30
0.0
210
0.0
220
0.0
230
0.9999999999999998
  2
SOLID
 70
     1
 71
     0
 91
        1
 92
        7
 72
     1
 73
     1
 93
        2
 10
-1.177902949885989
 20
0.4051926481048067
 42
0.3081272588713221
 10
1.212164975232198
 20
0.2933070771634125
 42
-0.177724595219735
 97
        0
 75
     0
 76
     1
 47
0.0009928164167271
 98
        1
 10
0.1755697210077258
 20
0.0593374821502257
450
        0
451
        0
460
0.0
461
0.0
452
        1
462
1.0
453
        2
463
0.0
 63
     5
421
      255
463
1.0
 63
     7
421
 16777215
470
LINEAR
1001
ACAD
1010
0.0
1020
0.0
1030
0.0
  0
ENDBLK
  5
411
330
409
100
AcDbEntity
  8
0
100
AcDbBlockEnd
  0
BLOCK
  5
B31
330
B30
100
AcDbEntity
  8
0
100
AcDbBlockBegin
  2
amazon block
 70
     0
 10
0.0
 20
0.0
 30
0.0
  3
amazon block
  1

  0
HATCH
  5
B32
330
B30
100
AcDbEntity
  8
0
100
AcDbHatch
 10
0.0
 20
0.0
 30
0.0
210
0.0
220
0.0
230
1.0
  2
SOLID
 70
     1
 71
     0
 91
        1
 92
        7
 72
     1
 73
     1
 93
        2
 10
0.1428560650202613
 20
0.0268249692297831
 42
0.3005568377796329
 10
0.6100026189360293
 20
0.0009915743964171
 42
-0.1486648242730099
 97
        0
 75
     0
 76
     1
 47
0.0083360314226261
 98
        1
 10
0.3681872109149253
 20
-0.0332769951503647
450
        0
451
        0
460
0.0
461
0.0
452
        1
462
1.0
453
        2
463
0.0
 63
     5
421
      255
463
1.0
 63
     7
421
 16777215
470
LINEAR
1001
ACAD
1010
0.0
1020
0.0
1030
0.0
  0
HATCH
  5
B33
330
B30
100
AcDbEntity
  8
0
100
AcDbHatch
 10
0.0
 20
0.0
 30
0.0
210
0.0
220
0.0
230
1.0
  2
SOLID
 70
     1
 71
     0
 91
        1
 92
        5
 93
        1
 72
     4
 94
        3
 73
     0
 74
     0
 95
       18
 96
       14
 40
0.0
 40
0.0
 40
0.0
 40
0.0
 40
0.3060284443094571
 40
0.531197286149225
 40
0.8695236589091486
 40
1.026135711767838
 40
1.14741598223591
 40
1.315500460348882
 40
1.413679231894078
 40
1.543957423309552
 40
1.719337158993241
 40
1.76919128251474
 40
1.852441399548553
 40
1.852441399548553
 40
1.852441399548553
 40
1.852441399548553
 10
0.5476248318910955
 20
0.0189472839500944
 10
0.5671265702171127
 20
0.0228674694218305
 10
0.5967407336623403
 20
0.0267937023518194
 10
0.6730410215606746
 20
0.0260155775369224
 10
0.6340109953118472
 20
-0.0267925718215847
 10
0.5802183818763105
 20
-0.0637796196110996
 10
0.6122605658026537
 20
-0.030937261100445
 10
0.624929189918916
 20
-0.0180757154749651
 10
0.6383573330340191
 20
0.013562833138125
 10
0.6020518241954172
 20
0.0146147000415664
 10
0.5794789444548947
 20
0.0158864032827642
 10
0.5641956865595646
 20
0.0167018526831093
 10
0.5423196975867733
 20
0.017880860532975
 10
0.5476248318910955
 20
0.0189472839500944
 97
        0
 75
     0
 76
     1
 47
0.0083360314226261
 98
        1
 10
0.644363460657651
 20
0.0075847933888076
450
        0
451
        0
460
0.0
461
0.0
452
        1
462
1.0
453
        2
463
0.0
 63
     5
421
      255
463
1.0
 63
     7
421
 16777215
470
LINEAR
1001
ACAD
1010
0.0
1020
0.0
1030
0.0
  0
HATCH
  5
B34
330
B30
100
AcDbEntity
  8
0
100
AcDbHatch
 10
0.0
 20
0.0
 30
0.0
210
0.0
220
0.0
230
1.0
  2
SOLID
 70
     1
 71
     0
 91
        9
 92
        7
 72
     1
 73
     1
 93
       20
 10
0.1000542808940033
 20
0.1169245515333142
 42
0.0
 10
0.076623507279372
 20
0.1098670896011966
 42
0.0
 10
0.0538279052386379
 20
0.1047857170100728
 42
0.113500075695427
 10
0.0222690530748579
 20
0.0943427637066989
 42
0.335029435887297
 10
0.0055338996991239
 20
0.0540936540010777
 42
0.2523749963765925
 10
0.0336435641127828
 20
0.0294825981943836
 42
0.1008759599722844
 10
0.0633554788469937
 20
0.0279299565693179
 42
0.1558313267708922
 10
0.1000872116508269
 20
0.0445146262124951
 42
0.0
 10
0.1000542808940033
 20
0.0415508580983044
 42
0.1600174655974661
 10
0.1049945042464841
 20
0.029412023575063
 42
0.0
 10
0.1350592920773046
 20
0.029412023575063
 42
-0.1096578030042886
 10
0.128707576338396
 20
0.0360460377912819
 42
-0.1371553684281488
 10
0.125037696133699
 20
0.0491729169849902
 42
0.0
 10
0.125037696133699
 20
0.1239820134654312
 42
0.267077244638994
 10
0.1011834748031433
 20
0.1551759952053882
 42
0.1085027846705916
 10
0.0570037631080815
 20
0.1602573677965124
 42
0.3343505200399534
 10
0.0108479620720452
 20
0.1204532824993727
 42
0.0
 10
0.0383720636073015
 20
0.1204532824993727
 42
-0.2815324590939715
 10
0.0559249309286685
 20
0.1381363358447958
 42
-0.1775171235246243
 10
0.0889034910412541
 20
0.1356974002727478
 42
-0.2483479329952881
 97
        0
 92
       22
 72
     1
 73
     1
 93
        8
 10
0.1000542808940033
 20
0.0951875687823911
 42
0.0
 10
0.1000542808940033
 20
0.0721802428836922
 42
-0.2004737922071577
 10
0.0675899560062661
 20
0.0493140662236327
 42
-0.1115040980661369
 10
0.0435945854370701
 20
0.0491023423656691
 42
-0.2738586692622027
 10
0.0327260940616085
 20
0.0607471545536624
 42
-0.289643054085014
 10
0.0396424067550818
 20
0.0788142570998818
 42
-0.1190249358109779
 10
0.0555922707216681
 20
0.0853071220774298
 42
-0.0006545690929014
 10
0.0798699397681482
 20
0.090247345429912
 42
0.031014715336947
 97
        0
 92
        7
 72
     1
 73
     1
 93
       27
 10
0.1652652291467689
 20
0.029412023575063
 42
0.0
 10
0.190248644386461
 20
0.029412023575063
 42
0.0
 10
0.190248644386461
 20
0.1101493880784821
 42
-0.1716644096531924
 10
0.201540583477847
 20
0.1296279830111251
 42
-0.1448545784781812
 10
0.2204545814559218
 20
0.1386615342842345
 42
-0.1340090766267909
 10
0.2387334078601029
 20
0.1364737210852782
 42
-0.2563461470910333
 10
0.251789712434519
 20
0.1191829393515924
 42
0.0
 10
0.251789712434519
 20
0.029412023575063
 42
0.0
 10
0.2769142769128621
 20
0.029412023575063
 42
0.0
 10
0.2769142769128585
 20
0.1122248338667866
 42
-0.1830801363087423
 10
0.290394029203199
 20
0.1313217738748333
 42
-0.1206854715101709
 10
0.3079671094141716
 20
0.1382380865683075
 42
-0.2157527517618656
 10
0.3302955423434426
 20
0.1343051372786799
 42
-0.2679983488848178
 10
0.33845534496092
 20
0.1204532824994029
 42
0.0
 10
0.3384553449609164
 20
0.029412023575063
 42
0.0
 10
0.3634387602006122
 20
0.029412023575063
 42
0.0
 10
0.3634387602006122
 20
0.1204532824993727
 42
0.0
 10
0.3634387602006122
 20
0.1262404012837086
 42
0.2784603970195297
 10
0.3398668373473406
 20
0.1571520845463814
 42
0.1495326253440701
 10
0.3038737814935466
 20
0.1587047261714471
 42
0.1796241607690637
 10
0.2743735906172944
 20
0.1366854449432417
 42
0.1190036376854939
 10
0.259270622082564
 20
0.1530587566257537
 42
0.1510696384071214
 10
0.2256771032856868
 20
0.1606808155124395
 42
0.122416550902687
 10
0.2069042545462558
 20
0.154611398250819
 42
0.0903817772246913
 10
0.190248644386461
 20
0.1389438327615187
 42
0.0
 10
0.190248644386461
 20
0.1584224276941626
 42
0.0
 10
0.1652652291467689
 20
0.1584224276941626
 42
0.0
 97
        0
 92
        7
 72
     1
 73
     1
 93
       20
 10
0.394400052158776
 20
0.0540936540010786
 42
0.2523749963765703
 10
0.4225097165724279
 20
0.0294825981943845
 42
0.100875959972303
 10
0.4522216313066459
 20
0.0279299565693183
 42
0.1558313267708855
 10
0.4889533641104756
 20
0.0445146262124951
 42
0.0
 10
0.4889204333536519
 20
0.0415508580983044
 42
0.1600174655974661
 10
0.4938606567061364
 20
0.029412023575063
 42
0.0
 10
0.5239254445369533
 20
0.029412023575063
 42
-0.1096578030036369
 10
0.5175737287980695
 20
0.0360460377912322
 42
-0.1371553684287215
 10
0.5139038485933476
 20
0.0491729169849902
 42
0.0
 10
0.5139038485933476
 20
0.1239820134654312
 42
0.2670772446390557
 10
0.4900496272627848
 20
0.1551759952053913
 42
0.1085027846705556
 10
0.4458699155677373
 20
0.1602573677965129
 42
0.3343505200399825
 10
0.3997141145316938
 20
0.1204532824993727
 42
0.0
 10
0.4272382160669502
 20
0.1204532824993727
 42
-0.2815324590939487
 10
0.44479108338831
 20
0.138136335844794
 42
-0.1775171235246857
 10
0.4777696435009098
 20
0.1356974002727447
 42
-0.2483479329952225
 10
0.4889204333536519
 20
0.1169245515333142
 42
0.0
 10
0.4654896597390277
 20
0.1098670896011979
 42
0.0
 10
0.4426940576982866
 20
0.1047857170100728
 42
0.113500075695427
 10
0.4111352055345066
 20
0.0943427637066989
 42
0.335029435887291
 97
        0
 92
       22
 72
     1
 73
     1
 93
        8
 10
0.428508559214734
 20
0.0788142570998818
 42
-0.1190249358109779
 10
0.4444584231813167
 20
0.0853071220774298
 42
-0.0006545690929014
 10
0.4687360922277968
 20
0.090247345429912
 42
0.0310147153369478
 10
0.4889204333536519
 20
0.0951875687823938
 42
0.0
 10
0.4889204333536519
 20
0.0721802428836922
 42
-0.2004737922071577
 10
0.4564561084659147
 20
0.0493140662236327
 42
-0.1115040980661369
 10
0.4324607378967152
 20
0.0491023423656691
 42
-0.2738586692622027
 10
0.4215922465212572
 20
0.0607471545536624
 42
-0.289643054085014
 97
        0
 92
        7
 72
     1
 73
     1
 93
       10
 10
0.663239743076943
 20
0.1331926123684131
 42
0.0
 10
0.663239743076943
 20
0.1584224276941626
 42
0.0
 10
0.5528610384586337
 20
0.1584224276941626
 42
0.0
 10
0.5528610384586337
 20
0.131856746110742
 42
0.0
 10
0.6257181970985002
 20
0.131856746110742
 42
0.0
 10
0.5479208151061528
 20
0.0491729169849911
 42
0.0
 10
0.5479208151061528
 20
0.0294120235750635
 42
-0.1473109550280885
 10
0.6697326080544919
 20
0.0294120235750626
 42
0.0
 10
0.6697326080544919
 20
0.0571523003158232
 42
0.0747823019347494
 10
0.5993877560186079
 20
0.0648932232264121
 42
0.0
 97
        0
 92
        7
 72
     1
 73
     1
 93
        2
 10
0.6959863664419679
 20
0.0963873373108535
 42
1.0
 10
0.8314896355386132
 20
0.0963873373108535
 42
1.0
 97
        0
 92
       22
 72
     1
 73
     1
 93
        2
 10
0.8038952074487184
 20
0.0963873373108535
 42
-1.0
 10
0.7235807945318662
 20
0.0963873373108535
 42
-1.0
 97
        0
 92
        7
 72
     1
 73
     1
 93
       15
 10
0.8640951096649978
 20
0.029412023575063
 42
0.0
 10
0.8892196741433302
 20
0.029412023575063
 42
0.0
 10
0.8892196741433302
 20
0.0949052703051088
 42
-0.1884880930389393
 10
0.9041814934394203
 20
0.1270872967155627
 42
-0.0825504763720134
 10
0.9201313574060066
 20
0.1392261312388041
 42
-0.1879859195515259
 10
0.9445501756911305
 20
0.1407787728638694
 42
-0.3400688989443128
 10
0.9619115320441373
 20
0.1182045668051281
 42
0.0
 10
0.9619115320441373
 20
0.029412023575063
 42
0.0
 10
0.9870360965224733
 20
0.029412023575063
 42
0.0
 10
0.9870360965224769
 20
0.1266638489996357
 42
0.3709832727766776
 10
0.9482103391004166
 20
0.1601305380458484
 42
0.160618198198489
 10
0.9133561939511736
 20
0.1548936967281036
 42
0.0920112842116662
 10
0.8892196741433302
 20
0.1354151017954623
 42
0.0
 10
0.8892196741433338
 20
0.1584224276941626
 42
0.0
 10
0.8640951096649978
 20
0.1584224276941621
 42
0.0
 97
        0
 75
     0
 76
     1
 47
0.0079344138681199
 98
        9
 10
0.1041026039046571
 20
0.1181074496955725
 10
0.1041026039046571
 20
0.1181074496955725
 10
0.175984830732844
 20
0.0960117050036842
 10
0.4173016553328531
 20
0.0814964234246487
 10
0.4173016553328531
 20
0.0814964234246487
 10
0.6014388651587482
 20
0.0843995011035044
 10
0.7112275707548826
 20
0.1221816495361003
 10
0.7112275707548826
 20
0.1221816495361003
 10
0.8759819569295572
 20
0.1163755475860104
450
        0
451
        0
460
0.0
461
0.0
452
        1
462
1.0
453
        2
463
0.0
 63
     5
421
      255
463
1.0
 63
     7
421
 16777215
470
LINEAR
1001
ACAD
1010
0.0
1020
0.0
1030
0.0
  0
HATCH
  5
B35
330
B30
100
AcDbEntity
  8
0
 62
   150
100
AcDbHatch
 10
0.0
 20
0.0
 30
0.0
210
0.0
220
0.0
230
1.0
  2
SOLID
 70
     1
 71
     0
 91
        8
 92
        7
 72
     1
 73
     1
 93
       22
 10
1.131716859301388
 20
0.0982802106585603
 42
0.0484183422992068
 10
1.088571435005292
 20
0.1135920246412381
 42
-0.1024497749852004
 10
1.063583383368957
 20
0.125237861247649
 42
-0.5197370575112227
 10
1.065952625421378
 20
0.1500864950045506
 42
-0.1784163181567931
 10
1.097462280584622
 20
0.1562497626075707
 42
-0.1611556671223822
 10
1.130948711999153
 20
0.1417059730721331
 42
0.0
 10
1.143877562730139
 20
0.1560685971400009
 42
0.0879608039459819
 10
1.125754289819187
 20
0.1671964668262178
 42
0.096844267443967
 10
1.086490181797579
 20
0.1727441735534061
 42
0.1289645081611661
 10
1.053342092127955
 20
0.1633533786648891
 42
0.2520599057044872
 10
1.037629278411372
 20
0.1399706628121899
 42
0.2998873610886212
 10
1.050463850241648
 20
0.1096908005921695
 42
0.087968247036807
 10
1.088782354168369
 20
0.0932096049078468
 42
-0.0908267507933147
 10
1.119928772767817
 20
0.0811747820304691
 42
-0.4466858316882535
 10
1.125453128485816
 20
0.0540976492614389
 42
-0.2058443735084833
 10
1.094059901125532
 20
0.0433269295271455
 42
-0.2322683613354944
 10
1.04833474053288
 20
0.0635860005622337
 42
0.0
 10
1.033442870302863
 20
0.0487121861500608
 42
0.0897498636939959
 10
1.054992265021407
 20
0.0336893058402592
 42
0.1162784600455089
 10
1.100093060274716
 20
0.0271838680846326
 42
0.1305494116801128
 10
1.134902795650507
 20
0.0379471166909786
 42
0.2700443324603339
 10
1.150563716135536
 20
0.0687356163070478
 42
0.2747552069495999
 97
        0
 92
        7
 72
     1
 73
     1
 93
       17
 10
1.204964925758659
 20
0.0711619205531866
 42
0.0
 10
1.204964925758659
 20
0.1705032481376225
 42
0.0
 10
1.182530424786222
 20
0.1705032481376221
 42
0.0
 10
1.182530424786222
 20
0.068114123580882
 42
0.231056446390574
 10
1.200275679141658
 20
0.0337787716591849
 42
0.1033983125445035
 10
1.222016181175408
 20
0.0271400549874108
 42
0.1113661879093152
 10
1.256252700835137
 20
0.0321455417860066
 42
0.060456799039856
 10
1.280359576718197
 20
0.0437750658039402
 42
0.0
 10
1.282436740080608
 20
0.0292528824702614
 42
0.0
 10
1.305008011852606
 20
0.0292528824702614
 42
0.0
 10
1.303035750365566
 20
0.045573054697837
 42
0.0
 10
1.303035750365566
 20
0.1704535782767582
 42
0.0
 10
1.280726706724607
 20
0.1704535782767582
 42
0.0
 10
1.280726706724607
 20
0.0603385752977079
 42
-0.0926529444633646
 10
1.271406905425951
 20
0.0542136206901671
 42
-0.0664344377826394
 10
1.252018117536273
 20
0.0470706779667407
 42
-0.0713593701437487
 10
1.22596399727168
 20
0.0462232117768133
 42
-0.3666103947779491
 97
        0
 92
        7
 72
     1
 73
     1
 93
       12
 10
1.34888971452673
 20
-0.0300855190343001
 42
0.0
 10
1.37158389411627
 20
-0.0300855190342997
 42
0.0
 10
1.37158389411627
 20
0.0381322242109672
 42
0.2065475696655794
 10
1.43316687203049
 20
0.0295489681525751
 42
0.2194428372319613
 10
1.471434120104095
 20
0.0681246169490031
 42
0.1323036971285341
 10
1.475462458348772
 20
0.1210354643912233
 42
0.1641390880683366
 10
1.453695611337639
 20
0.1611617476764042
 42
0.205639974219759
 10
1.404711616991345
 20
0.1717914749112652
 42
0.0657328919071964
 10
1.371062306057382
 20
0.1603071107053626
 42
0.0
 10
1.369185970032088
 20
0.1704922854774775
 42
0.0
 10
1.347893491957236
 20
0.1704922854774775
 42
0.0
 10
1.348889714526734
 20
0.1571025974974671
 42
0.0
 97
        0
 92
       22
 72
     1
 73
     1
 93
        8
 10
1.37158389411627
 20
0.1447873628418232
 42
-0.1242339830404592
 10
1.408127279067805
 20
0.1549128436768488
 42
-0.229840994742505
 10
1.439329608924591
 20
0.143501077402358
 42
-0.1934262502536381
 10
1.452032531529923
 20
0.1169919663469652
 42
-0.1013985410677669
 10
1.45007247035501
 20
0.0757878280977211
 42
-0.2083357761076617
 10
1.426144858393048
 20
0.0470888301796872
 42
-0.1496858148879605
 10
1.383365488627418
 20
0.0497243925890185
 42
-0.0899155484976542
 10
1.37158389411627
 20
0.0564933659367366
 42
0.0
 97
        0
 92
        7
 72
     1
 73
     1
 93
       12
 10
1.536384209201344
 20
0.0381322242109672
 42
0.2065475696655794
 10
1.597967187115564
 20
0.0295489681525751
 42
0.2194428372319613
 10
1.63623443518917
 20
0.0681246169490031
 42
0.1323036971285341
 10
1.640262773433846
 20
0.1210354643912233
 42
0.1641390880683366
 10
1.618495926422713
 20
0.1611617476764042
 42
0.205639974219759
 10
1.569511932076419
 20
0.1717914749112652
 42
0.0657328919071964
 10
1.535862621142456
 20
0.1603071107053626
 42
0.0
 10
1.533986285117165
 20
0.1704922854774775
 42
0.0
 10
1.51269380704231
 20
0.1704922854774775
 42
0.0
 10
1.513690029611812
 20
0.1571025974974671
 42
0.0
 10
1.513690029611804
 20
-0.0300855190343001
 42
0.0
 10
1.536384209201344
 20
-0.0300855190342997
 42
0.0
 97
        0
 92
       22
 72
     1
 73
     1
 93
        8
 10
1.53638420920134
 20
0.0564933659367348
 42
0.0
 10
1.536384209201344
 20
0.1447873628418232
 42
-0.1242339830404592
 10
1.572927594152879
 20
0.1549128436768488
 42
-0.229840994742505
 10
1.604129924009665
 20
0.143501077402358
 42
-0.1934262502536381
 10
1.616832846614997
 20
0.1169919663469652
 42
-0.1013985410677669
 10
1.614872785440084
 20
0.0757878280977211
 42
-0.2083357761076617
 10
1.590945173478122
 20
0.0470888301796872
 42
-0.1496858148879605
 10
1.548165803712493
 20
0.0497243925890185
 42
-0.0899155484976689
 97
        0
 92
        7
 72
     1
 73
     1
 93
        9
 10
1.700061888317705
 20
0.2342426883985293
 42
0.0
 10
1.677630680467434
 20
0.2342426883985293
 42
0.0
 10
1.67763068046743
 20
0.0525526462764159
 42
0.3003574180393968
 10
1.689763445472692
 20
0.0294232917661481
 42
0.1772930531369512
 10
1.716213749579594
 20
0.0296692382956376
 42
0.0
 10
1.726340843842322
 20
0.0328930300171466
 42
0.0
 10
1.722947015877874
 20
0.0450847282577249
 42
0.0
 10
1.715478639728772
 20
0.0445718860057287
 42
-0.4033750267256485
 10
1.700061888317705
 20
0.0551463102997136
 42
0.0
 97
        0
 92
        7
 72
     1
 73
     1
 93
       13
 10
1.756550300014353
 20
0.1705037737446156
 42
0.0
 10
1.733158403445031
 20
0.1705037737446147
 42
0.0
 10
1.789004390745333
 20
0.0387212794769898
 42
-0.1248046720339364
 10
1.779651976914252
 20
0.0098440558334927
 42
-0.2041270254703542
 10
1.758338890268429
 20
-0.0108879300937863
 42
-0.1582846410265598
 10
1.728104948139659
 20
-0.0088290148710986
 42
0.0
 10
1.723524002749954
 20
-0.0288461752875353
 42
0.0503996825504031
 10
1.752727303871125
 20
-0.0310194851179708
 42
0.1573307408029109
 10
1.778748174224848
 20
-0.02185783610684
 42
0.1379639421479074
 10
1.7998397718477
 20
0.0061205808064937
 42
0.0
 10
1.863932002621172
 20
0.1705037737446151
 42
0.0
 10
1.84037943355916
 20
0.1705037737446147
 42
0.0
 10
1.801429340670335
 20
0.0575527643750102
 42
0.0
 97
        0
 75
     0
 76
     1
 47
0.0008892483299936
 98
        8
 10
1.136466178840407
 20
0.0806040287034282
 10
1.218376325116423
 20
0.039698608137611
 10
1.365280380260387
 20
0.0654868019383397
 10
1.365280380260387
 20
0.0654868019383397
 10
1.532067085388874
 20
0.0510462190903649
 10
1.532067085388874
 20
0.0510462190903649
 10
1.692326025665067
 20
0.0661634458554534
 10
1.78937173321124
 20
0.0643849607353548
450
        0
451
        0
460
0.0
461
0.0
452
        1
462
1.0
453
        2
463
0.0
 63
     5
421
      255
463
1.0
 63
     7
421
 16777215
470
LINEAR
1001
ACAD
1010
0.0
1020
0.0
1030
0.0
  0
ENDBLK
  5
B36
330
B30
100
AcDbEntity
  8
0
100
AcDbBlockEnd
  0
BLOCK
  5
C90
330
C8F
100
AcDbEntity
  8
0
100
AcDbBlockBegin
  2
SW_CENTERMARKSYMBOL_0
 70
     0
 10
0.0
 20
0.0
 30
0.0
  3
SW_CENTERMARKSYMBOL_0
  1

  0
LINE
  5
C91
330
C8F
100
AcDbEntity
  8
0
  6
Continuous
 62
     0
370
     0
100
AcDbLine
 10
0.0
 20
0.0
 30
0.0
 11
0.0
 21
0.1
 31
0.0
  0
LINE
  5
C92
330
C8F
100
AcDbEntity
  8
0
  6
Continuous
 62
     0
370
     0
100
AcDbLine
 10
0.0
 20
0.0
 30
0.0
 11
-0.0999999999999995
 21
0.0
 31
0.0
  0
LINE
  5
C93
330
C8F
100
AcDbEntity
  8
0
  6
Continuous
 62
     0
370
     0
100
AcDbLine
 10
0.0
 20
0.0
 30
0.0
 11
0.0
 21
-0.1
 31
0.0
  0
LINE
  5
C94
330
C8F
100
AcDbEntity
  8
0
  6
Continuous
 62
     0
370
     0
100
AcDbLine
 10
0.0
 20
0.0
 30
0.0
 11
0.0999999999999995
 21
0.0
 31
0.0
  0
LINE
  5
C95
330
C8F
100
AcDbEntity
  8
0
  6
Continuous
 62
     0
370
     0
100
AcDbLine
 10
0.0
 20
0.2
 30
0.0
 11
0.0
 21
0.5375
 31
0.0
  0
LINE
  5
C96
330
C8F
100
AcDbEntity
  8
0
  6
Continuous
 62
     0
370
     0
100
AcDbLine
 10
-0.2
 20
0.0
 30
0.0
 11
-0.5375000000000006
 21
0.0
 31
0.0
  0
LINE
  5
C97
330
C8F
100
AcDbEntity
  8
0
  6
Continuous
 62
     0
370
     0
100
AcDbLine
 10
0.0
 20
-0.2
 30
0.0
 11
0.0
 21
-0.5375
 31
0.0
  0
LINE
  5
C98
330
C8F
100
AcDbEntity
  8
0
  6
Continuous
 62
     0
370
     0
100
AcDbLine
 10
0.2
 20
0.0
 30
0.0
 11
0.5375000000000006
 21
0.0
 31
0.0
  0
ENDBLK
  5
C99
330
C8F
100
AcDbEntity
  8
0
100
AcDbBlockEnd
  0
BLOCK
  5
D1D
330
D12
100
AcDbEntity
  8
0
100
AcDbBlockBegin
  2
*D6
 70
     1
 10
0.0
 20
0.0
 30
0.0
  3
*D6
  1

  0
LINE
  5
D9F
330
D12
100
AcDbEntity
  8
DIM
 62
     0
370
    -2
100
AcDbLine
 10
0.8117813106270759
 20
1.676486035753606
 30
0.0
 11
0.8117813106270759
 21
1.890663182765692
 31
0.0
  0
LINE
  5
DA0
330
D12
100
AcDbEntity
  8
DIM
 62
     0
370
    -2
100
AcDbLine
 10
0.9367813106270777
 20
1.676486035753606
 30
0.0
 11
0.9367813106270777
 21
1.890663182765692
 31
0.0
  0
LINE
  5
DA1
330
D12
100
AcDbEntity
  8
DIM
 62
     0
370
    -2
100
AcDbLine
 10
0.856781310627076
 20
1.850663182765692
 30
0.0
 11
0.8917813106270775
 21
1.850663182765692
 31
0.0
  0
MTEXT
  5
DA2
330
D12
100
AcDbEntity
  8
DIM
 62
     0
100
AcDbMText
 10
0.8877368880408518
 20
1.92816162861396
 30
0.0
 40
0.045
 41
0.0
 46
0.0
 71
     5
 72
     1
  1
\A1;0.13
 73
     1
 44
1.0
  0
SOLID
  5
DA3
330
D12
100
AcDbEntity
  8
DIM
 62
     0
100
AcDbTrace
 10
0.856781310627076
 20
1.858163182765692
 30
0.0
 11
0.856781310627076
 21
1.843163182765692
 31
0.0
 12
0.8117813106270759
 22
1.850663182765692
 32
0.0
 13
0.8117813106270759
 23
1.850663182765692
 33
0.0
  0
SOLID
  5
DA4
330
D12
100
AcDbEntity
  8
DIM
 62
     0
100
AcDbTrace
 10
0.8917813106270775
 20
1.858163182765692
 30
0.0
 11
0.8917813106270775
 21
1.843163182765692
 31
0.0
 12
0.9367813106270777
 22
1.850663182765692
 32
0.0
 13
0.9367813106270777
 23
1.850663182765692
 33
0.0
  0
POINT
  5
DA5
330
D12
100
AcDbEntity
  8
Defpoints
 62
     0
100
AcDbPoint
 10
0.8117813106270759
 20
1.636486035753606
 30
0.0
  0
POINT
  5
DA6
330
D12
100
AcDbEntity
  8
Defpoints
 62
     0
100
AcDbPoint
 10
0.9367813106270777
 20
1.636486035753606
 30
0.0
  0
POINT
  5
DA7
330
D12
100
AcDbEntity
  8
Defpoints
 62
     0
100
AcDbPoint
 10
0.9367813106270777
 20
1.850663182765692
 30
0.0
  0
ENDBLK
  5
D1E
330
D12
100
AcDbEntity
  8
0
100
AcDbBlockEnd
  0
BLOCK
  5
D3D
330
D33
100
AcDbEntity
  8
0
100
AcDbBlockBegin
  2
*D7
 70
     1
 10
0.0
 20
0.0
 30
0.0
  3
*D7
  1

  0
LINE
  5
D86
330
D33
100
AcDbEntity
  8
DIM
 62
     0
370
    -2
100
AcDbLine
 10
2.368571998797014
 20
1.240986035753607
 30
0.0
 11
2.368571998797014
 21
1.890663182765692
 31
0.0
  0
LINE
  5
D87
330
D33
100
AcDbEntity
  8
DIM
 62
     0
370
    -2
100
AcDbLine
 10
3.243571998797014
 20
1.240986035753607
 30
0.0
 11
3.243571998797014
 21
1.890663182765692
 31
0.0
  0
LINE
  5
D88
330
D33
100
AcDbEntity
  8
DIM
 62
     0
370
    -2
100
AcDbLine
 10
2.413571998797014
 20
1.850663182765692
 30
0.0
 11
3.198571998797014
 21
1.850663182765692
 31
0.0
  0
SOLID
  5
D89
330
D33
100
AcDbEntity
  8
DIM
 62
     0
100
AcDbTrace
 10
2.413571998797014
 20
1.858163182765692
 30
0.0
 11
2.413571998797014
 21
1.843163182765692
 31
0.0
 12
2.368571998797014
 22
1.850663182765692
 32
0.0
 13
2.368571998797014
 23
1.850663182765692
 33
0.0
  0
SOLID
  5
D8A
330
D33
100
AcDbEntity
  8
DIM
 62
     0
100
AcDbTrace
 10
3.198571998797014
 20
1.858163182765692
 30
0.0
 11
3.198571998797014
 21
1.843163182765692
 31
0.0
 12
3.243571998797014
 22
1.850663182765692
 32
0.0
 13
3.243571998797014
 23
1.850663182765692
 33
0.0
  0
MTEXT
  5
D8B
330
D33
100
AcDbEntity
  8
DIM
 62
     0
100
AcDbMText
 10
2.806071998797014
 20
1.884295065838431
 30
0.0
 40
0.045
 41
0.0
 46
0.0
 71
     5
 72
     1
  1
\A1;0.88
 73
     1
 44
1.0
  0
POINT
  5
D8C
330
D33
100
AcDbEntity
  8
Defpoints
 62
     0
100
AcDbPoint
 10
2.368571998797014
 20
1.200986035753607
 30
0.0
  0
POINT
  5
D8D
330
D33
100
AcDbEntity
  8
Defpoints
 62
     0
100
AcDbPoint
 10
3.243571998797014
 20
1.200986035753607
 30
0.0
  0
POINT
  5
D8E
330
D33
100
AcDbEntity
  8
Defpoints
 62
     0
100
AcDbPoint
 10
3.243571998797014
 20
1.850663182765692
 30
0.0
  0
ENDBLK
  5
D3E
330
D33
100
AcDbEntity
  8
0
100
AcDbBlockEnd
  0
BLOCK
  5
D4A
330
D41
100
AcDbEntity
  8
0
100
AcDbBlockBegin
  2
*D8
 70
     1
 10
0.0
 20
0.0
 30
0.0
  3
*D8
  1

  0
LINE
  5
D97
330
D41
100
AcDbEntity
  8
DIM
 62
     0
370
    -2
100
AcDbLine
 10
3.544034157585999
 20
1.524073894249973
 30
0.0
 11
3.033367582310621
 21
1.300498514067677
 31
0.0
  0
LINE
  5
D98
330
D41
100
AcDbEntity
  8
DIM
 62
     0
370
    -2
100
AcDbLine
 10
2.578776415283406
 20
1.101473557439538
 30
0.0
 11
2.537554042454742
 21
1.083425954319605
 31
0.0
  0
MTEXT
  5
D99
330
D41
100
AcDbEntity
  8
DIM
 62
     0
100
AcDbMText
 10
3.450802937373605
 20
1.520627802873835
 30
0.0
 40
0.045
 41
0.0
 46
0.0
 71
     5
 72
     1
  1
\A1;\U+22050.41
 11
0.9160527295258773
 21
0.4010578471096033
 31
0.0
 73
     1
 44
1.0
  0
LINE
  5
D9A
330
D41
100
AcDbEntity
  8
DIM
 62
     0
370
    -2
100
AcDbLine
 10
2.61999878811207
 20
1.11952116055947
 30
0.0
 11
2.992145209481956
 21
1.282450910947745
 31
0.0
  0
SOLID
  5
D9B
330
D41
100
AcDbEntity
  8
DIM
 62
     0
100
AcDbTrace
 10
2.575768481430084
 20
1.108343952910981
 30
0.0
 11
2.581784349136728
 21
1.094603161968093
 31
0.0
 12
2.61999878811207
 22
1.11952116055947
 32
0.0
 13
2.61999878811207
 23
1.11952116055947
 33
0.0
  0
SOLID
  5
D9C
330
D41
100
AcDbEntity
  8
DIM
 62
     0
100
AcDbTrace
 10
3.030359648457299
 20
1.307368909539121
 30
0.0
 11
3.036375516163943
 21
1.293628118596233
 31
0.0
 12
2.992145209481956
 22
1.282450910947745
 32
0.0
 13
2.992145209481956
 23
1.282450910947745
 33
0.0
  0
POINT
  5
D9D
330
D41
100
AcDbEntity
  8
Defpoints
 62
     0
100
AcDbPoint
 10
2.992145209481956
 20
1.282450910947745
 30
0.0
  0
POINT
  5
D9E
330
D41
100
AcDbEntity
  8
Defpoints
 62
     0
100
AcDbPoint
 10
2.61999878811207
 20
1.11952116055947
 30
0.0
  0
ENDBLK
  5
D4B
330
D41
100
AcDbEntity
  8
0
100
AcDbBlockEnd
  0
ENDSEC
  0
SECTION
  2
ENTITIES
  0
LWPOLYLINE
  5
43D
330
1F
100
AcDbEntity
  8
FORMAT
370
    15
100
AcDbPolyline
 90
        4
 70
     1
 43
0.0
 10
0.0
 20
0.0
 10
3.908766090639749
 20
0.0
 10
3.908766090639749
 20
2.960036456989338
 10
0.0
 20
2.960036456989338
  0
LINE
  5
43E
330
1F
100
AcDbEntity
  8
FORMAT
370
    15
100
AcDbLine
 10
1.541070484175747
 20
0.4600364569893383
 30
0.0
 11
3.908766090639749
 21
0.4600364569893383
 31
0.0
  0
LINE
  5
43F
330
1F
100
AcDbEntity
  8
FORMAT
370
    15
100
AcDbLine
 10
0.0
 20
0.4600364569893383
 30
0.0
 11
1.541070484175747
 21
0.4600364569893383
 31
0.0
  0
LINE
  5
440
330
1F
100
AcDbEntity
  8
FORMAT
370
    15
100
AcDbLine
 10
2.267352942086536
 20
0.241241179194528
 30
0.0
 11
1.541070484175747
 21
0.241241179194528
 31
0.0
  0
LINE
  5
441
330
1F
100
AcDbEntity
  8
FORMAT
370
    15
100
AcDbLine
 10
2.267352942086536
 20
0.4600364569893383
 30
0.0
 11
2.267352942086536
 21
0.0
 31
0.0
  0
LINE
  5
442
330
1F
100
AcDbEntity
  8
FORMAT
370
    15
100
AcDbLine
 10
3.331056625138113
 20
0.4600364569893383
 30
0.0
 11
3.331056625138113
 21
0.241241179194528
 31
0.0
  0
LINE
  5
443
330
1F
100
AcDbEntity
  8
FORMAT
370
    15
100
AcDbLine
 10
3.908766090639749
 20
0.1438237412962521
 30
0.0
 11
3.101671039060563
 21
0.1438237412962521
 31
0.0
  0
LINE
  5
444
330
1F
100
AcDbEntity
  8
FORMAT
370
    15
100
AcDbLine
 10
3.101671039060563
 20
0.0
 30
0.0
 11
3.101671039060563
 21
0.241241179194528
 31
0.0
  0
LINE
  5
445
330
1F
100
AcDbEntity
  8
FORMAT
370
    15
100
AcDbLine
 10
3.324075302256935
 20
2.960036456989338
 30
0.0
 11
3.324075302256935
 21
2.856756482790649
 31
0.0
  0
LINE
  5
446
330
1F
100
AcDbEntity
  8
FORMAT
370
    15
100
AcDbLine
 10
3.908766090639749
 20
0.241241179194528
 30
0.0
 11
2.267352942086536
 21
0.241241179194528
 31
0.0
  0
LINE
  5
447
330
1F
100
AcDbEntity
  8
FORMAT
370
    15
100
AcDbLine
 10
3.324075302256935
 20
2.856756482790649
 30
0.0
 11
3.908766090639749
 21
2.856756482790649
 31
0.0
  0
LINE
  5
448
330
1F
100
AcDbEntity
  8
FORMAT
370
    15
100
AcDbLine
 10
1.541070484175747
 20
0.4600364569893383
 30
0.0
 11
1.541070484175747
 21
0.0
 31
0.0
  0
MTEXT
  5
449
330
1F
100
AcDbEntity
  8
0
  6
Continuous
 62
   160
370
     0
100
AcDbMText
 10
3.144583512796607
 20
0.2254078741027363
 30
0.0
 40
0.0316243211216813
 41
0.0
 46
0.0
 71
     1
 72
     1
  1
http://www.amazonsupply.com
  7
SLDTEXTSTYLE0
 73
     1
 44
1.0
1001
PE_URL
1000
http://www.amazonsupply.com/
1002
{
1000
http://www.amazonsupply.com/
1002
{
1071
        1
1002
}
1002
}
  0
INSERT
  5
44A
330
1F
100
AcDbEntity
  8
0
  6
Continuous
 62
     7
100
AcDbBlockReference
  2
Block2
 10
-0.1734063989465571
 20
-0.4591397336355067
 30
0.0
 41
0.3794918534601861
 42
0.3794918534601699
 43
0.3794918534601717
  0
TEXT
  5
44B
330
1F
100
AcDbEntity
  8
FORMAT
 62
     7
100
AcDbText
 10
2.282192129349863
 20
0.4045915927940751
 30
0.0
 40
0.0379491853460172
  1
MATERIAL :
 41
0.9
  7
SLDTEXTSTYLE1
100
AcDbText
  0
TEXT
  5
44C
330
1F
100
AcDbEntity
  8
FORMAT
 62
     7
100
AcDbText
 10
1.670625378672184
 20
0.2999282928180333
 30
0.0
 40
0.0474364816825215
  1
B009SX6FYU 
 41
0.9
  7
SLDTEXTSTYLE1
100
AcDbText
  0
TEXT
  5
44D
330
1F
100
AcDbEntity
  8
FORMAT
 62
     7
100
AcDbText
 10
3.410967534723048
 20
2.88050073215026
 30
0.0
 40
0.0474364816825215
  1
B009SX6FYU 
  7
SLDTEXTSTYLE1
100
AcDbText
  0
TEXT
  5
44E
330
1F
100
AcDbEntity
  8
FORMAT
 62
     7
100
AcDbText
 10
1.671096588739637
 20
0.0703181548411284
 30
0.0
 40
0.0474364816825215
  1
Te-Co 
 41
0.9
  7
SLDTEXTSTYLE1
100
AcDbText
  0
TEXT
  5
44F
330
1F
100
AcDbEntity
  8
FORMAT
 62
     0
100
AcDbText
 10
2.466424960025276
 20
0.3111897016188958
 30
0.0
 40
0.047436481682522
  1
Carbon Steel 1010 
 41
0.9
  7
SLDTEXTSTYLE1
100
AcDbText
  0
TEXT
  5
450
330
1F
100
AcDbEntity
  8
FORMAT
 62
     7
100
AcDbText
 10
0.0390883050986235
 20
0.3564165781825172
 30
0.0
 40
0.0379491853460172
  1
ITEM NAME:
 41
0.9
  7
SLDTEXTSTYLE1
100
AcDbText
  0
TEXT
  5
451
330
1F
100
AcDbEntity
  8
FORMAT
 62
     7
100
AcDbText
 10
1.570773280322127
 20
0.3864455082284231
 30
0.0
 40
0.0379491853460172
  1
ASIN :
 41
0.9
  7
SLDTEXTSTYLE1
100
AcDbText
  0
TEXT
  5
453
330
1F
100
AcDbEntity
  8
FORMAT
 62
     0
100
AcDbText
 10
2.296684436417347
 20
0.1774961838146705
 30
0.0
 40
0.023718240841261
  1
# UNLESS OTHERWISE SPECIFIED
 41
0.95
  7
SLDTEXTSTYLE1
100
AcDbText
  0
TEXT
  5
454
330
1F
100
AcDbEntity
  8
FORMAT
 62
     0
100
AcDbText
 10
2.332322262263295
 20
0.1416618581234045
 30
0.0
 40
0.023718240841261
  1
DIMENSIONS ARE IN INCHES
 41
0.95
  7
SLDTEXTSTYLE1
100
AcDbText
  0
TEXT
  5
455
330
1F
100
AcDbEntity
  8
FORMAT
 62
     0
100
AcDbText
 10
2.296684436417347
 20
0.0718966496227898
 30
0.0
 40
0.023718240841261
  1
# INFORMATION IN THIS DRAWING IS PROVIDED FOR
 41
0.95
  7
SLDTEXTSTYLE1
100
AcDbText
  0
TEXT
  5
456
330
1F
100
AcDbEntity
  8
FORMAT
 62
     0
100
AcDbText
 10
2.332225518928796
 20
0.0360623239315243
 30
0.0
 40
0.023718240841261
  1
REFERENCE ONLY
 41
0.95
  7
SLDTEXTSTYLE1
100
AcDbText
  0
TEXT
  5
457
330
1F
100
AcDbEntity
  8
FORMAT
 62
     7
100
AcDbText
 10
1.562087536257789
 20
0.1637121619260951
 30
0.0
 40
0.0379491853460172
  1
BRAND :
 41
0.9
  7
SLDTEXTSTYLE1
100
AcDbText
  0
MTEXT
  5
50B
330
1F
100
AcDbEntity
  8
FORMAT
 62
     7
100
AcDbMText
 10
0.1445582873977623
 20
0.3163602461036156
 30
0.0
 40
0.0474364816825215
 41
1.379303242936713
 46
0.0
 71
     1
 72
     1
  1
{\fCalibri|b0|i0|c0|p34;\H0.9167x;\C256;Te-Co 42603 Black Oxide C1010 Steel Hardened Flat Washer, 3/8" Stud, 7/8" OD x 13/32" ID x 1/8" Thick (Pack of 5)}
  7
SLDTEXTSTYLE1
 73
     1
 44
1.0
  0
TEXT
  5
A8A
330
1F
100
AcDbEntity
  8
0
 62
     7
100
AcDbText
 10
0.7949275480059104
 20
0.5711502930860731
 30
0.0
 40
0.05
  1
TOP
100
AcDbText
  0
TEXT
  5
A8B
330
1F
100
AcDbEntity
  8
0
 62
     7
100
AcDbText
 10
2.699363402852615
 20
0.5430065243217222
 30
0.0
 40
0.05
  1
FRONT
100
AcDbText
  0
INSERT
  5
B40
330
1F
100
AcDbEntity
  8
0
100
AcDbBlockReference
  2
amazon block
 10
3.143488108139873
 20
0.0393182474902572
 30
0.0
 41
0.3858651861269528
 42
0.3858651861269528
 43
0.3858651861269529
  0
CIRCLE
  5
CD8
330
1F
100
AcDbEntity
  8
0
  6
Continuous
 62
     7
370
    15
100
AcDbCircle
 10
2.806071998797014
 20
1.200986035753607
 30
0.0
 40
0.4354999999999994
  0
CIRCLE
  5
CD9
330
1F
100
AcDbEntity
  8
0
  6
Continuous
 62
     7
370
    15
100
AcDbCircle
 10
2.806071998797014
 20
1.200986035753607
 30
0.0
 40
0.2051249999999989
  0
CIRCLE
  5
CDA
330
1F
100
AcDbEntity
  8
0
  6
Continuous
 62
     7
370
    15
100
AcDbCircle
 10
2.806071998797014
 20
1.200986035753607
 30
0.0
 40
0.4375
  0
CIRCLE
  5
CDB
330
1F
100
AcDbEntity
  8
0
  6
Continuous
 62
     7
370
    15
100
AcDbCircle
 10
2.806071998797014
 20
1.200986035753607
 30
0.0
 40
0.2031249999999982
  0
CIRCLE
  5
CDC
330
1F
100
AcDbEntity
  8
0
  6
HIDDEN
 62
     7
370
     0
100
AcDbCircle
 10
2.806071998797014
 20
1.200986035753607
 30
0.0
 40
0.4354999999999994
  0
CIRCLE
  5
CDD
330
1F
100
AcDbEntity
  8
0
  6
HIDDEN
 62
     7
370
     0
100
AcDbCircle
 10
2.806071998797014
 20
1.200986035753607
 30
0.0
 40
0.2051249999999989
  0
INSERT
  5
CDE
330
1F
100
AcDbEntity
  8
0
  6
Continuous
 62
     7
370
     0
100
AcDbBlockReference
  2
SW_CENTERMARKSYMBOL_0
 10
2.806071998797014
 20
1.200986035753607
 30
0.0
 41
0.5
 42
0.5
 43
0.5
  0
LINE
  5
CDF
330
1F
100
AcDbEntity
  8
0
  6
Continuous
 62
     7
370
    15
100
AcDbLine
 10
0.934781310627077
 20
1.638486035753607
 30
0.0
 11
0.8137813106270765
 21
1.638486035753607
 31
0.0
  0
LINE
  5
CE0
330
1F
100
AcDbEntity
  8
0
  6
Continuous
 62
     7
370
    15
100
AcDbLine
 10
0.8137813106270765
 20
0.7634860357536076
 30
0.0
 11
0.934781310627077
 21
0.7634860357536076
 31
0.0
  0
ARC
  5
CE1
330
1F
100
AcDbEntity
  8
0
  6
Continuous
 62
     7
370
    15
100
AcDbCircle
 10
0.934781310627077
 20
0.7654860357536078
 30
0.0
 40
0.0020000000000002
100
AcDbArc
 50
270.0000000000008
 51
0.0000000000002036
  0
ARC
  5
CE2
330
1F
100
AcDbEntity
  8
0
  6
Continuous
 62
     7
370
    15
100
AcDbCircle
 10
0.934781310627077
 20
1.636486035753606
 30
0.0
 40
0.0020000000000007
100
AcDbArc
 50
0.0000000000002036
 51
90.0
  0
ARC
  5
CE3
330
1F
100
AcDbEntity
  8
0
  6
Continuous
 62
     7
370
    15
100
AcDbCircle
 10
0.8137813106270765
 20
0.7654860357536078
 30
0.0
 40
0.0020000000000002
100
AcDbArc
 50
179.9999999999998
 51
270.0000000000008
  0
ARC
  5
CE4
330
1F
100
AcDbEntity
  8
0
  6
Continuous
 62
     7
370
    15
100
AcDbCircle
 10
0.8137813106270765
 20
1.636486035753606
 30
0.0
 40
0.0020000000000007
100
AcDbArc
 50
90.0
 51
179.9999999999998
  0
LINE
  5
CE5
330
1F
100
AcDbEntity
  8
0
  6
Continuous
 62
     7
370
    15
100
AcDbLine
 10
0.9367813106270759
 20
1.200986035753607
 30
0.0
 11
0.9367813106270759
 21
0.7654860357536078
 31
0.0
  0
LINE
  5
CE6
330
1F
100
AcDbEntity
  8
0
  6
Continuous
 62
     7
370
    15
100
AcDbLine
 10
0.9367813106270759
 20
1.636486035753606
 30
0.0
 11
0.9367813106270759
 21
1.200986035753607
 31
0.0
  0
LINE
  5
CE7
330
1F
100
AcDbEntity
  8
0
  6
Continuous
 62
     7
370
    15
100
AcDbLine
 10
0.8117813106270777
 20
1.200986035753607
 30
0.0
 11
0.8117813106270777
 21
1.636486035753606
 31
0.0
  0
LINE
  5
CE8
330
1F
100
AcDbEntity
  8
0
  6
Continuous
 62
     7
370
    15
100
AcDbLine
 10
0.8117813106270777
 20
0.7654860357536078
 30
0.0
 11
0.8117813106270777
 21
1.200986035753607
 31
0.0
  0
LINE
  5
CE9
330
1F
100
AcDbEntity
  8
0
  6
Continuous
 62
     8
370
    15
100
AcDbLine
 10
0.8137813106270765
 20
1.200986035753607
 30
0.0
 11
0.8137813106270765
 21
0.7634860357536076
 31
0.0
  0
LINE
  5
CEA
330
1F
100
AcDbEntity
  8
0
  6
Continuous
 62
     8
370
    15
100
AcDbLine
 10
0.8137813106270765
 20
1.638486035753607
 30
0.0
 11
0.8137813106270765
 21
1.200986035753607
 31
0.0
  0
LINE
  5
CEB
330
1F
100
AcDbEntity
  8
0
  6
Continuous
 62
     8
370
    15
100
AcDbLine
 10
0.934781310627077
 20
1.200986035753607
 30
0.0
 11
0.934781310627077
 21
1.638486035753607
 31
0.0
  0
LINE
  5
CEC
330
1F
100
AcDbEntity
  8
0
  6
Continuous
 62
     8
370
    15
100
AcDbLine
 10
0.934781310627077
 20
0.7634860357536076
 30
0.0
 11
0.934781310627077
 21
1.200986035753607
 31
0.0
  0
ARC
  5
CED
330
1F
100
AcDbEntity
  8
0
  6
HIDDEN
 62
     7
370
     0
100
AcDbCircle
 10
0.934781310627077
 20
0.9958610357536077
 30
0.0
 40
0.0019999999999998
100
AcDbArc
 50
0.0000000000002036
 51
90.0
  0
ARC
  5
CEE
330
1F
100
AcDbEntity
  8
0
  6
HIDDEN
 62
     7
370
     0
100
AcDbCircle
 10
0.934781310627077
 20
1.406111035753607
 30
0.0
 40
0.0019999999999998
100
AcDbArc
 50
270.0000000000008
 51
0.0000000000002036
  0
ARC
  5
CEF
330
1F
100
AcDbEntity
  8
0
  6
HIDDEN
 62
     7
370
     0
100
AcDbCircle
 10
0.8137813106270765
 20
0.9958610357536077
 30
0.0
 40
0.0019999999999998
100
AcDbArc
 50
90.0
 51
179.9999999999998
  0
ARC
  5
CF0
330
1F
100
AcDbEntity
  8
0
  6
HIDDEN
 62
     7
370
     0
100
AcDbCircle
 10
0.8137813106270765
 20
1.406111035753607
 30
0.0
 40
0.0019999999999998
100
AcDbArc
 50
179.9999999999998
 51
270.0000000000008
  0
LINE
  5
CF1
330
1F
100
AcDbEntity
  8
0
  6
HIDDEN
 62
     7
370
     0
100
AcDbLine
 10
0.934781310627077
 20
1.404111035753607
 30
0.0
 11
0.8137813106270765
 21
1.404111035753607
 31
0.0
  0
LINE
  5
CF2
330
1F
100
AcDbEntity
  8
0
  6
HIDDEN
 62
     7
370
     0
100
AcDbLine
 10
0.8137813106270765
 20
0.9978610357536075
 30
0.0
 11
0.934781310627077
 21
0.9978610357536075
 31
0.0
  0
LINE
  5
CF3
330
1F
100
AcDbEntity
  8
0
  6
HIDDEN
 62
     7
370
     0
100
AcDbLine
 10
0.8137813106270765
 20
0.7634860357536076
 30
0.0
 11
0.8137813106270765
 21
1.638486035753607
 31
0.0
  0
LINE
  5
CF4
330
1F
100
AcDbEntity
  8
0
  6
HIDDEN
 62
     7
370
     0
100
AcDbLine
 10
0.934781310627077
 20
1.638486035753607
 30
0.0
 11
0.934781310627077
 21
0.7634860357536076
 31
0.0
  0
LINE
  5
CF5
330
1F
100
AcDbEntity
  8
0
  6
HIDDEN
 62
     7
370
     0
100
AcDbLine
 10
0.934781310627077
 20
1.404111035753607
 30
0.0
 11
0.934781310627077
 21
0.9978876687590263
 31
0.0
  0
LINE
  5
CF6
330
1F
100
AcDbEntity
  8
0
  6
HIDDEN
 62
     7
370
     0
100
AcDbLine
 10
0.8137813106270765
 20
0.9978610357536075
 30
0.0
 11
0.8137813106270765
 21
1.404084402748188
 31
0.0
  0
SPLINE
  5
CF7
330
1F
100
AcDbEntity
  8
0
100
AcDbSpline
210
0.0
220
0.0
230
1.0
 70
     8
 71
     3
 72
    67
 73
    63
 74
     0
 42
0.0000000001
 43
0.0000000001
 40
0.0
 40
0.0
 40
0.0
 40
0.0
 40
0.0035214421865541
 40
0.0204849624896117
 40
0.037456317997914
 40
0.0544344952061469
 40
0.0714183832535321
 40
0.0884068703920936
 40
0.1053989118585249
 40
0.1223935714464233
 40
0.1393900417248907
 40
0.1563876486149358
 40
0.1733858456196293
 40
0.1903841527751868
 40
0.2073821996533247
 40
0.2243797680112501
 40
0.2413767060945906
 40
0.2583729159325955
 40
0.2753683424017915
 40
0.2923629640470428
 40
0.309356785532723
 40
0.3263498315373665
 40
0.3433421418862892
 40
0.3603337677215163
 40
0.3773247685256671
 40
0.3943152098390014
 40
0.4113051615325052
 40
0.4282946965221868
 40
0.4452838898296958
 40
0.4622728179111365
 40
0.4792615581901237
 40
0.4962501887419493
 40
0.5132387880844714
 40
0.5302274280124419
 40
0.5472161682859699
 40
0.5642050880512874
 40
0.5811942664607179
 40
0.5981837824937994
 40
0.6151737146909121
 40
0.632164140754435
 40
0.6491551369675719
 40
0.6661467773707642
 40
0.6831391326225236
 40
0.7001322684554291
 40
0.717126243618783
 40
0.7341211071772848
 40
0.7511168950107689
 40
0.7681136253352534
 40
0.7851112930436565
 40
0.8021098626509857
 40
0.8191092596330751
 40
0.836109359983974
 40
0.8531099779061332
 40
0.8701108405733906
 40
0.8871114667313523
 40
0.9041113572408068
 40
0.9211098860435773
 40
0.9381062900861675
 40
0.9550996674174779
 40
0.9720889884343687
 40
0.9890731260766255
 40
0.9999999999999998
 40
0.9999999999999998
 40
0.9999999999999998
 40
0.9999999999999998
 10
2.206209395025394
 20
2.759719742563804
 30
0.0
 10
2.205806682894783
 20
2.759022782889776
 30
0.0
 10
2.203464022571925
 20
2.754968423333989
 30
0.0
 10
2.199663133414295
 20
2.747017359576944
 30
0.0
 10
2.194842259727694
 20
2.735861193500405
 30
0.0
 10
2.190574096651884
 20
2.724145452355936
 30
0.0
 10
2.186812517400161
 20
2.711951486098898
 30
0.0
 10
2.183578685194781
 20
2.699284764412193
 30
0.0
 10
2.180874444888335
 20
2.686172183967039
 30
0.0
 10
2.178705537132183
 20
2.672635890098432
 30
0.0
 10
2.17707538128192
 20
2.658700212859318
 30
0.0
 10
2.175986753634543
 20
2.644389736086896
 30
0.0
 10
2.175441352543282
 20
2.62972976543206
 30
0.0
 10
2.1754399270001
 20
2.6147461483512
 30
0.0
 10
2.175982253742448
 20
2.599465249441575
 30
0.0
 10
2.177067159076864
 20
2.58391388487581
 30
0.0
 10
2.178692529311632
 20
2.568119286512054
 30
0.0
 10
2.180855319348223
 20
2.552109081460005
 30
0.0
 10
2.183551560462635
 20
2.53591125037436
 30
0.0
 10
2.1867763686509
 20
2.519554084190059
 30
0.0
 10
2.190523953600102
 20
2.503066139585623
 30
0.0
 10
2.194787628622542
 20
2.486476193166873
 30
0.0
 10
2.199559821739862
 20
2.469813194521156
 30
0.0
 10
2.204832088073736
 20
2.45310621829536
 30
0.0
 10
2.210595123646934
 20
2.436384415472253
 30
0.0
 10
2.21683878066227
 20
2.419676964021003
 30
0.0
 10
2.223552084296226
 20
2.403013019095185
 30
0.0
 10
2.230723251020236
 20
2.386421662945048
 30
0.0
 10
2.238339708444202
 20
2.369931854702885
 30
0.0
 10
2.246388116662393
 20
2.35357238019215
 30
0.0
 10
2.254854391070781
 20
2.337371801903087
 30
0.0
 10
2.263723726615996
 20
2.321358409270681
 30
0.0
 10
2.272980622153168
 20
2.305560171561662
 30
0.0
 10
2.282608904818856
 20
2.290004692689501
 30
0.0
 10
2.292591761341551
 20
2.274719156759856
 30
0.0
 10
2.302911769114858
 20
2.259730278603294
 30
0.0
 10
2.313550929800889
 20
2.245064254125195
 30
0.0
 10
2.324490697372249
 20
2.230746720832732
 30
0.0
 10
2.335712010781632
 20
2.216802713606362
 30
0.0
 10
2.347195327534716
 20
2.203256621697357
 30
0.0
 10
2.358920658067408
 20
2.190132147058028
 30
0.0
 10
2.370867600818185
 20
2.177452264106364
 30
0.0
 10
2.383015377872368
 20
2.165239181022364
 30
0.0
 10
2.395342871038716
 20
2.153514302666573
 30
0.0
 10
2.407828658199184
 20
2.142298195200551
 30
0.0
 10
2.420451049749708
 20
2.131610552474596
 30
0.0
 10
2.433188124925635
 20
2.121470164220714
 30
0.0
 10
2.446017767772843
 20
2.111894886071933
 30
0.0
 10
2.458917702518139
 20
2.102901611321494
 30
0.0
 10
2.471865527996261
 20
2.094506244498266
 30
0.0
 10
2.484838751053406
 20
2.086723675900797
 30
0.0
 10
2.497814817831464
 20
2.079567759286589
 30
0.0
 10
2.510771142876908
 20
2.073051284386926
 30
0.0
 10
2.523685100751301
 20
2.067185988254799
 30
0.0
 10
2.53653410207603
 20
2.061982432660389
 30
0.0
 10
2.549295523699282
 20
2.057450276754366
 30
0.0
 10
2.561947126515299
 20
2.053597116282663
 30
0.0
 10
2.574465698768269
 20
2.050432657686923
 30
0.0
 10
2.586832160139598
 20
2.047953028080909
 30
0.0
 10
2.59901267040384
 20
2.046199141224431
 30
0.0
 10
2.609602211774195
 20
2.045176575342576
 30
0.0
 10
2.616029615848434
 20
2.045036531434466
 30
0.0
 10
2.618545878428479
 20
2.044981705684993
 30
0.0
  0
LINE
  5
CF8
330
1F
100
AcDbEntity
  8
0
100
AcDbLine
 10
2.352235997988985
 20
2.872701181886635
 30
0.0
 11
2.266676077465413
 21
2.823308491121362
 31
0.0
  0
LINE
  5
CF9
330
1F
100
AcDbEntity
  8
0
100
AcDbLine
 10
2.704140522993688
 20
2.065515736538264
 30
0.0
 11
2.789700443517261
 21
2.114908427303539
 31
0.0
  0
SPLINE
  5
CFA
330
1F
100
AcDbEntity
  8
0
100
AcDbSpline
210
0.0
220
0.0
230
1.0
 70
     8
 71
     3
 72
    19
 73
    15
 74
     0
 42
0.0000000001
 43
0.0000000001
 40
0.0
 40
0.0
 40
0.0
 40
0.0
 40
0.015877527316951
 40
0.1091911163837229
 40
0.2025479535367378
 40
0.2959424885572736
 40
0.3893686180002213
 40
0.4828202203642872
 40
0.5762915339372681
 40
0.6697773893381508
 40
0.7632733237049309
 40
0.856775607934286
 40
0.95028121622947
 40
1.0
 40
1.0
 40
1.0
 40
1.0
 10
2.850220371915364
 20
2.17857740661211
 30
0.0
 10
2.850550937828995
 20
2.179148111410945
 30
0.0
 10
2.852824267953213
 20
2.183072897233472
 30
0.0
 10
2.8565652037645
 20
2.190884575658187
 30
0.0
 10
2.861402960652837
 20
2.202023074890052
 30
0.0
 10
2.865685450431195
 20
2.213724928331725
 30
0.0
 10
2.869462325513786
 20
2.225904762774492
 30
0.0
 10
2.872711395529725
 20
2.238558245074576
 30
0.0
 10
2.875431221805127
 20
2.25165811081182
 30
0.0
 10
2.877615290359686
 20
2.265182688666612
 30
0.0
 10
2.879262693639086
 20
2.279106248551855
 30
0.0
 10
2.880361206201229
 20
2.293409451449981
 30
0.0
 10
2.880853233634033
 20
2.305762558009219
 30
0.0
 10
2.880897765283881
 20
2.313385661209866
 30
0.0
 10
2.880913223959865
 20
2.316031938245692
 30
0.0
  0
SPLINE
  5
CFB
330
1F
100
AcDbEntity
  8
0
100
AcDbSpline
210
0.0
220
0.0
230
1.0
 70
     8
 71
     3
 72
    56
 73
    52
 74
     0
 42
0.0000000001
 43
0.0000000001
 40
0.0
 40
0.0
 40
0.0
 40
0.0
 40
0.0108828367497048
 40
0.0315552148555217
 40
0.0522278464717903
 40
0.0728997073366612
 40
0.0935706798801132
 40
0.1142406983956727
 40
0.1349097378313689
 40
0.1555778046631029
 40
0.1762449295164832
 40
0.1969111612870082
 40
0.2175765625150626
 40
0.2382412057933957
 40
0.2589051710123898
 40
0.279568543277197
 40
0.3002314113577912
 40
0.3208938665571659
 40
0.3415560019032997
 40
0.3622179115873978
 40
0.3828796905842884
 40
0.4035414344011234
 40
0.4242032294364601
 40
0.4448651493048214
 40
0.4655272902673921
 40
0.4861897485875403
 40
0.5068526203108633
 40
0.5275160009373189
 40
0.5481799849306057
 40
0.5688446650038834
 40
0.5895101311083146
 40
0.6101764690349442
 40
0.6308437585207347
 40
0.651512070726027
 40
0.6721814649238
 40
0.6928519842112494
 40
0.7135236500243773
 40
0.7341964552095626
 40
0.7548703553902425
 40
0.7755452583727715
 40
0.796221011380829
 40
0.8168973860184264
 40
0.8375740432056177
 40
0.8582503971529343
 40
0.8789258365520263
 40
0.8995995952856128
 40
0.9202707403879555
 40
0.9409381701035385
 40
0.9616006281304606
 40
0.9822567411210449
 40
1.0
 40
1.0
 40
1.0
 40
1.0
 10
2.880913223959865
 20
2.316031938245692
 30
0.0
 10
2.880898062252486
 20
2.318669213733492
 30
0.0
 10
2.880854100283293
 20
2.326316098140997
 30
0.0
 10
2.880365817139695
 20
2.339202143346975
 30
0.0
 10
2.879271030444179
 20
2.354757321701323
 30
0.0
 10
2.877628459266505
 20
2.370559483109574
 30
0.0
 10
2.875450547823366
 20
2.386575282789746
 30
0.0
 10
2.872738784370845
 20
2.402778202911582
 30
0.0
 10
2.869498751085973
 20
2.419139549673866
 30
0.0
 10
2.865736084455438
 20
2.435630865069717
 30
0.0
 10
2.86145754523951
 20
2.452223338486124
 30
0.0
 10
2.856670718005981
 20
2.468888023615734
 30
0.0
 10
2.851384076224418
 20
2.485595840873721
 30
0.0
 10
2.845606947651759
 20
2.502317638341209
 30
0.0
 10
2.839349504575082
 20
2.519024237861762
 30
0.0
 10
2.832622745482616
 20
2.535686485729724
 30
0.0
 10
2.825438477097648
 20
2.552275302549201
 30
0.0
 10
2.817809294384034
 20
2.568761733512952
 30
0.0
 10
2.809748559185802
 20
2.585116998573556
 30
0.0
 10
2.801270377359978
 20
2.601312542465426
 30
0.0
 10
2.792389574488851
 20
2.617320084414886
 30
0.0
 10
2.783121671622316
 20
2.633111665003755
 30
0.0
 10
2.773482860611593
 20
2.648659691824001
 30
0.0
 10
2.763489972874195
 20
2.663936993664907
 30
0.0
 10
2.753160448124141
 20
2.678916870169671
 30
0.0
 10
2.742512301042625
 20
2.693573141001997
 30
0.0
 10
2.731564093065937
 20
2.707880185523439
 30
0.0
 10
2.720334899688385
 20
2.721812986987856
 30
0.0
 10
2.70884427686461
 20
2.735347175506682
 30
0.0
 10
2.697112226610581
 20
2.748459069678478
 30
0.0
 10
2.685159161912849
 20
2.761125716781223
 30
0.0
 10
2.673005871069671
 20
2.773324931430115
 30
0.0
 10
2.660673481604156
 20
2.785035332610741
 30
0.0
 10
2.648183423909179
 20
2.796236379008109
 30
0.0
 10
2.635557394806861
 20
2.806908402567106
 30
0.0
 10
2.622817321230115
 20
2.817032640246028
 30
0.0
 10
2.609985324264641
 20
2.826591263947624
 30
0.0
 10
2.597083683803676
 20
2.835567408699197
 30
0.0
 10
2.584134804139463
 20
2.843945199069399
 30
0.0
 10
2.571161180643528
 20
2.851709774451349
 30
0.0
 10
2.558185368362407
 20
2.858847311880641
 30
0.0
 10
2.545229954485241
 20
2.865345051059025
 30
0.0
 10
2.532317562911529
 20
2.871191291463312
 30
0.0
 10
2.519470787593949
 20
2.876375486653379
 30
0.0
 10
2.506712229102998
 20
2.880888075898517
 30
0.0
 10
2.494064199276614
 20
2.884721256400195
 30
0.0
 10
2.481549625819161
 20
2.887866257555104
 30
0.0
 10
2.469188632181472
 20
2.890323628495957
 30
0.0
 10
2.457011145278583
 20
2.892065029079213
 30
0.0
 10
2.445572317716772
 20
2.89312387662931
 30
0.0
 10
2.438309642301879
 20
2.893257343396891
 30
0.0
 10
2.434953766313123
 20
2.893319014598622
 30
0.0
  0
SPLINE
  5
CFC
330
1F
100
AcDbEntity
  8
0
100
AcDbSpline
210
0.0
220
0.0
230
1.0
 70
     8
 71
     3
 72
    41
 73
    37
 74
     0
 42
0.0000000001
 43
0.0000000001
 40
0.0
 40
0.0
 40
0.0
 40
0.0
 40
0.01570689395386
 40
0.0457209844959885
 40
0.0756925006253235
 40
0.1056308972710064
 40
0.13554554149411
 40
0.1654446147592414
 40
0.1953346826002477
 40
0.2252206809336055
 40
0.2551058003796165
 40
0.2849920224347446
 40
0.3148810651450319
 40
0.3447739109312435
 40
0.3746710099239108
 40
0.404572437892469
 40
0.4344780139295579
 40
0.4643873854774789
 40
0.4943000881431911
 40
0.5242155866971653
 40
0.5541333023803845
 40
0.5840526304662424
 40
0.613972951055365
 40
0.6438936353426747
 40
0.6738139582128877
 40
0.7037331615004791
 40
0.7336506067781392
 40
0.7635656580013017
 40
0.7934776874573149
 40
0.8233860861663327
 40
0.8532902809268925
 40
0.8831897609791182
 40
0.9130841182383459
 40
0.9429731062558573
 40
0.9728567243905194
 40
1.0
 40
1.0
 40
1.0
 40
1.0
 10
2.419062391506013
 20
2.629568778613191
 30
0.0
 10
2.420410278840876
 20
2.629607687213978
 30
0.0
 10
2.424333825795523
 20
2.62972094573209
 30
0.0
 10
2.4311037526671
 20
2.629150571847808
 30
0.0
 10
2.439312138737896
 20
2.627910165390713
 30
0.0
 10
2.447707116288055
 20
2.625947037871605
 30
0.0
 10
2.456241498523771
 20
2.623312752036243
 30
0.0
 10
2.464888470096479
 20
2.620004828981284
 30
0.0
 10
2.473614873842848
 20
2.616038168563707
 30
0.0
 10
2.482388433825247
 20
2.611426075090402
 30
0.0
 10
2.49117599257428
 20
2.606185423256597
 30
0.0
 10
2.499944268589512
 20
2.600335257692297
 30
0.0
 10
2.508659929890548
 20
2.593897083744697
 30
0.0
 10
2.517289807090955
 20
2.586894678037444
 30
0.0
 10
2.52580098485237
 20
2.579354066633904
 30
0.0
 10
2.534160965100946
 20
2.571303410883338
 30
0.0
 10
2.542337815632519
 20
2.562772890406845
 30
0.0
 10
2.550300309335636
 20
2.55379457533133
 30
0.0
 10
2.558018054209881
 20
2.54440229296719
 30
0.0
 10
2.565461615704728
 20
2.534631489443065
 30
0.0
 10
2.572602632284301
 20
2.524519087326581
 30
0.0
 10
2.579413924959172
 20
2.514103339690249
 30
0.0
 10
2.585869601283993
 20
2.503423680989339
 30
0.0
 10
2.591945147917467
 20
2.49252058609573
 30
0.0
 10
2.59761752479587
 20
2.481435420230147
 30
0.0
 10
2.602865263781863
 20
2.470210267459882
 30
0.0
 10
2.607668559097303
 20
2.458887757148028
 30
0.0
 10
2.612009337399962
 20
2.44751090178916
 30
0.0
 10
2.615871351367133
 20
2.436122931605758
 30
0.0
 10
2.619240143826097
 20
2.424767190487423
 30
0.0
 10
2.622103497944857
 20
2.413486737128696
 30
0.0
 10
2.624450046943799
 20
2.402325034686923
 30
0.0
 10
2.626274721696283
 20
2.391322565516075
 30
0.0
 10
2.627558652246785
 20
2.380528633312083
 30
0.0
 10
2.628320371872456
 20
2.370279044703281
 30
0.0
 10
2.628410622050452
 20
2.363775005499697
 30
0.0
 10
2.628453578720442
 20
2.360679256860996
 30
0.0
  0
SPLINE
  5
CFD
330
1F
100
AcDbEntity
  8
0
100
AcDbSpline
210
0.0
220
0.0
230
1.0
 70
     8
 71
     3
 72
    15
 73
    11
 74
     0
 42
0.0000000001
 43
0.0000000001
 40
0.0
 40
0.0
 40
0.0
 40
0.0
 40
0.0699539406965433
 40
0.203018511223128
 40
0.3360863937559402
 40
0.4691563567344467
 40
0.6022460131051429
 40
0.7353801985718982
 40
0.8685914825009849
 40
1.0
 40
1.0
 40
1.0
 40
1.0
 10
2.628453578720442
 20
2.360679256860996
 30
0.0
 10
2.628438656543293
 20
2.358911936266141
 30
0.0
 10
2.628395349788037
 20
2.353782864301804
 30
0.0
 10
2.6279140473161
 20
2.345545886757414
 30
0.0
 10
2.62683629558669
 20
2.33612180516635
 30
0.0
 10
2.625222288134228
 20
2.32711356588478
 30
0.0
 10
2.623091574530555
 20
2.318545738778551
 30
0.0
 10
2.620438648468596
 20
2.310465156171854
 30
0.0
 10
2.617334124405084
 20
2.302884010040205
 30
0.0
 10
2.614862539124448
 20
2.298296644881231
 30
0.0
 10
2.613635165527128
 20
2.296018588395988
 30
0.0
  0
SPLINE
  5
CFE
330
1F
100
AcDbEntity
  8
0
100
AcDbSpline
210
0.0
220
0.0
230
1.0
 70
     8
 71
     3
 72
    24
 73
    20
 74
     0
 42
0.0000000001
 43
0.0000000001
 40
0.0
 40
0.0
 40
0.0
 40
0.0
 40
0.0575479642797058
 40
0.1192036603747155
 40
0.1808541398959416
 40
0.242498115357246
 40
0.3041343441524215
 40
0.3657616674020485
 40
0.4273790701999324
 40
0.4889857719078475
 40
0.5505813577103118
 40
0.6121659653720909
 40
0.6737405433233196
 40
0.7353071962758735
 40
0.7968696295468006
 40
0.8584320099154298
 40
0.9200014529754183
 40
0.9815887061466293
 40
1.0
 40
1.0
 40
1.0
 40
1.0
 10
2.457311738226881
 20
2.459978074439709
 30
0.0
 10
2.455681360218568
 20
2.463469588810783
 30
0.0
 10
2.452304229006058
 20
2.470701839308122
 30
0.0
 10
2.447732430212031
 20
2.481795983792728
 30
0.0
 10
2.443486513825011
 20
2.49317667735734
 30
0.0
 10
2.439732405098187
 20
2.504561936143847
 30
0.0
 10
2.436471725054873
 20
2.515904844378085
 30
0.0
 10
2.433719814477937
 20
2.527163214480684
 30
0.0
 10
2.431485815984236
 20
2.538293939937567
 30
0.0
 10
2.429777940338313
 20
2.549254736380801
 30
0.0
 10
2.428602028788516
 20
2.560003874820912
 30
0.0
 10
2.427961802014388
 20
2.570500585589182
 30
0.0
 10
2.427859128776535
 20
2.580704819073393
 30
0.0
 10
2.428292613292615
 20
2.590578945097127
 30
0.0
 10
2.429262990016061
 20
2.600082292968067
 30
0.0
 10
2.430753071622685
 20
2.609192187869216
 30
0.0
 10
2.432802813658778
 20
2.617826546669199
 30
0.0
 10
2.434662097045343
 20
2.624191357127497
 30
0.0
 10
2.435998183233056
 20
2.627497442562662
 30
0.0
 10
2.436305677260515
 20
2.628258322762553
 30
0.0
  0
SPLINE
  5
CFF
330
1F
100
AcDbEntity
  8
0
100
AcDbSpline
210
0.0
220
0.0
230
1.0
 70
     8
 71
     3
 72
    24
 73
    20
 74
     0
 42
0.0000000001
 43
0.0000000001
 40
0.0
 40
0.0
 40
0.0
 40
0.0
 40
0.0359138195606055
 40
0.0964185120854742
 40
0.1568790306898159
 40
0.2173112418267606
 40
0.2777276845332723
 40
0.338137665410942
 40
0.3985467265898075
 40
0.4589589203059449
 40
0.5193773571500956
 40
0.5798037578478061
 40
0.6402388440186856
 40
0.7006826385718077
 40
0.7611346879290254
 40
0.8215942216182067
 40
0.8820602639199838
 40
0.9425317099449038
 40
1.0
 40
1.0
 40
1.0
 40
1.0
 10
2.620116599995375
 20
2.309953747289381
 30
0.0
 10
2.618491208996825
 20
2.310211971874608
 30
0.0
 10
2.614127490975329
 20
2.310905232312958
 30
0.0
 10
2.606824036120064
 20
2.312801870209149
 30
0.0
 10
2.598268798126303
 20
2.315560352312908
 30
0.0
 10
2.589600182381433
 20
2.319018375616465
 30
0.0
 10
2.58086120597567
 20
2.323124713148498
 30
0.0
 10
2.572081669485742
 20
2.327875108126559
 30
0.0
 10
2.563295493594345
 20
2.333249581476444
 30
0.0
 10
2.5545357984515
 20
2.339229248058242
 30
0.0
 10
2.5458359408788
 20
2.345791922690453
 30
0.0
 10
2.537229022834919
 20
2.352913371699751
 30
0.0
 10
2.528747933389174
 20
2.360567124898071
 30
0.0
 10
2.520424882614394
 20
2.368724418549246
 30
0.0
 10
2.512292320525453
 20
2.377355239662777
 30
0.0
 10
2.504378843744571
 20
2.38642492780897
 30
0.0
 10
2.496723829137048
 20
2.395907496299224
 30
0.0
 10
2.489444914180085
 20
2.405573604146604
 30
0.0
 10
2.484892873740301
 20
2.412231692044761
 30
0.0
 10
2.482674808913037
 20
2.415475966953805
 30
0.0
  0
ARC
  5
D00
330
1F
100
AcDbEntity
  8
0
100
AcDbCircle
 10
2.050992612941685
 20
2.193617365368091
 30
0.0
 40
0.7514310330784642
100
AcDbArc
 50
26.19448118971884
 51
34.68903659707381
  0
ARC
  5
D01
330
1F
100
AcDbEntity
  8
0
100
AcDbCircle
 10
2.626348363223891
 20
2.200245537466084
 30
0.0
 40
0.1553336100273009
100
AcDbArc
 50
267.3744992868043
 51
332.4072676942474
  0
ARC
  5
D02
330
1F
100
AcDbEntity
  8
0
100
AcDbCircle
 10
2.344398239366396
 20
2.688635329616571
 30
0.0
 40
0.1552524993737681
100
AcDbArc
 50
87.80837468576677
 51
152.5324950729097
  0
ARC
  5
D03
330
1F
100
AcDbEntity
  8
0
100
AcDbCircle
 10
2.430557488579465
 20
2.733567732386762
 30
0.0
 40
0.1596633103065582
100
AcDbArc
 50
88.65979148343097
 51
119.3761834841358
  0
ARC
  5
D04
330
1F
100
AcDbEntity
  8
0
100
AcDbCircle
 10
2.707921758025817
 20
2.252858199405918
 30
0.0
 40
0.1603679925166091
100
AcDbArc
 50
300.6600954943912
 51
332.1974359457228
  0
LWPOLYLINE
  5
D05
330
1F
100
AcDbEntity
  8
0
100
AcDbPolyline
 90
       98
 70
   128
 43
0.0
 10
2.629039365158067
 20
2.359862848749174
 10
2.628735180005673
 20
2.349196663900565
 10
2.627823900406729
 20
2.338926421439325
 10
2.626309348584566
 20
2.329095198331499
 10
2.624197877095872
 20
2.319744230143392
 10
2.621498342185855
 20
2.310912738085277
 10
2.618222066642086
 20
2.302637764504005
 10
2.61438279230278
 20
2.294954017514534
 10
2.609996622418757
 20
2.287893725422027
 10
2.605081954110815
 20
2.281486501545148
 10
2.599659401205805
 20
2.275759220007501
 10
2.593751707775082
 20
2.270735903018228
 10
2.587383652737958
 20
2.266437620114508
 10
2.580581945930321
 20
2.262882399788597
 10
2.573375116074279
 20
2.260085153870068
 10
2.565793391118797
 20
2.258057614980418
 10
2.557868571453179
 20
2.256808287322367
 10
2.549633896525168
 20
2.256342411010286
 10
2.541123905423166
 20
2.25666194009133
 10
2.532374292007284
 20
2.257765534349491
 10
2.523421755196896
 20
2.259648564926923
 10
2.514303845042611
 20
2.262303133738985
 10
2.505058805228314
 20
2.265718106601551
 10
2.495725412663862
 20
2.269879159931649
 10
2.486342814841259
 20
2.274768840825544
 10
2.476950365636451
 20
2.280366640262283
 10
2.467587460245512
 20
2.286649079125653
 10
2.458293369947492
 20
2.293589806683764
 10
2.449107077387024
 20
2.30115971111316
 10
2.440067113067572
 20
2.309327041603936
 10
2.431211393741099
 20
2.318057541533669
 10
2.42257706337204
 20
2.327314592151587
 10
2.414200337342606
 20
2.337059366170348
 10
2.406116350552883
 20
2.347250990621168
 10
2.39835901005285
 20
2.357846718289262
 10
2.390960852824433
 20
2.368802107010511
 10
2.383952909310087
 20
2.380071206077352
 10
2.377364573260342
 20
2.391606748972012
 10
2.371223478446204
 20
2.403360351618704
 10
2.365555382753502
 20
2.415282715323264
 10
2.360384060145376
 20
2.427323833548999
 10
2.355731200946003
 20
2.439433201661485
 10
2.351616320863849
 20
2.451560028762558
 10
2.348056679136002
 20
2.463653450724985
 10
2.345067206136931
 20
2.47566274353429
 10
2.342660440755309
 20
2.487537536042912
 10
2.340846477801559
 20
2.499228021244285
 10
2.3396329256667
 20
2.510685165180744
 10
2.33902487441013
 20
2.52186091260898
 10
2.33902487441013
 20
2.532708388560432
 10
2.3396329256667
 20
2.543182094951196
 10
2.340846477801559
 20
2.553238101416797
 10
2.342660440755311
 20
2.562834229571412
 10
2.345067206136933
 20
2.571930229918666
 10
2.348056679136004
 20
2.580487950672023
 10
2.35161632086385
 20
2.588471497776622
 10
2.355731200946003
 20
2.595847385461429
 10
2.360384060145376
 20
2.602584676690192
 10
2.365555382753504
 20
2.608655112922122
 10
2.371223478446205
 20
2.614033232638038
 10
2.377364573260344
 20
2.618696478134823
 10
2.383952909310087
 20
2.622625290140269
 10
2.390960852824433
 20
2.625803189851467
 10
2.398359010052852
 20
2.62821684805263
 10
2.406116350552885
 20
2.629856141022457
 10
2.414200337342608
 20
2.63071419299654
 10
2.422577063372042
 20
2.630787405006702
 10
2.431211393741099
 20
2.630075469976332
 10
2.440067113067573
 20
2.62858137400836
 10
2.449107077387026
 20
2.626311383860514
 10
2.458293369947494
 20
2.623275020660349
 10
2.467587460245514
 20
2.619485019970337
 10
2.476950365636453
 20
2.614957278370492
 10
2.486342814841259
 20
2.609710786782583
 10
2.495725412663865
 20
2.603767550815618
 10
2.505058805228316
 20
2.59715249846666
 10
2.514303845042613
 20
2.589893375564154
 10
2.523421755196897
 20
2.582020629392278
 10
2.532374292007286
 20
2.573567280984449
 10
2.541123905423168
 20
2.564568786621636
 10
2.549633896525168
 20
2.555062889116395
 10
2.55786857145318
 20
2.545089459506393
 10
2.565793391118798
 20
2.534690329821431
 10
2.573375116074279
 20
2.523909117625358
 10
2.580581945930322
 20
2.512791043068861
 10
2.58738365273796
 20
2.501382739220434
 10
2.593751707775082
 20
2.489732056471082
 10
2.599659401205807
 20
2.477887861833158
 10
2.605081954110817
 20
2.465899833975118
 10
2.609996622418758
 20
2.453818254851936
 10
2.61438279230278
 20
2.4416937988051
 10
2.618222066642086
 20
2.429577320016814
 10
2.621498342185855
 20
2.417519639209894
 10
2.624197877095872
 20
2.405571330487981
 10
2.626309348584566
 20
2.39378250921019
 10
2.627823900406729
 20
2.382202621789861
 10
2.628735180005673
 20
2.370880238299133
 10
2.629039365158067
 20
2.359862848749174
  0
ARC
  5
D06
330
1F
100
AcDbEntity
  8
0
100
AcDbCircle
 10
2.419650917865743
 20
2.558447581745801
 30
0.0
 40
0.0713819833397487
100
AcDbArc
 50
90.00975527131073
 51
146.1733918986198
  0
ARC
  5
D07
330
1F
100
AcDbEntity
  8
0
100
AcDbCircle
 10
2.550867596560836
 20
2.330989419644155
 30
0.0
 40
0.0720410544880472
100
AcDbArc
 50
268.073697931775
 51
331.263320770835
  0
ARC
  5
D08
330
1F
100
AcDbEntity
  8
0
100
AcDbCircle
 10
2.776334425618239
 20
2.612356735622912
 30
0.0
 40
0.353931767281799
100
AcDbArc
 50
205.5107591724392
 51
213.8591803185672
  0
ARC
  5
D09
330
1F
100
AcDbEntity
  8
0
100
AcDbCircle
 10
2.185381668393363
 20
2.248257498245543
 30
0.0
 40
0.6068117061839775
100
AcDbArc
 50
1.658769113383418
 51
27.16643164853574
  0
LWPOLYLINE
  5
D0A
330
1F
100
AcDbEntity
  8
0
100
AcDbPolyline
 90
      124
 70
   128
 43
0.0
 10
2.668859001256135
 20
2.621273446424616
 10
2.668290645374652
 20
2.622093014397544
 10
2.657197534353347
 20
2.637631779430086
 10
2.645765369449552
 20
2.652790709736391
 10
2.634016529662922
 20
2.667540130998523
 10
2.621974013899066
 20
2.681851170531727
 10
2.609661395948108
 20
2.695695813804068
 10
2.597102778337891
 20
2.709046959276196
 10
2.584322745152139
 20
2.72187847145388
 10
2.571346313905962
 20
2.734165232049463
 10
2.558198886572899
 20
2.74588318915209
 10
2.544906199859362
 20
2.75700940431046
 10
2.531494274823813
 20
2.76752209743591
 10
2.517989365939337
 20
2.777400689437972
 10
2.504417909699265
 20
2.786625842508904
 10
2.490806472866504
 20
2.795179497978352
 10
2.477181700467848
 20
2.80304491166406
 10
2.463570263635089
 20
2.810206686649372
 10
2.449998807395017
 20
2.816650803423441
 10
2.436493898510541
 20
2.822364647325064
 10
2.423081973474992
 20
2.827337033236483
 10
2.409789286761453
 20
2.831558227478771
 10
2.396641859428392
 20
2.835019966865972
 10
2.383665428182215
 20
2.83771547488067
 10
2.370885394996461
 20
2.839639474939349
 10
2.358326777386245
 20
2.84078820072154
 10
2.346014159435288
 20
2.841159403542581
 10
2.333971643671432
 20
2.840752356755517
 10
2.322222803884802
 20
2.839567857173552
 10
2.310790638981007
 20
2.837608223510239
 10
2.2996975279597
 20
2.834877291840498
 10
2.28896518610664
 20
2.831380408091319
 10
2.278614622484996
 20
2.827124417576854
 10
2.268666098809116
 20
2.822117651598397
 10
2.259139089781283
 20
2.816369911135468
 10
2.250052244969056
 20
2.809892447659938
 10
2.241423352297877
 20
2.802697941110742
 10
2.233269303230358
 20
2.794800475072305
 10
2.225606059700467
 20
2.786215509205264
 10
2.218448622867278
 20
2.776959848983451
 10
2.211811003749506
 20
2.767051612796397
 10
2.205706195798278
 20
2.756510196481732
 10
2.20014614946184
 20
2.745356235356916
 10
2.195141748791993
 20
2.73361156382464
 10
2.190702790138059
 20
2.721299172630962
 10
2.186837962970058
 20
2.708443163859833
 10
2.18355483286866
 20
2.69506870375214
 10
2.180859826715215
 20
2.681201973441608
 10
2.178758220110827
 20
2.666870117704005
 10
2.177254127049117
 20
2.652101191819963
 10
2.176350491862882
 20
2.636924106655447
 10
2.176049083460437
 20
2.621368572067383
 10
2.176350491862882
 20
2.605465038745217
 10
2.177254127049117
 20
2.589244638602258
 10
2.178758220110827
 20
2.572739123833497
 10
2.180859826715217
 20
2.555980804759193
 10
2.183554832868662
 20
2.539002486575905
 10
2.186837962970059
 20
2.52183740513878
 10
2.190702790138063
 20
2.504519161900806
 10
2.195141748791995
 20
2.487081658136385
 10
2.20014614946184
 20
2.469559028578002
 10
2.205706195798279
 20
2.451985574595881
 10
2.211811003749508
 20
2.434395697051444
 10
2.218448622867279
 20
2.416823828956003
 10
2.225606059700469
 20
2.399304368066533
 10
2.233269303230361
 20
2.38187160955044
 10
2.241423352297879
 20
2.36455967885116
 10
2.25005224496906
 20
2.347402464886011
 10
2.259139089781287
 20
2.330433553707027
 10
2.268666098809118
 20
2.313686162754708
 10
2.278614622484997
 20
2.297193075833297
 10
2.288965186106644
 20
2.28098657893496
 10
2.299697527959704
 20
2.265098397038435
 10
2.310790638981011
 20
2.249559632005892
 10
2.322222803884807
 20
2.234400701699587
 10
2.333971643671436
 20
2.219651280437454
 10
2.346014159435291
 20
2.20534024090425
 10
2.358326777386247
 20
2.191495597631909
 10
2.370885394996466
 20
2.178144452159781
 10
2.383665428182219
 20
2.165312939982098
 10
2.396641859428395
 20
2.153026179386516
 10
2.409789286761457
 20
2.141308222283888
 10
2.423081973474996
 20
2.130182007125519
 10
2.436493898510544
 20
2.119669314000068
 10
2.44999880739502
 20
2.109790721998006
 10
2.463570263635093
 20
2.100565568927075
 10
2.477181700467854
 20
2.092011913457627
 10
2.490806472866509
 20
2.084146499771921
 10
2.50441790969927
 20
2.076984724786608
 10
2.517989365939341
 20
2.070540608012538
 10
2.531494274823817
 20
2.064826764110915
 10
2.544906199859365
 20
2.059854378199497
 10
2.558198886572904
 20
2.055633183957208
 10
2.571346313905966
 20
2.052171444570009
 10
2.584322745152142
 20
2.049475936555309
 10
2.597102778337895
 20
2.047551936496631
 10
2.609661395948114
 20
2.04640321071444
 10
2.62197401389907
 20
2.0460320078934
 10
2.634016529662925
 20
2.046439054680463
 10
2.645765369449556
 20
2.047623554262429
 10
2.657197534353349
 20
2.049583187925742
 10
2.668290645374657
 20
2.052314119595483
 10
2.679022987227716
 20
2.055811003344662
 10
2.689373550849362
 20
2.060066993859127
 10
2.699322074525241
 20
2.065073759837584
 10
2.708849083553074
 20
2.070821500300514
 10
2.717935928365299
 20
2.077298963776044
 10
2.726564821036481
 20
2.08449347032524
 10
2.734718870103998
 20
2.092390936363676
 10
2.74238211363389
 20
2.100975902230719
 10
2.74953955046708
 20
2.110231562452532
 10
2.756177169584852
 20
2.120139798639585
 10
2.76228197753608
 20
2.13068121495425
 10
2.767842023872518
 20
2.141835176079066
 10
2.772846424542363
 20
2.15357984761134
 10
2.777285383196296
 20
2.16589223880502
 10
2.781150210364298
 20
2.17874824757615
 10
2.784433340465696
 20
2.192122707683844
 10
2.787128346619141
 20
2.205989437994374
 10
2.789229953223529
 20
2.220321293731976
 10
2.790734046285239
 20
2.23509021961602
 10
2.791637681471474
 20
2.250267304780536
 10
2.791939089873919
 20
2.265822839368595
 10
2.791939089873919
 20
2.265822839368595
  0
ARC
  5
D0B
330
1F
100
AcDbEntity
  8
0
100
AcDbCircle
 10
2.515549404910119
 20
2.256059366135048
 30
0.0
 40
0.2793887605611121
100
AcDbArc
 50
332.7875969491306
 51
2.00265654905809
  0
LWPOLYLINE
  5
D0C
330
1F
100
AcDbEntity
  8
0
100
AcDbPolyline
 90
       47
 70
   128
 43
0.0
 10
2.350335366723433
 20
2.843774264383276
 10
2.359163873569604
 20
2.843428684585387
 10
2.37178016565794
 20
2.842274683369065
 10
2.384618890155683
 20
2.840341847489221
 10
2.397654914656722
 20
2.837633960562857
 10
2.410862720530921
 20
2.834156323405797
 10
2.424216452878047
 20
2.829915743656081
 10
2.437689971139937
 20
2.82492052244771
 10
2.451256900271873
 20
2.819180438160776
 10
2.464890682372978
 20
2.812706727279822
 10
2.478564628674547
 20
2.805512062397904
 10
2.492251971784561
 20
2.797610527409394
 10
2.505925918086129
 20
2.789017589940085
 10
2.519559700187235
 20
2.779750071068598
 10
2.533126629319172
 20
2.769826112398328
 10
2.54660014758106
 20
2.759265140544402
 10
2.559953879928185
 20
2.748087829105169
 10
2.573161685802386
 20
2.736316058192654
 10
2.586197710303425
 20
2.723972871601225
 10
2.599036434801167
 20
2.711082431698272
 10
2.611652726889504
 20
2.697669972125237
 10
2.624021889584206
 20
2.683761748401588
 10
2.636119709668449
 20
2.669384986528393
 10
2.647922505091296
 20
2.654567829692152
 10
2.659407171326451
 20
2.639339283173187
 10
2.670551226600439
 20
2.623729157566442
 10
2.681332855901734
 20
2.607768010425846
 10
2.691730953684674
 20
2.59148708644646
 10
2.701725165184551
 20
2.57491825630153
 10
2.711295926263028
 20
2.558093954254136
 10
2.720424501705851
 20
2.541047114665605
 10
2.729093021897908
 20
2.523811107524954
 10
2.737284517803855
 20
2.506419673125564
 10
2.744982954185777
 20
2.488906856016974
 10
2.752173260992941
 20
2.471306938361077
 10
2.758841362862115
 20
2.453654372823178
 10
2.764974206670755
 20
2.435983715129283
 10
2.770559787089105
 20
2.418329556421641
 10
2.7755871700812
 20
2.400726455544964
 10
2.780046514308745
 20
2.383208871395862
 10
2.783929090396004
 20
2.365811095467931
 10
2.787227298017958
 20
2.348567184724551
 10
2.789934680778308
 20
2.331510894930779
 10
2.792045938848158
 20
2.314675614574847
 10
2.793556939340692
 20
2.29809429950864
 10
2.794464724401489
 20
2.281799408435059
 10
2.794767516998666
 20
2.265822839368595
  0
LWPOLYLINE
  5
D0D
330
1F
100
AcDbEntity
  8
0
100
AcDbPolyline
 90
       47
 70
   128
 43
0.0
 10
2.880327437522238
 20
2.315215530133868
 10
2.880024644925063
 20
2.331192099200339
 10
2.879116859864263
 20
2.347486990273918
 10
2.87760585937173
 20
2.364068305340126
 10
2.87549460130188
 20
2.380903585696056
 10
2.87278721854153
 20
2.397959875489831
 10
2.869489010919574
 20
2.41520378623321
 10
2.865606434832315
 20
2.432601562161141
 10
2.86114709060477
 20
2.450119146310244
 10
2.856119707612675
 20
2.46772224718692
 10
2.850534127194325
 20
2.485376405894562
 10
2.844401283385685
 20
2.503047063588458
 10
2.837733181516513
 20
2.520699629126356
 10
2.830542874709347
 20
2.538299546782253
 10
2.822844438327424
 20
2.555812363890844
 10
2.814652942421478
 20
2.573203798290234
 10
2.805984422229419
 20
2.590439805430884
 10
2.796855846786597
 20
2.607486645019415
 10
2.78728508570812
 20
2.624310947066809
 10
2.777290874208242
 20
2.64087977721174
 10
2.766892776425303
 20
2.657160701191125
 10
2.756111147124007
 20
2.673121848331721
 10
2.744967091850021
 20
2.688731973938466
 10
2.733482425614866
 20
2.703960520457431
 10
2.721679630192015
 20
2.718777677293671
 10
2.709581810107776
 20
2.733154439166867
 10
2.697212647413071
 20
2.747062662890516
 10
2.684596355324735
 20
2.760475122463549
 10
2.671757630826993
 20
2.773365562366504
 10
2.658721606325954
 20
2.785708748957932
 10
2.645513800451753
 20
2.797480519870445
 10
2.632160068104628
 20
2.808657831309679
 10
2.61868654984274
 20
2.819218803163606
 10
2.605119620710803
 20
2.829142761833875
 10
2.591485838609699
 20
2.838410280705361
 10
2.57781189230813
 20
2.847003218174671
 10
2.564124549198114
 20
2.854904753163181
 10
2.550450602896546
 20
2.862099418045097
 10
2.53681682079544
 20
2.868573128926051
 10
2.523249891663505
 20
2.874313213212986
 10
2.509776373401617
 20
2.879308434421356
 10
2.496422641054492
 20
2.883549014171072
 10
2.483214835180289
 20
2.887026651328133
 10
2.470178810679252
 20
2.889734538254496
 10
2.457340086181508
 20
2.891667374134339
 10
2.444723794093173
 20
2.892821375350662
 10
2.434291840699859
 20
2.893187365490867
  0
ARC
  5
D0E
330
1F
100
AcDbEntity
  8
0
100
AcDbCircle
 10
2.593873186009988
 20
2.307039675067374
 30
0.0
 40
0.2865709036443021
100
AcDbArc
 50
333.2508516598539
 51
1.634867864329858
  0
LWPOLYLINE
  5
D0F
330
1F
100
AcDbEntity
  8
0
100
AcDbPolyline
 90
       41
 70
   128
 43
0.0
 10
2.360352045764031
 20
2.598184608722928
 10
2.358395997184512
 20
2.595179316500797
 10
2.354321237810045
 20
2.587875344844605
 10
2.350796303131343
 20
2.579969638540537
 10
2.347835977949447
 20
2.571495356868263
 10
2.345452678896958
 20
2.562488043910133
 10
2.343656402358355
 20
2.552985479466959
 10
2.342454682541692
 20
2.543027520596392
 10
2.341852559877509
 20
2.532655934438567
 10
2.341852559877509
 20
2.521914223030211
 10
2.342454682541692
 20
2.510847440841983
 10
2.343656402358355
 20
2.499502005804356
 10
2.345452678896958
 20
2.487925504614697
 10
2.347835977949447
 20
2.476166493142113
 10
2.350796303131343
 20
2.464274292767266
 10
2.354321237810045
 20
2.45229878351136
 10
2.358395997184512
 20
2.440290194821999
 10
2.363003490297847
 20
2.428298894893424
 10
2.368124391722712
 20
2.416375179404807
 10
2.373737222618899
 20
2.404569060562693
 10
2.379818440823028
 20
2.392930057332423
 10
2.386342539592577
 20
2.38150698773838
 10
2.393282154590027
 20
2.370347764104245
 10
2.400608178658387
 20
2.359499192092038
 10
2.408289883906745
 20
2.349006774382928
 10
2.416295050593703
 20
2.338914519823157
 10
2.424590102268188
 20
2.329264758835659
 10
2.433140246600741
 20
2.32009796587154
 10
2.441909621314648
 20
2.311452589646181
 10
2.450861444604782
 20
2.30336489187195
 10
2.459958169413289
 20
2.295868795163986
 10
2.469161640914984
 20
2.288995740756962
 10
2.478433256551959
 20
2.282774556629613
 10
2.487734127946115
 20
2.277231336590186
 10
2.497025244010549
 20
2.27238933082993
 10
2.506267634575589
 20
2.268268848403723
 10
2.515422533843251
 20
2.264887172046824
 10
2.524451542984454
 20
2.262258485685094
 10
2.533316791197057
 20
2.260393814942665
 10
2.541981094549162
 20
2.259300980896649
 10
2.548446009982626
 20
2.258989076240849
  0
ARC
  5
D10
330
1F
100
AcDbEntity
  8
0
100
AcDbCircle
 10
2.704216305460638
 20
2.570764349986707
 30
0.0
 40
0.2743703505011104
100
AcDbArc
 50
167.889874747468
 51
252.1719247018054
  0
DIMENSION
  5
D11
330
1F
100
AcDbEntity
  8
DIM
100
AcDbDimension
  2
*D6
 10
0.9367813106270777
 20
1.850663182765692
 30
0.0
 11
0.8877368880408518
 21
1.894529745541221
 31
0.0
 70
   160
 71
     5
 42
0.1250000000000018
 73
     0
 74
     0
 75
     0
  3
Standard
100
AcDbAlignedDimension
 13
0.8117813106270759
 23
1.636486035753606
 33
0.0
 14
0.9367813106270777
 24
1.636486035753606
 34
0.0
100
AcDbRotatedDimension
1001
ACAD
1000
DSTYLE
1002
{
1070
   271
1070
     2
1070
   279
1070
     1
1002
}
  0
DIMENSION
  5
D32
330
1F
100
AcDbEntity
  8
DIM
100
AcDbDimension
  2
*D7
 10
3.243571998797014
 20
1.850663182765692
 30
0.0
 11
2.806071998797014
 21
1.884295065838431
 31
0.0
 70
    32
 71
     5
 42
0.875
 73
     0
 74
     0
 75
     0
  3
Standard
100
AcDbAlignedDimension
 13
2.368571998797014
 23
1.200986035753607
 33
0.0
 14
3.243571998797014
 24
1.200986035753607
 34
0.0
100
AcDbRotatedDimension
1001
ACAD
1000
DSTYLE
1002
{
1070
   271
1070
     2
1002
}
  0
DIMENSION
  5
D40
330
1F
100
AcDbEntity
  8
DIM
100
AcDbDimension
  2
*D8
 10
2.61999878811207
 20
1.11952116055947
 30
0.0
 11
3.46453287646079
 21
1.489267368792607
 31
0.0
 70
   163
 71
     5
 42
0.4062499999999978
 73
     0
 74
     0
 75
     0
  3
Standard
100
AcDbDiametricDimension
 15
2.992145209481956
 25
1.282450910947745
 35
0.0
 40
0.0
1001
ACAD
1000
DSTYLE
1002
{
1070
   271
1070
     2
1070
   288
1070
     1
1002
}
  0
ENDSEC
  0
SECTION
  2
OBJECTS
  0
DICTIONARY
  5
C
330
0
100
AcDbDictionary
281
     1
  3
ACAD_COLOR
350
FC
  3
ACAD_GROUP
350
D
  3
ACAD_LAYOUT
350
1A
  3
ACAD_MATERIAL
350
E7
  3
ACAD_MLINESTYLE
350
17
  3
ACAD_PLOTSETTINGS
350
19
  3
ACAD_PLOTSTYLENAME
350
E
  3
ACAD_TABLESTYLE
350
FD
  3
ACAD_VISUALSTYLE
350
EB
  3
AcDbVariableDictionary
350
3CB
  0
DICTIONARY
  5
4DC
330
8
100
AcDbDictionary
280
     1
281
     1
  0
DICTIONARY
  5
61E
330
2
100
AcDbDictionary
280
     1
281
     1
  3
ACAD_LAYERFILTERS
360
622
  3
ACLYDICTIONARY
360
621
  0
DICTIONARY
  5
40A
330
409
100
AcDbDictionary
280
     1
281
     1
  3
ACAD_SORTENTS
360
40B
  0
DICTIONARY
  5
FC
102
{ACAD_REACTORS
330
C
102
}
330
C
100
AcDbDictionary
281
     1
  0
DICTIONARY
  5
D
102
{ACAD_REACTORS
330
C
102
}
330
C
100
AcDbDictionary
281
     1
  0
DICTIONARY
  5
1A
102
{ACAD_REACTORS
330
C
102
}
330
C
100
AcDbDictionary
281
     1
  3
Layout1
350
1E
  3
Layout2
350
26
  3
Model
350
22
  0
DICTIONARY
  5
E7
102
{ACAD_REACTORS
330
C
102
}
330
C
100
AcDbDictionary
281
     1
  3
ByBlock
350
E9
  3
ByLayer
350
E8
  3
Global
350
EA
  0
DICTIONARY
  5
17
102
{ACAD_REACTORS
330
C
102
}
330
C
100
AcDbDictionary
281
     1
  3
Standard
350
18
  0
DICTIONARY
  5
19
102
{ACAD_REACTORS
330
C
102
}
330
C
100
AcDbDictionary
281
     1
  3
JPG
350
BEE
  3
PDF
350
BE5
  0
ACDBDICTIONARYWDFLT
  5
E
102
{ACAD_REACTORS
330
C
102
}
330
C
100
AcDbDictionary
281
     1
  3
Normal
350
F
100
AcDbDictionaryWithDefault
340
F
  0
DICTIONARY
  5
FD
102
{ACAD_REACTORS
330
C
102
}
330
C
100
AcDbDictionary
281
     1
  3
Standard
350
FE
  0
DICTIONARY
  5
EB
102
{ACAD_REACTORS
330
C
102
}
330
C
100
AcDbDictionary
281
     1
  3
2dWireframe
350
F1
  3
3D Hidden
350
F3
  3
3dWireframe
350
F2
  3
Basic
350
F0
  3
Brighten
350
F7
  3
ColorChange
350
FB
  3
Conceptual
350
F4
  3
Dim
350
F6
  3
Facepattern
350
FA
  3
Flat
350
EC
  3
FlatWithEdges
350
ED
  3
Gouraud
350
EE
  3
GouraudWithEdges
350
EF
  3
Linepattern
350
F9
  3
Realistic
350
F5
  3
Thicken
350
F8
  0
DICTIONARY
  5
3CB
102
{ACAD_REACTORS
330
C
102
}
330
C
100
AcDbDictionary
281
     1
  3
CTABLESTYLE
350
3CC
  0
DICTIONARY
  5
622
102
{ACAD_REACTORS
330
61E
102
}
330
61E
100
AcDbDictionary
281
     1
  0
DICTIONARY
  5
621
102
{ACAD_REACTORS
330
61E
102
}
330
61E
100
AcDbDictionary
281
     1
1001
ACAD
1000
<All
  0
SORTENTSTABLE
  5
40B
102
{ACAD_REACTORS
330
40A
102
}
330
40A
100
AcDbSortentsTable
330
409
331
40F
  5
6D
331
40D
  5
6A
331
410
  5
69
331
40E
  5
6B
  0
LAYOUT
  5
1E
102
{ACAD_REACTORS
330
1A
102
}
330
1A
100
AcDbPlotSettings
  1

  2
none_device
  4

  6

 40
0.0
 41
0.0
 42
0.0
 43
0.0
 44
0.0
 45
0.0
 46
0.0
 47
0.0
 48
0.0
 49
0.0
140
0.0
141
0.0
142
1.0
143
1.0
 70
   688
 72
     0
 73
     0
 74
     5
  7

 75
    16
147
1.0
 76
     0
 77
     2
 78
   300
148
0.0
149
0.0
100
AcDbLayout
  1
Layout1
 70
     1
 71
     1
 10
0.0
 20
0.0
 11
12.0
 21
9.0
 12
0.0
 22
0.0
 32
0.0
 14
1.000000000000000E+20
 24
1.000000000000000E+20
 34
1.000000000000000E+20
 15
-1.000000000000000E+20
 25
-1.000000000000000E+20
 35
-1.000000000000000E+20
146
0.0
 13
0.0
 23
0.0
 33
0.0
 16
1.0
 26
0.0
 36
0.0
 17
0.0
 27
1.0
 37
0.0
 76
     0
330
1B
  0
LAYOUT
  5
26
102
{ACAD_REACTORS
330
1A
102
}
330
1A
100
AcDbPlotSettings
  1

  2
none_device
  4

  6

 40
0.0
 41
0.0
 42
0.0
 43
0.0
 44
0.0
 45
0.0
 46
0.0
 47
0.0
 48
0.0
 49
0.0
140
0.0
141
0.0
142
1.0
143
1.0
 70
   688
 72
     0
 73
     0
 74
     5
  7

 75
    16
147
1.0
 76
     0
 77
     2
 78
   300
148
0.0
149
0.0
100
AcDbLayout
  1
Layout2
 70
     1
 71
     2
 10
0.0
 20
0.0
 11
0.0
 21
0.0
 12
0.0
 22
0.0
 32
0.0
 14
0.0
 24
0.0
 34
0.0
 15
0.0
 25
0.0
 35
0.0
146
0.0
 13
0.0
 23
0.0
 33
0.0
 16
1.0
 26
0.0
 36
0.0
 17
0.0
 27
1.0
 37
0.0
 76
     0
330
23
  0
LAYOUT
  5
22
102
{ACAD_REACTORS
330
1A
102
}
330
1A
100
AcDbPlotSettings
  1

  2
none_device
  4
Letter_(8.50_x_11.00_Inches)
  6

 40
6.349999904632568
 41
6.349999904632568
 42
6.350006103515625
 43
6.350006103515625
 44
215.8999938964844
 45
279.3999938964844
 46
0.0
 47
0.0
 48
0.0
 49
0.0
140
0.0
141
0.0
142
1.0
143
2.383658744906425
 70
 11952
 72
     0
 73
     1
 74
     0
  7

 75
     0
147
0.4195231394329716
 76
     0
 77
     2
 78
   300
148
135.2900774710282
149
-27.52084133435472
100
AcDbLayout
  1
Model
 70
     1
 71
     0
 10
0.0
 20
0.0
 11
16.53543307086614
 21
11.69291338582677
 12
0.0
 22
0.0
 32
0.0
 14
0.0
 24
0.0
 34
0.0
 15
16.53543307086614
 25
11.69291338582677
 35
0.0
146
0.0
 13
0.0
 23
0.0
 33
0.0
 16
1.0
 26
0.0
 36
0.0
 17
0.0
 27
1.0
 37
0.0
 76
     0
330
1F
331
29
1001
ACAD_PSEXT
1000
None
1000
None
1000
Not applicable
1000
The layout will not be plotted unless a new plotter configuration name is selected.
1070
     0
  0
MATERIAL
  5
E9
102
{ACAD_REACTORS
330
E7
102
}
330
E7
100
AcDbMaterial
  1
ByBlock
  0
MATERIAL
  5
E8
102
{ACAD_REACTORS
330
E7
102
}
330
E7
100
AcDbMaterial
  1
ByLayer
  0
MATERIAL
  5
EA
102
{ACAD_REACTORS
330
E7
102
}
330
E7
100
AcDbMaterial
  1
Global
  0
MLINESTYLE
  5
18
102
{ACAD_REACTORS
330
17
102
}
330
17
100
AcDbMlineStyle
  2
STANDARD
 70
     0
  3

 62
   256
 51
90.0
 52
90.0
 71
     2
 49
0.5
 62
   256
  6
BYLAYER
 49
-0.5
 62
   256
  6
BYLAYER
  0
PLOTSETTINGS
  5
BEE
102
{ACAD_REACTORS
330
19
102
}
330
19
100
AcDbPlotSettings
  1
JPG
  2
PublishToWeb JPG.pc3
  4
User-1
  6

 40
75.0
 41
75.0
 42
75.000244140625
 43
75.000244140625
 44
2550.0
 45
3300.0
 46
7.281523769336217
 47
0.0
 48
0.0
 49
0.0
140
3.127012872511799
141
2.36802916559147
142
1.0
143
0.0009927025761495
 70
 11956
 72
     2
 73
     1
 74
     4
  7

 75
     0
147
1007.351067707346
 76
     0
 77
     2
 78
   300
148
0.0
149
0.0
1001
ACAD_PSEXT
1000
PublishToWeb JPG.pc3
1000
Independent JPEG Group JFIF (JPEG Compression)
1000
File
1000

1070
     0
  0
PLOTSETTINGS
  5
BE5
102
{ACAD_REACTORS
330
19
102
}
330
19
100
AcDbPlotSettings
  1
PDF
  2
DWG To PDF.pc3
  4
ISO_expand_A1_(841.00_x_594.00_MM)
  6

 40
5.793749809265136
 41
10.79374980926513
 42
5.79376220703125
 43
10.79376220703125
 44
841.0
 45
594.0
 46
36.76722948979273
 47
0.0
 48
0.0
 49
0.0
140
3.127012872511799
141
2.36802916559147
142
1.0
143
0.0041369278541297
 70
 11956
 72
     1
 73
     0
 74
     4
  7

 75
     0
147
241.7252693932637
 76
     0
 77
     2
 78
   300
148
0.0
149
0.0
1001
ACAD_PSEXT
1000
DWG To PDF.pc3
1000
PDF
1000
File
1000

1070
     0
  0
ACDBPLACEHOLDER
  5
F
102
{ACAD_REACTORS
330
E
102
}
330
E
  0
TABLESTYLE
  5
FE
102
{ACAD_REACTORS
330
FD
102
}
330
FD
100
AcDbTableStyle
  3
Standard
 70
     0
 71
     0
 40
0.06
 41
0.06
280
     0
281
     0
  7
Standard
140
0.18
170
     2
 62
     0
 63
     7
283
     0
 90
      512
 91
        0
  1

274
    -2
284
     1
 64
     0
275
    -2
285
     1
 65
     0
276
    -2
286
     1
 66
     0
277
    -2
287
     1
 67
     0
278
    -2
288
     1
 68
     0
279
    -2
289
     1
 69
     0
  7
Standard
140
0.25
170
     5
 62
     0
 63
     7
283
     0
 90
      512
 91
        0
  1

274
    -2
284
     1
 64
     0
275
    -2
285
     1
 65
     0
276
    -2
286
     1
 66
     0
277
    -2
287
     1
 67
     0
278
    -2
288
     1
 68
     0
279
    -2
289
     1
 69
     0
  7
Standard
140
0.18
170
     5
 62
     0
 63
     7
283
     0
 90
      512
 91
        0
  1

274
    -2
284
     1
 64
     0
275
    -2
285
     1
 65
     0
276
    -2
286
     1
 66
     0
277
    -2
287
     1
 67
     0
278
    -2
288
     1
 68
     0
279
    -2
289
     1
 69
     0
  0
VISUALSTYLE
  5
F1
102
{ACAD_REACTORS
330
EB
102
}
330
EB
100
AcDbVisualStyle
  2
2dWireframe
 70
     4
 71
     0
 72
     2
 73
     0
 90
        0
 40
-0.6
 41
-30.0
 62
     5
 63
     7
421
 16777215
 74
     1
 91
        4
 64
     7
 65
   257
 75
     1
175
     1
 42
1.0
 92
        0
 66
   257
 43
1.0
 76
     1
 77
     6
 78
     2
 67
     7
 79
     5
170
     0
171
     0
290
     0
174
     0
 93
        1
 44
0.0
173
     0
291
     0
 45
0.0
  0
VISUALSTYLE
  5
F3
102
{ACAD_REACTORS
330
EB
102
}
330
EB
100
AcDbVisualStyle
  2
3D Hidden
 70
     6
 71
     1
 72
     2
 73
     2
 90
        0
 40
-0.6
 41
-30.0
 62
     5
 63
     7
421
 16777215
 74
     2
 91
        2
 64
     7
 65
   257
 75
     2
175
     1
 42
40.0
 92
        0
 66
   257
 43
1.0
 76
     1
 77
     6
 78
     2
 67
     7
 79
     3
170
     0
171
     0
290
     0
174
     0
 93
        1
 44
0.0
173
     0
291
     0
 45
0.0
  0
VISUALSTYLE
  5
F2
102
{ACAD_REACTORS
330
EB
102
}
330
EB
100
AcDbVisualStyle
  2
3dWireframe
 70
     5
 71
     0
 72
     2
 73
     0
 90
        0
 40
-0.6
 41
-30.0
 62
     5
 63
     7
421
 16777215
 74
     1
 91
        4
 64
     7
 65
   257
 75
     1
175
     1
 42
1.0
 92
        0
 66
   257
 43
1.0
 76
     1
 77
     6
 78
     2
 67
     7
 79
     5
170
     0
171
     0
290
     0
174
     0
 93
        1
 44
0.0
173
     0
291
     0
 45
0.0
  0
VISUALSTYLE
  5
F0
102
{ACAD_REACTORS
330
EB
102
}
330
EB
100
AcDbVisualStyle
  2
Basic
 70
     7
 71
     1
 72
     0
 73
     1
 90
        0
 40
-0.6
 41
-30.0
 62
     5
 63
     7
421
 16777215
 74
     0
 91
        4
 64
     7
 65
   257
 75
     1
175
     1
 42
1.0
 92
        8
 66
     7
 43
1.0
 76
     1
 77
     6
 78
     2
 67
     7
 79
     5
170
     0
171
     0
290
     0
174
     0
 93
        1
 44
0.0
173
     0
291
     1
 45
0.0
  0
VISUALSTYLE
  5
F7
102
{ACAD_REACTORS
330
EB
102
}
330
EB
100
AcDbVisualStyle
  2
Brighten
 70
    12
 71
     2
 72
     2
 73
     0
 90
        0
 40
-0.6
 41
-30.0
 62
     5
 63
     7
421
 16777215
 74
     1
 91
        4
 64
     7
 65
   257
 75
     1
175
     1
 42
1.0
 92
        8
 66
     7
 43
1.0
 76
     1
 77
     6
 78
     2
 67
     7
 79
     5
170
     0
171
     0
290
     0
174
     0
 93
        1
 44
50.0
173
     0
291
     1
 45
0.0
  0
VISUALSTYLE
  5
FB
102
{ACAD_REACTORS
330
EB
102
}
330
EB
100
AcDbVisualStyle
  2
ColorChange
 70
    16
 71
     2
 72
     2
 73
     3
 90
        0
 40
-0.6
 41
-30.0
 62
     5
 63
     8
421
  8421504
 74
     1
 91
        4
 64
     7
 65
   257
 75
     1
175
     1
 42
1.0
 92
        8
 66
     8
424
  8421504
 43
1.0
 76
     1
 77
     6
 78
     2
 67
     7
 79
     5
170
     0
171
     0
290
     0
174
     0
 93
        1
 44
0.0
173
     0
291
     1
 45
0.0
  0
VISUALSTYLE
  5
F4
102
{ACAD_REACTORS
330
EB
102
}
330
EB
100
AcDbVisualStyle
  2
Conceptual
 70
     9
 71
     3
 72
     2
 73
     0
 90
        0
 40
-0.6
 41
-30.0
 62
     5
 63
     7
421
 16777215
 74
     2
 91
        2
 64
     7
 65
   257
 75
     1
175
     1
 42
40.0
 92
        8
 66
     7
 43
1.0
 76
     1
 77
     6
 78
     2
 67
     7
 79
     3
170
     0
171
     0
290
     0
174
     0
 93
        1
 44
0.0
173
     0
291
     0
 45
0.0
  0
VISUALSTYLE
  5
F6
102
{ACAD_REACTORS
330
EB
102
}
330
EB
100
AcDbVisualStyle
  2
Dim
 70
    11
 71
     2
 72
     2
 73
     0
 90
        0
 40
-0.6
 41
-30.0
 62
     5
 63
     7
421
 16777215
 74
     1
 91
        4
 64
     7
 65
   257
 75
     1
175
     1
 42
1.0
 92
        8
 66
     7
 43
1.0
 76
     1
 77
     6
 78
     2
 67
     7
 79
     5
170
     0
171
     0
290
     0
174
     0
 93
        1
 44
-50.0
173
     0
291
     1
 45
0.0
  0
VISUALSTYLE
  5
FA
102
{ACAD_REACTORS
330
EB
102
}
330
EB
100
AcDbVisualStyle
  2
Facepattern
 70
    15
 71
     2
 72
     2
 73
     0
 90
        0
 40
-0.6
 41
-30.0
 62
     5
 63
     7
421
 16777215
 74
     1
 91
        4
 64
     7
 65
   257
 75
     1
175
     1
 42
1.0
 92
        8
 66
     7
 43
1.0
 76
     1
 77
     6
 78
     2
 67
     7
 79
     5
170
     0
171
     0
290
     0
174
     0
 93
        1
 44
0.0
173
     0
291
     1
 45
0.0
  0
VISUALSTYLE
  5
EC
102
{ACAD_REACTORS
330
EB
102
}
330
EB
100
AcDbVisualStyle
  2
Flat
 70
     0
 71
     2
 72
     1
 73
     1
 90
        2
 40
-0.6
 41
30.0
 62
     5
 63
     7
421
 16777215
 74
     0
 91
        4
 64
     7
 65
   257
 75
     1
175
     1
 42
1.0
 92
        8
 66
     7
 43
1.0
 76
     1
 77
     6
 78
     2
 67
     7
 79
     5
170
     0
171
     0
290
     0
174
     0
 93
       13
 44
0.0
173
     0
291
     1
 45
0.0
  0
VISUALSTYLE
  5
ED
102
{ACAD_REACTORS
330
EB
102
}
330
EB
100
AcDbVisualStyle
  2
FlatWithEdges
 70
     1
 71
     2
 72
     1
 73
     1
 90
        2
 40
-0.6
 41
30.0
 62
     5
 63
     7
421
 16777215
 74
     1
 91
        4
 64
     7
 65
   257
 75
     1
175
     1
 42
1.0
 92
        0
 66
   257
 43
1.0
 76
     1
 77
     6
 78
     2
 67
     7
 79
     5
170
     0
171
     0
290
     0
174
     0
 93
       13
 44
0.0
173
     0
291
     1
 45
0.0
  0
VISUALSTYLE
  5
EE
102
{ACAD_REACTORS
330
EB
102
}
330
EB
100
AcDbVisualStyle
  2
Gouraud
 70
     2
 71
     2
 72
     2
 73
     1
 90
        2
 40
-0.6
 41
30.0
 62
     5
 63
     7
421
 16777215
 74
     0
 91
        4
 64
     7
 65
   257
 75
     1
175
     1
 42
1.0
 92
        0
 66
     7
 43
1.0
 76
     1
 77
     6
 78
     2
 67
     7
 79
     5
170
     0
171
     0
290
     0
174
     0
 93
       13
 44
0.0
173
     0
291
     1
 45
0.0
  0
VISUALSTYLE
  5
EF
102
{ACAD_REACTORS
330
EB
102
}
330
EB
100
AcDbVisualStyle
  2
GouraudWithEdges
 70
     3
 71
     2
 72
     2
 73
     1
 90
        2
 40
-0.6
 41
30.0
 62
     5
 63
     7
421
 16777215
 74
     1
 91
        4
 64
     7
 65
   257
 75
     1
175
     1
 42
1.0
 92
        0
 66
   257
 43
1.0
 76
     1
 77
     6
 78
     2
 67
     7
 79
     5
170
     0
171
     0
290
     0
174
     0
 93
       13
 44
0.0
173
     0
291
     1
 45
0.0
  0
VISUALSTYLE
  5
F9
102
{ACAD_REACTORS
330
EB
102
}
330
EB
100
AcDbVisualStyle
  2
Linepattern
 70
    14
 71
     2
 72
     2
 73
     0
 90
        0
 40
-0.6
 41
-30.0
 62
     5
 63
     7
421
 16777215
 74
     1
 91
        4
 64
     7
 65
   257
 75
     7
175
     7
 42
1.0
 92
        8
 66
     7
 43
1.0
 76
     1
 77
     6
 78
     2
 67
     7
 79
     5
170
     0
171
     0
290
     0
174
     0
 93
        1
 44
0.0
173
     0
291
     1
 45
0.0
  0
VISUALSTYLE
  5
F5
102
{ACAD_REACTORS
330
EB
102
}
330
EB
100
AcDbVisualStyle
  2
Realistic
 70
     8
 71
     2
 72
     2
 73
     0
 90
        0
 40
-0.6
 41
-30.0
 62
     5
 63
     7
421
 16777215
 74
     1
 91
        0
 64
     7
 65
   257
 75
     1
175
     1
 42
1.0
 92
        8
 66
     8
424
  7895160
 43
1.0
 76
     1
 77
     6
 78
     2
 67
     7
 79
     5
170
     0
171
     0
290
     0
174
     0
 93
       13
 44
0.0
173
     0
291
     0
 45
0.0
  0
VISUALSTYLE
  5
F8
102
{ACAD_REACTORS
330
EB
102
}
330
EB
100
AcDbVisualStyle
  2
Thicken
 70
    13
 71
     2
 72
     2
 73
     0
 90
        0
 40
-0.6
 41
-30.0
 62
     5
 63
     7
421
 16777215
 74
     1
 91
        4
 64
     7
 65
   257
 75
     1
175
     1
 42
1.0
 92
       12
 66
     7
 43
1.0
 76
     1
 77
     6
 78
     2
 67
     7
 79
     5
170
     0
171
     0
290
     0
174
     0
 93
        1
 44
0.0
173
     0
291
     1
 45
0.0
  0
DICTIONARYVAR
  5
3CC
102
{ACAD_REACTORS
330
3CB
102
}
330
3CB
100
DictionaryVariables
280
     0
  1
STANDARD
  0
ENDSEC
  0
EOF
