  0
SECTION
  2
HEADER
  9
$ACADVER
  1
AC1021
  9
$ACADMAINTVER
 70
     1
  9
$DWGCODEPAGE
  3
ANSI_1252
  9
$AUTHOR
  1
‘Created by Cad / Cam Services, Inc. for Amazon Services LLC on November, 2012’
  9
$LASTSAVEDBY
  1
AE17
  9
$INSBASE
 10
0.0
 20
0.0
 30
0.0
  9
$EXTMIN
 10
-0.0001518934860059
 20
-0.0017094194359402
 30
-0.0000000000000053
  9
$EXTMAX
 10
35.96239556220773
 20
27.23427389458889
 30
0.0000000000000099
  9
$LIMMIN
 10
0.0
 20
0.0
  9
$LIMMAX
 10
16.53543307086614
 20
11.69291338582677
  9
$ORTHOMODE
 70
     0
  9
$REGENMODE
 70
     1
  9
$FILLMODE
 70
     1
  9
$QTEXTMODE
 70
     0
  9
$MIRRTEXT
 70
     1
  9
$LTSCALE
 40
1.0
  9
$ATTMODE
 70
     1
  9
$TEXTSIZE
 40
0.2
  9
$TRACEWID
 40
0.05
  9
$TEXTSTYLE
  7
SLDTEXTSTYLE0
  9
$CLAYER
  8
DIM
  9
$CELTYPE
  6
ByLayer
  9
$CECOLOR
 62
   256
  9
$CELTSCALE
 40
1.0
  9
$DISPSILH
 70
     0
  9
$DIMSCALE
 40
1.0
  9
$DIMASZ
 40
0.41
  9
$DIMEXO
 40
0.12
  9
$DIMDLI
 40
0.38
  9
$DIMRND
 40
0.0
  9
$DIMDLE
 40
0.0
  9
$DIMEXE
 40
0.15
  9
$DIMTP
 40
0.0
  9
$DIMTM
 40
0.0
  9
$DIMTXT
 40
0.41
  9
$DIMCEN
 40
0.09
  9
$DIMTSZ
 40
0.0
  9
$DIMTOL
 70
     0
  9
$DIMLIM
 70
     0
  9
$DIMTIH
 70
     0
  9
$DIMTOH
 70
     0
  9
$DIMSE1
 70
     0
  9
$DIMSE2
 70
     0
  9
$DIMTAD
 70
     1
  9
$DIMZIN
 70
     0
  9
$DIMBLK
  1

  9
$DIMASO
 70
     1
  9
$DIMSHO
 70
     1
  9
$DIMPOST
  1

  9
$DIMAPOST
  1

  9
$DIMALT
 70
     0
  9
$DIMALTD
 70
     2
  9
$DIMALTF
 40
25.4
  9
$DIMLFAC
 40
1.0
  9
$DIMTOFL
 70
     1
  9
$DIMTVP
 40
0.0
  9
$DIMTIX
 70
     0
  9
$DIMSOXD
 70
     0
  9
$DIMSAH
 70
     0
  9
$DIMBLK1
  1

  9
$DIMBLK2
  1

  9
$DIMSTYLE
  2
Standard
  9
$DIMCLRD
 70
     0
  9
$DIMCLRE
 70
     0
  9
$DIMCLRT
 70
     0
  9
$DIMTFAC
 40
1.0
  9
$DIMGAP
 40
0.14
  9
$DIMJUST
 70
     0
  9
$DIMSD1
 70
     0
  9
$DIMSD2
 70
     0
  9
$DIMTOLJ
 70
     1
  9
$DIMTZIN
 70
     0
  9
$DIMALTZ
 70
     0
  9
$DIMALTTZ
 70
     0
  9
$DIMUPT
 70
     0
  9
$DIMDEC
 70
     3
  9
$DIMTDEC
 70
     3
  9
$DIMALTU
 70
     2
  9
$DIMALTTD
 70
     2
  9
$DIMTXSTY
  7
Standard
  9
$DIMAUNIT
 70
     0
  9
$DIMADEC
 70
     0
  9
$DIMALTRND
 40
0.0
  9
$DIMAZIN
 70
     0
  9
$DIMDSEP
 70
    46
  9
$DIMATFIT
 70
     3
  9
$DIMFRAC
 70
     0
  9
$DIMLDRBLK
  1

  9
$DIMLUNIT
 70
     2
  9
$DIMLWD
 70
    -2
  9
$DIMLWE
 70
    -2
  9
$DIMTMOVE
 70
     0
  9
$DIMFXL
 40
1.0
  9
$DIMFXLON
 70
     0
  9
$DIMJOGANG
 40
0.7853981633974483
  9
$DIMTFILL
 70
     0
  9
$DIMTFILLCLR
 70
     0
  9
$DIMARCSYM
 70
     0
  9
$DIMLTYPE
  6

  9
$DIMLTEX1
  6

  9
$DIMLTEX2
  6

  9
$LUNITS
 70
     2
  9
$LUPREC
 70
     2
  9
$SKETCHINC
 40
0.1
  9
$FILLETRAD
 40
0.5
  9
$AUNITS
 70
     0
  9
$AUPREC
 70
     2
  9
$MENU
  1
.
  9
$ELEVATION
 40
0.0
  9
$PELEVATION
 40
0.0
  9
$THICKNESS
 40
0.0
  9
$LIMCHECK
 70
     0
  9
$CHAMFERA
 40
0.5
  9
$CHAMFERB
 40
0.5
  9
$CHAMFERC
 40
1.0
  9
$CHAMFERD
 40
0.0
  9
$SKPOLY
 70
     0
  9
$TDCREATE
 40
2456536.623881829
  9
$TDUCREATE
 40
2456536.394715162
  9
$TDUPDATE
 40
2456536.664145139
  9
$TDUUPDATE
 40
2456536.434978472
  9
$TDINDWG
 40
0.0127389005
  9
$TDUSRTIMER
 40
0.0127389005
  9
$USRTIMER
 70
     1
  9
$ANGBASE
 50
0.0
  9
$ANGDIR
 70
     0
  9
$PDMODE
 70
     0
  9
$PDSIZE
 40
-1.0
  9
$PLINEWID
 40
0.0
  9
$SPLFRAME
 70
     0
  9
$SPLINETYPE
 70
     6
  9
$SPLINESEGS
 70
     8
  9
$HANDSEED
  5
1940
  9
$SURFTAB1
 70
     6
  9
$SURFTAB2
 70
     6
  9
$SURFTYPE
 70
     6
  9
$SURFU
 70
     6
  9
$SURFV
 70
     6
  9
$UCSBASE
  2

  9
$UCSNAME
  2

  9
$UCSORG
 10
0.0
 20
0.0
 30
0.0
  9
$UCSXDIR
 10
1.0
 20
0.0
 30
0.0
  9
$UCSYDIR
 10
0.0
 20
1.0
 30
0.0
  9
$UCSORTHOREF
  2

  9
$UCSORTHOVIEW
 70
     0
  9
$UCSORGTOP
 10
0.0
 20
0.0
 30
0.0
  9
$UCSORGBOTTOM
 10
0.0
 20
0.0
 30
0.0
  9
$UCSORGLEFT
 10
0.0
 20
0.0
 30
0.0
  9
$UCSORGRIGHT
 10
0.0
 20
0.0
 30
0.0
  9
$UCSORGFRONT
 10
0.0
 20
0.0
 30
0.0
  9
$UCSORGBACK
 10
0.0
 20
0.0
 30
0.0
  9
$PUCSBASE
  2

  9
$PUCSNAME
  2

  9
$PUCSORG
 10
0.0
 20
0.0
 30
0.0
  9
$PUCSXDIR
 10
1.0
 20
0.0
 30
0.0
  9
$PUCSYDIR
 10
0.0
 20
1.0
 30
0.0
  9
$PUCSORTHOREF
  2

  9
$PUCSORTHOVIEW
 70
     0
  9
$PUCSORGTOP
 10
0.0
 20
0.0
 30
0.0
  9
$PUCSORGBOTTOM
 10
0.0
 20
0.0
 30
0.0
  9
$PUCSORGLEFT
 10
0.0
 20
0.0
 30
0.0
  9
$PUCSORGRIGHT
 10
0.0
 20
0.0
 30
0.0
  9
$PUCSORGFRONT
 10
0.0
 20
0.0
 30
0.0
  9
$PUCSORGBACK
 10
0.0
 20
0.0
 30
0.0
  9
$USERI1
 70
     0
  9
$USERI2
 70
     0
  9
$USERI3
 70
     0
  9
$USERI4
 70
     0
  9
$USERI5
 70
     0
  9
$USERR1
 40
0.0
  9
$USERR2
 40
0.0
  9
$USERR3
 40
0.0
  9
$USERR4
 40
0.0
  9
$USERR5
 40
0.0
  9
$WORLDVIEW
 70
     1
  9
$SHADEDGE
 70
     3
  9
$SHADEDIF
 70
    70
  9
$TILEMODE
 70
     1
  9
$MAXACTVP
 70
    64
  9
$PINSBASE
 10
0.0
 20
0.0
 30
0.0
  9
$PLIMCHECK
 70
     0
  9
$PEXTMIN
 10
1.000000000000000E+20
 20
1.000000000000000E+20
 30
1.000000000000000E+20
  9
$PEXTMAX
 10
-1.000000000000000E+20
 20
-1.000000000000000E+20
 30
-1.000000000000000E+20
  9
$PLIMMIN
 10
0.0
 20
0.0
  9
$PLIMMAX
 10
12.0
 20
9.0
  9
$UNITMODE
 70
     0
  9
$VISRETAIN
 70
     1
  9
$PLINEGEN
 70
     0
  9
$PSLTSCALE
 70
     1
  9
$TREEDEPTH
 70
  3020
  9
$CMLSTYLE
  2
Standard
  9
$CMLJUST
 70
     0
  9
$CMLSCALE
 40
1.0
  9
$PROXYGRAPHICS
 70
     1
  9
$MEASUREMENT
 70
     0
  9
$CELWEIGHT
370
    -1
  9
$ENDCAPS
280
     0
  9
$JOINSTYLE
280
     0
  9
$LWDISPLAY
290
     1
  9
$INSUNITS
 70
     1
  9
$HYPERLINKBASE
  1

  9
$STYLESHEET
  1

  9
$XEDIT
290
     1
  9
$CEPSNTYPE
380
     0
  9
$PSTYLEMODE
290
     1
  9
$FINGERPRINTGUID
  2
{067F9E98-A884-4F40-98BB-C1203BFAA319}
  9
$VERSIONGUID
  2
{A59BFA1E-8ADF-475F-A8E5-63A0C4EE77F9}
  9
$EXTNAMES
290
     1
  9
$PSVPSCALE
 40
0.0
  9
$OLESTARTUP
290
     0
  9
$SORTENTS
280
   127
  9
$INDEXCTL
280
     0
  9
$HIDETEXT
280
     0
  9
$XCLIPFRAME
290
     0
  9
$HALOGAP
280
     0
  9
$OBSCOLOR
 70
   257
  9
$OBSLTYPE
280
     0
  9
$INTERSECTIONDISPLAY
280
     0
  9
$INTERSECTIONCOLOR
 70
   257
  9
$DIMASSOC
280
     1
  9
$PROJECTNAME
  1

  9
$CAMERADISPLAY
290
     0
  9
$LENSLENGTH
 40
50.0
  9
$CAMERAHEIGHT
 40
0.0
  9
$STEPSPERSEC
 40
2.0
  9
$STEPSIZE
 40
6.0
  9
$3DDWFPREC
 40
2.0
  9
$PSOLWIDTH
 40
0.25
  9
$PSOLHEIGHT
 40
4.0
  9
$LOFTANG1
 40
1.570796326794896
  9
$LOFTANG2
 40
1.570796326794896
  9
$LOFTMAG1
 40
0.0
  9
$LOFTMAG2
 40
0.0
  9
$LOFTPARAM
 70
     7
  9
$LOFTNORMALS
280
     1
  9
$LATITUDE
 40
37.795
  9
$LONGITUDE
 40
-122.394
  9
$NORTHDIRECTION
 40
0.0
  9
$TIMEZONE
 70
 -8000
  9
$LIGHTGLYPHDISPLAY
280
     1
  9
$TILEMODELIGHTSYNCH
280
     1
  9
$CMATERIAL
347
E8
  9
$SOLIDHIST
280
     1
  9
$SHOWHIST
280
     1
  9
$DWFFRAME
280
     2
  9
$DGNFRAME
280
     0
  9
$REALWORLDSCALE
290
     1
  9
$INTERFERECOLOR
 62
     1
  9
$INTERFEREOBJVS
345
F5
  9
$INTERFEREVPVS
346
F2
  9
$CSHADOW
280
     0
  9
$SHADOWPLANELOCATION
 40
0.0
  0
ENDSEC
  0
SECTION
  2
CLASSES
  0
CLASS
  1
ACDBDICTIONARYWDFLT
  2
AcDbDictionaryWithDefault
  3
ObjectDBX Classes
 90
        0
 91
        1
280
     0
281
     0
  0
CLASS
  1
VISUALSTYLE
  2
AcDbVisualStyle
  3
ObjectDBX Classes
 90
     4095
 91
       16
280
     0
281
     0
  0
CLASS
  1
MATERIAL
  2
AcDbMaterial
  3
ObjectDBX Classes
 90
     1024
 91
        3
280
     0
281
     0
  0
CLASS
  1
TABLESTYLE
  2
AcDbTableStyle
  3
ObjectDBX Classes
 90
     4095
 91
        1
280
     0
281
     0
  0
CLASS
  1
DICTIONARYVAR
  2
AcDbDictionaryVar
  3
ObjectDBX Classes
 90
        0
 91
        1
280
     0
281
     0
  0
CLASS
  1
SORTENTSTABLE
  2
AcDbSortentsTable
  3
ObjectDBX Classes
 90
        0
 91
        3
280
     0
281
     0
  0
CLASS
  1
PLOTSETTINGS
  2
AcDbPlotSettings
  3
ObjectDBX Classes
 90
        0
 91
        2
280
     0
281
     0
  0
ENDSEC
  0
SECTION
  2
TABLES
  0
TABLE
  2
VPORT
  5
8
102
{ACAD_XDICTIONARY
360
4DC
102
}
330
0
100
AcDbSymbolTable
 70
     1
  0
VPORT
  5
29
330
8
100
AcDbSymbolTableRecord
100
AcDbViewportTableRecord
  2
*Active
 70
     0
 10
0.0
 20
0.0
 11
1.0
 21
1.0
 12
17.98112183436086
 22
13.61628223757647
 13
0.0
 23
0.0
 14
0.5
 24
0.5
 15
0.5
 25
0.5
 16
0.0
 26
0.0
 36
1.0
 17
0.0
 27
0.0
 37
0.0
 40
27.50834314716508
 41
1.82804674457429
 42
50.0
 43
0.0
 44
0.0
 50
0.0
 51
0.0
 71
     0
 72
  2000
 73
     1
 74
     3
 75
     0
 76
     0
 77
     0
 78
     0
281
     0
 65
     1
110
0.0
120
0.0
130
0.0
111
1.0
121
0.0
131
0.0
112
0.0
122
1.0
132
0.0
 79
     0
146
0.0
348
F1
 60
     3
 61
     5
292
     1
282
     1
141
0.0
142
0.0
 63
   250
421
  3355443
  0
ENDTAB
  0
TABLE
  2
LTYPE
  5
5
330
0
100
AcDbSymbolTable
 70
     3
  0
LTYPE
  5
14
330
5
100
AcDbSymbolTableRecord
100
AcDbLinetypeTableRecord
  2
ByBlock
 70
     0
  3

 72
    65
 73
     0
 40
0.0
  0
LTYPE
  5
15
330
5
100
AcDbSymbolTableRecord
100
AcDbLinetypeTableRecord
  2
ByLayer
 70
     0
  3

 72
    65
 73
     0
 40
0.0
  0
LTYPE
  5
16
330
5
100
AcDbSymbolTableRecord
100
AcDbLinetypeTableRecord
  2
Continuous
 70
     0
  3
Solid line
 72
    65
 73
     0
 40
0.0
  0
LTYPE
  5
DF0
330
5
100
AcDbSymbolTableRecord
100
AcDbLinetypeTableRecord
  2
HIDDEN
 70
     0
  3
Hidden __ __ __ __ __ __ __ __ __ __ __ __ __ __
 72
    65
 73
     2
 40
0.075
 49
0.05
 74
     0
 49
-0.025
 74
     0
  0
LTYPE
  5
106B
330
5
100
AcDbSymbolTableRecord
100
AcDbLinetypeTableRecord
  2
CENTER
 70
     0
  3
____ _ ____ _ ____ _ ____ _ ____ _ ____ _ ____
 72
    65
 73
     4
 40
2.0
 49
1.25
 74
     0
 49
-0.25
 74
     0
 49
0.25
 74
     0
 49
-0.25
 74
     0
  0
ENDTAB
  0
TABLE
  2
LAYER
  5
2
102
{ACAD_XDICTIONARY
360
61E
102
}
330
0
100
AcDbSymbolTable
 70
     9
  0
LAYER
  5
10
330
2
100
AcDbSymbolTableRecord
100
AcDbLayerTableRecord
  2
0
 70
     0
 62
     7
  6
Continuous
370
    -3
390
F
347
EA
  0
LAYER
  5
44
330
2
100
AcDbSymbolTableRecord
100
AcDbLayerTableRecord
  2
FORMAT
 70
     0
 62
     7
  6
Continuous
370
    -3
390
F
347
EA
  0
LAYER
  5
125
330
2
100
AcDbSymbolTableRecord
100
AcDbLayerTableRecord
  2
Defpoints
 70
     0
 62
     7
  6
Continuous
290
     0
370
    -3
390
F
347
EA
  0
LAYER
  5
61C
330
2
100
AcDbSymbolTableRecord
100
AcDbLayerTableRecord
  2
DIM
 70
     0
 62
     8
  6
Continuous
370
    -3
390
F
347
EA
1001
AcAecLayerStandard
1000

1000

  0
LAYER
  5
106C
330
2
100
AcDbSymbolTableRecord
100
AcDbLayerTableRecord
  2
OBJECT
 70
     0
 62
     7
  6
Continuous
370
    -3
390
F
347
EA
  0
LAYER
  5
106D
330
2
100
AcDbSymbolTableRecord
100
AcDbLayerTableRecord
  2
HIDDEN
 70
     0
 62
     7
  6
HIDDEN
370
    -3
390
F
347
EA
  0
LAYER
  5
106E
330
2
100
AcDbSymbolTableRecord
100
AcDbLayerTableRecord
  2
TEXT
 70
     0
 62
     7
  6
Continuous
370
    -3
390
F
347
EA
  0
LAYER
  5
106F
330
2
100
AcDbSymbolTableRecord
100
AcDbLayerTableRecord
  2
TITLE
 70
     0
 62
     7
  6
Continuous
370
    -3
390
F
347
EA
  0
LAYER
  5
1070
330
2
100
AcDbSymbolTableRecord
100
AcDbLayerTableRecord
  2
CENTER
 70
     0
 62
     7
  6
CENTER
370
    -3
390
F
347
EA
  0
ENDTAB
  0
TABLE
  2
STYLE
  5
3
330
0
100
AcDbSymbolTable
 70
     5
  0
STYLE
  5
11
330
3
100
AcDbSymbolTableRecord
100
AcDbTextStyleTableRecord
  2
Standard
 70
     0
 40
0.0
 41
1.0
 50
0.0
 71
     0
 42
0.2
  3
GOTHIC.TTF
  4

1001
ACAD
1000
Century Gothic
1071
       34
  0
STYLE
  5
66
330
3
100
AcDbSymbolTableRecord
100
AcDbTextStyleTableRecord
  2
SLDTEXTSTYLE0
 70
     0
 40
0.0
 41
0.75
 50
0.0
 71
     0
 42
0.2
  3
GOTHIC.TTF
  4

1001
ACAD
1000
Century Gothic
1071
       34
  0
STYLE
  5
6A
330
3
100
AcDbSymbolTableRecord
100
AcDbTextStyleTableRecord
  2
SLDTEXTSTYLE1
 70
     0
 40
0.0
 41
0.6875
 50
0.0
 71
     0
 42
0.2
  3
GOTHIC.TTF
  4

1001
ACAD
1000
Century Gothic
1071
       34
  0
STYLE
  5
412
330
3
100
AcDbSymbolTableRecord
100
AcDbTextStyleTableRecord
  2
style2
 70
     0
 40
0.0
 41
1.0
 50
0.0
 71
     0
 42
0.2
  3

  4

1001
ACAD
1000
Euphemia
1071
       34
  0
STYLE
  5
1071
330
3
100
AcDbSymbolTableRecord
100
AcDbTextStyleTableRecord
  2
TXT
 70
     0
 40
0.0
 41
0.75
 50
0.0
 71
     0
 42
0.125
  3
TXT.shx
  4

  0
ENDTAB
  0
TABLE
  2
VIEW
  5
6
330
0
100
AcDbSymbolTable
 70
     0
  0
ENDTAB
  0
TABLE
  2
UCS
  5
7
330
0
100
AcDbSymbolTable
 70
     0
  0
ENDTAB
  0
TABLE
  2
APPID
  5
9
330
0
100
AcDbSymbolTable
 70
     5
  0
APPID
  5
12
330
9
100
AcDbSymbolTableRecord
100
AcDbRegAppTableRecord
  2
ACAD
 70
     0
  0
APPID
  5
3B8
330
9
100
AcDbSymbolTableRecord
100
AcDbRegAppTableRecord
  2
ACAD_EXEMPT_FROM_CAD_STANDARDS
 70
     0
  0
APPID
  5
413
330
9
100
AcDbSymbolTableRecord
100
AcDbRegAppTableRecord
  2
ACAD_PSEXT
 70
     0
  0
APPID
  5
61D
330
9
100
AcDbSymbolTableRecord
100
AcDbRegAppTableRecord
  2
AcAecLayerStandard
 70
     0
  0
APPID
  5
B19
330
9
100
AcDbSymbolTableRecord
100
AcDbRegAppTableRecord
  2
PE_URL
 70
     0
  0
ENDTAB
  0
TABLE
  2
DIMSTYLE
  5
A
330
0
100
AcDbSymbolTable
 70
     3
100
AcDbDimStyleTable
 71
     1
340
27
  0
DIMSTYLE
105
27
102
{ACAD_REACTORS
330
16F0
330
16FF
330
170E
330
171D
330
172A
330
1739
330
1755
330
1764
330
1771
330
1784
102
}
330
A
100
AcDbSymbolTableRecord
100
AcDbDimStyleTableRecord
  2
Standard
 70
     0
 41
0.41
 42
0.12
 44
0.15
 73
     0
 74
     0
 77
     1
140
0.41
147
0.14
172
     1
271
     3
272
     3
340
11
  0
DIMSTYLE
105
1072
330
A
100
AcDbSymbolTableRecord
100
AcDbDimStyleTableRecord
  2
23NSTD
 70
     0
 40
3.0
 42
0.063
 43
0.281
 44
0.093
140
0.125
271
     3
272
     3
289
     0
340
1071
  0
DIMSTYLE
105
1073
330
A
100
AcDbSymbolTableRecord
100
AcDbDimStyleTableRecord
  2
23NSTDI
 70
     0
 40
3.0
 42
0.063
 43
0.281
 44
0.093
140
0.125
174
     1
271
     3
272
     3
289
     0
340
1071
  0
ENDTAB
  0
TABLE
  2
BLOCK_RECORD
  5
1
330
0
100
AcDbSymbolTable
 70
    65
  0
BLOCK_RECORD
  5
1F
102
{ACAD_XDICTIONARY
360
17B1
102
}
330
1
100
AcDbSymbolTableRecord
100
AcDbBlockTableRecord
  2
*Model_Space
340
22
 70
     0
280
     1
281
     0
  0
BLOCK_RECORD
  5
1B
330
1
100
AcDbSymbolTableRecord
100
AcDbBlockTableRecord
  2
*Paper_Space
340
1E
 70
     0
280
     1
281
     0
  0
BLOCK_RECORD
  5
23
330
1
100
AcDbSymbolTableRecord
100
AcDbBlockTableRecord
  2
*Paper_Space0
340
26
 70
     0
280
     1
281
     0
  0
BLOCK_RECORD
  5
3F9
330
1
100
AcDbSymbolTableRecord
100
AcDbBlockTableRecord
  2
Block3
340
0
102
{BLKREFS
331
407
102
}
 70
     0
280
     1
281
     0
  0
BLOCK_RECORD
  5
405
330
1
100
AcDbSymbolTableRecord
100
AcDbBlockTableRecord
  2
Block2
340
0
102
{BLKREFS
331
44A
102
}
 70
     0
280
     1
281
     0
  0
BLOCK_RECORD
  5
409
102
{ACAD_XDICTIONARY
360
40A
102
}
330
1
100
AcDbSymbolTableRecord
100
AcDbBlockTableRecord
  2
amazon
340
0
310
2800000020000000200000000100080000000000000400000000000000000000000000000000000000000000000080000080000000808000800000008000800080800000C0C0C000C0DCC000F0CAA6000020400000206000002080000020A0000020C0000020E00000400000004020000040400000406000004080000040A0
310
000040C0000040E00000600000006020000060400000606000006080000060A0000060C0000060E00000800000008020000080400000806000008080000080A0000080C0000080E00000A0000000A0200000A0400000A0600000A0800000A0A00000A0C00000A0E00000C0000000C0200000C0400000C0600000C0800000C0
310
A00000C0C00000C0E00000E0000000E0200000E0400000E0600000E0800000E0A00000E0C00000E0E00040000000400020004000400040006000400080004000A0004000C0004000E00040200000402020004020400040206000402080004020A0004020C0004020E000404000004040200040404000404060004040800040
310
40A0004040C0004040E00040600000406020004060400040606000406080004060A0004060C0004060E00040800000408020004080400040806000408080004080A0004080C0004080E00040A0000040A0200040A0400040A0600040A0800040A0A00040A0C00040A0E00040C0000040C0200040C0400040C0600040C08000
310
40C0A00040C0C00040C0E00040E0000040E0200040E0400040E0600040E0800040E0A00040E0C00040E0E00080000000800020008000400080006000800080008000A0008000C0008000E00080200000802020008020400080206000802080008020A0008020C0008020E00080400000804020008040400080406000804080
310
008040A0008040C0008040E00080600000806020008060400080606000806080008060A0008060C0008060E00080800000808020008080400080806000808080008080A0008080C0008080E00080A0000080A0200080A0400080A0600080A0800080A0A00080A0C00080A0E00080C0000080C0200080C0400080C0600080C0
310
800080C0A00080C0C00080C0E00080E0000080E0200080E0400080E0600080E0800080E0A00080E0C00080E0E000C0000000C0002000C0004000C0006000C0008000C000A000C000C000C000E000C0200000C0202000C0204000C0206000C0208000C020A000C020C000C020E000C0400000C0402000C0404000C0406000C0
310
408000C040A000C040C000C040E000C0600000C0602000C0604000C0606000C0608000C060A000C060C000C060E000C0800000C0802000C0804000C0806000C0808000C080A000C080C000C080E000C0A00000C0A02000C0A04000C0A06000C0A08000C0A0A000C0A0C000C0A0E000C0C00000C0C02000C0C04000C0C06000
310
C0C08000C0C0A000F0FBFF00A4A0A000808080000000FF0000FF000000FFFF00FF000000FF00FF00FFFF0000FFFFFF0000000000000000000000000000000000000000000000000000000000000000000000000000000000000000000000000000000000000000000000000000000000000000000000000000000000000000
310
00000000000000000000000000000000000000000000000000000000000000000000000000000000000000000000000000000000000000000000000000000000000000000000000000000000000000000000000000000000000000000000000000000000000000000000000000000000000000000000000000000000000000
310
00000000000000000000000000000000000000000000000000000000000000000000000000000000000000000000000000000000000000000000000000000000000000000000000000000000000000000000000000000000000000000000000000000000000000000000000000000000000000000000000000000000000000
310
0000000000000000000000000000000000000000000000000000000000000000000000000000000000000000000000000000000000000000000000000000000000000000000000000000000000000000000000000000000000FFFFFFFFFF00000000000000000000000000000000000000000000000000FFFFFFFFFFFFFFFF
310
00000000000000000000FC00FC0000FCFC00000000FFFFFFFFFFFFFFFFFFFFFFFFFFFFFFFFFCFCFCFCFCFCFCFCFCFCFCFCFC00000000FFFFFFFFFFFFFFFFFFFFFFFFFFFFFFFCFCFC00FCFCFCFC00FCFCFCFC00000000FFFFFFFFFFFFFFFFFFFFFFFFFFFFFFFCFCFC00FCFCFCFCFCFCFCFCFC00000000000000000000000000
310
00000000000000000000000000000000FC0000000000000000000000000000000000000000000000000000000000000000000000000000000000000000000000000000000000000000000000000000000000000000000000000000000000000000000000000000000000000000000000000000000000000000000000000000
310
00000000000000000000000000000000000000000000000000000000000000000000000000000000000000000000000000000000000000000000000000000000000000000000000000000000000000000000000000000000000000000000000000000000000000000000000000000000000000000000000000000000000000
310
00000000000000000000000000000000000000000000000000000000000000000000000000000000000000000000000000000000000000000000000000000000000000000000000000000000000000000000000000000000000000000000000000000000000000000000000000000000000000000000000000000000000000
310
0000000000000000000000000000000000000000000000000000000000000000000000000000000000000000000000000000000000000000
 70
     1
280
     1
281
     0
  0
BLOCK_RECORD
  5
D53
330
1
100
AcDbSymbolTableRecord
100
AcDbBlockTableRecord
  2
amazon block
340
0
310
2800000020000000200000000100080000000000000400000000000000000000000000000000000000000000000080000080000000808000800000008000800080800000C0C0C000C0DCC000F0CAA6000020400000206000002080000020A0000020C0000020E00000400000004020000040400000406000004080000040A0
310
000040C0000040E00000600000006020000060400000606000006080000060A0000060C0000060E00000800000008020000080400000806000008080000080A0000080C0000080E00000A0000000A0200000A0400000A0600000A0800000A0A00000A0C00000A0E00000C0000000C0200000C0400000C0600000C0800000C0
310
A00000C0C00000C0E00000E0000000E0200000E0400000E0600000E0800000E0A00000E0C00000E0E00040000000400020004000400040006000400080004000A0004000C0004000E00040200000402020004020400040206000402080004020A0004020C0004020E000404000004040200040404000404060004040800040
310
40A0004040C0004040E00040600000406020004060400040606000406080004060A0004060C0004060E00040800000408020004080400040806000408080004080A0004080C0004080E00040A0000040A0200040A0400040A0600040A0800040A0A00040A0C00040A0E00040C0000040C0200040C0400040C0600040C08000
310
40C0A00040C0C00040C0E00040E0000040E0200040E0400040E0600040E0800040E0A00040E0C00040E0E00080000000800020008000400080006000800080008000A0008000C0008000E00080200000802020008020400080206000802080008020A0008020C0008020E00080400000804020008040400080406000804080
310
008040A0008040C0008040E00080600000806020008060400080606000806080008060A0008060C0008060E00080800000808020008080400080806000808080008080A0008080C0008080E00080A0000080A0200080A0400080A0600080A0800080A0A00080A0C00080A0E00080C0000080C0200080C0400080C0600080C0
310
800080C0A00080C0C00080C0E00080E0000080E0200080E0400080E0600080E0800080E0A00080E0C00080E0E000C0000000C0002000C0004000C0006000C0008000C000A000C000C000C000E000C0200000C0202000C0204000C0206000C0208000C020A000C020C000C020E000C0400000C0402000C0404000C0406000C0
310
408000C040A000C040C000C040E000C0600000C0602000C0604000C0606000C0608000C060A000C060C000C060E000C0800000C0802000C0804000C0806000C0808000C080A000C080C000C080E000C0A00000C0A02000C0A04000C0A06000C0A08000C0A0A000C0A0C000C0A0E000C0C00000C0C02000C0C04000C0C06000
310
C0C08000C0C0A000F0FBFF00A4A0A000808080000000FF0000FF000000FFFF00FF000000FF00FF00FFFF0000FFFFFF0000000000000000000000000000000000000000000000000000000000000000000000000000000000000000000000000000000000000000000000000000000000000000000000000000000000000000
310
00000000000000000000000000000000000000000000000000000000000000000000000000000000000000000000000000000000000000000000000000000000000000000000000000000000000000000000000000000000000000000000000000000000000000000000000000000000000000000000000000000000000000
310
00000000000000000000000000000000000000000000000000000000000000000000000000000000000000000000000000000000000000000000000000000000000000000000000000000000000000000000000000000000000000000000000000000000000000000000000000000000000000000000000000000000000000
310
0000000000000000000000000000000000000000000000000000000000000000000000000000000000000000000000000000000000000000000000000000000000000000000000000000000000000000000000000000000000FFFFFFFFFF00000000000000000000000000000000000000000000000000FFFFFFFFFFFFFFFF
310
00000000000000000000E000E0E000E0E0E0000000FFFFFFFFFFFFFFFFFFFFFFFFFFFFFFFFE0E0E0E0E0E0E0E0E0E0E0E0E000000000FFFFFFFFFFFFFFFFFFFFFFFFFFFFFFE0E0E0E0E0E0E0E0E0E0E0E0E000000000FFFFFFFFFFFFFFFFFFFFFFFFFFFFFFE0E0E0E0E0E0E0E0E0E0E0E0E0E0000000000000000000000000
310
00000000000000000000000000000000E00000000000000000000000000000000000000000000000000000000000000000000000000000000000000000000000000000000000000000000000000000000000000000000000000000000000000000000000000000000000000000000000000000000000000000000000000000
310
00000000000000000000000000000000000000000000000000000000000000000000000000000000000000000000000000000000000000000000000000000000000000000000000000000000000000000000000000000000000000000000000000000000000000000000000000000000000000000000000000000000000000
310
00000000000000000000000000000000000000000000000000000000000000000000000000000000000000000000000000000000000000000000000000000000000000000000000000000000000000000000000000000000000000000000000000000000000000000000000000000000000000000000000000000000000000
310
0000000000000000000000000000000000000000000000000000000000000000000000000000000000000000000000000000000000000000
102
{BLKREFS
331
D5F
102
}
 70
     1
280
     1
281
     0
  0
BLOCK_RECORD
  5
DAE
330
1
100
AcDbSymbolTableRecord
100
AcDbBlockTableRecord
  2
SW_CENTERMARKSYMBOL_0
340
0
102
{BLKREFS
331
1887
331
18E5
102
}
 70
     0
280
     1
281
     0
  0
BLOCK_RECORD
  5
DB9
330
1
100
AcDbSymbolTableRecord
100
AcDbBlockTableRecord
  2
SW_CENTERMARKSYMBOL_1
340
0
102
{BLKREFS
331
1888
331
18E6
102
}
 70
     0
280
     1
281
     0
  0
BLOCK_RECORD
  5
DC4
330
1
100
AcDbSymbolTableRecord
100
AcDbBlockTableRecord
  2
SW_CENTERMARKSYMBOL_2
340
0
102
{BLKREFS
331
F4F
102
}
 70
     0
280
     1
281
     0
  0
BLOCK_RECORD
  5
DCF
330
1
100
AcDbSymbolTableRecord
100
AcDbBlockTableRecord
  2
SW_CENTERMARKSYMBOL_3
340
0
102
{BLKREFS
331
F50
102
}
 70
     0
280
     1
281
     0
  0
BLOCK_RECORD
  5
DDA
330
1
100
AcDbSymbolTableRecord
100
AcDbBlockTableRecord
  2
SW_CENTERMARKSYMBOL_4
340
0
102
{BLKREFS
331
F51
102
}
 70
     0
280
     1
281
     0
  0
BLOCK_RECORD
  5
DE5
330
1
100
AcDbSymbolTableRecord
100
AcDbBlockTableRecord
  2
SW_CENTERMARKSYMBOL_5
340
0
102
{BLKREFS
331
F52
102
}
 70
     0
280
     1
281
     0
  0
BLOCK_RECORD
  5
1052
330
1
100
AcDbSymbolTableRecord
100
AcDbBlockTableRecord
  2
HB
340
0
 70
     0
280
     1
281
     0
  0
BLOCK_RECORD
  5
16F1
330
1
100
AcDbSymbolTableRecord
100
AcDbBlockTableRecord
  2
*D50
340
0
 70
     0
280
     1
281
     0
  0
BLOCK_RECORD
  5
1700
330
1
100
AcDbSymbolTableRecord
100
AcDbBlockTableRecord
  2
*D51
340
0
 70
     0
280
     1
281
     0
  0
BLOCK_RECORD
  5
170F
330
1
100
AcDbSymbolTableRecord
100
AcDbBlockTableRecord
  2
*D52
340
0
 70
     0
280
     1
281
     0
  0
BLOCK_RECORD
  5
171E
330
1
100
AcDbSymbolTableRecord
100
AcDbBlockTableRecord
  2
*D53
340
0
 70
     0
280
     1
281
     0
  0
BLOCK_RECORD
  5
172B
330
1
100
AcDbSymbolTableRecord
100
AcDbBlockTableRecord
  2
*D54
340
0
 70
     0
280
     1
281
     0
  0
BLOCK_RECORD
  5
173A
330
1
100
AcDbSymbolTableRecord
100
AcDbBlockTableRecord
  2
*D55
340
0
 70
     0
280
     1
281
     0
  0
BLOCK_RECORD
  5
1756
330
1
100
AcDbSymbolTableRecord
100
AcDbBlockTableRecord
  2
*D57
340
0
 70
     0
280
     1
281
     0
  0
BLOCK_RECORD
  5
1765
330
1
100
AcDbSymbolTableRecord
100
AcDbBlockTableRecord
  2
*D58
340
0
 70
     0
280
     1
281
     0
  0
BLOCK_RECORD
  5
1772
330
1
100
AcDbSymbolTableRecord
100
AcDbBlockTableRecord
  2
*D59
340
0
 70
     0
280
     1
281
     0
  0
BLOCK_RECORD
  5
1785
330
1
100
AcDbSymbolTableRecord
100
AcDbBlockTableRecord
  2
*D60
340
0
 70
     0
280
     1
281
     0
  0
ENDTAB
  0
ENDSEC
  0
SECTION
  2
BLOCKS
  0
BLOCK
  5
20
330
1F
100
AcDbEntity
  8
0
100
AcDbBlockBegin
  2
*Model_Space
 70
     0
 10
0.0
 20
0.0
 30
0.0
  3
*Model_Space
  1

  0
ENDBLK
  5
21
330
1F
100
AcDbEntity
  8
0
100
AcDbBlockEnd
  0
BLOCK
  5
1C
330
1B
100
AcDbEntity
 67
     1
  8
0
100
AcDbBlockBegin
  2
*Paper_Space
 70
     0
 10
0.0
 20
0.0
 30
0.0
  3
*Paper_Space
  1

  0
ENDBLK
  5
1D
330
1B
100
AcDbEntity
 67
     1
  8
0
100
AcDbBlockEnd
  0
BLOCK
  5
24
330
23
100
AcDbEntity
 67
     1
  8
0
100
AcDbBlockBegin
  2
*Paper_Space0
 70
     0
 10
0.0
 20
0.0
 30
0.0
  3
*Paper_Space0
  1

  0
ENDBLK
  5
25
330
23
100
AcDbEntity
 67
     1
  8
0
100
AcDbBlockEnd
  0
BLOCK
  5
3FA
330
3F9
100
AcDbEntity
  8
0
100
AcDbBlockBegin
  2
Block3
 70
     0
 10
0.0
 20
0.0
 30
0.0
  3
Block3
  1

  0
CIRCLE
  5
3FB
330
3F9
100
AcDbEntity
  8
FORMAT
 62
     7
370
    15
100
AcDbCircle
 10
9.623096090023436
 20
2.115622186524885
 30
0.0
 40
0.0998031496062924
  0
CIRCLE
  5
3FC
330
3F9
100
AcDbEntity
  8
FORMAT
 62
     7
370
    15
100
AcDbCircle
 10
9.623096090023436
 20
2.115622186524885
 30
0.0
 40
0.1996062992125948
  0
LINE
  5
3FD
330
3F9
100
AcDbEntity
  8
FORMAT
 62
     7
370
    15
100
AcDbLine
 10
10.05890680910872
 20
2.020396293772344
 30
0.0
 11
10.05890680910872
 21
2.210848079277426
 31
0.0
  0
LINE
  5
3FE
330
3F9
100
AcDbEntity
  8
FORMAT
 62
     7
370
    15
100
AcDbLine
 10
10.05890680910872
 20
2.210848079277426
 30
0.0
 11
10.55986477488565
 21
2.315228485737483
 31
0.0
  0
LINE
  5
3FF
330
3F9
100
AcDbEntity
  8
FORMAT
 62
     7
370
    15
100
AcDbLine
 10
10.55986477488565
 20
2.315228485737483
 30
0.0
 11
10.55986477488565
 21
1.916015887312285
 31
0.0
  0
LINE
  5
400
330
3F9
100
AcDbEntity
  8
FORMAT
 62
     7
370
    15
100
AcDbLine
 10
10.55986477488565
 20
1.916015887312285
 30
0.0
 11
10.05890680910872
 21
2.020396293772344
 31
0.0
  0
LINE
  5
401
330
3F9
100
AcDbEntity
  8
FORMAT
 62
     7
370
    15
100
AcDbLine
 10
9.987169396213419
 20
2.115622186524885
 30
0.0
 11
10.59626953693931
 21
2.115622186524885
 31
0.0
  0
LINE
  5
402
330
3F9
100
AcDbEntity
  8
FORMAT
 62
     7
370
    15
100
AcDbLine
 10
9.368122674365656
 20
2.115622186524885
 30
0.0
 11
9.87806950568121
 21
2.115622186524885
 31
0.0
  0
LINE
  5
403
330
3F9
100
AcDbEntity
  8
FORMAT
 62
     7
370
    15
100
AcDbLine
 10
9.623096090023436
 20
1.872691387914879
 30
0.0
 11
9.623096090023436
 21
2.382638219230431
 31
0.0
  0
ENDBLK
  5
404
330
3F9
100
AcDbEntity
  8
0
100
AcDbBlockEnd
  0
BLOCK
  5
406
330
405
100
AcDbEntity
  8
0
100
AcDbBlockBegin
  2
Block2
 70
     0
 10
0.0
 20
0.0
 30
0.0
  3
Block2
  1

  0
INSERT
  5
407
330
405
100
AcDbEntity
  8
0
  6
Continuous
 62
     7
100
AcDbBlockReference
  2
Block3
 10
-0.0282699124868556
 20
0.0201145539810274
 30
0.0
  0
ENDBLK
  5
408
330
405
100
AcDbEntity
  8
0
100
AcDbBlockEnd
  0
BLOCK
  5
40C
330
409
100
AcDbEntity
  8
0
100
AcDbBlockBegin
  2
amazon
 70
     0
 10
0.0
 20
0.0
 30
0.0
  3
amazon
  1

  0
HATCH
  5
40D
330
409
100
AcDbEntity
  8
0
100
AcDbHatch
 10
0.0
 20
0.0
 30
0.0
210
0.0
220
0.0
230
0.9999999999999998
  2
SOLID
 70
     1
 71
     0
 91
        1
 92
        5
 93
        1
 72
     4
 94
        3
 73
     0
 74
     0
 95
       18
 96
       14
 40
0.0
 40
0.0
 40
0.0
 40
0.0
 40
0.0596755466403443
 40
0.1035834707990989
 40
0.1695571134872838
 40
0.2000964637947284
 40
0.2237461165360023
 40
0.2565225897680324
 40
0.2756876256135649
 40
0.3018435697278741
 40
0.3302551352352805
 40
0.3457181605243852
 40
0.3618589112597388
 40
0.3618589112597388
 40
0.3618589112597388
 40
0.3618589112597388
 10
0.9280407135556529
 20
0.3678371450737368
 10
1.014164084729102
 20
0.3851494268204694
 10
1.144945011486449
 20
0.4024842103214663
 10
1.481904894757406
 20
0.3990648758382389
 10
1.309526957346704
 20
0.1657833910269666
 10
1.071996456892463
 20
0.0025828528301117
 10
1.213429780952147
 20
0.147260900816045
 10
1.269689397936616
 20
0.2055836989094448
 10
1.328770741103362
 20
0.3426132943554165
 10
1.182110533057802
 20
0.3629915346337151
 10
1.077363991359149
 20
0.3586993230536737
 10
1.01802908590988
 20
0.3618658313307459
 10
0.904746484263093
 20
0.3631546035627498
 10
0.9280407135556529
 20
0.3678371450737368
 97
        0
 75
     0
 76
     1
 47
0.0083360314226261
 98
        1
 10
1.350036184717041
 20
0.3275823953230534
450
        0
451
        0
460
0.0
461
0.0
452
        1
462
1.0
453
        2
463
0.0
 63
     5
421
      255
463
1.0
 63
     7
421
 16777215
470
LINEAR
1001
ACAD
1010
0.0
1020
0.0
1030
0.0
  0
HATCH
  5
40E
330
409
100
AcDbEntity
  8
0
100
AcDbHatch
 10
0.0
 20
0.0
 30
0.0
210
0.0
220
0.0
230
0.9999999999999998
  2
SOLID
 70
     1
 71
     0
 91
        9
 92
        7
 72
     1
 73
     1
 93
       20
 10
-1.397399278738596
 20
0.888299103756417
 42
0.0
 10
-1.517557092146972
 20
0.8521069912840207
 42
0.0
 10
-1.634457615432786
 20
0.8260486703038981
 42
0.113500075695427
 10
-1.796297882939342
 20
0.77249506361993
 42
0.335029435887297
 10
-1.882119182302076
 20
0.5660893728218724
 42
0.2523749963765925
 10
-1.737967057103837
 20
0.4398788302234422
 42
0.1008759599722844
 10
-1.585598263595066
 20
0.4319165654795154
 42
0.1558313267708922
 10
-1.397230403062579
 20
0.516966153393244
 42
0.0
 10
-1.397399278738596
 20
0.5017673425512395
 42
0.1600174655974661
 10
-1.372064800007926
 20
0.4395169090987201
 42
0.0
 10
-1.217886400875514
 20
0.4395169090987201
 42
-0.1096578030042886
 10
-1.250459302100694
 20
0.4735374948229208
 42
-0.1371553684281488
 10
-1.269279200586318
 20
0.540854824021424
 42
0.0
 10
-1.269279200586318
 20
0.9244912162288137
 42
0.267077244638994
 10
-1.391608540743007
 20
1.084460353356798
 42
0.1085027846705916
 10
-1.618171164820246
 20
1.110518674336923
 42
0.3343505200399534
 10
-1.854867580389672
 20
0.9063951599926172
 42
0.0
 10
-1.71371834174733
 20
0.9063951599926172
 42
-0.2815324590939715
 10
-1.623703637535193
 20
0.9970774848409384
 42
-0.1775171235246243
 10
-1.454582816445004
 20
0.984570122933
 42
-0.2483479329952881
 97
        0
 92
       22
 72
     1
 73
     1
 93
        8
 10
-1.397399278738596
 20
0.7768273973414295
 42
0.0
 10
-1.397399278738596
 20
0.658841110681435
 42
-0.2004737922071577
 10
-1.563882996111615
 20
0.5415786662708722
 42
-0.1115040980661369
 10
-1.686936178517754
 20
0.5404929028967014
 42
-0.2738586692622027
 10
-1.742672031725241
 20
0.6002098884761536
 42
-0.289643054085014
 10
-1.707203761502306
 20
0.6928616964054842
 42
-0.1190249358109779
 10
-1.625409587314685
 20
0.7261584398800891
 42
-0.0006545690929014
 10
-1.500908720409647
 20
0.7514929186107651
 42
0.031014715336947
 97
        0
 92
        7
 72
     1
 73
     1
 93
       27
 10
-1.062984159493659
 20
0.4395169090987201
 42
0.0
 10
-0.9348640813413879
 20
0.4395169090987201
 42
0.0
 10
-0.9348640813413879
 20
0.8535546757829193
 42
-0.1716644096531924
 10
-0.8769567013855592
 20
0.9534449062067299
 42
-0.1448545784781812
 10
-0.7799618399595332
 20
0.9997708101713946
 42
-0.1340090766267909
 10
-0.6862242686560336
 20
0.9885512553049524
 42
-0.2563461470910333
 10
-0.6192688605821033
 20
0.8998805797475881
 42
0.0
 10
-0.6192688605821033
 20
0.4395169090987201
 42
0.0
 10
-0.4904249401803611
 20
0.4395169090987201
 42
0.0
 10
-0.4904249401803753
 20
0.8641979875178154
 42
-0.1830801363087423
 10
-0.4212980053581035
 20
0.9621310132001053
 42
-0.1206854715101709
 10
-0.3311796453018374
 20
0.9975992834230517
 42
-0.2157527517618656
 10
-0.216674861049178
 20
0.9774303127070119
 42
-0.2679983488848178
 10
-0.1748297194210906
 20
0.9063951599927708
 42
0.0
 10
-0.1748297194210977
 20
0.4395169090987201
 42
0.0
 10
-0.0467096412688122
 20
0.4395169090987201
 42
0.0
 10
-0.0467096412688122
 20
0.9063951599926172
 42
0.0
 10
-0.0467096412688122
 20
0.9360726922199805
 42
0.2784603970195297
 10
-0.1675912969266093
 20
1.094594144849069
 42
0.1495326253440701
 10
-0.3521710705358245
 20
1.102556409592997
 42
0.1796241607690637
 10
-0.5034541006704388
 20
0.9896370186791244
 42
0.1190036376854939
 10
-0.5809052213613626
 20
1.073602719615081
 42
0.1510696384071214
 10
-0.753179676729971
 20
1.112690201085266
 42
0.122416550902687
 10
-0.8494506959065404
 20
1.081564984359008
 42
0.0903817772246913
 10
-0.9348640813413879
 20
1.001218494670287
 42
0.0
 10
-0.9348640813413879
 20
1.101108725094101
 42
0.0
 10
-1.062984159493659
 20
1.101108725094101
 42
0.0
 97
        0
 92
        7
 72
     1
 73
     1
 93
       20
 10
0.1120662149268909
 20
0.5660893728218764
 42
0.2523749963765703
 10
0.256218340125109
 20
0.4398788302234467
 42
0.100875959972303
 10
0.4085871336339224
 20
0.4319165654795159
 42
0.1558313267708855
 10
0.5969549941663886
 20
0.516966153393244
 42
0.0
 10
0.5967861184903711
 20
0.5017673425512395
 42
0.1600174655974661
 10
0.6221205972210555
 20
0.4395169090987201
 42
0.0
 10
0.7762989963534466
 20
0.4395169090987201
 42
-0.1096578030036369
 10
0.7437260951284089
 20
0.4735374948226645
 42
-0.1371553684287215
 10
0.7249061966426496
 20
0.540854824021424
 42
0.0
 10
0.7249061966426496
 20
0.9244912162288137
 42
0.2670772446390557
 10
0.6025768564859249
 20
1.084460353356814
 42
0.1085027846705556
 10
0.3760142324087567
 20
1.110518674336923
 42
0.3343505200399825
 10
0.1393178168393021
 20
0.9063951599926172
 42
0.0
 10
0.2804670554816368
 20
0.9063951599926172
 42
-0.2815324590939487
 10
0.370481759693746
 20
0.9970774848409313
 42
-0.1775171235246857
 10
0.539602580783992
 20
0.9845701229329858
 42
-0.2483479329952225
 10
0.5967861184903711
 20
0.888299103756417
 42
0.0
 10
0.4766283050820306
 20
0.8521069912840264
 42
0.0
 10
0.359727781796181
 20
0.8260486703038981
 42
0.113500075695427
 10
0.1978875142896257
 20
0.77249506361993
 42
0.335029435887291
 97
        0
 92
       22
 72
     1
 73
     1
 93
        8
 10
0.2869816357266757
 20
0.6928616964054842
 42
-0.1190249358109779
 10
0.3687758099142826
 20
0.7261584398800891
 42
-0.0006545690929014
 10
0.4932766768193205
 20
0.7514929186107651
 42
0.0310147153369478
 10
0.5967861184903711
 20
0.7768273973414419
 42
0.0
 10
0.5967861184903711
 20
0.658841110681435
 42
-0.2004737922071577
 10
0.430302401117352
 20
0.5415786662708722
 42
-0.1115040980661369
 10
0.3072492187112061
 20
0.5404929028967014
 42
-0.2738586692622027
 10
0.251513365503726
 20
0.6002098884761536
 42
-0.289643054085014
 97
        0
 92
        7
 72
     1
 73
     1
 93
       10
 10
1.490731296558529
 20
0.9717250567569255
 42
0.0
 10
1.490731296558529
 20
1.101108725094102
 42
0.0
 10
0.9246866574902696
 20
1.101108725094102
 42
0.0
 10
0.9246866574902767
 20
0.9648744605637409
 42
0.0
 10
1.298313112053691
 20
0.9648744605637409
 42
0.0
 10
0.8993521787595994
 20
0.5408548240214275
 42
0.0
 10
0.8993521787595994
 20
0.4395169090987241
 42
-0.1473109550280885
 10
1.52402804003313
 20
0.4395169090987184
 42
0.0
 10
1.52402804003313
 20
0.581774738538516
 42
0.0747823019347494
 10
1.16328520907988
 20
0.6214717791056393
 42
0.0
 97
        0
 92
        7
 72
     1
 73
     1
 93
        2
 10
1.658662698430447
 20
0.7829800564617493
 42
1.0
 10
2.353551257900427
 20
0.7829800564617493
 42
1.0
 97
        0
 92
       22
 72
     1
 73
     1
 93
        2
 10
2.212041370259932
 20
0.7829800564617493
 42
-1.0
 10
1.800172586070949
 20
0.7829800564617493
 42
-1.0
 97
        0
 92
        7
 72
     1
 73
     1
 93
       15
 10
2.520758817522896
 20
0.4395169090987201
 42
0.0
 10
2.649602737924617
 20
0.4395169090987201
 42
0.0
 10
2.649602737924617
 20
0.7753797128425455
 42
-0.1884880930389393
 10
2.726330016366098
 20
0.9404157457166672
 42
-0.0825504763720134
 10
2.808124190553712
 20
1.002666179169187
 42
-0.1879859195515259
 10
2.9333488997082
 20
1.010628443913113
 42
-0.3400688989443128
 10
3.022381496390295
 20
0.8948632846375158
 42
0.0
 10
3.022381496390295
 20
0.4395169090987201
 42
0.0
 10
3.151225416792009
 20
0.4395169090987201
 42
0.0
 10
3.151225416792023
 20
0.9382442189683235
 42
0.3709832727766776
 10
2.952118968473769
 20
1.109868265359158
 42
0.160618198198489
 10
2.773379762580219
 20
1.083012668857902
 42
0.0920112842116662
 10
2.649602737924617
 20
0.9831224384341012
 42
0.0
 10
2.649602737924631
 20
1.101108725094101
 42
0.0
 10
2.520758817522896
 20
1.1011087250941
 42
0.0
 97
        0
 75
     0
 76
     1
 47
0.0079344138681199
 98
        9
 10
-1.376638647914745
 20
0.8943652481782571
 10
-1.376638647914745
 20
0.8943652481782571
 10
-1.008011843667617
 20
0.7810537369378041
 10
0.2295103337683244
 20
0.706616395506853
 10
0.2295103337683244
 20
0.706616395506853
 10
1.173803717490862
 20
0.7215039733471374
 10
1.736822720547962
 20
0.9152585806937842
 10
1.736822720547962
 20
0.9152585806937842
 10
2.581717008623201
 20
0.8854836988984509
450
        0
451
        0
460
0.0
461
0.0
452
        1
462
1.0
453
        2
463
0.0
 63
     5
421
      255
463
1.0
 63
     7
421
 16777215
470
LINEAR
1001
ACAD
1010
0.0
1020
0.0
1030
0.0
  0
TEXT
  5
40F
330
409
100
AcDbEntity
  8
0
 62
   150
100
AcDbText
 10
3.411151618523078
 20
0.4239129498757777
 30
0.0
 40
1.05
  1
supply
 41
1.08
  7
style2
100
AcDbText
  0
HATCH
  5
410
330
409
100
AcDbEntity
  8
0
100
AcDbHatch
 10
0.0
 20
0.0
 30
0.0
210
0.0
220
0.0
230
0.9999999999999998
  2
SOLID
 70
     1
 71
     0
 91
        1
 92
        7
 72
     1
 73
     1
 93
        2
 10
-1.177902949885989
 20
0.4051926481048067
 42
0.3081272588713221
 10
1.212164975232198
 20
0.2933070771634125
 42
-0.177724595219735
 97
        0
 75
     0
 76
     1
 47
0.0009928164167271
 98
        1
 10
0.1755697210077258
 20
0.0593374821502257
450
        0
451
        0
460
0.0
461
0.0
452
        1
462
1.0
453
        2
463
0.0
 63
     5
421
      255
463
1.0
 63
     7
421
 16777215
470
LINEAR
1001
ACAD
1010
0.0
1020
0.0
1030
0.0
  0
ENDBLK
  5
411
330
409
100
AcDbEntity
  8
0
100
AcDbBlockEnd
  0
BLOCK
  5
D54
330
D53
100
AcDbEntity
  8
0
100
AcDbBlockBegin
  2
amazon block
 70
     0
 10
0.0
 20
0.0
 30
0.0
  3
amazon block
  1

  0
HATCH
  5
D55
330
D53
100
AcDbEntity
  8
0
100
AcDbHatch
 10
0.0
 20
0.0
 30
0.0
210
0.0
220
0.0
230
1.0
  2
SOLID
 70
     1
 71
     0
 91
        1
 92
        7
 72
     1
 73
     1
 93
        2
 10
0.1428560650202613
 20
0.0268249692297831
 42
0.3005568377796329
 10
0.6100026189360293
 20
0.0009915743964171
 42
-0.1486648242730099
 97
        0
 75
     0
 76
     1
 47
0.0083360314226261
 98
        1
 10
0.3681872109149253
 20
-0.0332769951503647
450
        0
451
        0
460
0.0
461
0.0
452
        1
462
1.0
453
        2
463
0.0
 63
     5
421
      255
463
1.0
 63
     7
421
 16777215
470
LINEAR
1001
ACAD
1010
0.0
1020
0.0
1030
0.0
  0
HATCH
  5
D56
330
D53
100
AcDbEntity
  8
0
100
AcDbHatch
 10
0.0
 20
0.0
 30
0.0
210
0.0
220
0.0
230
1.0
  2
SOLID
 70
     1
 71
     0
 91
        1
 92
        5
 93
        1
 72
     4
 94
        3
 73
     0
 74
     0
 95
       18
 96
       14
 40
0.0
 40
0.0
 40
0.0
 40
0.0
 40
0.3060284443094571
 40
0.531197286149225
 40
0.8695236589091486
 40
1.026135711767838
 40
1.14741598223591
 40
1.315500460348882
 40
1.413679231894078
 40
1.543957423309552
 40
1.719337158993241
 40
1.76919128251474
 40
1.852441399548553
 40
1.852441399548553
 40
1.852441399548553
 40
1.852441399548553
 10
0.5476248318910955
 20
0.0189472839500944
 10
0.5671265702171127
 20
0.0228674694218305
 10
0.5967407336623403
 20
0.0267937023518194
 10
0.6730410215606746
 20
0.0260155775369224
 10
0.6340109953118472
 20
-0.0267925718215847
 10
0.5802183818763105
 20
-0.0637796196110996
 10
0.6122605658026537
 20
-0.030937261100445
 10
0.624929189918916
 20
-0.0180757154749651
 10
0.6383573330340191
 20
0.013562833138125
 10
0.6020518241954172
 20
0.0146147000415664
 10
0.5794789444548947
 20
0.0158864032827642
 10
0.5641956865595646
 20
0.0167018526831093
 10
0.5423196975867733
 20
0.017880860532975
 10
0.5476248318910955
 20
0.0189472839500944
 97
        0
 75
     0
 76
     1
 47
0.0083360314226261
 98
        1
 10
0.644363460657651
 20
0.0075847933888076
450
        0
451
        0
460
0.0
461
0.0
452
        1
462
1.0
453
        2
463
0.0
 63
     5
421
      255
463
1.0
 63
     7
421
 16777215
470
LINEAR
1001
ACAD
1010
0.0
1020
0.0
1030
0.0
  0
HATCH
  5
D57
330
D53
100
AcDbEntity
  8
0
100
AcDbHatch
 10
0.0
 20
0.0
 30
0.0
210
0.0
220
0.0
230
1.0
  2
SOLID
 70
     1
 71
     0
 91
        9
 92
        7
 72
     1
 73
     1
 93
       20
 10
0.1000542808940033
 20
0.1169245515333142
 42
0.0
 10
0.076623507279372
 20
0.1098670896011966
 42
0.0
 10
0.0538279052386379
 20
0.1047857170100728
 42
0.113500075695427
 10
0.0222690530748579
 20
0.0943427637066989
 42
0.335029435887297
 10
0.0055338996991239
 20
0.0540936540010777
 42
0.2523749963765925
 10
0.0336435641127828
 20
0.0294825981943836
 42
0.1008759599722844
 10
0.0633554788469937
 20
0.0279299565693179
 42
0.1558313267708922
 10
0.1000872116508269
 20
0.0445146262124951
 42
0.0
 10
0.1000542808940033
 20
0.0415508580983044
 42
0.1600174655974661
 10
0.1049945042464841
 20
0.029412023575063
 42
0.0
 10
0.1350592920773046
 20
0.029412023575063
 42
-0.1096578030042886
 10
0.128707576338396
 20
0.0360460377912819
 42
-0.1371553684281488
 10
0.125037696133699
 20
0.0491729169849902
 42
0.0
 10
0.125037696133699
 20
0.1239820134654312
 42
0.267077244638994
 10
0.1011834748031433
 20
0.1551759952053882
 42
0.1085027846705916
 10
0.0570037631080815
 20
0.1602573677965124
 42
0.3343505200399534
 10
0.0108479620720452
 20
0.1204532824993727
 42
0.0
 10
0.0383720636073015
 20
0.1204532824993727
 42
-0.2815324590939715
 10
0.0559249309286685
 20
0.1381363358447958
 42
-0.1775171235246243
 10
0.0889034910412541
 20
0.1356974002727478
 42
-0.2483479329952881
 97
        0
 92
       22
 72
     1
 73
     1
 93
        8
 10
0.1000542808940033
 20
0.0951875687823911
 42
0.0
 10
0.1000542808940033
 20
0.0721802428836922
 42
-0.2004737922071577
 10
0.0675899560062661
 20
0.0493140662236327
 42
-0.1115040980661369
 10
0.0435945854370701
 20
0.0491023423656691
 42
-0.2738586692622027
 10
0.0327260940616085
 20
0.0607471545536624
 42
-0.289643054085014
 10
0.0396424067550818
 20
0.0788142570998818
 42
-0.1190249358109779
 10
0.0555922707216681
 20
0.0853071220774298
 42
-0.0006545690929014
 10
0.0798699397681482
 20
0.090247345429912
 42
0.031014715336947
 97
        0
 92
        7
 72
     1
 73
     1
 93
       27
 10
0.1652652291467689
 20
0.029412023575063
 42
0.0
 10
0.190248644386461
 20
0.029412023575063
 42
0.0
 10
0.190248644386461
 20
0.1101493880784821
 42
-0.1716644096531924
 10
0.201540583477847
 20
0.1296279830111251
 42
-0.1448545784781812
 10
0.2204545814559218
 20
0.1386615342842345
 42
-0.1340090766267909
 10
0.2387334078601029
 20
0.1364737210852782
 42
-0.2563461470910333
 10
0.251789712434519
 20
0.1191829393515924
 42
0.0
 10
0.251789712434519
 20
0.029412023575063
 42
0.0
 10
0.2769142769128621
 20
0.029412023575063
 42
0.0
 10
0.2769142769128585
 20
0.1122248338667866
 42
-0.1830801363087423
 10
0.290394029203199
 20
0.1313217738748333
 42
-0.1206854715101709
 10
0.3079671094141716
 20
0.1382380865683075
 42
-0.2157527517618656
 10
0.3302955423434426
 20
0.1343051372786799
 42
-0.2679983488848178
 10
0.33845534496092
 20
0.1204532824994029
 42
0.0
 10
0.3384553449609164
 20
0.029412023575063
 42
0.0
 10
0.3634387602006122
 20
0.029412023575063
 42
0.0
 10
0.3634387602006122
 20
0.1204532824993727
 42
0.0
 10
0.3634387602006122
 20
0.1262404012837086
 42
0.2784603970195297
 10
0.3398668373473406
 20
0.1571520845463814
 42
0.1495326253440701
 10
0.3038737814935466
 20
0.1587047261714471
 42
0.1796241607690637
 10
0.2743735906172944
 20
0.1366854449432417
 42
0.1190036376854939
 10
0.259270622082564
 20
0.1530587566257537
 42
0.1510696384071214
 10
0.2256771032856868
 20
0.1606808155124395
 42
0.122416550902687
 10
0.2069042545462558
 20
0.154611398250819
 42
0.0903817772246913
 10
0.190248644386461
 20
0.1389438327615187
 42
0.0
 10
0.190248644386461
 20
0.1584224276941626
 42
0.0
 10
0.1652652291467689
 20
0.1584224276941626
 42
0.0
 97
        0
 92
        7
 72
     1
 73
     1
 93
       20
 10
0.394400052158776
 20
0.0540936540010786
 42
0.2523749963765703
 10
0.4225097165724279
 20
0.0294825981943845
 42
0.100875959972303
 10
0.4522216313066459
 20
0.0279299565693183
 42
0.1558313267708855
 10
0.4889533641104756
 20
0.0445146262124951
 42
0.0
 10
0.4889204333536519
 20
0.0415508580983044
 42
0.1600174655974661
 10
0.4938606567061364
 20
0.029412023575063
 42
0.0
 10
0.5239254445369533
 20
0.029412023575063
 42
-0.1096578030036369
 10
0.5175737287980695
 20
0.0360460377912322
 42
-0.1371553684287215
 10
0.5139038485933476
 20
0.0491729169849902
 42
0.0
 10
0.5139038485933476
 20
0.1239820134654312
 42
0.2670772446390557
 10
0.4900496272627848
 20
0.1551759952053913
 42
0.1085027846705556
 10
0.4458699155677373
 20
0.1602573677965129
 42
0.3343505200399825
 10
0.3997141145316938
 20
0.1204532824993727
 42
0.0
 10
0.4272382160669502
 20
0.1204532824993727
 42
-0.2815324590939487
 10
0.44479108338831
 20
0.138136335844794
 42
-0.1775171235246857
 10
0.4777696435009098
 20
0.1356974002727447
 42
-0.2483479329952225
 10
0.4889204333536519
 20
0.1169245515333142
 42
0.0
 10
0.4654896597390277
 20
0.1098670896011979
 42
0.0
 10
0.4426940576982866
 20
0.1047857170100728
 42
0.113500075695427
 10
0.4111352055345066
 20
0.0943427637066989
 42
0.335029435887291
 97
        0
 92
       22
 72
     1
 73
     1
 93
        8
 10
0.428508559214734
 20
0.0788142570998818
 42
-0.1190249358109779
 10
0.4444584231813167
 20
0.0853071220774298
 42
-0.0006545690929014
 10
0.4687360922277968
 20
0.090247345429912
 42
0.0310147153369478
 10
0.4889204333536519
 20
0.0951875687823938
 42
0.0
 10
0.4889204333536519
 20
0.0721802428836922
 42
-0.2004737922071577
 10
0.4564561084659147
 20
0.0493140662236327
 42
-0.1115040980661369
 10
0.4324607378967152
 20
0.0491023423656691
 42
-0.2738586692622027
 10
0.4215922465212572
 20
0.0607471545536624
 42
-0.289643054085014
 97
        0
 92
        7
 72
     1
 73
     1
 93
       10
 10
0.663239743076943
 20
0.1331926123684131
 42
0.0
 10
0.663239743076943
 20
0.1584224276941626
 42
0.0
 10
0.5528610384586337
 20
0.1584224276941626
 42
0.0
 10
0.5528610384586337
 20
0.131856746110742
 42
0.0
 10
0.6257181970985002
 20
0.131856746110742
 42
0.0
 10
0.5479208151061528
 20
0.0491729169849911
 42
0.0
 10
0.5479208151061528
 20
0.0294120235750635
 42
-0.1473109550280885
 10
0.6697326080544919
 20
0.0294120235750626
 42
0.0
 10
0.6697326080544919
 20
0.0571523003158232
 42
0.0747823019347494
 10
0.5993877560186079
 20
0.0648932232264121
 42
0.0
 97
        0
 92
        7
 72
     1
 73
     1
 93
        2
 10
0.6959863664419679
 20
0.0963873373108535
 42
1.0
 10
0.8314896355386132
 20
0.0963873373108535
 42
1.0
 97
        0
 92
       22
 72
     1
 73
     1
 93
        2
 10
0.8038952074487184
 20
0.0963873373108535
 42
-1.0
 10
0.7235807945318662
 20
0.0963873373108535
 42
-1.0
 97
        0
 92
        7
 72
     1
 73
     1
 93
       15
 10
0.8640951096649978
 20
0.029412023575063
 42
0.0
 10
0.8892196741433302
 20
0.029412023575063
 42
0.0
 10
0.8892196741433302
 20
0.0949052703051088
 42
-0.1884880930389393
 10
0.9041814934394203
 20
0.1270872967155627
 42
-0.0825504763720134
 10
0.9201313574060066
 20
0.1392261312388041
 42
-0.1879859195515259
 10
0.9445501756911305
 20
0.1407787728638694
 42
-0.3400688989443128
 10
0.9619115320441373
 20
0.1182045668051281
 42
0.0
 10
0.9619115320441373
 20
0.029412023575063
 42
0.0
 10
0.9870360965224733
 20
0.029412023575063
 42
0.0
 10
0.9870360965224769
 20
0.1266638489996357
 42
0.3709832727766776
 10
0.9482103391004166
 20
0.1601305380458484
 42
0.160618198198489
 10
0.9133561939511736
 20
0.1548936967281036
 42
0.0920112842116662
 10
0.8892196741433302
 20
0.1354151017954623
 42
0.0
 10
0.8892196741433338
 20
0.1584224276941626
 42
0.0
 10
0.8640951096649978
 20
0.1584224276941621
 42
0.0
 97
        0
 75
     0
 76
     1
 47
0.0079344138681199
 98
        9
 10
0.1041026039046571
 20
0.1181074496955725
 10
0.1041026039046571
 20
0.1181074496955725
 10
0.175984830732844
 20
0.0960117050036842
 10
0.4173016553328531
 20
0.0814964234246487
 10
0.4173016553328531
 20
0.0814964234246487
 10
0.6014388651587482
 20
0.0843995011035044
 10
0.7112275707548826
 20
0.1221816495361003
 10
0.7112275707548826
 20
0.1221816495361003
 10
0.8759819569295572
 20
0.1163755475860104
450
        0
451
        0
460
0.0
461
0.0
452
        1
462
1.0
453
        2
463
0.0
 63
     5
421
      255
463
1.0
 63
     7
421
 16777215
470
LINEAR
1001
ACAD
1010
0.0
1020
0.0
1030
0.0
  0
HATCH
  5
D58
330
D53
100
AcDbEntity
  8
0
 62
   150
100
AcDbHatch
 10
0.0
 20
0.0
 30
0.0
210
0.0
220
0.0
230
1.0
  2
SOLID
 70
     1
 71
     0
 91
        8
 92
        7
 72
     1
 73
     1
 93
       22
 10
1.131716859301388
 20
0.0982802106585603
 42
0.0484183422992068
 10
1.088571435005292
 20
0.1135920246412381
 42
-0.1024497749852004
 10
1.063583383368957
 20
0.125237861247649
 42
-0.5197370575112227
 10
1.065952625421378
 20
0.1500864950045506
 42
-0.1784163181567931
 10
1.097462280584622
 20
0.1562497626075707
 42
-0.1611556671223822
 10
1.130948711999153
 20
0.1417059730721331
 42
0.0
 10
1.143877562730139
 20
0.1560685971400009
 42
0.0879608039459819
 10
1.125754289819187
 20
0.1671964668262178
 42
0.096844267443967
 10
1.086490181797579
 20
0.1727441735534061
 42
0.1289645081611661
 10
1.053342092127955
 20
0.1633533786648891
 42
0.2520599057044872
 10
1.037629278411372
 20
0.1399706628121899
 42
0.2998873610886212
 10
1.050463850241648
 20
0.1096908005921695
 42
0.087968247036807
 10
1.088782354168369
 20
0.0932096049078468
 42
-0.0908267507933147
 10
1.119928772767817
 20
0.0811747820304691
 42
-0.4466858316882535
 10
1.125453128485816
 20
0.0540976492614389
 42
-0.2058443735084833
 10
1.094059901125532
 20
0.0433269295271455
 42
-0.2322683613354944
 10
1.04833474053288
 20
0.0635860005622337
 42
0.0
 10
1.033442870302863
 20
0.0487121861500608
 42
0.0897498636939959
 10
1.054992265021407
 20
0.0336893058402592
 42
0.1162784600455089
 10
1.100093060274716
 20
0.0271838680846326
 42
0.1305494116801128
 10
1.134902795650507
 20
0.0379471166909786
 42
0.2700443324603339
 10
1.150563716135536
 20
0.0687356163070478
 42
0.2747552069495999
 97
        0
 92
        7
 72
     1
 73
     1
 93
       17
 10
1.204964925758659
 20
0.0711619205531866
 42
0.0
 10
1.204964925758659
 20
0.1705032481376225
 42
0.0
 10
1.182530424786222
 20
0.1705032481376221
 42
0.0
 10
1.182530424786222
 20
0.068114123580882
 42
0.231056446390574
 10
1.200275679141658
 20
0.0337787716591849
 42
0.1033983125445035
 10
1.222016181175408
 20
0.0271400549874108
 42
0.1113661879093152
 10
1.256252700835137
 20
0.0321455417860066
 42
0.060456799039856
 10
1.280359576718197
 20
0.0437750658039402
 42
0.0
 10
1.282436740080608
 20
0.0292528824702614
 42
0.0
 10
1.305008011852606
 20
0.0292528824702614
 42
0.0
 10
1.303035750365566
 20
0.045573054697837
 42
0.0
 10
1.303035750365566
 20
0.1704535782767582
 42
0.0
 10
1.280726706724607
 20
0.1704535782767582
 42
0.0
 10
1.280726706724607
 20
0.0603385752977079
 42
-0.0926529444633646
 10
1.271406905425951
 20
0.0542136206901671
 42
-0.0664344377826394
 10
1.252018117536273
 20
0.0470706779667407
 42
-0.0713593701437487
 10
1.22596399727168
 20
0.0462232117768133
 42
-0.3666103947779491
 97
        0
 92
        7
 72
     1
 73
     1
 93
       12
 10
1.34888971452673
 20
-0.0300855190343001
 42
0.0
 10
1.37158389411627
 20
-0.0300855190342997
 42
0.0
 10
1.37158389411627
 20
0.0381322242109672
 42
0.2065475696655794
 10
1.43316687203049
 20
0.0295489681525751
 42
0.2194428372319613
 10
1.471434120104095
 20
0.0681246169490031
 42
0.1323036971285341
 10
1.475462458348772
 20
0.1210354643912233
 42
0.1641390880683366
 10
1.453695611337639
 20
0.1611617476764042
 42
0.205639974219759
 10
1.404711616991345
 20
0.1717914749112652
 42
0.0657328919071964
 10
1.371062306057382
 20
0.1603071107053626
 42
0.0
 10
1.369185970032088
 20
0.1704922854774775
 42
0.0
 10
1.347893491957236
 20
0.1704922854774775
 42
0.0
 10
1.348889714526734
 20
0.1571025974974671
 42
0.0
 97
        0
 92
       22
 72
     1
 73
     1
 93
        8
 10
1.37158389411627
 20
0.1447873628418232
 42
-0.1242339830404592
 10
1.408127279067805
 20
0.1549128436768488
 42
-0.229840994742505
 10
1.439329608924591
 20
0.143501077402358
 42
-0.1934262502536381
 10
1.452032531529923
 20
0.1169919663469652
 42
-0.1013985410677669
 10
1.45007247035501
 20
0.0757878280977211
 42
-0.2083357761076617
 10
1.426144858393048
 20
0.0470888301796872
 42
-0.1496858148879605
 10
1.383365488627418
 20
0.0497243925890185
 42
-0.0899155484976542
 10
1.37158389411627
 20
0.0564933659367366
 42
0.0
 97
        0
 92
        7
 72
     1
 73
     1
 93
       12
 10
1.536384209201344
 20
0.0381322242109672
 42
0.2065475696655794
 10
1.597967187115564
 20
0.0295489681525751
 42
0.2194428372319613
 10
1.63623443518917
 20
0.0681246169490031
 42
0.1323036971285341
 10
1.640262773433846
 20
0.1210354643912233
 42
0.1641390880683366
 10
1.618495926422713
 20
0.1611617476764042
 42
0.205639974219759
 10
1.569511932076419
 20
0.1717914749112652
 42
0.0657328919071964
 10
1.535862621142456
 20
0.1603071107053626
 42
0.0
 10
1.533986285117165
 20
0.1704922854774775
 42
0.0
 10
1.51269380704231
 20
0.1704922854774775
 42
0.0
 10
1.513690029611812
 20
0.1571025974974671
 42
0.0
 10
1.513690029611804
 20
-0.0300855190343001
 42
0.0
 10
1.536384209201344
 20
-0.0300855190342997
 42
0.0
 97
        0
 92
       22
 72
     1
 73
     1
 93
        8
 10
1.53638420920134
 20
0.0564933659367348
 42
0.0
 10
1.536384209201344
 20
0.1447873628418232
 42
-0.1242339830404592
 10
1.572927594152879
 20
0.1549128436768488
 42
-0.229840994742505
 10
1.604129924009665
 20
0.143501077402358
 42
-0.1934262502536381
 10
1.616832846614997
 20
0.1169919663469652
 42
-0.1013985410677669
 10
1.614872785440084
 20
0.0757878280977211
 42
-0.2083357761076617
 10
1.590945173478122
 20
0.0470888301796872
 42
-0.1496858148879605
 10
1.548165803712493
 20
0.0497243925890185
 42
-0.0899155484976689
 97
        0
 92
        7
 72
     1
 73
     1
 93
        9
 10
1.700061888317705
 20
0.2342426883985293
 42
0.0
 10
1.677630680467434
 20
0.2342426883985293
 42
0.0
 10
1.67763068046743
 20
0.0525526462764159
 42
0.3003574180393968
 10
1.689763445472692
 20
0.0294232917661481
 42
0.1772930531369512
 10
1.716213749579594
 20
0.0296692382956376
 42
0.0
 10
1.726340843842322
 20
0.0328930300171466
 42
0.0
 10
1.722947015877874
 20
0.0450847282577249
 42
0.0
 10
1.715478639728772
 20
0.0445718860057287
 42
-0.4033750267256485
 10
1.700061888317705
 20
0.0551463102997136
 42
0.0
 97
        0
 92
        7
 72
     1
 73
     1
 93
       13
 10
1.756550300014353
 20
0.1705037737446156
 42
0.0
 10
1.733158403445031
 20
0.1705037737446147
 42
0.0
 10
1.789004390745333
 20
0.0387212794769898
 42
-0.1248046720339364
 10
1.779651976914252
 20
0.0098440558334927
 42
-0.2041270254703542
 10
1.758338890268429
 20
-0.0108879300937863
 42
-0.1582846410265598
 10
1.728104948139659
 20
-0.0088290148710986
 42
0.0
 10
1.723524002749954
 20
-0.0288461752875353
 42
0.0503996825504031
 10
1.752727303871125
 20
-0.0310194851179708
 42
0.1573307408029109
 10
1.778748174224848
 20
-0.02185783610684
 42
0.1379639421479074
 10
1.7998397718477
 20
0.0061205808064937
 42
0.0
 10
1.863932002621172
 20
0.1705037737446151
 42
0.0
 10
1.84037943355916
 20
0.1705037737446147
 42
0.0
 10
1.801429340670335
 20
0.0575527643750102
 42
0.0
 97
        0
 75
     0
 76
     1
 47
0.0008892483299936
 98
        8
 10
1.136466178840407
 20
0.0806040287034282
 10
1.218376325116423
 20
0.039698608137611
 10
1.365280380260387
 20
0.0654868019383397
 10
1.365280380260387
 20
0.0654868019383397
 10
1.532067085388874
 20
0.0510462190903649
 10
1.532067085388874
 20
0.0510462190903649
 10
1.692326025665067
 20
0.0661634458554534
 10
1.78937173321124
 20
0.0643849607353548
450
        0
451
        0
460
0.0
461
0.0
452
        1
462
1.0
453
        2
463
0.0
 63
     5
421
      255
463
1.0
 63
     7
421
 16777215
470
LINEAR
1001
ACAD
1010
0.0
1020
0.0
1030
0.0
  0
ENDBLK
  5
D59
330
D53
100
AcDbEntity
  8
0
100
AcDbBlockEnd
  0
BLOCK
  5
DAF
330
DAE
100
AcDbEntity
  8
0
100
AcDbBlockBegin
  2
SW_CENTERMARKSYMBOL_0
 70
     0
 10
0.0
 20
0.0
 30
0.0
  3
SW_CENTERMARKSYMBOL_0
  1

  0
LINE
  5
DB0
330
DAE
100
AcDbEntity
  8
0
  6
Continuous
 62
     0
370
     0
100
AcDbLine
 10
0.0
 20
0.0
 30
0.0
 11
0.0
 21
0.0999999999999995
 31
0.0
  0
LINE
  5
DB1
330
DAE
100
AcDbEntity
  8
0
  6
Continuous
 62
     0
370
     0
100
AcDbLine
 10
0.0
 20
0.0
 30
0.0
 11
-0.0999999999999995
 21
0.0
 31
0.0
  0
LINE
  5
DB2
330
DAE
100
AcDbEntity
  8
0
  6
Continuous
 62
     0
370
     0
100
AcDbLine
 10
0.0
 20
0.0
 30
0.0
 11
0.0
 21
-0.1000000000000017
 31
0.0
  0
LINE
  5
DB3
330
DAE
100
AcDbEntity
  8
0
  6
Continuous
 62
     0
370
     0
100
AcDbLine
 10
0.0
 20
0.0
 30
0.0
 11
0.0999999999999995
 21
0.0
 31
0.0
  0
LINE
  5
DB4
330
DAE
100
AcDbEntity
  8
0
  6
Continuous
 62
     0
370
     0
100
AcDbLine
 10
0.0
 20
0.199999999999999
 30
0.0
 11
0.0
 21
0.2094999999999989
 31
0.0
  0
LINE
  5
DB5
330
DAE
100
AcDbEntity
  8
0
  6
Continuous
 62
     0
370
     0
100
AcDbLine
 10
-0.199999999999999
 20
0.0
 30
0.0
 11
-0.2094999999999989
 21
0.0
 31
0.0
  0
LINE
  5
DB6
330
DAE
100
AcDbEntity
  8
0
  6
Continuous
 62
     0
370
     0
100
AcDbLine
 10
0.0
 20
-0.2000000000000011
 30
0.0
 11
0.0
 21
-0.2095000000000011
 31
0.0
  0
LINE
  5
DB7
330
DAE
100
AcDbEntity
  8
0
  6
Continuous
 62
     0
370
     0
100
AcDbLine
 10
0.199999999999999
 20
0.0
 30
0.0
 11
0.2094999999999989
 21
0.0
 31
0.0
  0
ENDBLK
  5
DB8
330
DAE
100
AcDbEntity
  8
0
100
AcDbBlockEnd
  0
BLOCK
  5
DBA
330
DB9
100
AcDbEntity
  8
0
100
AcDbBlockBegin
  2
SW_CENTERMARKSYMBOL_1
 70
     0
 10
0.0
 20
0.0
 30
0.0
  3
SW_CENTERMARKSYMBOL_1
  1

  0
LINE
  5
DBB
330
DB9
100
AcDbEntity
  8
0
  6
Continuous
 62
     0
370
     0
100
AcDbLine
 10
0.0
 20
0.0
 30
0.0
 11
0.0
 21
0.0999999999999995
 31
0.0
  0
LINE
  5
DBC
330
DB9
100
AcDbEntity
  8
0
  6
Continuous
 62
     0
370
     0
100
AcDbLine
 10
0.0
 20
0.0
 30
0.0
 11
-0.0999999999999995
 21
0.0
 31
0.0
  0
LINE
  5
DBD
330
DB9
100
AcDbEntity
  8
0
  6
Continuous
 62
     0
370
     0
100
AcDbLine
 10
0.0
 20
0.0
 30
0.0
 11
0.0
 21
-0.1000000000000017
 31
0.0
  0
LINE
  5
DBE
330
DB9
100
AcDbEntity
  8
0
  6
Continuous
 62
     0
370
     0
100
AcDbLine
 10
0.0
 20
0.0
 30
0.0
 11
0.0999999999999995
 21
0.0
 31
0.0
  0
LINE
  5
DBF
330
DB9
100
AcDbEntity
  8
0
  6
Continuous
 62
     0
370
     0
100
AcDbLine
 10
0.0
 20
0.199999999999999
 30
0.0
 11
0.0
 21
0.2094999999999989
 31
0.0
  0
LINE
  5
DC0
330
DB9
100
AcDbEntity
  8
0
  6
Continuous
 62
     0
370
     0
100
AcDbLine
 10
-0.199999999999999
 20
0.0
 30
0.0
 11
-0.2094999999999946
 21
0.0
 31
0.0
  0
LINE
  5
DC1
330
DB9
100
AcDbEntity
  8
0
  6
Continuous
 62
     0
370
     0
100
AcDbLine
 10
0.0
 20
-0.2000000000000011
 30
0.0
 11
0.0
 21
-0.2095000000000011
 31
0.0
  0
LINE
  5
DC2
330
DB9
100
AcDbEntity
  8
0
  6
Continuous
 62
     0
370
     0
100
AcDbLine
 10
0.199999999999999
 20
0.0
 30
0.0
 11
0.2095000000000033
 21
0.0
 31
0.0
  0
ENDBLK
  5
DC3
330
DB9
100
AcDbEntity
  8
0
100
AcDbBlockEnd
  0
BLOCK
  5
DC5
330
DC4
100
AcDbEntity
  8
0
100
AcDbBlockBegin
  2
SW_CENTERMARKSYMBOL_2
 70
     0
 10
0.0
 20
0.0
 30
0.0
  3
SW_CENTERMARKSYMBOL_2
  1

  0
LINE
  5
DC6
330
DC4
100
AcDbEntity
  8
0
  6
Continuous
 62
     0
370
     0
100
AcDbLine
 10
0.0
 20
0.0
 30
0.0
 11
0.0
 21
0.0999999999999995
 31
0.0
  0
LINE
  5
DC7
330
DC4
100
AcDbEntity
  8
0
  6
Continuous
 62
     0
370
     0
100
AcDbLine
 10
0.0
 20
0.0
 30
0.0
 11
-0.0999999999999995
 21
0.0
 31
0.0
  0
LINE
  5
DC8
330
DC4
100
AcDbEntity
  8
0
  6
Continuous
 62
     0
370
     0
100
AcDbLine
 10
0.0
 20
0.0
 30
0.0
 11
0.0
 21
-0.0999999999999995
 31
0.0
  0
LINE
  5
DC9
330
DC4
100
AcDbEntity
  8
0
  6
Continuous
 62
     0
370
     0
100
AcDbLine
 10
0.0
 20
0.0
 30
0.0
 11
0.0999999999999995
 21
0.0
 31
0.0
  0
LINE
  5
DCA
330
DC4
100
AcDbEntity
  8
0
  6
Continuous
 62
     0
370
     0
100
AcDbLine
 10
0.0
 20
0.0999999999999995
 30
0.0
 11
0.0
 21
0.1680000000000054
 31
0.0
  0
LINE
  5
DCB
330
DC4
100
AcDbEntity
  8
0
  6
Continuous
 62
     0
370
     0
100
AcDbLine
 10
-0.0999999999999995
 20
0.0
 30
0.0
 11
-0.168000000000001
 21
0.0
 31
0.0
  0
LINE
  5
DCC
330
DC4
100
AcDbEntity
  8
0
  6
Continuous
 62
     0
370
     0
100
AcDbLine
 10
0.0
 20
-0.0999999999999995
 30
0.0
 11
0.0
 21
-0.1679999999999967
 31
0.0
  0
LINE
  5
DCD
330
DC4
100
AcDbEntity
  8
0
  6
Continuous
 62
     0
370
     0
100
AcDbLine
 10
0.0999999999999995
 20
0.0
 30
0.0
 11
0.168000000000001
 21
0.0
 31
0.0
  0
ENDBLK
  5
DCE
330
DC4
100
AcDbEntity
  8
0
100
AcDbBlockEnd
  0
BLOCK
  5
DD0
330
DCF
100
AcDbEntity
  8
0
100
AcDbBlockBegin
  2
SW_CENTERMARKSYMBOL_3
 70
     0
 10
0.0
 20
0.0
 30
0.0
  3
SW_CENTERMARKSYMBOL_3
  1

  0
LINE
  5
DD1
330
DCF
100
AcDbEntity
  8
0
  6
Continuous
 62
     0
370
     0
100
AcDbLine
 10
0.0
 20
0.0
 30
0.0
 11
0.0
 21
0.0999999999999995
 31
0.0
  0
LINE
  5
DD2
330
DCF
100
AcDbEntity
  8
0
  6
Continuous
 62
     0
370
     0
100
AcDbLine
 10
0.0
 20
0.0
 30
0.0
 11
-0.0999999999999995
 21
0.0
 31
0.0
  0
LINE
  5
DD3
330
DCF
100
AcDbEntity
  8
0
  6
Continuous
 62
     0
370
     0
100
AcDbLine
 10
0.0
 20
0.0
 30
0.0
 11
0.0
 21
-0.0999999999999995
 31
0.0
  0
LINE
  5
DD4
330
DCF
100
AcDbEntity
  8
0
  6
Continuous
 62
     0
370
     0
100
AcDbLine
 10
0.0
 20
0.0
 30
0.0
 11
0.0999999999999995
 21
0.0
 31
0.0
  0
LINE
  5
DD5
330
DCF
100
AcDbEntity
  8
0
  6
Continuous
 62
     0
370
     0
100
AcDbLine
 10
0.0
 20
0.0999999999999995
 30
0.0
 11
0.0
 21
0.1680000000000054
 31
0.0
  0
LINE
  5
DD6
330
DCF
100
AcDbEntity
  8
0
  6
Continuous
 62
     0
370
     0
100
AcDbLine
 10
-0.0999999999999995
 20
0.0
 30
0.0
 11
-0.1679999999999989
 21
0.0
 31
0.0
  0
LINE
  5
DD7
330
DCF
100
AcDbEntity
  8
0
  6
Continuous
 62
     0
370
     0
100
AcDbLine
 10
0.0
 20
-0.0999999999999995
 30
0.0
 11
0.0
 21
-0.1679999999999967
 31
0.0
  0
LINE
  5
DD8
330
DCF
100
AcDbEntity
  8
0
  6
Continuous
 62
     0
370
     0
100
AcDbLine
 10
0.0999999999999995
 20
0.0
 30
0.0
 11
0.1679999999999989
 21
0.0
 31
0.0
  0
ENDBLK
  5
DD9
330
DCF
100
AcDbEntity
  8
0
100
AcDbBlockEnd
  0
BLOCK
  5
DDB
330
DDA
100
AcDbEntity
  8
0
100
AcDbBlockBegin
  2
SW_CENTERMARKSYMBOL_4
 70
     0
 10
0.0
 20
0.0
 30
0.0
  3
SW_CENTERMARKSYMBOL_4
  1

  0
LINE
  5
DDC
330
DDA
100
AcDbEntity
  8
0
  6
Continuous
 62
     0
370
     0
100
AcDbLine
 10
0.0
 20
0.0
 30
0.0
 11
0.0
 21
0.1000000000000038
 31
0.0
  0
LINE
  5
DDD
330
DDA
100
AcDbEntity
  8
0
  6
Continuous
 62
     0
370
     0
100
AcDbLine
 10
0.0
 20
0.0
 30
0.0
 11
-0.0999999999999995
 21
0.0
 31
0.0
  0
LINE
  5
DDE
330
DDA
100
AcDbEntity
  8
0
  6
Continuous
 62
     0
370
     0
100
AcDbLine
 10
0.0
 20
0.0
 30
0.0
 11
0.0
 21
-0.0999999999999995
 31
0.0
  0
LINE
  5
DDF
330
DDA
100
AcDbEntity
  8
0
  6
Continuous
 62
     0
370
     0
100
AcDbLine
 10
0.0
 20
0.0
 30
0.0
 11
0.0999999999999995
 21
0.0
 31
0.0
  0
LINE
  5
DE0
330
DDA
100
AcDbEntity
  8
0
  6
Continuous
 62
     0
370
     0
100
AcDbLine
 10
0.0
 20
0.1000000000000038
 30
0.0
 11
0.0
 21
0.168000000000001
 31
0.0
  0
LINE
  5
DE1
330
DDA
100
AcDbEntity
  8
0
  6
Continuous
 62
     0
370
     0
100
AcDbLine
 10
-0.0999999999999995
 20
0.0
 30
0.0
 11
-0.1679999999999989
 21
0.0
 31
0.0
  0
LINE
  5
DE2
330
DDA
100
AcDbEntity
  8
0
  6
Continuous
 62
     0
370
     0
100
AcDbLine
 10
0.0
 20
-0.0999999999999995
 30
0.0
 11
0.0
 21
-0.1679999999999967
 31
0.0
  0
LINE
  5
DE3
330
DDA
100
AcDbEntity
  8
0
  6
Continuous
 62
     0
370
     0
100
AcDbLine
 10
0.0999999999999995
 20
0.0
 30
0.0
 11
0.1679999999999989
 21
0.0
 31
0.0
  0
ENDBLK
  5
DE4
330
DDA
100
AcDbEntity
  8
0
100
AcDbBlockEnd
  0
BLOCK
  5
DE6
330
DE5
100
AcDbEntity
  8
0
100
AcDbBlockBegin
  2
SW_CENTERMARKSYMBOL_5
 70
     0
 10
0.0
 20
0.0
 30
0.0
  3
SW_CENTERMARKSYMBOL_5
  1

  0
LINE
  5
DE7
330
DE5
100
AcDbEntity
  8
0
  6
Continuous
 62
     0
370
     0
100
AcDbLine
 10
0.0
 20
0.0
 30
0.0
 11
0.0
 21
0.1000000000000038
 31
0.0
  0
LINE
  5
DE8
330
DE5
100
AcDbEntity
  8
0
  6
Continuous
 62
     0
370
     0
100
AcDbLine
 10
0.0
 20
0.0
 30
0.0
 11
-0.0999999999999995
 21
0.0
 31
0.0
  0
LINE
  5
DE9
330
DE5
100
AcDbEntity
  8
0
  6
Continuous
 62
     0
370
     0
100
AcDbLine
 10
0.0
 20
0.0
 30
0.0
 11
0.0
 21
-0.0999999999999995
 31
0.0
  0
LINE
  5
DEA
330
DE5
100
AcDbEntity
  8
0
  6
Continuous
 62
     0
370
     0
100
AcDbLine
 10
0.0
 20
0.0
 30
0.0
 11
0.0999999999999995
 21
0.0
 31
0.0
  0
LINE
  5
DEB
330
DE5
100
AcDbEntity
  8
0
  6
Continuous
 62
     0
370
     0
100
AcDbLine
 10
0.0
 20
0.1000000000000038
 30
0.0
 11
0.0
 21
0.168000000000001
 31
0.0
  0
LINE
  5
DEC
330
DE5
100
AcDbEntity
  8
0
  6
Continuous
 62
     0
370
     0
100
AcDbLine
 10
-0.0999999999999995
 20
0.0
 30
0.0
 11
-0.168000000000001
 21
0.0
 31
0.0
  0
LINE
  5
DED
330
DE5
100
AcDbEntity
  8
0
  6
Continuous
 62
     0
370
     0
100
AcDbLine
 10
0.0
 20
-0.0999999999999995
 30
0.0
 11
0.0
 21
-0.1679999999999967
 31
0.0
  0
LINE
  5
DEE
330
DE5
100
AcDbEntity
  8
0
  6
Continuous
 62
     0
370
     0
100
AcDbLine
 10
0.0999999999999995
 20
0.0
 30
0.0
 11
0.168000000000001
 21
0.0
 31
0.0
  0
ENDBLK
  5
DEF
330
DE5
100
AcDbEntity
  8
0
100
AcDbBlockEnd
  0
BLOCK
  5
1053
330
1052
100
AcDbEntity
  8
0
100
AcDbBlockBegin
  2
HB
 70
     0
 10
0.0
 20
0.0
 30
0.0
  3
HB
  1

  0
LINE
  5
1054
330
1052
100
AcDbEntity
  8
TITLE
100
AcDbLine
 10
0.0
 20
15.5
 30
0.0
 11
10.11999999999999
 21
15.49999999999999
 31
0.0
  0
LINE
  5
1055
330
1052
100
AcDbEntity
  8
TITLE
100
AcDbLine
 10
10.11999999999999
 20
-0.0000000000000018
 30
0.0
 11
0.0
 21
0.0
 31
0.0
  0
LINE
  5
1056
330
1052
100
AcDbEntity
  8
TITLE
100
AcDbLine
 10
0.0620000000000012
 20
15.438
 30
0.0
 11
10.058
 21
15.438
 31
0.0
  0
LINE
  5
1057
330
1052
100
AcDbEntity
  8
TITLE
100
AcDbLine
 10
10.058
 20
0.0619999999999994
 30
0.0
 11
0.0619999999999976
 21
0.0620000000000012
 31
0.0
  0
LINE
  5
1058
330
1052
100
AcDbEntity
  8
TITLE
100
AcDbLine
 10
0.0620000000000012
 20
15.01999999999999
 30
0.0
 11
10.058
 21
15.01999999999999
 31
0.0
  0
LINE
  5
1059
330
1052
100
AcDbEntity
  8
TITLE
100
AcDbLine
 10
0.0
 20
0.0
 30
0.0
 11
0.0
 21
15.5
 31
0.0
  0
LINE
  5
105A
330
1052
100
AcDbEntity
  8
TITLE
100
AcDbLine
 10
0.0619999999999976
 20
0.0620000000000012
 30
0.0
 11
0.0620000000000012
 21
15.438
 31
0.0
  0
TEXT
  5
105B
330
1052
100
AcDbEntity
  8
TEXT
100
AcDbText
 10
0.2078333333333381
 20
15.26841252897341
 30
0.0
 40
0.125
  1
PART
  7
TXT
 72
     1
 11
0.4370000000000048
 21
15.26841252897341
 31
0.0
100
AcDbText
  0
TEXT
  5
105C
330
1052
100
AcDbEntity
  8
TEXT
100
AcDbText
 10
0.2078333333333381
 20
15.06007919564008
 30
0.0
 40
0.125
  1
NAME
  7
TXT
 72
     1
 11
0.4370000000000048
 21
15.06007919564008
 31
0.0
100
AcDbText
  0
LINE
  5
105D
330
1052
100
AcDbEntity
  8
TITLE
100
AcDbLine
 10
0.8120000000000047
 20
15.01999999999999
 30
0.0
 11
0.8120000000000009
 21
15.438
 31
0.0
  0
LINE
  5
105E
330
1052
100
AcDbEntity
  8
TITLE
100
AcDbLine
 10
10.11999999999999
 20
15.49999999999999
 30
0.0
 11
10.11999999999999
 21
-0.0000000000000018
 31
0.0
  0
LINE
  5
105F
330
1052
100
AcDbEntity
  8
TITLE
100
AcDbLine
 10
10.058
 20
15.438
 30
0.0
 11
10.058
 21
0.0619999999999994
 31
0.0
  0
TEXT
  5
1060
330
1052
100
AcDbEntity
  8
TEXT
100
AcDbText
 10
4.361833333333328
 20
15.26841252897341
 30
0.0
 40
0.125
  1
PART
  7
TXT
 72
     1
 11
4.590999999999995
 21
15.26841252897341
 31
0.0
100
AcDbText
  0
LINE
  5
1061
330
1052
100
AcDbEntity
  8
TITLE
100
AcDbLine
 10
4.153999999999999
 20
15.438
 30
0.0
 11
4.153999999999999
 21
15.01999999999999
 31
0.0
  0
LINE
  5
1062
330
1052
100
AcDbEntity
  8
TITLE
100
AcDbLine
 10
4.215999999999995
 20
15.438
 30
0.0
 11
4.215999999999995
 21
15.01999999999999
 31
0.0
  0
TEXT
  5
1063
330
1052
100
AcDbEntity
  8
TEXT
100
AcDbText
 10
4.465999999999995
 20
15.06007919564008
 30
0.0
 40
0.125
  1
No.
  7
TXT
 72
     1
 11
4.590999999999995
 21
15.06007919564008
 31
0.0
100
AcDbText
  0
LINE
  5
1064
330
1052
100
AcDbEntity
  8
TITLE
100
AcDbLine
 10
4.965999999999995
 20
15.438
 30
0.0
 11
4.965999999999995
 21
15.01999999999999
 31
0.0
  0
LINE
  5
1065
330
1052
100
AcDbEntity
  8
TITLE
100
AcDbLine
 10
8.307999999999998
 20
15.438
 30
0.0
 11
8.307999999999998
 21
15.02
 31
0.0
  0
LINE
  5
1066
330
1052
100
AcDbEntity
  8
TITLE
100
AcDbLine
 10
8.245999999999986
 20
15.438
 30
0.0
 11
8.245999999999986
 21
15.02
 31
0.0
  0
TEXT
  5
1067
330
1052
100
AcDbEntity
  8
TEXT
100
AcDbText
 10
8.453833333333331
 20
15.06007919564008
 30
0.0
 40
0.125
  1
DATE
  7
TXT
 72
     1
 11
8.682999999999998
 21
15.06007919564008
 31
0.0
100
AcDbText
  0
TEXT
  5
1068
330
1052
100
AcDbEntity
  8
TEXT
100
AcDbText
 10
8.474666666666664
 20
15.26841252897341
 30
0.0
 40
0.125
  1
REV.
  7
TXT
 72
     1
 11
8.682999999999998
 21
15.26841252897341
 31
0.0
100
AcDbText
  0
LINE
  5
1069
330
1052
100
AcDbEntity
  8
TITLE
100
AcDbLine
 10
9.057999999999999
 20
15.438
 30
0.0
 11
9.057999999999999
 21
15.02
 31
0.0
  0
ENDBLK
  5
106A
330
1052
100
AcDbEntity
  8
0
100
AcDbBlockEnd
  0
BLOCK
  5
16FD
330
16F1
100
AcDbEntity
  8
0
100
AcDbBlockBegin
  2
*D50
 70
     1
 10
0.0
 20
0.0
 30
0.0
  3
*D50
  1

  0
LINE
  5
16F2
330
16F1
100
AcDbEntity
  8
DIM
 62
     0
370
    -2
100
AcDbLine
 10
4.87719638158835
 20
22.05215872762053
 30
0.0
 11
4.907196381588351
 21
22.05215872762053
 31
0.0
  0
LINE
  5
16F3
330
16F1
100
AcDbEntity
  8
DIM
 62
     0
370
    -2
100
AcDbLine
 10
4.843799448091066
 20
21.86515872762054
 30
0.0
 11
4.60719638158835
 21
21.86515872762054
 31
0.0
  0
LINE
  5
16F4
330
16F1
100
AcDbEntity
  8
DIM
 62
     0
370
    -2
100
AcDbLine
 10
4.757196381588351
 20
22.46215872762053
 30
0.0
 11
4.757196381588351
 21
22.87215872762053
 31
0.0
  0
LINE
  5
16F5
330
16F1
100
AcDbEntity
  8
DIM
 62
     0
370
    -2
100
AcDbLine
 10
4.75719638158835
 20
21.45515872762054
 30
0.0
 11
4.75719638158835
 21
19.37517232381361
 31
0.0
  0
LINE
  5
16F6
330
16F1
100
AcDbEntity
  8
DIM
 62
     0
370
    -2
100
AcDbLine
 10
4.757196381588351
 20
22.05215872762053
 30
0.0
 11
4.75719638158835
 21
21.86515872762054
 31
0.0
  0
SOLID
  5
16F7
330
16F1
100
AcDbEntity
  8
DIM
 62
     0
100
AcDbTrace
 10
4.688863048255018
 20
22.46215872762053
 30
0.0
 11
4.825529714921684
 21
22.46215872762053
 31
0.0
 12
4.757196381588351
 22
22.05215872762053
 32
0.0
 13
4.757196381588351
 23
22.05215872762053
 33
0.0
  0
SOLID
  5
16F8
330
16F1
100
AcDbEntity
  8
DIM
 62
     0
100
AcDbTrace
 10
4.688863048255017
 20
21.45515872762054
 30
0.0
 11
4.825529714921684
 21
21.45515872762054
 31
0.0
 12
4.75719638158835
 22
21.86515872762054
 32
0.0
 13
4.75719638158835
 23
21.86515872762054
 33
0.0
  0
MTEXT
  5
16F9
330
16F1
100
AcDbEntity
  8
DIM
 62
     0
100
AcDbMText
 10
4.40188366914783
 20
20.21016552571708
 30
0.0
 40
0.41
 41
0.0
 46
0.0
 71
     5
 72
     1
  1
\A1;0.187
 11
0.0000000000000001
 21
1.0
 31
0.0
 73
     1
 44
1.0
  0
POINT
  5
16FA
330
16F1
100
AcDbEntity
  8
Defpoints
 62
     0
100
AcDbPoint
 10
4.75719638158835
 20
22.05215872762053
 30
0.0
  0
POINT
  5
16FB
330
16F1
100
AcDbEntity
  8
Defpoints
 62
     0
100
AcDbPoint
 10
4.963799448091066
 20
21.86515872762054
 30
0.0
  0
POINT
  5
16FC
330
16F1
100
AcDbEntity
  8
Defpoints
 62
     0
100
AcDbPoint
 10
4.75719638158835
 20
21.86515872762054
 30
0.0
  0
ENDBLK
  5
16FE
330
16F1
100
AcDbEntity
  8
0
100
AcDbBlockEnd
  0
BLOCK
  5
170C
330
1700
100
AcDbEntity
  8
0
100
AcDbBlockBegin
  2
*D51
 70
     1
 10
0.0
 20
0.0
 30
0.0
  3
*D51
  1

  0
LINE
  5
1701
330
1700
100
AcDbEntity
  8
DIM
 62
     0
370
    -2
100
AcDbLine
 10
4.63719638158835
 20
14.67815872762053
 30
0.0
 11
4.60719638158835
 21
14.67815872762053
 31
0.0
  0
LINE
  5
1702
330
1700
100
AcDbEntity
  8
DIM
 62
     0
370
    -2
100
AcDbLine
 10
4.662336904553459
 20
14.86515872762053
 30
0.0
 11
4.60719638158835
 21
14.86515872762053
 31
0.0
  0
LINE
  5
1703
330
1700
100
AcDbEntity
  8
DIM
 62
     0
370
    -2
100
AcDbLine
 10
4.75719638158835
 20
14.26815872762053
 30
0.0
 11
4.757196381588349
 21
13.85815872762053
 31
0.0
  0
LINE
  5
1704
330
1700
100
AcDbEntity
  8
DIM
 62
     0
370
    -2
100
AcDbLine
 10
4.75719638158835
 20
15.27515872762053
 30
0.0
 11
4.75719638158835
 21
17.35514513142747
 31
0.0
  0
LINE
  5
1705
330
1700
100
AcDbEntity
  8
DIM
 62
     0
370
    -2
100
AcDbLine
 10
4.75719638158835
 20
14.67815872762053
 30
0.0
 11
4.75719638158835
 21
14.86515872762053
 31
0.0
  0
SOLID
  5
1706
330
1700
100
AcDbEntity
  8
DIM
 62
     0
100
AcDbTrace
 10
4.688863048255017
 20
14.26815872762053
 30
0.0
 11
4.825529714921684
 21
14.26815872762053
 31
0.0
 12
4.75719638158835
 22
14.67815872762053
 32
0.0
 13
4.75719638158835
 23
14.67815872762053
 33
0.0
  0
SOLID
  5
1707
330
1700
100
AcDbEntity
  8
DIM
 62
     0
100
AcDbTrace
 10
4.688863048255017
 20
15.27515872762053
 30
0.0
 11
4.825529714921684
 21
15.27515872762053
 31
0.0
 12
4.75719638158835
 22
14.86515872762053
 32
0.0
 13
4.75719638158835
 23
14.86515872762053
 33
0.0
  0
MTEXT
  5
1708
330
1700
100
AcDbEntity
  8
DIM
 62
     0
100
AcDbMText
 10
4.401883669147831
 20
16.520151929524
 30
0.0
 40
0.41
 41
0.0
 46
0.0
 71
     5
 72
     1
  1
\A1;0.187
 11
0.0000000000000001
 21
1.0
 31
0.0
 73
     1
 44
1.0
  0
POINT
  5
1709
330
1700
100
AcDbEntity
  8
Defpoints
 62
     0
100
AcDbPoint
 10
4.75719638158835
 20
14.67815872762053
 30
0.0
  0
POINT
  5
170A
330
1700
100
AcDbEntity
  8
Defpoints
 62
     0
100
AcDbPoint
 10
4.782336904553459
 20
14.86515872762053
 30
0.0
  0
POINT
  5
170B
330
1700
100
AcDbEntity
  8
Defpoints
 62
     0
100
AcDbPoint
 10
4.75719638158835
 20
14.86515872762053
 30
0.0
  0
ENDBLK
  5
170D
330
1700
100
AcDbEntity
  8
0
100
AcDbBlockEnd
  0
BLOCK
  5
171B
330
170F
100
AcDbEntity
  8
0
100
AcDbBlockBegin
  2
*D52
 70
     1
 10
0.0
 20
0.0
 30
0.0
  3
*D52
  1

  0
LINE
  5
1710
330
170F
100
AcDbEntity
  8
DIM
 62
     0
370
    -2
100
AcDbLine
 10
13.78819638158835
 20
18.01700359877528
 30
0.0
 11
13.78819638158835
 21
20.02078930837025
 31
0.0
  0
LINE
  5
1711
330
170F
100
AcDbEntity
  8
DIM
 62
     0
370
    -2
100
AcDbLine
 10
13.28819638158835
 20
18.01700359877528
 30
0.0
 11
13.28819638158835
 21
20.02078930837025
 31
0.0
  0
LINE
  5
1712
330
170F
100
AcDbEntity
  8
DIM
 62
     0
370
    -2
100
AcDbLine
 10
14.19819638158835
 20
19.87078930837025
 30
0.0
 11
14.60819638158835
 21
19.87078930837025
 31
0.0
  0
LINE
  5
1713
330
170F
100
AcDbEntity
  8
DIM
 62
     0
370
    -2
100
AcDbLine
 10
12.87819638158835
 20
19.87078930837025
 30
0.0
 11
10.80127591931778
 21
19.87078930837025
 31
0.0
  0
LINE
  5
1714
330
170F
100
AcDbEntity
  8
DIM
 62
     0
370
    -2
100
AcDbLine
 10
13.78819638158835
 20
19.87078930837025
 30
0.0
 11
13.28819638158835
 21
19.87078930837025
 31
0.0
  0
SOLID
  5
1715
330
170F
100
AcDbEntity
  8
DIM
 62
     0
100
AcDbTrace
 10
14.19819638158835
 20
19.93912264170358
 30
0.0
 11
14.19819638158835
 21
19.80245597503692
 31
0.0
 12
13.78819638158835
 22
19.87078930837025
 32
0.0
 13
13.78819638158835
 23
19.87078930837025
 33
0.0
  0
SOLID
  5
1716
330
170F
100
AcDbEntity
  8
DIM
 62
     0
100
AcDbTrace
 10
12.87819638158835
 20
19.93912264170358
 30
0.0
 11
12.87819638158835
 21
19.80245597503692
 31
0.0
 12
13.28819638158835
 22
19.87078930837025
 32
0.0
 13
13.28819638158835
 23
19.87078930837025
 33
0.0
  0
MTEXT
  5
1717
330
170F
100
AcDbEntity
  8
DIM
 62
     0
100
AcDbMText
 10
11.63473615045306
 20
20.22610202081077
 30
0.0
 40
0.41
 41
0.0
 46
0.0
 71
     5
 72
     1
  1
\A1;0.500
 73
     1
 44
1.0
  0
POINT
  5
1718
330
170F
100
AcDbEntity
  8
Defpoints
 62
     0
100
AcDbPoint
 10
13.78819638158835
 20
17.89700359877528
 30
0.0
  0
POINT
  5
1719
330
170F
100
AcDbEntity
  8
Defpoints
 62
     0
100
AcDbPoint
 10
13.28819638158835
 20
17.89700359877528
 30
0.0
  0
POINT
  5
171A
330
170F
100
AcDbEntity
  8
Defpoints
 62
     0
100
AcDbPoint
 10
13.28819638158835
 20
19.87078930837025
 30
0.0
  0
ENDBLK
  5
171C
330
170F
100
AcDbEntity
  8
0
100
AcDbBlockEnd
  0
BLOCK
  5
1728
330
171E
100
AcDbEntity
  8
0
100
AcDbBlockBegin
  2
*D53
 70
     1
 10
0.0
 20
0.0
 30
0.0
  3
*D53
  1

  0
LINE
  5
171F
330
171E
100
AcDbEntity
  8
DIM
 62
     0
370
    -2
100
AcDbLine
 10
1.788196381588349
 20
14.24515872762053
 30
0.0
 11
1.788196381588349
 21
12.55762241795311
 31
0.0
  0
LINE
  5
1720
330
171E
100
AcDbEntity
  8
DIM
 62
     0
370
    -2
100
AcDbLine
 10
4.757196381588353
 20
14.55815872762052
 30
0.0
 11
4.757196381588353
 21
12.55762241795311
 31
0.0
  0
LINE
  5
1721
330
171E
100
AcDbEntity
  8
DIM
 62
     0
370
    -2
100
AcDbLine
 10
2.198196381588349
 20
12.70762241795311
 30
0.0
 11
4.347196381588353
 21
12.70762241795311
 31
0.0
  0
SOLID
  5
1722
330
171E
100
AcDbEntity
  8
DIM
 62
     0
100
AcDbTrace
 10
2.198196381588349
 20
12.77595575128645
 30
0.0
 11
2.198196381588349
 21
12.63928908461978
 31
0.0
 12
1.788196381588349
 22
12.70762241795311
 32
0.0
 13
1.788196381588349
 23
12.70762241795311
 33
0.0
  0
SOLID
  5
1723
330
171E
100
AcDbEntity
  8
DIM
 62
     0
100
AcDbTrace
 10
4.347196381588353
 20
12.77595575128645
 30
0.0
 11
4.347196381588353
 21
12.63928908461978
 31
0.0
 12
4.757196381588353
 22
12.70762241795311
 32
0.0
 13
4.757196381588353
 23
12.70762241795311
 33
0.0
  0
MTEXT
  5
1724
330
171E
100
AcDbEntity
  8
DIM
 62
     0
100
AcDbMText
 10
3.272696381588351
 20
13.06293513039363
 30
0.0
 40
0.41
 41
0.0
 46
0.0
 71
     5
 72
     1
  1
\A1;2.969
 73
     1
 44
1.0
  0
POINT
  5
1725
330
171E
100
AcDbEntity
  8
Defpoints
 62
     0
100
AcDbPoint
 10
1.788196381588349
 20
14.36515872762053
 30
0.0
  0
POINT
  5
1726
330
171E
100
AcDbEntity
  8
Defpoints
 62
     0
100
AcDbPoint
 10
4.757196381588353
 20
14.67815872762052
 30
0.0
  0
POINT
  5
1727
330
171E
100
AcDbEntity
  8
Defpoints
 62
     0
100
AcDbPoint
 10
4.757196381588353
 20
12.70762241795311
 30
0.0
  0
ENDBLK
  5
1729
330
171E
100
AcDbEntity
  8
0
100
AcDbBlockEnd
  0
BLOCK
  5
1737
330
172B
100
AcDbEntity
  8
0
100
AcDbBlockBegin
  2
*D54
 70
     1
 10
0.0
 20
0.0
 30
0.0
  3
*D54
  1

  0
LINE
  5
192B
330
172B
100
AcDbEntity
  8
DIM
 62
     0
370
    -2
100
AcDbLine
 10
28.79280602468334
 20
8.24374690225895
 30
0.0
 11
28.79280602468334
 21
11.77111006845102
 31
0.0
  0
LINE
  5
192C
330
172B
100
AcDbEntity
  8
DIM
 62
     0
370
    -2
100
AcDbLine
 10
29.79280602468337
 20
9.493746982044694
 30
0.0
 11
29.79280602468337
 21
11.77111006845102
 31
0.0
  0
LINE
  5
192D
330
172B
100
AcDbEntity
  8
DIM
 62
     0
370
    -2
100
AcDbLine
 10
28.38280602468334
 20
11.62111006845101
 30
0.0
 11
27.97280602468334
 21
11.62111006845101
 31
0.0
  0
LINE
  5
192E
330
172B
100
AcDbEntity
  8
DIM
 62
     0
370
    -2
100
AcDbLine
 10
30.20280602468337
 20
11.62111006845101
 30
0.0
 11
32.21673532447943
 21
11.62111006845101
 31
0.0
  0
LINE
  5
192F
330
172B
100
AcDbEntity
  8
DIM
 62
     0
370
    -2
100
AcDbLine
 10
28.79280602468334
 20
11.62111006845101
 30
0.0
 11
29.79280602468337
 21
11.62111006845101
 31
0.0
  0
SOLID
  5
1930
330
172B
100
AcDbEntity
  8
DIM
 62
     0
100
AcDbTrace
 10
28.38280602468334
 20
11.68944340178435
 30
0.0
 11
28.38280602468334
 21
11.55277673511768
 31
0.0
 12
28.79280602468334
 22
11.62111006845101
 32
0.0
 13
28.79280602468334
 23
11.62111006845101
 33
0.0
  0
SOLID
  5
1931
330
172B
100
AcDbEntity
  8
DIM
 62
     0
100
AcDbTrace
 10
30.20280602468337
 20
11.68944340178435
 30
0.0
 11
30.20280602468337
 21
11.55277673511768
 31
0.0
 12
29.79280602468337
 22
11.62111006845101
 32
0.0
 13
29.79280602468337
 23
11.62111006845101
 33
0.0
  0
MTEXT
  5
1932
330
172B
100
AcDbEntity
  8
DIM
 62
     0
100
AcDbMText
 10
31.4147706745814
 20
11.97642278089153
 30
0.0
 40
0.41
 41
0.0
 46
0.0
 71
     5
 72
     1
  1
\A1;1.000
 73
     1
 44
1.0
  0
POINT
  5
1933
330
172B
100
AcDbEntity
  8
Defpoints
 62
     0
100
AcDbPoint
 10
28.79280602468334
 20
8.12374690225895
 30
0.0
  0
POINT
  5
1934
330
172B
100
AcDbEntity
  8
Defpoints
 62
     0
100
AcDbPoint
 10
29.79280602468337
 20
9.373746982044695
 30
0.0
  0
POINT
  5
1935
330
172B
100
AcDbEntity
  8
Defpoints
 62
     0
100
AcDbPoint
 10
29.79280602468337
 20
11.62111006845101
 30
0.0
  0
ENDBLK
  5
1738
330
172B
100
AcDbEntity
  8
0
100
AcDbBlockEnd
  0
BLOCK
  5
1746
330
173A
100
AcDbEntity
  8
0
100
AcDbBlockBegin
  2
*D55
 70
     1
 10
0.0
 20
0.0
 30
0.0
  3
*D55
  1

  0
LINE
  5
1920
330
173A
100
AcDbEntity
  8
DIM
 62
     0
370
    -2
100
AcDbLine
 10
21.79280602468337
 20
8.436806309627401
 30
0.0
 11
21.79280602468337
 21
11.76438912884337
 31
0.0
  0
LINE
  5
1921
330
173A
100
AcDbEntity
  8
DIM
 62
     0
370
    -2
100
AcDbLine
 10
22.79280602468337
 20
8.24374690225895
 30
0.0
 11
22.79280602468337
 21
11.76438912884337
 31
0.0
  0
LINE
  5
1922
330
173A
100
AcDbEntity
  8
DIM
 62
     0
370
    -2
100
AcDbLine
 10
21.38280602468337
 20
11.61438912884337
 30
0.0
 11
20.97280602468337
 21
11.61438912884337
 31
0.0
  0
LINE
  5
1923
330
173A
100
AcDbEntity
  8
DIM
 62
     0
370
    -2
100
AcDbLine
 10
23.20280602468337
 20
11.61438912884337
 30
0.0
 11
25.21673532447943
 21
11.61438912884337
 31
0.0
  0
LINE
  5
1924
330
173A
100
AcDbEntity
  8
DIM
 62
     0
370
    -2
100
AcDbLine
 10
21.79280602468337
 20
11.61438912884337
 30
0.0
 11
22.79280602468337
 21
11.61438912884337
 31
0.0
  0
SOLID
  5
1925
330
173A
100
AcDbEntity
  8
DIM
 62
     0
100
AcDbTrace
 10
21.38280602468337
 20
11.6827224621767
 30
0.0
 11
21.38280602468337
 21
11.54605579551003
 31
0.0
 12
21.79280602468337
 22
11.61438912884337
 32
0.0
 13
21.79280602468337
 23
11.61438912884337
 33
0.0
  0
SOLID
  5
1926
330
173A
100
AcDbEntity
  8
DIM
 62
     0
100
AcDbTrace
 10
23.20280602468337
 20
11.6827224621767
 30
0.0
 11
23.20280602468337
 21
11.54605579551003
 31
0.0
 12
22.79280602468337
 22
11.61438912884337
 32
0.0
 13
22.79280602468337
 23
11.61438912884337
 33
0.0
  0
MTEXT
  5
1927
330
173A
100
AcDbEntity
  8
DIM
 62
     0
100
AcDbMText
 10
24.4147706745814
 20
11.96970184128389
 30
0.0
 40
0.41
 41
0.0
 46
0.0
 71
     5
 72
     1
  1
\A1;1.000
 73
     1
 44
1.0
  0
POINT
  5
1928
330
173A
100
AcDbEntity
  8
Defpoints
 62
     0
100
AcDbPoint
 10
21.79280602468337
 20
8.316806309627402
 30
0.0
  0
POINT
  5
1929
330
173A
100
AcDbEntity
  8
Defpoints
 62
     0
100
AcDbPoint
 10
22.79280602468337
 20
8.12374690225895
 30
0.0
  0
POINT
  5
192A
330
173A
100
AcDbEntity
  8
Defpoints
 62
     0
100
AcDbPoint
 10
22.79280602468337
 20
11.61438912884337
 30
0.0
  0
ENDBLK
  5
1747
330
173A
100
AcDbEntity
  8
0
100
AcDbBlockEnd
  0
BLOCK
  5
1762
330
1756
100
AcDbEntity
  8
0
100
AcDbBlockBegin
  2
*D57
 70
     1
 10
0.0
 20
0.0
 30
0.0
  3
*D57
  1

  0
LINE
  5
1936
330
1756
100
AcDbEntity
  8
DIM
 62
     0
370
    -2
100
AcDbLine
 10
29.91280602468338
 20
9.373746982044695
 30
0.0
 11
32.42096779303808
 21
9.373746982044695
 31
0.0
  0
LINE
  5
1937
330
1756
100
AcDbEntity
  8
DIM
 62
     0
370
    -2
100
AcDbLine
 10
28.91280602468338
 20
8.12374690225895
 30
0.0
 11
32.42096779303808
 21
8.12374690225895
 31
0.0
  0
LINE
  5
1938
330
1756
100
AcDbEntity
  8
DIM
 62
     0
370
    -2
100
AcDbLine
 10
32.27096779303809
 20
8.963746982044694
 30
0.0
 11
32.27096779303809
 21
8.53374690225895
 31
0.0
  0
LINE
  5
1939
330
1756
100
AcDbEntity
  8
DIM
 62
     0
370
    -2
100
AcDbLine
 10
32.27096779303809
 20
8.12374690225895
 30
0.0
 11
32.27096779303809
 21
6.109817602462893
 31
0.0
  0
SOLID
  5
193A
330
1756
100
AcDbEntity
  8
DIM
 62
     0
100
AcDbTrace
 10
32.20263445970475
 20
8.963746982044694
 30
0.0
 11
32.33930112637142
 21
8.963746982044694
 31
0.0
 12
32.27096779303809
 22
9.373746982044695
 32
0.0
 13
32.27096779303809
 23
9.373746982044695
 33
0.0
  0
SOLID
  5
193B
330
1756
100
AcDbEntity
  8
DIM
 62
     0
100
AcDbTrace
 10
32.20263445970475
 20
8.53374690225895
 30
0.0
 11
32.33930112637142
 21
8.53374690225895
 31
0.0
 12
32.27096779303809
 22
8.12374690225895
 32
0.0
 13
32.27096779303809
 23
8.12374690225895
 33
0.0
  0
MTEXT
  5
193C
330
1756
100
AcDbEntity
  8
DIM
 62
     0
100
AcDbMText
 10
31.91565508059757
 20
6.911782252360927
 30
0.0
 40
0.41
 41
0.0
 46
0.0
 71
     5
 72
     1
  1
\A1;1.250
 11
0.0000000000000001
 21
1.0
 31
0.0
 73
     1
 44
1.0
  0
POINT
  5
193D
330
1756
100
AcDbEntity
  8
Defpoints
 62
     0
100
AcDbPoint
 10
29.79280602468337
 20
9.373746982044695
 30
0.0
  0
POINT
  5
193E
330
1756
100
AcDbEntity
  8
Defpoints
 62
     0
100
AcDbPoint
 10
28.79280602468337
 20
8.12374690225895
 30
0.0
  0
POINT
  5
193F
330
1756
100
AcDbEntity
  8
Defpoints
 62
     0
100
AcDbPoint
 10
32.27096779303809
 20
8.12374690225895
 30
0.0
  0
ENDBLK
  5
1763
330
1756
100
AcDbEntity
  8
0
100
AcDbBlockEnd
  0
BLOCK
  5
176F
330
1765
100
AcDbEntity
  8
0
100
AcDbBlockBegin
  2
*D58
 70
     1
 10
0.0
 20
0.0
 30
0.0
  3
*D58
  1

  0
LINE
  5
1766
330
1765
100
AcDbEntity
  8
DIM
 62
     0
370
    -2
100
AcDbLine
 10
1.788196381588349
 20
22.48515872762054
 30
0.0
 11
1.788196381588349
 21
24.99365290848596
 31
0.0
  0
LINE
  5
1767
330
1765
100
AcDbEntity
  8
DIM
 62
     0
370
    -2
100
AcDbLine
 10
13.78819638158835
 20
22.48515872762054
 30
0.0
 11
13.78819638158835
 21
24.99365290848596
 31
0.0
  0
LINE
  5
1768
330
1765
100
AcDbEntity
  8
DIM
 62
     0
370
    -2
100
AcDbLine
 10
2.198196381588349
 20
24.84365290848597
 30
0.0
 11
13.37819638158835
 21
24.84365290848597
 31
0.0
  0
SOLID
  5
1769
330
1765
100
AcDbEntity
  8
DIM
 62
     0
100
AcDbTrace
 10
2.198196381588349
 20
24.9119862418193
 30
0.0
 11
2.198196381588349
 21
24.77531957515263
 31
0.0
 12
1.788196381588349
 22
24.84365290848597
 32
0.0
 13
1.788196381588349
 23
24.84365290848597
 33
0.0
  0
SOLID
  5
176A
330
1765
100
AcDbEntity
  8
DIM
 62
     0
100
AcDbTrace
 10
13.37819638158835
 20
24.9119862418193
 30
0.0
 11
13.37819638158835
 21
24.77531957515263
 31
0.0
 12
13.78819638158835
 22
24.84365290848597
 32
0.0
 13
13.78819638158835
 23
24.84365290848597
 33
0.0
  0
MTEXT
  5
176B
330
1765
100
AcDbEntity
  8
DIM
 62
     0
100
AcDbMText
 10
7.788196381588349
 20
25.19896562092648
 30
0.0
 40
0.41
 41
0.0
 46
0.0
 71
     5
 72
     1
  1
\A1;12.000
 73
     1
 44
1.0
  0
POINT
  5
176C
330
1765
100
AcDbEntity
  8
Defpoints
 62
     0
100
AcDbPoint
 10
1.788196381588349
 20
22.36515872762054
 30
0.0
  0
POINT
  5
176D
330
1765
100
AcDbEntity
  8
Defpoints
 62
     0
100
AcDbPoint
 10
13.78819638158835
 20
22.36515872762054
 30
0.0
  0
POINT
  5
176E
330
1765
100
AcDbEntity
  8
Defpoints
 62
     0
100
AcDbPoint
 10
13.78819638158835
 20
24.84365290848597
 30
0.0
  0
ENDBLK
  5
1770
330
1765
100
AcDbEntity
  8
0
100
AcDbBlockEnd
  0
BLOCK
  5
177C
330
1772
100
AcDbEntity
  8
0
100
AcDbBlockBegin
  2
*D59
 70
     1
 10
0.0
 20
0.0
 30
0.0
  3
*D59
  1

  0
LINE
  5
1773
330
1772
100
AcDbEntity
  8
DIM
 62
     0
370
    -2
100
AcDbLine
 10
13.90819638158835
 20
22.36515872762054
 30
0.0
 11
16.95667497826938
 21
22.36515872762054
 31
0.0
  0
LINE
  5
1774
330
1772
100
AcDbEntity
  8
DIM
 62
     0
370
    -2
100
AcDbLine
 10
13.90819638158835
 20
14.36515872762053
 30
0.0
 11
16.95667497826938
 21
14.36515872762053
 31
0.0
  0
LINE
  5
1775
330
1772
100
AcDbEntity
  8
DIM
 62
     0
370
    -2
100
AcDbLine
 10
16.80667497826938
 20
21.95515872762054
 30
0.0
 11
16.80667497826938
 21
14.77515872762053
 31
0.0
  0
SOLID
  5
1776
330
1772
100
AcDbEntity
  8
DIM
 62
     0
100
AcDbTrace
 10
16.73834164493605
 20
21.95515872762054
 30
0.0
 11
16.87500831160271
 21
21.95515872762054
 31
0.0
 12
16.80667497826938
 22
22.36515872762054
 32
0.0
 13
16.80667497826938
 23
22.36515872762054
 33
0.0
  0
SOLID
  5
1777
330
1772
100
AcDbEntity
  8
DIM
 62
     0
100
AcDbTrace
 10
16.73834164493605
 20
14.77515872762053
 30
0.0
 11
16.87500831160271
 21
14.77515872762053
 31
0.0
 12
16.80667497826938
 22
14.36515872762053
 32
0.0
 13
16.80667497826938
 23
14.36515872762053
 33
0.0
  0
MTEXT
  5
1778
330
1772
100
AcDbEntity
  8
DIM
 62
     0
100
AcDbMText
 10
16.45136226582886
 20
18.36515872762054
 30
0.0
 40
0.41
 41
0.0
 46
0.0
 71
     5
 72
     1
  1
\A1;8.000
 11
0.0000000000000001
 21
1.0
 31
0.0
 73
     1
 44
1.0
  0
POINT
  5
1779
330
1772
100
AcDbEntity
  8
Defpoints
 62
     0
100
AcDbPoint
 10
13.78819638158835
 20
22.36515872762054
 30
0.0
  0
POINT
  5
177A
330
1772
100
AcDbEntity
  8
Defpoints
 62
     0
100
AcDbPoint
 10
13.78819638158835
 20
14.36515872762053
 30
0.0
  0
POINT
  5
177B
330
1772
100
AcDbEntity
  8
Defpoints
 62
     0
100
AcDbPoint
 10
16.80667497826938
 20
14.36515872762053
 30
0.0
  0
ENDBLK
  5
177D
330
1772
100
AcDbEntity
  8
0
100
AcDbBlockEnd
  0
BLOCK
  5
178F
330
1785
100
AcDbEntity
  8
0
100
AcDbBlockBegin
  2
*D60
 70
     1
 10
0.0
 20
0.0
 30
0.0
  3
*D60
  1

  0
LINE
  5
1786
330
1785
100
AcDbEntity
  8
DIM
 62
     0
370
    -2
100
AcDbLine
 10
14.28430579735687
 20
6.823746982044694
 30
0.0
 11
16.99303441973868
 21
6.823746982044694
 31
0.0
  0
LINE
  5
1787
330
1785
100
AcDbEntity
  8
DIM
 62
     0
370
    -2
100
AcDbLine
 10
14.28430579735687
 20
9.373746982044695
 30
0.0
 11
16.99303441973868
 21
9.373746982044695
 31
0.0
  0
LINE
  5
1788
330
1785
100
AcDbEntity
  8
DIM
 62
     0
370
    -2
100
AcDbLine
 10
16.84303441973868
 20
7.233746982044694
 30
0.0
 11
16.84303441973868
 21
8.963746982044694
 31
0.0
  0
SOLID
  5
1789
330
1785
100
AcDbEntity
  8
DIM
 62
     0
100
AcDbTrace
 10
16.77470108640535
 20
7.233746982044694
 30
0.0
 11
16.91136775307201
 21
7.233746982044694
 31
0.0
 12
16.84303441973868
 22
6.823746982044694
 32
0.0
 13
16.84303441973868
 23
6.823746982044694
 33
0.0
  0
SOLID
  5
178A
330
1785
100
AcDbEntity
  8
DIM
 62
     0
100
AcDbTrace
 10
16.77470108640535
 20
8.963746982044694
 30
0.0
 11
16.91136775307201
 21
8.963746982044694
 31
0.0
 12
16.84303441973868
 22
9.373746982044695
 32
0.0
 13
16.84303441973868
 23
9.373746982044695
 33
0.0
  0
MTEXT
  5
178B
330
1785
100
AcDbEntity
  8
DIM
 62
     0
100
AcDbMText
 10
16.48772170729817
 20
8.098746982044696
 30
0.0
 40
0.41
 41
0.0
 46
0.0
 71
     5
 72
     1
  1
\A1;2.550
 11
0.0000000000000001
 21
1.0
 31
0.0
 73
     1
 44
1.0
  0
POINT
  5
178C
330
1785
100
AcDbEntity
  8
Defpoints
 62
     0
100
AcDbPoint
 10
14.16430579735687
 20
6.823746982044694
 30
0.0
  0
POINT
  5
178D
330
1785
100
AcDbEntity
  8
Defpoints
 62
     0
100
AcDbPoint
 10
14.16430579735687
 20
9.373746982044695
 30
0.0
  0
POINT
  5
178E
330
1785
100
AcDbEntity
  8
Defpoints
 62
     0
100
AcDbPoint
 10
16.84303441973868
 20
9.373746982044695
 30
0.0
  0
ENDBLK
  5
1790
330
1785
100
AcDbEntity
  8
0
100
AcDbBlockEnd
  0
ENDSEC
  0
SECTION
  2
ENTITIES
  0
LWPOLYLINE
  5
43D
330
1F
100
AcDbEntity
  8
FORMAT
370
    15
100
AcDbPolyline
 90
        4
 70
     1
 43
0.0
 10
0.0
 20
0.0
 10
35.9606480338857
 20
0.0
 10
35.9606480338857
 20
27.23233540430192
 10
0.0
 20
27.23233540430192
  0
LINE
  5
43E
330
1F
100
AcDbEntity
  8
FORMAT
370
    15
100
AcDbLine
 10
14.17784845441687
 20
4.232335404301912
 30
0.0
 11
35.9606480338857
 21
4.232335404301912
 31
0.0
  0
LINE
  5
43F
330
1F
100
AcDbEntity
  8
FORMAT
370
    15
100
AcDbLine
 10
0.0
 20
4.232335404301912
 30
0.0
 11
14.17784845441687
 21
4.232335404301912
 31
0.0
  0
LINE
  5
440
330
1F
100
AcDbEntity
  8
FORMAT
370
    15
100
AcDbLine
 10
20.85964706719614
 20
2.219418848589657
 30
0.0
 11
14.17784845441687
 21
2.219418848589657
 31
0.0
  0
LINE
  5
441
330
1F
100
AcDbEntity
  8
FORMAT
370
    15
100
AcDbLine
 10
20.85964706719614
 20
4.232335404301912
 30
0.0
 11
20.85964706719614
 21
0.0
 31
0.0
  0
LINE
  5
442
330
1F
100
AcDbEntity
  8
FORMAT
370
    15
100
AcDbLine
 10
30.64572095127064
 20
4.232335404301912
 30
0.0
 11
30.64572095127064
 21
2.219418848589657
 31
0.0
  0
LINE
  5
443
330
1F
100
AcDbEntity
  8
FORMAT
370
    15
100
AcDbLine
 10
35.9606480338857
 20
1.323178419925521
 30
0.0
 11
28.53537355935719
 21
1.323178419925521
 31
0.0
  0
LINE
  5
444
330
1F
100
AcDbEntity
  8
FORMAT
370
    15
100
AcDbLine
 10
28.53537355935719
 20
0.0
 30
0.0
 11
28.53537355935719
 21
2.219418848589657
 31
0.0
  0
LINE
  5
445
330
1F
100
AcDbEntity
  8
FORMAT
370
    15
100
AcDbLine
 10
30.5814927807638
 20
27.23233540430192
 30
0.0
 11
30.5814927807638
 21
26.28215964167396
 31
0.0
  0
LINE
  5
446
330
1F
100
AcDbEntity
  8
FORMAT
370
    15
100
AcDbLine
 10
35.9606480338857
 20
2.219418848589657
 30
0.0
 11
20.85964706719614
 21
2.219418848589657
 31
0.0
  0
LINE
  5
447
330
1F
100
AcDbEntity
  8
FORMAT
370
    15
100
AcDbLine
 10
30.5814927807638
 20
26.28215964167396
 30
0.0
 11
35.9606480338857
 21
26.28215964167396
 31
0.0
  0
LINE
  5
448
330
1F
100
AcDbEntity
  8
FORMAT
370
    15
100
AcDbLine
 10
14.17784845441687
 20
4.232335404301912
 30
0.0
 11
14.17784845441687
 21
0.0
 31
0.0
  0
MTEXT
  5
449
330
1F
100
AcDbEntity
  8
0
  6
Continuous
 62
   160
370
     0
100
AcDbMText
 10
28.93016831772879
 20
2.073752441745175
 30
0.0
 40
0.2909437543194679
 41
0.0
 46
0.0
 71
     1
 72
     1
  1
http://www.amazonsupply.com
  7
SLDTEXTSTYLE0
 73
     1
 44
1.0
1001
PE_URL
1000
http://www.amazonsupply.com/
1002
{
1000
http://www.amazonsupply.com/
1002
{
1071
        1
1002
}
1002
}
  0
INSERT
  5
44A
330
1F
100
AcDbEntity
  8
0
  6
Continuous
 62
     7
100
AcDbBlockReference
  2
Block2
 10
-1.595338870308324
 20
-4.224085549446657
 30
0.0
 41
3.491325051833711
 42
3.491325051833565
 43
3.491325051833578
  0
TEXT
  5
44B
330
1F
100
AcDbEntity
  8
FORMAT
 62
     7
100
AcDbText
 10
20.99616759001875
 20
3.722242653705492
 30
0.0
 40
0.3491325051833578
  1
MATERIAL :
 41
0.9
  7
SLDTEXTSTYLE1
100
AcDbText
  0
TEXT
  5
44C
330
1F
100
AcDbEntity
  8
FORMAT
 62
     7
100
AcDbText
 10
15.3697534837841
 20
2.759340293925904
 30
0.0
 40
0.4364156314791974
  1
B005T574YQ 
 41
0.9
  7
SLDTEXTSTYLE1
100
AcDbText
  0
TEXT
  5
44D
330
1F
100
AcDbEntity
  8
FORMAT
 62
     7
100
AcDbText
 10
31.38090131945205
 20
26.50060673578239
 30
0.0
 40
0.4364156314791974
  1
B005T574YQ 
  7
SLDTEXTSTYLE1
100
AcDbText
  0
TEXT
  5
44E
330
1F
100
AcDbEntity
  8
FORMAT
 62
     7
100
AcDbText
 10
15.37408861640466
 20
0.6469270245383805
 30
0.0
 40
0.4364156314791974
  1
BUD Industries 
 41
0.9
  7
SLDTEXTSTYLE1
100
AcDbText
  0
TEXT
  5
44F
330
1F
100
AcDbEntity
  8
FORMAT
 62
     0
100
AcDbText
 10
22.69110963223254
 20
2.862945254893842
 30
0.0
 40
0.4364156314792018
  1
Aluminum 
 41
0.9
  7
SLDTEXTSTYLE1
100
AcDbText
  0
TEXT
  5
450
330
1F
100
AcDbEntity
  8
FORMAT
 62
     7
100
AcDbText
 10
0.3596124069073361
 20
3.279032519279159
 30
0.0
 40
0.3491325051833578
  1
ITEM NAME:
 41
0.9
  7
SLDTEXTSTYLE1
100
AcDbText
  0
TEXT
  5
451
330
1F
100
AcDbEntity
  8
FORMAT
 62
     7
100
AcDbText
 10
14.45111417896358
 20
3.555298675701493
 30
0.0
 40
0.3491325051833578
  1
ASIN :
 41
0.9
  7
SLDTEXTSTYLE1
100
AcDbText
  0
TEXT
  5
453
330
1F
100
AcDbEntity
  8
FORMAT
 62
     0
100
AcDbText
 10
21.12949681503959
 20
1.632964891094971
 30
0.0
 40
0.2182078157396009
  1
# UNLESS OTHERWISE SPECIFIED
 41
0.95
  7
SLDTEXTSTYLE1
100
AcDbText
  0
TEXT
  5
454
330
1F
100
AcDbEntity
  8
FORMAT
 62
     0
100
AcDbText
 10
21.45736481282231
 20
1.303289094735323
 30
0.0
 40
0.2182078157396009
  1
DIMENSIONS ARE IN INCHES
 41
0.95
  7
SLDTEXTSTYLE1
100
AcDbText
  0
TEXT
  5
455
330
1F
100
AcDbEntity
  8
FORMAT
 62
     0
100
AcDbText
 10
21.12949681503959
 20
0.6614491765296667
 30
0.0
 40
0.2182078157396009
  1
# INFORMATION IN THIS DRAWING IS PROVIDED FOR
 41
0.95
  7
SLDTEXTSTYLE1
100
AcDbText
  0
TEXT
  5
456
330
1F
100
AcDbEntity
  8
FORMAT
 62
     0
100
AcDbText
 10
21.45647477414493
 20
0.3317733801700216
 30
0.0
 40
0.2182078157396009
  1
REFERENCE ONLY
 41
0.95
  7
SLDTEXTSTYLE1
100
AcDbText
  0
TEXT
  5
457
330
1F
100
AcDbEntity
  8
FORMAT
 62
     7
100
AcDbText
 10
14.37120533357165
 20
1.506151889720075
 30
0.0
 40
0.3491325051833578
  1
BRAND :
 41
0.9
  7
SLDTEXTSTYLE1
100
AcDbText
  0
MTEXT
  5
50B
330
1F
100
AcDbEntity
  8
FORMAT
 62
     7
100
AcDbMText
 10
1.329936244059412
 20
2.910514264153265
 30
0.0
 40
0.4364156314791974
 41
12.59862111649891
 46
0.0
 71
     1
 72
     1
  1
{\fCalibri|b0|i0|c0|p34;\H0.9167x;\C256;BUD Industries AC-1419 Aluminum Chassis, 12" Length x 8" Width x 2-1/2" Height, Natural Finish}
  7
SLDTEXTSTYLE1
 73
     1
 44
1.0
  0
INSERT
  5
D5F
330
1F
100
AcDbEntity
  8
0
100
AcDbBlockReference
  2
amazon block
 10
29.11328270943524
 20
0.3696359628208412
 30
0.0
 41
3.4
 42
3.399999999999999
 43
3.399999999999999
  0
LINE
  5
EA4
330
1F
100
AcDbEntity
  8
0
  6
Continuous
 62
     7
370
    15
100
AcDbLine
 10
14.16430579735687
 20
9.323746982044694
 30
0.0
 11
14.16430579735687
 21
9.373746982044695
 31
0.0
  0
LINE
  5
EA5
330
1F
100
AcDbEntity
  8
0
  6
Continuous
 62
     7
370
    15
100
AcDbLine
 10
2.164305797356874
 20
9.323746982044694
 30
0.0
 11
14.16430579735687
 21
9.323746982044694
 31
0.0
  0
LINE
  5
EA6
330
1F
100
AcDbEntity
  8
0
  6
Continuous
 62
     7
370
    15
100
AcDbLine
 10
2.164305797356874
 20
9.323746982044694
 30
0.0
 11
2.164305797356874
 21
9.373746982044695
 31
0.0
  0
LINE
  5
EA7
330
1F
100
AcDbEntity
  8
0
  6
Continuous
 62
     7
370
    15
100
AcDbLine
 10
2.164305797356874
 20
9.373746982044695
 30
0.0
 11
14.16430579735687
 21
9.373746982044695
 31
0.0
  0
LINE
  5
EA8
330
1F
100
AcDbEntity
  8
0
  6
Continuous
 62
     7
370
    15
100
AcDbLine
 10
2.164305797356874
 20
9.373746982044695
 30
0.0
 11
2.164305797356874
 21
6.823746982044694
 31
0.0
  0
LINE
  5
EA9
330
1F
100
AcDbEntity
  8
0
  6
Continuous
 62
     7
370
    15
100
AcDbLine
 10
14.16430579735687
 20
9.373746982044695
 30
0.0
 11
14.16430579735687
 21
6.823746982044694
 31
0.0
  0
LINE
  5
EAA
330
1F
100
AcDbEntity
  8
0
  6
Continuous
 62
     7
370
    15
100
AcDbLine
 10
2.164305797356874
 20
6.823746982044694
 30
0.0
 11
14.16430579735687
 21
6.823746982044694
 31
0.0
  0
LINE
  5
EAB
330
1F
100
AcDbEntity
  8
0
  6
HIDDEN
 62
     7
370
     0
100
AcDbLine
 10
2.664305797356874
 20
9.323746982044694
 30
0.0
 11
2.664305797356874
 21
9.373746982044695
 31
0.0
  0
LINE
  5
EAC
330
1F
100
AcDbEntity
  8
0
  6
HIDDEN
 62
     7
370
     0
100
AcDbLine
 10
13.66430579735687
 20
9.323746982044694
 30
0.0
 11
13.66430579735687
 21
9.373746982044695
 31
0.0
  0
LINE
  5
EAD
330
1F
100
AcDbEntity
  8
0
  6
HIDDEN
 62
     7
370
     0
100
AcDbLine
 10
2.214305797356871
 20
9.373746982044695
 30
0.0
 11
2.214305797356871
 21
9.323746982044694
 31
0.0
  0
LINE
  5
EAE
330
1F
100
AcDbEntity
  8
0
  6
HIDDEN
 62
     7
370
     0
100
AcDbLine
 10
2.214305797356871
 20
6.873746982044695
 30
0.0
 11
14.11430579735688
 21
6.873746982044695
 31
0.0
  0
LINE
  5
EAF
330
1F
100
AcDbEntity
  8
0
  6
HIDDEN
 62
     7
370
     0
100
AcDbLine
 10
14.06430579735688
 20
9.199746982044691
 30
0.0
 11
14.06430579735688
 21
6.997746982044697
 31
0.0
  0
LINE
  5
EB0
330
1F
100
AcDbEntity
  8
0
  6
HIDDEN
 62
     7
370
     0
100
AcDbLine
 10
14.06430579735688
 20
9.199746982044691
 30
0.0
 11
14.11430579735688
 21
9.199746982044691
 31
0.0
  0
LINE
  5
EB1
330
1F
100
AcDbEntity
  8
0
  6
HIDDEN
 62
     7
370
     0
100
AcDbLine
 10
2.264305797356875
 20
9.199746982044691
 30
0.0
 11
2.214305797356871
 21
9.199746982044691
 31
0.0
  0
LINE
  5
EB2
330
1F
100
AcDbEntity
  8
0
  6
HIDDEN
 62
     7
370
     0
100
AcDbLine
 10
14.11430579735688
 20
9.323746982044694
 30
0.0
 11
14.11430579735688
 21
9.199746982044691
 31
0.0
  0
LINE
  5
EB3
330
1F
100
AcDbEntity
  8
0
  6
HIDDEN
 62
     7
370
     0
100
AcDbLine
 10
14.11430579735688
 20
6.997746982044697
 30
0.0
 11
14.11430579735688
 21
6.873746982044695
 31
0.0
  0
LINE
  5
EB4
330
1F
100
AcDbEntity
  8
0
  6
HIDDEN
 62
     7
370
     0
100
AcDbLine
 10
14.11430579735688
 20
8.521746982044694
 30
0.0
 11
14.11430579735688
 21
9.199746982044691
 31
0.0
  0
LINE
  5
EB5
330
1F
100
AcDbEntity
  8
0
  6
HIDDEN
 62
     7
370
     0
100
AcDbLine
 10
2.214305797356871
 20
9.323746982044694
 30
0.0
 11
2.214305797356871
 21
9.199746982044691
 31
0.0
  0
LINE
  5
EB6
330
1F
100
AcDbEntity
  8
0
  6
HIDDEN
 62
     7
370
     0
100
AcDbLine
 10
2.214305797356871
 20
6.997746982044697
 30
0.0
 11
2.214305797356871
 21
6.873746982044695
 31
0.0
  0
LINE
  5
EB7
330
1F
100
AcDbEntity
  8
0
  6
HIDDEN
 62
     7
370
     0
100
AcDbLine
 10
2.214305797356871
 20
8.521746982044694
 30
0.0
 11
2.214305797356871
 21
9.199746982044691
 31
0.0
  0
LINE
  5
EB8
330
1F
100
AcDbEntity
  8
0
  6
HIDDEN
 62
     7
370
     0
100
AcDbLine
 10
2.264305797356875
 20
9.199746982044691
 30
0.0
 11
2.264305797356875
 21
6.997746982044697
 31
0.0
  0
LINE
  5
EB9
330
1F
100
AcDbEntity
  8
0
  6
HIDDEN
 62
     7
370
     0
100
AcDbLine
 10
14.11430579735688
 20
7.675746982044694
 30
0.0
 11
14.11430579735688
 21
6.997746982044697
 31
0.0
  0
LINE
  5
EBA
330
1F
100
AcDbEntity
  8
0
  6
HIDDEN
 62
     7
370
     0
100
AcDbLine
 10
14.06430579735688
 20
6.997746982044697
 30
0.0
 11
14.11430579735688
 21
6.997746982044697
 31
0.0
  0
LINE
  5
EBB
330
1F
100
AcDbEntity
  8
0
  6
HIDDEN
 62
     7
370
     0
100
AcDbLine
 10
2.214305797356871
 20
7.675746982044694
 30
0.0
 11
2.214305797356871
 21
6.997746982044697
 31
0.0
  0
LINE
  5
EBC
330
1F
100
AcDbEntity
  8
0
  6
HIDDEN
 62
     7
370
     0
100
AcDbLine
 10
2.264305797356875
 20
6.997746982044697
 30
0.0
 11
2.214305797356871
 21
6.997746982044697
 31
0.0
  0
LINE
  5
EBD
330
1F
100
AcDbEntity
  8
0
  6
HIDDEN
 62
     7
370
     0
100
AcDbLine
 10
14.11430579735688
 20
9.373746982044695
 30
0.0
 11
14.11430579735688
 21
9.323746982044694
 31
0.0
  0
LINE
  5
EBE
330
1F
100
AcDbEntity
  8
0
  6
HIDDEN
 62
     7
370
     0
100
AcDbLine
 10
2.264305797356875
 20
7.675746982044694
 30
0.0
 11
2.214305797356871
 21
7.675746982044694
 31
0.0
  0
LINE
  5
EBF
330
1F
100
AcDbEntity
  8
0
  6
HIDDEN
 62
     7
370
     0
100
AcDbLine
 10
2.214305797356871
 20
7.675746982044694
 30
0.0
 11
2.214305797356871
 21
8.521746982044694
 31
0.0
  0
LINE
  5
EC0
330
1F
100
AcDbEntity
  8
0
  6
HIDDEN
 62
     7
370
     0
100
AcDbLine
 10
2.264305797356875
 20
8.521746982044694
 30
0.0
 11
2.214305797356871
 21
8.521746982044694
 31
0.0
  0
LINE
  5
EC1
330
1F
100
AcDbEntity
  8
0
  6
HIDDEN
 62
     7
370
     0
100
AcDbLine
 10
14.06430579735688
 20
7.675746982044694
 30
0.0
 11
14.11430579735688
 21
7.675746982044694
 31
0.0
  0
LINE
  5
EC2
330
1F
100
AcDbEntity
  8
0
  6
HIDDEN
 62
     7
370
     0
100
AcDbLine
 10
14.11430579735688
 20
7.675746982044694
 30
0.0
 11
14.11430579735688
 21
8.521746982044694
 31
0.0
  0
LINE
  5
EC3
330
1F
100
AcDbEntity
  8
0
  6
HIDDEN
 62
     7
370
     0
100
AcDbLine
 10
14.06430579735688
 20
8.521746982044694
 30
0.0
 11
14.11430579735688
 21
8.521746982044694
 31
0.0
  0
LINE
  5
EC4
330
1F
100
AcDbEntity
  8
0
  6
HIDDEN
 62
     7
370
     0
100
AcDbLine
 10
5.06530579735687
 20
9.373746982044695
 30
0.0
 11
5.06530579735687
 21
9.323746982044694
 31
0.0
  0
LINE
  5
EC5
330
1F
100
AcDbEntity
  8
0
  6
HIDDEN
 62
     7
370
     0
100
AcDbLine
 10
5.201305797356873
 20
9.323746982044694
 30
0.0
 11
5.201305797356873
 21
9.373746982044695
 31
0.0
  0
LINE
  5
EC6
330
1F
100
AcDbEntity
  8
0
  6
HIDDEN
 62
     7
370
     0
100
AcDbLine
 10
11.12730579735687
 20
9.373746982044695
 30
0.0
 11
11.12730579735687
 21
9.323746982044694
 31
0.0
  0
LINE
  5
EC7
330
1F
100
AcDbEntity
  8
0
  6
HIDDEN
 62
     7
370
     0
100
AcDbLine
 10
11.26330579735688
 20
9.323746982044694
 30
0.0
 11
11.26330579735688
 21
9.373746982044695
 31
0.0
  0
LINE
  5
EC8
330
1F
100
AcDbEntity
  8
0
  6
HIDDEN
 62
     7
370
     0
100
AcDbLine
 10
2.214305797356871
 20
8.483246982044695
 30
0.0
 11
2.164305797356874
 21
8.483246982044695
 31
0.0
  0
LINE
  5
EC9
330
1F
100
AcDbEntity
  8
0
  6
HIDDEN
 62
     7
370
     0
100
AcDbLine
 10
2.164305797356874
 20
8.264246982044696
 30
0.0
 11
2.214305797356871
 21
8.264246982044696
 31
0.0
  0
LINE
  5
ECA
330
1F
100
AcDbEntity
  8
0
  6
HIDDEN
 62
     7
370
     0
100
AcDbLine
 10
14.16430579735687
 20
8.483246982044695
 30
0.0
 11
14.11430579735688
 21
8.483246982044695
 31
0.0
  0
LINE
  5
ECB
330
1F
100
AcDbEntity
  8
0
  6
HIDDEN
 62
     7
370
     0
100
AcDbLine
 10
14.11430579735688
 20
8.264246982044696
 30
0.0
 11
14.16430579735687
 21
8.264246982044696
 31
0.0
  0
LINE
  5
F27
330
1F
100
AcDbEntity
  8
0
  6
Continuous
 62
     7
370
    15
100
AcDbLine
 10
2.288196381588349
 20
14.86515872762053
 30
0.0
 11
1.788196381588349
 21
14.36515872762053
 31
0.0
  0
LINE
  5
F28
330
1F
100
AcDbEntity
  8
0
  6
Continuous
 62
     7
370
    15
100
AcDbLine
 10
1.788196381588349
 20
14.36515872762053
 30
0.0
 11
13.78819638158835
 21
14.36515872762053
 31
0.0
  0
CIRCLE
  5
F29
330
1F
100
AcDbEntity
  8
0
  6
Continuous
 62
     7
370
    15
100
AcDbCircle
 10
4.75719638158835
 20
14.67815872762053
 30
0.0
 40
0.0679999999999979
  0
CIRCLE
  5
F2A
330
1F
100
AcDbEntity
  8
0
  6
Continuous
 62
     7
370
    15
100
AcDbCircle
 10
10.81919638158835
 20
14.67815872762053
 30
0.0
 40
0.0679999999999979
  0
LINE
  5
F2B
330
1F
100
AcDbEntity
  8
0
  6
Continuous
 62
     7
370
    15
100
AcDbLine
 10
13.28819638158835
 20
14.86515872762053
 30
0.0
 11
2.288196381588349
 21
14.86515872762053
 31
0.0
  0
LINE
  5
F2C
330
1F
100
AcDbEntity
  8
0
  6
Continuous
 62
     7
370
    15
100
AcDbLine
 10
13.78819638158835
 20
14.36515872762053
 30
0.0
 11
13.28819638158835
 21
14.86515872762053
 31
0.0
  0
LINE
  5
F2D
330
1F
100
AcDbEntity
  8
0
  6
Continuous
 62
     7
370
    15
100
AcDbLine
 10
13.78819638158835
 20
22.36515872762054
 30
0.0
 11
1.788196381588349
 21
22.36515872762054
 31
0.0
  0
LINE
  5
F2E
330
1F
100
AcDbEntity
  8
0
  6
Continuous
 62
     7
370
    15
100
AcDbLine
 10
13.28819638158835
 20
21.86515872762054
 30
0.0
 11
13.78819638158835
 21
22.36515872762054
 31
0.0
  0
LINE
  5
F2F
330
1F
100
AcDbEntity
  8
0
  6
Continuous
 62
     7
370
    15
100
AcDbLine
 10
2.288196381588349
 20
21.86515872762054
 30
0.0
 11
13.28819638158835
 21
21.86515872762054
 31
0.0
  0
LINE
  5
F30
330
1F
100
AcDbEntity
  8
0
  6
Continuous
 62
     7
370
    15
100
AcDbLine
 10
1.788196381588349
 20
22.36515872762054
 30
0.0
 11
2.288196381588349
 21
21.86515872762054
 31
0.0
  0
CIRCLE
  5
F31
330
1F
100
AcDbEntity
  8
0
  6
Continuous
 62
     7
370
    15
100
AcDbCircle
 10
10.81919638158835
 20
22.05215872762054
 30
0.0
 40
0.068000000000005
  0
CIRCLE
  5
F32
330
1F
100
AcDbEntity
  8
0
  6
Continuous
 62
     7
370
    15
100
AcDbCircle
 10
4.75719638158835
 20
22.05215872762054
 30
0.0
 40
0.0679999999999979
  0
LINE
  5
F33
330
1F
100
AcDbEntity
  8
0
  6
Continuous
 62
     7
370
    15
100
AcDbLine
 10
2.288196381588349
 20
21.86515872762054
 30
0.0
 11
1.838196381588346
 21
22.31515872762054
 31
0.0
  0
LINE
  5
F34
330
1F
100
AcDbEntity
  8
0
  6
Continuous
 62
     7
370
    15
100
AcDbLine
 10
2.288196381588349
 20
14.86515872762054
 30
0.0
 11
2.288196381588349
 21
21.86515872762054
 31
0.0
  0
LINE
  5
F35
330
1F
100
AcDbEntity
  8
0
  6
Continuous
 62
     7
370
    15
100
AcDbLine
 10
1.838196381588346
 20
14.41515872762053
 30
0.0
 11
2.288196381588349
 21
14.86515872762054
 31
0.0
  0
LINE
  5
F36
330
1F
100
AcDbEntity
  8
0
  6
Continuous
 62
     7
370
    15
100
AcDbLine
 10
1.838196381588346
 20
14.41515872762053
 30
0.0
 11
13.73819638158835
 21
14.41515872762053
 31
0.0
  0
LINE
  5
F37
330
1F
100
AcDbEntity
  8
0
  6
Continuous
 62
     7
370
    15
100
AcDbLine
 10
13.28819638158835
 20
14.86515872762054
 30
0.0
 11
13.73819638158835
 21
14.41515872762053
 31
0.0
  0
LINE
  5
F38
330
1F
100
AcDbEntity
  8
0
  6
Continuous
 62
     7
370
    15
100
AcDbLine
 10
13.28819638158835
 20
21.86515872762054
 30
0.0
 11
13.28819638158835
 21
14.86515872762054
 31
0.0
  0
LINE
  5
F39
330
1F
100
AcDbEntity
  8
0
  6
Continuous
 62
     7
370
    15
100
AcDbLine
 10
13.73819638158835
 20
22.31515872762054
 30
0.0
 11
13.28819638158835
 21
21.86515872762054
 31
0.0
  0
LINE
  5
F3A
330
1F
100
AcDbEntity
  8
0
  6
Continuous
 62
     7
370
    15
100
AcDbLine
 10
13.73819638158835
 20
22.31515872762054
 30
0.0
 11
1.838196381588346
 21
22.31515872762054
 31
0.0
  0
LINE
  5
F3B
330
1F
100
AcDbEntity
  8
0
  6
Continuous
 62
     7
370
    15
100
AcDbLine
 10
13.78819638158835
 20
14.36515872762053
 30
0.0
 11
13.78819638158835
 21
22.36515872762054
 31
0.0
  0
LINE
  5
F3C
330
1F
100
AcDbEntity
  8
0
  6
Continuous
 62
     7
370
    15
100
AcDbLine
 10
1.788196381588349
 20
22.36515872762054
 30
0.0
 11
1.788196381588349
 21
14.36515872762053
 31
0.0
  0
LINE
  5
F3D
330
1F
100
AcDbEntity
  8
0
  6
HIDDEN
 62
     7
370
     0
100
AcDbLine
 10
1.838196381588346
 20
22.31515872762054
 30
0.0
 11
1.838196381588346
 21
14.41515872762053
 31
0.0
  0
LINE
  5
F3E
330
1F
100
AcDbEntity
  8
0
  6
HIDDEN
 62
     7
370
     0
100
AcDbLine
 10
13.73819638158835
 20
22.31515872762054
 30
0.0
 11
13.73819638158835
 21
14.41515872762053
 31
0.0
  0
LINE
  5
F3F
330
1F
100
AcDbEntity
  8
0
  6
HIDDEN
 62
     7
370
     0
100
AcDbLine
 10
13.68819638158835
 20
21.63715872762053
 30
0.0
 11
13.73819638158835
 21
21.63715872762053
 31
0.0
  0
LINE
  5
F40
330
1F
100
AcDbEntity
  8
0
  6
HIDDEN
 62
     7
370
     0
100
AcDbLine
 10
13.68819638158835
 20
21.63715872762053
 30
0.0
 11
13.68819638158835
 21
22.31515872762054
 31
0.0
  0
LINE
  5
F41
330
1F
100
AcDbEntity
  8
0
  6
HIDDEN
 62
     7
370
     0
100
AcDbLine
 10
1.88819638158835
 20
21.63715872762053
 30
0.0
 11
1.88819638158835
 21
22.31515872762054
 31
0.0
  0
LINE
  5
F42
330
1F
100
AcDbEntity
  8
0
  6
HIDDEN
 62
     7
370
     0
100
AcDbLine
 10
1.88819638158835
 20
21.63715872762053
 30
0.0
 11
1.838196381588346
 21
21.63715872762053
 31
0.0
  0
LINE
  5
F43
330
1F
100
AcDbEntity
  8
0
  6
HIDDEN
 62
     7
370
     0
100
AcDbLine
 10
1.88819638158835
 20
15.09315872762053
 30
0.0
 11
1.838196381588346
 21
15.09315872762053
 31
0.0
  0
LINE
  5
F44
330
1F
100
AcDbEntity
  8
0
  6
HIDDEN
 62
     7
370
     0
100
AcDbLine
 10
1.88819638158835
 20
15.09315872762053
 30
0.0
 11
1.88819638158835
 21
14.41515872762053
 31
0.0
  0
LINE
  5
F45
330
1F
100
AcDbEntity
  8
0
  6
HIDDEN
 62
     7
370
     0
100
AcDbLine
 10
13.68819638158835
 20
15.09315872762053
 30
0.0
 11
13.73819638158835
 21
15.09315872762053
 31
0.0
  0
LINE
  5
F46
330
1F
100
AcDbEntity
  8
0
  6
HIDDEN
 62
     7
370
     0
100
AcDbLine
 10
13.68819638158835
 20
15.09315872762053
 30
0.0
 11
13.68819638158835
 21
14.41515872762053
 31
0.0
  0
LINE
  5
F47
330
1F
100
AcDbEntity
  8
0
  6
HIDDEN
 62
     7
370
     0
100
AcDbLine
 10
13.78819638158835
 20
21.47465872762054
 30
0.0
 11
13.73819638158835
 21
21.47465872762054
 31
0.0
  0
LINE
  5
F48
330
1F
100
AcDbEntity
  8
0
  6
HIDDEN
 62
     7
370
     0
100
AcDbLine
 10
13.73819638158835
 20
21.25565872762054
 30
0.0
 11
13.78819638158835
 21
21.25565872762054
 31
0.0
  0
LINE
  5
F49
330
1F
100
AcDbEntity
  8
0
  6
HIDDEN
 62
     7
370
     0
100
AcDbLine
 10
1.838196381588346
 20
21.47465872762053
 30
0.0
 11
1.788196381588349
 21
21.47465872762053
 31
0.0
  0
LINE
  5
F4A
330
1F
100
AcDbEntity
  8
0
  6
HIDDEN
 62
     7
370
     0
100
AcDbLine
 10
1.788196381588349
 20
21.25565872762053
 30
0.0
 11
1.838196381588346
 21
21.25565872762053
 31
0.0
  0
LINE
  5
F4B
330
1F
100
AcDbEntity
  8
0
  6
HIDDEN
 62
     7
370
     0
100
AcDbLine
 10
1.838196381588346
 20
15.47465872762053
 30
0.0
 11
1.788196381588349
 21
15.47465872762053
 31
0.0
  0
LINE
  5
F4C
330
1F
100
AcDbEntity
  8
0
  6
HIDDEN
 62
     7
370
     0
100
AcDbLine
 10
1.788196381588349
 20
15.25565872762053
 30
0.0
 11
1.838196381588346
 21
15.25565872762053
 31
0.0
  0
LINE
  5
F4D
330
1F
100
AcDbEntity
  8
0
  6
HIDDEN
 62
     7
370
     0
100
AcDbLine
 10
13.78819638158835
 20
15.47465872762053
 30
0.0
 11
13.73819638158835
 21
15.47465872762053
 31
0.0
  0
LINE
  5
F4E
330
1F
100
AcDbEntity
  8
0
  6
HIDDEN
 62
     7
370
     0
100
AcDbLine
 10
13.73819638158835
 20
15.25565872762054
 30
0.0
 11
13.78819638158835
 21
15.25565872762054
 31
0.0
  0
INSERT
  5
F4F
330
1F
100
AcDbEntity
  8
0
  6
Continuous
 62
     7
370
     0
100
AcDbBlockReference
  2
SW_CENTERMARKSYMBOL_2
 10
10.81919638158835
 20
22.05215872762053
 30
0.0
  0
INSERT
  5
F50
330
1F
100
AcDbEntity
  8
0
  6
Continuous
 62
     7
370
     0
100
AcDbBlockReference
  2
SW_CENTERMARKSYMBOL_3
 10
4.75719638158835
 20
22.05215872762053
 30
0.0
  0
INSERT
  5
F51
330
1F
100
AcDbEntity
  8
0
  6
Continuous
 62
     7
370
     0
100
AcDbBlockReference
  2
SW_CENTERMARKSYMBOL_4
 10
4.75719638158835
 20
14.67815872762052
 30
0.0
  0
INSERT
  5
F52
330
1F
100
AcDbEntity
  8
0
  6
Continuous
 62
     7
370
     0
100
AcDbBlockReference
  2
SW_CENTERMARKSYMBOL_5
 10
10.81919638158835
 20
14.67815872762052
 30
0.0
  0
DIMENSION
  5
16F0
330
1F
100
AcDbEntity
  8
DIM
100
AcDbDimension
  2
*D50
 10
4.75719638158835
 20
21.86515872762054
 30
0.0
 11
4.40188366914783
 21
20.21016552571708
 31
0.0
 70
    32
 71
     5
 42
0.1869999999999869
 73
     0
 74
     0
 75
     0
  3
Standard
100
AcDbAlignedDimension
 13
4.75719638158835
 23
22.05215872762053
 33
0.0
 14
4.963799448091066
 24
21.86515872762054
 34
0.0
 50
90.0
100
AcDbRotatedDimension
  0
DIMENSION
  5
16FF
330
1F
100
AcDbEntity
  8
DIM
100
AcDbDimension
  2
*D51
 10
4.75719638158835
 20
14.86515872762053
 30
0.0
 11
4.401883669147831
 21
16.520151929524
 31
0.0
 70
    32
 71
     5
 42
0.1869999999999976
 73
     0
 74
     0
 75
     0
  3
Standard
100
AcDbAlignedDimension
 13
4.75719638158835
 23
14.67815872762053
 33
0.0
 14
4.782336904553459
 24
14.86515872762053
 34
0.0
 50
90.0
100
AcDbRotatedDimension
  0
DIMENSION
  5
170E
330
1F
100
AcDbEntity
  8
DIM
100
AcDbDimension
  2
*D52
 10
13.28819638158835
 20
19.87078930837025
 30
0.0
 11
11.63473615045306
 21
20.22610202081077
 31
0.0
 70
    32
 71
     5
 42
0.5
 73
     0
 74
     0
 75
     0
  3
Standard
100
AcDbAlignedDimension
 13
13.78819638158835
 23
17.89700359877528
 33
0.0
 14
13.28819638158835
 24
17.89700359877528
 34
0.0
100
AcDbRotatedDimension
  0
DIMENSION
  5
171D
330
1F
100
AcDbEntity
  8
DIM
100
AcDbDimension
  2
*D53
 10
4.757196381588353
 20
12.70762241795311
 30
0.0
 11
3.272696381588351
 21
13.06293513039363
 31
0.0
 70
    32
 71
     5
 42
2.969000000000003
 73
     0
 74
     0
 75
     0
  3
Standard
100
AcDbAlignedDimension
 13
1.788196381588349
 23
14.36515872762053
 33
0.0
 14
4.757196381588353
 24
14.67815872762052
 34
0.0
100
AcDbRotatedDimension
  0
DIMENSION
  5
172A
330
1F
100
AcDbEntity
  8
DIM
100
AcDbDimension
  2
*D54
 10
29.79280602468337
 20
11.62111006845101
 30
0.0
 11
31.4147706745814
 21
11.97642278089153
 31
0.0
 70
    32
 71
     5
 42
1.000000000000028
 73
     0
 74
     0
 75
     0
  3
Standard
100
AcDbAlignedDimension
 13
28.79280602468334
 23
8.12374690225895
 33
0.0
 14
29.79280602468337
 24
9.373746982044695
 34
0.0
100
AcDbRotatedDimension
  0
DIMENSION
  5
1739
330
1F
100
AcDbEntity
  8
DIM
100
AcDbDimension
  2
*D55
 10
22.79280602468337
 20
11.61438912884337
 30
0.0
 11
24.4147706745814
 21
11.96970184128389
 31
0.0
 70
    32
 71
     5
 73
     0
 74
     0
 75
     0
  3
Standard
100
AcDbAlignedDimension
 13
21.79280602468337
 23
8.316806309627402
 33
0.0
 14
22.79280602468337
 24
8.12374690225895
 34
0.0
100
AcDbRotatedDimension
  0
DIMENSION
  5
1755
330
1F
100
AcDbEntity
  8
DIM
100
AcDbDimension
  2
*D57
 10
32.27096779303809
 20
8.12374690225895
 30
0.0
 11
31.91565508059757
 21
6.911782252360927
 31
0.0
 70
    32
 71
     5
 42
1.250000079785744
 73
     0
 74
     0
 75
     0
  3
Standard
100
AcDbAlignedDimension
 13
29.79280602468337
 23
9.373746982044695
 33
0.0
 14
28.79280602468337
 24
8.12374690225895
 34
0.0
 50
90.0
100
AcDbRotatedDimension
  0
DIMENSION
  5
1764
330
1F
100
AcDbEntity
  8
DIM
100
AcDbDimension
  2
*D58
 10
13.78819638158835
 20
24.84365290848597
 30
0.0
 11
7.788196381588349
 21
25.19896562092648
 31
0.0
 70
    32
 71
     5
 42
12.0
 73
     0
 74
     0
 75
     0
  3
Standard
100
AcDbAlignedDimension
 13
1.788196381588349
 23
22.36515872762054
 33
0.0
 14
13.78819638158835
 24
22.36515872762054
 34
0.0
100
AcDbRotatedDimension
  0
DIMENSION
  5
1771
330
1F
100
AcDbEntity
  8
DIM
100
AcDbDimension
  2
*D59
 10
16.80667497826938
 20
14.36515872762053
 30
0.0
 11
16.45136226582886
 21
18.36515872762054
 31
0.0
 70
    32
 71
     5
 42
8.000000000000007
 73
     0
 74
     0
 75
     0
  3
Standard
100
AcDbAlignedDimension
 13
13.78819638158835
 23
22.36515872762054
 33
0.0
 14
13.78819638158835
 24
14.36515872762053
 34
0.0
 50
90.0
100
AcDbRotatedDimension
  0
DIMENSION
  5
1784
330
1F
100
AcDbEntity
  8
DIM
100
AcDbDimension
  2
*D60
 10
16.84303441973868
 20
9.373746982044695
 30
0.0
 11
16.48772170729817
 21
8.098746982044696
 31
0.0
 70
    32
 71
     5
 42
2.55
 73
     0
 74
     0
 75
     0
  3
Standard
100
AcDbAlignedDimension
 13
14.16430579735687
 23
6.823746982044694
 33
0.0
 14
14.16430579735687
 24
9.373746982044695
 34
0.0
 50
90.0
100
AcDbRotatedDimension
  0
LEADER
  5
17BC
330
1F
100
AcDbEntity
  8
DIM
100
AcDbLeader
  3
Standard
 76
     3
 10
22.72565866763377
 20
8.460242545175141
 30
0.0
 10
19.66416996285389
 20
11.66881953815066
 30
0.0
 10
18.88332780826032
 20
11.66881953815066
 30
0.0
1001
ACAD
1000
DSTYLE
1002
{
1070
   147
1040
0.14
1070
    77
1070
     0
1002
}
  0
MTEXT
  5
17C4
330
1F
100
AcDbEntity
  8
DIM
100
AcDbMText
 10
14.36841051946236
 20
11.24944077955344
 30
0.0
 40
0.41
 41
0.0
 46
0.0
 71
     5
 72
     1
  1
0.219 DIA. HOLE (FOR OPTIONAL\PMOUNTING BRACKETS)
 73
     1
 44
1.0
  0
TEXT
  5
17CC
330
1F
100
AcDbEntity
  8
0
 62
     7
100
AcDbText
 10
7.326227184838167
 20
12.99378534381053
 30
0.0
 40
0.4456250000000001
  1
TOP
100
AcDbText
  0
TEXT
  5
17D4
330
1F
100
AcDbEntity
  8
0
 62
     7
100
AcDbText
 10
7.434303620419179
 20
5.385272090001698
 30
0.0
 40
0.4456250000000001
  1
FRONT
100
AcDbText
  0
TEXT
  5
17DC
330
1F
100
AcDbEntity
  8
0
 62
     7
100
AcDbText
 10
24.69864769972736
 20
5.375798491747757
 30
0.0
 40
0.4456250000000001
  1
SIDE
100
AcDbText
  0
LINE
  5
1823
330
1F
100
AcDbEntity
  8
0
100
AcDbLine
 10
19.57184273427575
 20
22.13425209123655
 30
0.0
 11
19.57184273427575
 21
20.09289999637386
 31
0.0
  0
LINE
  5
1824
330
1F
100
AcDbEntity
  8
0
100
AcDbLine
 10
19.57184273427575
 20
22.13425209123655
 30
0.0
 11
28.05712421338363
 21
17.23580335976051
 31
0.0
  0
LINE
  5
1825
330
1F
100
AcDbEntity
  8
0
100
AcDbLine
 10
28.05712421338363
 20
17.23580335976051
 30
0.0
 11
28.05712421338363
 21
15.19445126489782
 31
0.0
  0
LINE
  5
1826
330
1F
100
AcDbEntity
  8
0
100
AcDbLine
 10
19.57184273427575
 20
20.09289999637386
 30
0.0
 11
28.05712421338363
 21
15.19445126489782
 31
0.0
  0
LINE
  5
1827
330
1F
100
AcDbEntity
  8
0
100
AcDbLine
 10
25.22869712281956
 20
24.9916803582796
 30
0.0
 11
25.22869691540396
 21
25.35906421669571
 31
0.0
  0
LINE
  5
1828
330
1F
100
AcDbEntity
  8
0
100
AcDbLine
 10
20.27894966247847
 20
22.13425197149808
 30
0.0
 11
25.22869712281956
 21
24.9916803582796
 31
0.0
  0
LINE
  5
1829
330
1F
100
AcDbEntity
  8
0
100
AcDbLine
 10
19.64255319893887
 20
22.13425209123655
 30
0.0
 11
20.27894966247847
 21
22.13425197149808
 31
0.0
  0
LINE
  5
182A
330
1F
100
AcDbEntity
  8
0
100
AcDbLine
 10
19.64255319893887
 20
22.13425209123655
 30
0.0
 11
28.05712421338363
 21
17.27662364212639
 31
0.0
  0
LINE
  5
182B
330
1F
100
AcDbEntity
  8
0
100
AcDbLine
 10
28.05712400596804
 20
17.6440075005425
 30
0.0
 11
28.05712421338363
 21
17.27662364212639
 31
0.0
  0
LINE
  5
182C
330
1F
100
AcDbEntity
  8
0
100
AcDbLine
 10
33.00687146630912
 20
20.50143588732402
 30
0.0
 11
28.05712400596804
 21
17.6440075005425
 31
0.0
  0
LINE
  5
182D
330
1F
100
AcDbEntity
  8
0
100
AcDbLine
 10
33.64326792984873
 20
20.50143576758554
 30
0.0
 11
33.00687146630912
 21
20.50143588732402
 31
0.0
  0
LINE
  5
182E
330
1F
100
AcDbEntity
  8
0
100
AcDbLine
 10
33.64326792984873
 20
20.50143576758554
 30
0.0
 11
25.22869691540396
 21
25.35906421669571
 31
0.0
  0
LINE
  5
182F
330
1F
100
AcDbEntity
  8
0
100
AcDbLine
 10
25.22869691540396
 20
25.39988449906158
 30
0.0
 11
19.57184273427575
 21
22.13425209123655
 31
0.0
  0
LINE
  5
1830
330
1F
100
AcDbEntity
  8
0
100
AcDbLine
 10
33.71397839451185
 20
20.50143576758554
 30
0.0
 11
25.22869691540396
 21
25.39988449906158
 31
0.0
  0
LINE
  5
1831
330
1F
100
AcDbEntity
  8
0
100
AcDbLine
 10
28.05712421338363
 20
17.23580335976051
 30
0.0
 11
33.71397839451185
 21
20.50143576758554
 31
0.0
  0
LINE
  5
1832
330
1F
100
AcDbEntity
  8
0
100
AcDbLine
 10
33.71397839451185
 20
20.50143576758554
 30
0.0
 11
33.71397839451185
 21
18.46008367272285
 31
0.0
  0
LINE
  5
1833
330
1F
100
AcDbEntity
  8
0
100
AcDbLine
 10
28.05712421338363
 20
15.19445126489782
 30
0.0
 11
33.71397839451185
 21
18.46008367272285
 31
0.0
  0
LWPOLYLINE
  5
1834
330
1F
100
AcDbEntity
  8
0
100
AcDbPolyline
 90
       21
 70
   128
 43
0.0
 10
28.84165917506209
 20
16.66802970540764
 10
28.83786948476119
 20
16.6934715566077
 10
28.82687168777008
 20
16.71204764317
 10
28.80974206360118
 20
16.72193945960939
 10
28.78815756732442
 20
16.72217896493624
 10
28.76423093417076
 20
16.71274248835064
 10
28.7403043010171
 20
16.69455386231387
 10
28.71871980474035
 20
16.66939342804276
 10
28.70159018057144
 20
16.63972416851268
 10
28.69059238358034
 20
16.60845029582442
 10
28.68680269327944
 20
16.57863296133772
 10
28.69059238358034
 20
16.55319111013766
 10
28.70159018057144
 20
16.53461496369639
 10
28.71871980474035
 20
16.52472308737804
 10
28.7403043010171
 20
16.52448364193016
 10
28.76423093417076
 20
16.53392005863678
 10
28.78815756732442
 20
16.55210874455252
 10
28.80974206360118
 20
16.57726911894466
 10
28.82687168777008
 20
16.60693843835372
 10
28.83786948476119
 20
16.63821237092094
 10
28.84165917506209
 20
16.66802970540764
  0
LWPOLYLINE
  5
1835
330
1F
100
AcDbEntity
  8
0
100
AcDbPolyline
 90
       21
 70
   128
 43
0.0
 10
32.9294434328334
 20
19.02785732707573
 10
32.93323312313429
 20
19.00241547587567
 10
32.9442309201254
 20
18.9838393294344
 10
32.9613605442943
 20
18.97394745311604
 10
32.98294504057106
 20
18.97370800766817
 10
33.00687167372472
 20
18.98314442437479
 10
33.03079830687837
 20
19.00133311029053
 10
33.05238280315514
 20
19.02649348468267
 10
33.06951242732404
 20
19.05616280409173
 10
33.08051022431514
 20
19.08743673665895
 10
33.08429991461604
 20
19.11725407114565
 10
33.08051022431514
 20
19.14269592234571
 10
33.06951242732404
 20
19.16127200890801
 10
33.05238280315514
 20
19.17116382534739
 10
33.03079830687837
 20
19.17140333067425
 10
33.00687167372472
 20
19.16196685408865
 10
32.98294504057106
 20
19.14377822805187
 10
32.9613605442943
 20
19.11861779378077
 10
32.9442309201254
 20
19.08894853425068
 10
32.93323312313429
 20
19.05767466156243
 10
32.9294434328334
 20
19.02785732707573
  0
ARC
  5
1836
330
1F
100
AcDbEntity
  8
0
100
AcDbCircle
 10
28.66737010234698
 20
16.67924778483393
 30
0.0
 40
0.1382026635410568
100
AcDbArc
 50
281.4222371185757
 51
18.58314219958968
  0
LINE
  5
1837
330
1F
100
AcDbEntity
  8
0
100
AcDbLine
 10
25.22869691540396
 20
23.35853916268238
 30
0.0
 11
21.69344451515862
 21
21.31768139289983
 31
0.0
  0
LINE
  5
1838
330
1F
100
AcDbEntity
  8
0
100
AcDbLine
 10
31.59237656177508
 20
19.68486509918345
 30
0.0
 11
25.22869691540396
 21
23.35853916268238
 31
0.0
  0
LINE
  5
1839
330
1F
100
AcDbEntity
  8
0
100
AcDbLine
 10
25.22869691540396
 20
23.45979022713247
 30
0.0
 11
25.22869691540396
 21
23.35853916268238
 31
0.0
  0
LINE
  5
183A
330
1F
100
AcDbEntity
  8
0
100
AcDbLine
 10
25.26405256256671
 20
23.43937984647258
 30
0.0
 11
25.22869691540396
 21
23.45979022713247
 31
0.0
  0
LINE
  5
183B
330
1F
100
AcDbEntity
  8
0
100
AcDbLine
 10
25.26405256256671
 20
23.43937984647258
 30
0.0
 11
25.26405256256671
 21
24.9304431044184
 31
0.0
  0
ARC
  5
183C
330
1F
100
AcDbEntity
  8
0
100
AcDbCircle
 10
32.91001084190094
 20
19.12847215057194
 30
0.0
 40
0.1382026635410501
100
AcDbArc
 50
281.4222371185703
 51
18.58314219959055
  0
LINE
  5
183D
330
1F
100
AcDbEntity
  8
0
100
AcDbLine
 10
25.22869712281956
 20
24.95085320141472
 30
0.0
 11
25.22869712281956
 21
24.9916803582796
 31
0.0
  0
LINE
  5
183E
330
1F
100
AcDbEntity
  8
0
100
AcDbLine
 10
20.31431070244663
 20
22.1138383084934
 30
0.0
 11
25.22869712281956
 21
24.95085320141472
 31
0.0
  0
LINE
  5
183F
330
1F
100
AcDbEntity
  8
0
100
AcDbLine
 10
24.74927838033288
 20
24.42743593501611
 30
0.0
 11
24.96287640998081
 21
24.79739857367712
 31
0.0
  0
LINE
  5
1840
330
1F
100
AcDbEntity
  8
0
100
AcDbLine
 10
24.74927838033288
 20
23.73664246237643
 30
0.0
 11
24.74927838033288
 21
24.42743593501611
 31
0.0
  0
LINE
  5
1841
330
1F
100
AcDbEntity
  8
0
100
AcDbLine
 10
24.74927838033288
 20
23.73664246237643
 30
0.0
 11
25.22869691540396
 21
23.45979022713247
 31
0.0
  0
LWPOLYLINE
  5
1842
330
1F
100
AcDbEntity
  8
0
100
AcDbPolyline
 90
       21
 70
   128
 43
0.0
 10
24.63437366783972
 20
23.99529266143875
 10
24.63058397753882
 20
24.02073451263881
 10
24.61958618054771
 20
24.03931059920111
 10
24.60245655637881
 20
24.04920241564049
 10
24.58087206010205
 20
24.04944192096734
 10
24.5569454269484
 20
24.04000544438175
 10
24.53301879379474
 20
24.02181681834497
 10
24.51143429751798
 20
23.99665638407386
 10
24.49430467334908
 20
23.96698712454378
 10
24.48330687635797
 20
23.93571325185553
 10
24.47951718605708
 20
23.90589591736883
 10
24.48330687635797
 20
23.88045406616877
 10
24.49430467334908
 20
23.8618779197275
 10
24.51143429751798
 20
23.85198604340915
 10
24.53301879379474
 20
23.85174659796126
 10
24.5569454269484
 20
23.86118301466789
 10
24.58087206010205
 20
23.87937170058363
 10
24.60245655637881
 20
23.90453207497577
 10
24.61958618054771
 20
23.93420139438482
 10
24.63058397753882
 20
23.96547532695205
 10
24.63437366783972
 20
23.99529266143875
  0
LINE
  5
1843
330
1F
100
AcDbEntity
  8
0
100
AcDbLine
 10
24.78463402749563
 20
24.40702555435623
 30
0.0
 11
25.0335816892541
 21
24.83821543192394
 31
0.0
  0
LINE
  5
1844
330
1F
100
AcDbEntity
  8
0
100
AcDbLine
 10
24.78463402749563
 20
23.71623208171655
 30
0.0
 11
25.26405256256671
 21
23.43937984647258
 31
0.0
  0
LINE
  5
1845
330
1F
100
AcDbEntity
  8
0
100
AcDbLine
 10
24.78463402749563
 20
23.71623208171655
 30
0.0
 11
24.78463402749563
 21
24.40702555435623
 31
0.0
  0
LINE
  5
1846
330
1F
100
AcDbEntity
  8
0
100
AcDbLine
 10
24.78463402749563
 20
24.40702555435623
 30
0.0
 11
24.74927838033288
 21
24.42743593501611
 31
0.0
  0
LINE
  5
1847
330
1F
100
AcDbEntity
  8
0
100
AcDbLine
 10
24.78463402749563
 20
23.71623208171655
 30
0.0
 11
24.74927838033288
 21
23.73664246237643
 31
0.0
  0
ARC
  5
1848
330
1F
100
AcDbEntity
  8
0
100
AcDbCircle
 10
24.46008417874273
 20
24.00651098123717
 30
0.0
 40
0.1382029816122806
100
AcDbArc
 50
281.4223865870292
 51
18.58299273113359
  0
LINE
  5
1849
330
1F
100
AcDbEntity
  8
0
100
AcDbLine
 10
33.71397839451185
 20
20.46060861072067
 30
0.0
 11
33.71397839451185
 21
20.50143576758554
 31
0.0
  0
LINE
  5
184A
330
1F
100
AcDbEntity
  8
0
100
AcDbLine
 10
33.00687146630912
 20
20.50143588732402
 30
0.0
 11
33.71397839451185
 21
20.50143576758554
 31
0.0
  0
LINE
  5
184B
330
1F
100
AcDbEntity
  8
0
100
AcDbLine
 10
25.22869712281956
 20
24.9916803582796
 30
0.0
 11
33.00687146630912
 21
20.50143588732402
 31
0.0
  0
LINE
  5
184C
330
1F
100
AcDbEntity
  8
0
100
AcDbLine
 10
25.22869691540396
 20
25.39988449906158
 30
0.0
 11
25.22869712281956
 21
24.9916803582796
 31
0.0
  0
LWPOLYLINE
  5
184D
330
1F
100
AcDbEntity
  8
0
100
AcDbPolyline
 90
       17
 70
   128
 43
0.0
 10
31.44133714915162
 20
21.61338362627793
 10
31.41927642667318
 20
21.62189320008929
 10
31.39325385895161
 20
21.62488127368729
 10
31.36723129123003
 20
21.62189320008929
 10
31.34517056875159
 20
21.61338362627793
 10
31.33042995738362
 20
21.6006482422714
 10
31.32525390125866
 20
21.58562573368882
 10
31.3304301647992
 20
21.5706033448447
 10
31.34517077616718
 20
21.55786796083818
 10
31.36723149864562
 20
21.54935838702682
 10
31.39325385895161
 20
21.54637019369035
 10
31.41927621925759
 20
21.54935838702682
 10
31.44133714915162
 20
21.5578678410997
 10
31.456077553104
 20
21.5706033448447
 10
31.46125381664454
 20
21.58562573368882
 10
31.4560777605196
 20
21.6006482422714
 10
31.44133714915162
 20
21.61338362627793
  0
LWPOLYLINE
  5
184E
330
1F
100
AcDbEntity
  8
0
100
AcDbPolyline
 90
       17
 70
   128
 43
0.0
 10
27.05868943236937
 20
24.03240096869658
 10
27.08075015484781
 20
24.02389139488522
 10
27.1067725151538
 20
24.02090320154875
 10
27.13279508287538
 20
24.02389127514675
 10
27.15485580535382
 20
24.03240084895811
 10
27.16959641672179
 20
24.04513623296464
 10
27.17477247284674
 20
24.06015874154722
 10
27.16959641672179
 20
24.07518125012981
 10
27.15485580535382
 20
24.08791663413634
 10
27.13279508287538
 20
24.0964262079477
 10
27.1067725151538
 20
24.09941428154569
 10
27.08075015484781
 20
24.09642608820922
 10
27.05868922495378
 20
24.08791663413634
 10
27.04394882100139
 20
24.07518113039133
 10
27.03877255746086
 20
24.06015874154722
 10
27.04394882100139
 20
24.04513635270312
 10
27.05868943236937
 20
24.03240096869658
  0
LINE
  5
184F
330
1F
100
AcDbEntity
  8
0
100
AcDbLine
 10
25.22869712281956
 20
24.95085320141472
 30
0.0
 11
32.97151042634097
 21
20.48102222431934
 31
0.0
  0
ARC
  5
1850
330
1F
100
AcDbEntity
  8
0
100
AcDbCircle
 10
31.39325403732217
 20
21.49277735567304
 30
0.0
 40
0.0928460863424644
100
AcDbArc
 50
51.27525878055397
 51
128.7248593356854
  0
ARC
  5
1851
330
1F
100
AcDbEntity
  8
0
100
AcDbCircle
 10
27.10677269352436
 20
23.96731036353144
 30
0.0
 40
0.0928460863424676
100
AcDbArc
 50
51.27525878055664
 51
128.7248593356843
  0
LINE
  5
1852
330
1F
100
AcDbEntity
  8
0
100
AcDbLine
 10
20.27894966247847
 20
22.13425197149808
 30
0.0
 11
19.57184273427575
 21
22.13425209123655
 31
0.0
  0
LINE
  5
1853
330
1F
100
AcDbEntity
  8
0
100
AcDbLine
 10
28.05712400596804
 20
17.6440075005425
 30
0.0
 11
20.27894966247847
 21
22.13425197149808
 31
0.0
  0
LINE
  5
1854
330
1F
100
AcDbEntity
  8
0
100
AcDbLine
 10
28.05712421338363
 20
17.23580335976051
 30
0.0
 11
28.05712400596804
 21
17.6440075005425
 31
0.0
  0
LWPOLYLINE
  5
1855
330
1F
100
AcDbEntity
  8
0
100
AcDbPolyline
 90
       17
 70
   128
 43
0.0
 10
21.94065035262042
 20
21.07781989798393
 10
21.91858963014199
 20
21.08632947179529
 10
21.89256726983599
 20
21.08931766513176
 10
21.86654490953001
 20
21.08632947179529
 10
21.84448397963598
 20
21.0778200177224
 10
21.8297435756836
 20
21.06508451397739
 10
21.82456731214306
 20
21.05006212513328
 10
21.829743368268
 20
21.0350396165507
 10
21.84448397963598
 20
21.02230423254416
 10
21.86654470211441
 20
21.01379465873281
 10
21.89256726983599
 20
21.01080658513481
 10
21.91858983755758
 20
21.01379465873281
 10
21.94065056003602
 20
21.02230423254416
 10
21.95539117140399
 20
21.0350396165507
 10
21.96056722752894
 20
21.05006212513328
 10
21.95539096398839
 20
21.06508451397739
 10
21.94065035262042
 20
21.07781989798393
  0
LWPOLYLINE
  5
1856
330
1F
100
AcDbEntity
  8
0
100
AcDbPolyline
 90
       17
 70
   128
 43
0.0
 10
26.13096532343379
 20
18.54777122468576
 10
26.15302604591222
 20
18.5392616508744
 10
26.1790486136338
 20
18.5362735772764
 10
26.20507097393979
 20
18.53926177061287
 10
26.22713190383382
 20
18.54777122468576
 10
26.2418723077862
 20
18.56050672843077
 10
26.24704857132674
 20
18.57552911727487
 10
26.2418723077862
 20
18.59055150611899
 10
26.22713169641823
 20
18.60328689012552
 10
26.20507097393979
 20
18.61179646393688
 10
26.1790486136338
 20
18.61478465727335
 10
26.15302604591222
 20
18.61179658367535
 10
26.13096532343379
 20
18.60328700986399
 10
26.11622471206581
 20
18.59055162585746
 10
26.11104865594086
 20
18.57552911727487
 10
26.11622471206581
 20
18.56050660869229
 10
26.13096532343379
 20
18.54777122468576
  0
LINE
  5
1857
330
1F
100
AcDbEntity
  8
0
100
AcDbLine
 10
28.05712421338363
 20
17.19497620289564
 30
0.0
 11
28.05712421338363
 21
17.23580335976051
 31
0.0
  0
LINE
  5
1858
330
1F
100
AcDbEntity
  8
0
100
AcDbLine
 10
19.57184273427575
 20
22.09342493437168
 30
0.0
 11
28.05712421338363
 21
17.19497620289564
 31
0.0
  0
LINE
  5
1859
330
1F
100
AcDbEntity
  8
0
100
AcDbLine
 10
19.57184273427575
 20
22.09342493437168
 30
0.0
 11
19.57184273427575
 21
22.13425209123655
 31
0.0
  0
ARC
  5
185A
330
1F
100
AcDbEntity
  8
0
100
AcDbCircle
 10
26.1790486136338
 20
18.48268098488006
 30
0.0
 40
0.0928457831337771
100
AcDbArc
 50
51.27513171721819
 51
128.7248682827766
  0
ARC
  5
185B
330
1F
100
AcDbEntity
  8
0
100
AcDbCircle
 10
21.89256726983599
 20
20.95721399273849
 30
0.0
 40
0.0928457831337583
100
AcDbArc
 50
51.27513171721188
 51
128.7248682827829
  0
LEADER
  5
185C
330
1F
100
AcDbEntity
  8
DIM
100
AcDbLeader
  3
Standard
 76
     3
 10
26.15302604591222
 20
18.5392616508744
 30
0.0
 10
24.22396927543748
 20
14.54978459475811
 30
0.0
 10
25.28578122002774
 20
14.54978459475811
 30
0.0
1001
ACAD
1000
DSTYLE
1002
{
1070
   147
1040
0.14
1070
    77
1070
     0
1002
}
  0
MTEXT
  5
1864
330
1F
100
AcDbEntity
  8
DIM
100
AcDbMText
 10
28.83204884329363
 20
14.23456614816658
 30
0.0
 40
0.41
 41
0.0
 46
0.0
 71
     5
 72
     1
  1
\A1;HOLES ACCEPT SIZE #8\PSHEETMETAL SCREWS
 73
     1
 44
1.0
  0
LINE
  5
18C5
330
1F
100
AcDbEntity
  8
0
  6
Continuous
 62
     7
370
    15
100
AcDbLine
 10
21.79280602468337
 20
9.373746982044695
 30
0.0
 11
21.79280602468337
 21
6.87374690225895
 31
0.0
  0
LINE
  5
18C6
330
1F
100
AcDbEntity
  8
0
  6
Continuous
 62
     7
370
    15
100
AcDbLine
 10
21.79280602468337
 20
9.373746982044695
 30
0.0
 11
29.79280592800183
 21
9.373746982044695
 31
0.0
  0
LINE
  5
18C7
330
1F
100
AcDbEntity
  8
0
  6
Continuous
 62
     7
370
    15
100
AcDbLine
 10
29.79280592800183
 20
9.373746982044695
 30
0.0
 11
29.79280592800183
 21
6.87374690225895
 31
0.0
  0
LINE
  5
18C8
330
1F
100
AcDbEntity
  8
0
  6
Continuous
 62
     7
370
    15
100
AcDbLine
 10
21.79280602468337
 20
6.87374690225895
 30
0.0
 11
29.79280592800183
 21
6.87374690225895
 31
0.0
  0
CIRCLE
  5
18C9
330
1F
100
AcDbEntity
  8
0
  6
Continuous
 62
     7
370
    15
100
AcDbCircle
 10
22.7928059763426
 20
8.12374690225895
 30
0.0
 40
0.109499999999997
  0
CIRCLE
  5
18CA
330
1F
100
AcDbEntity
  8
0
  6
Continuous
 62
     7
370
    15
100
AcDbCircle
 10
28.79280597634259
 20
8.12374690225895
 30
0.0
 40
0.109499999999997
  0
LINE
  5
18CB
330
1F
100
AcDbEntity
  8
0
  6
Continuous
 62
     7
370
    15
100
AcDbLine
 10
29.79280592800183
 20
9.323746839650606
 30
0.0
 11
29.79280592800183
 21
9.373746982044695
 31
0.0
  0
LINE
  5
18CC
330
1F
100
AcDbEntity
  8
0
  6
Continuous
 62
     7
370
    15
100
AcDbLine
 10
21.79280602468337
 20
9.323746839650606
 30
0.0
 11
21.79280602468337
 21
9.373746982044695
 31
0.0
  0
LINE
  5
18CD
330
1F
100
AcDbEntity
  8
0
  6
HIDDEN
 62
     7
370
     0
100
AcDbLine
 10
29.74280607893767
 20
9.323746839650606
 30
0.0
 11
21.84280587374751
 21
9.323746839650606
 31
0.0
  0
LINE
  5
18CE
330
1F
100
AcDbEntity
  8
0
  6
HIDDEN
 62
     7
370
     0
100
AcDbLine
 10
29.74280607893767
 20
9.373746982044695
 30
0.0
 11
29.74280607893767
 21
9.323746839650606
 31
0.0
  0
LINE
  5
18CF
330
1F
100
AcDbEntity
  8
0
  6
HIDDEN
 62
     7
370
     0
100
AcDbLine
 10
29.74280607893767
 20
7.047746907196044
 30
0.0
 11
29.74280607893767
 21
6.923746902571346
 31
0.0
  0
LINE
  5
18D0
330
1F
100
AcDbEntity
  8
0
  6
HIDDEN
 62
     7
370
     0
100
AcDbLine
 10
29.74280607893767
 20
9.323746839650606
 30
0.0
 11
29.74280607893767
 21
9.249746881171109
 31
0.0
  0
LINE
  5
18D1
330
1F
100
AcDbEntity
  8
0
  6
HIDDEN
 62
     7
370
     0
100
AcDbLine
 10
29.06480588458711
 20
7.725746899882274
 30
0.0
 11
29.74280607893767
 21
7.047746907196044
 31
0.0
  0
LINE
  5
18D2
330
1F
100
AcDbEntity
  8
0
  6
HIDDEN
 62
     7
370
     0
100
AcDbLine
 10
29.06480588458711
 20
8.571746833485516
 30
0.0
 11
29.74280607893767
 21
9.249746881171109
 31
0.0
  0
LINE
  5
18D3
330
1F
100
AcDbEntity
  8
0
  6
HIDDEN
 62
     7
370
     0
100
AcDbLine
 10
21.84280587374751
 20
6.923746902571346
 30
0.0
 11
29.74280607893767
 21
6.923746902571346
 31
0.0
  0
LINE
  5
18D4
330
1F
100
AcDbEntity
  8
0
  6
HIDDEN
 62
     7
370
     0
100
AcDbLine
 10
29.06480588458711
 20
7.725746899882274
 30
0.0
 11
29.06480588458711
 21
8.571746833485516
 31
0.0
  0
LINE
  5
18D5
330
1F
100
AcDbEntity
  8
0
  6
HIDDEN
 62
     7
370
     0
100
AcDbLine
 10
22.52080606809808
 20
7.725746899882274
 30
0.0
 11
22.52080606809808
 21
8.571746833485516
 31
0.0
  0
LINE
  5
18D6
330
1F
100
AcDbEntity
  8
0
  6
HIDDEN
 62
     7
370
     0
100
AcDbLine
 10
22.52080606809808
 20
7.725746899882274
 30
0.0
 11
21.84280587374751
 21
7.047746907196044
 31
0.0
  0
LINE
  5
18D7
330
1F
100
AcDbEntity
  8
0
  6
HIDDEN
 62
     7
370
     0
100
AcDbLine
 10
22.52080606809808
 20
8.571746833485516
 30
0.0
 11
21.84280587374751
 21
9.249746881171109
 31
0.0
  0
LINE
  5
18D8
330
1F
100
AcDbEntity
  8
0
  6
HIDDEN
 62
     7
370
     0
100
AcDbLine
 10
21.84280587374751
 20
9.373746982044695
 30
0.0
 11
21.84280587374751
 21
9.323746839650606
 31
0.0
  0
LINE
  5
18D9
330
1F
100
AcDbEntity
  8
0
  6
HIDDEN
 62
     7
370
     0
100
AcDbLine
 10
21.84280587374751
 20
9.323746839650606
 30
0.0
 11
21.84280587374751
 21
9.249746881171109
 31
0.0
  0
LINE
  5
18DA
330
1F
100
AcDbEntity
  8
0
  6
HIDDEN
 62
     7
370
     0
100
AcDbLine
 10
21.84280587374751
 20
7.047746907196044
 30
0.0
 11
21.84280587374751
 21
6.923746902571346
 31
0.0
  0
LINE
  5
18DB
330
1F
100
AcDbEntity
  8
0
  6
HIDDEN
 62
     7
370
     0
100
AcDbLine
 10
29.74280607893767
 20
7.047746907196044
 30
0.0
 11
29.74280607893767
 21
9.249746881171109
 31
0.0
  0
LINE
  5
18DC
330
1F
100
AcDbEntity
  8
0
  6
HIDDEN
 62
     7
370
     0
100
AcDbLine
 10
21.84280587374751
 20
9.249746881171109
 30
0.0
 11
21.84280587374751
 21
7.047746907196044
 31
0.0
  0
LINE
  5
18DD
330
1F
100
AcDbEntity
  8
0
  6
HIDDEN
 62
     7
370
     0
100
AcDbLine
 10
22.29280598197453
 20
9.323746839650606
 30
0.0
 11
22.29280598197453
 21
9.373746982044695
 31
0.0
  0
LINE
  5
18DE
330
1F
100
AcDbEntity
  8
0
  6
HIDDEN
 62
     7
370
     0
100
AcDbLine
 10
29.29280597071066
 20
9.323746839650606
 30
0.0
 11
29.29280597071066
 21
9.373746982044695
 31
0.0
  0
LINE
  5
18DF
330
1F
100
AcDbEntity
  8
0
  6
HIDDEN
 62
     7
370
     0
100
AcDbLine
 10
29.74280607893767
 20
9.323746839650606
 30
0.0
 11
29.79280592800183
 21
9.323746839650606
 31
0.0
  0
LINE
  5
18E0
330
1F
100
AcDbEntity
  8
0
  6
HIDDEN
 62
     7
370
     0
100
AcDbLine
 10
21.79280602468337
 20
9.323746839650606
 30
0.0
 11
21.84280587374751
 21
9.323746839650606
 31
0.0
  0
LINE
  5
18E1
330
1F
100
AcDbEntity
  8
0
  6
HIDDEN
 62
     7
370
     0
100
AcDbLine
 10
29.41180611601084
 20
9.373746982044695
 30
0.0
 11
29.41180611601084
 21
9.323746839650606
 31
0.0
  0
LINE
  5
18E2
330
1F
100
AcDbEntity
  8
0
  6
HIDDEN
 62
     7
370
     0
100
AcDbLine
 10
29.54780590492966
 20
9.323746839650606
 30
0.0
 11
29.54780590492966
 21
9.373746982044695
 31
0.0
  0
LINE
  5
18E3
330
1F
100
AcDbEntity
  8
0
  6
HIDDEN
 62
     7
370
     0
100
AcDbLine
 10
22.03780604775553
 20
9.373746982044695
 30
0.0
 11
22.03780604775553
 21
9.323746839650606
 31
0.0
  0
LINE
  5
18E4
330
1F
100
AcDbEntity
  8
0
  6
HIDDEN
 62
     7
370
     0
100
AcDbLine
 10
22.17380583667436
 20
9.323746839650606
 30
0.0
 11
22.17380583667436
 21
9.373746982044695
 31
0.0
  0
INSERT
  5
18E5
330
1F
100
AcDbEntity
  8
0
  6
Continuous
 62
     7
370
     0
100
AcDbBlockReference
  2
SW_CENTERMARKSYMBOL_0
 10
22.79280597634258
 20
8.12374690225895
 30
0.0
  0
INSERT
  5
18E6
330
1F
100
AcDbEntity
  8
0
  6
Continuous
 62
     7
370
     0
100
AcDbBlockReference
  2
SW_CENTERMARKSYMBOL_1
 10
28.79280597634257
 20
8.12374690225895
 30
0.0
  0
ENDSEC
  0
SECTION
  2
OBJECTS
  0
DICTIONARY
  5
C
330
0
100
AcDbDictionary
281
     1
  3
ACAD_COLOR
350
FC
  3
ACAD_GROUP
350
D
  3
ACAD_LAYOUT
350
1A
  3
ACAD_MATERIAL
350
E7
  3
ACAD_MLINESTYLE
350
17
  3
ACAD_PLOTSETTINGS
350
19
  3
ACAD_PLOTSTYLENAME
350
E
  3
ACAD_TABLESTYLE
350
FD
  3
ACAD_VISUALSTYLE
350
EB
  3
AcadDim
350
17BB
  3
AcDbVariableDictionary
350
3CB
  0
DICTIONARY
  5
4DC
330
8
100
AcDbDictionary
280
     1
281
     1
  0
DICTIONARY
  5
61E
330
2
100
AcDbDictionary
280
     1
281
     1
  3
ACAD_LAYERFILTERS
360
622
  3
ACLYDICTIONARY
360
621
  0
DICTIONARY
  5
17B1
330
1F
100
AcDbDictionary
280
     1
281
     1
  3
ACAD_SORTENTS
360
17B2
  0
DICTIONARY
  5
40A
330
409
100
AcDbDictionary
280
     1
281
     1
  3
ACAD_SORTENTS
360
40B
  0
DICTIONARY
  5
FC
102
{ACAD_REACTORS
330
C
102
}
330
C
100
AcDbDictionary
281
     1
  0
DICTIONARY
  5
D
102
{ACAD_REACTORS
330
C
102
}
330
C
100
AcDbDictionary
281
     1
  0
DICTIONARY
  5
1A
102
{ACAD_REACTORS
330
C
102
}
330
C
100
AcDbDictionary
281
     1
  3
Layout1
350
1E
  3
Layout2
350
26
  3
Model
350
22
  0
DICTIONARY
  5
E7
102
{ACAD_REACTORS
330
C
102
}
330
C
100
AcDbDictionary
281
     1
  3
ByBlock
350
E9
  3
ByLayer
350
E8
  3
Global
350
EA
  0
DICTIONARY
  5
17
102
{ACAD_REACTORS
330
C
102
}
330
C
100
AcDbDictionary
281
     1
  3
Standard
350
18
  0
DICTIONARY
  5
19
102
{ACAD_REACTORS
330
C
102
}
330
C
100
AcDbDictionary
281
     1
  3
jpg
350
D93
  3
pdf
350
D8A
  0
ACDBDICTIONARYWDFLT
  5
E
102
{ACAD_REACTORS
330
C
102
}
330
C
100
AcDbDictionary
281
     1
  3
Normal
350
F
100
AcDbDictionaryWithDefault
340
F
  0
DICTIONARY
  5
FD
102
{ACAD_REACTORS
330
C
102
}
330
C
100
AcDbDictionary
281
     1
  3
Standard
350
FE
  0
DICTIONARY
  5
EB
102
{ACAD_REACTORS
330
C
102
}
330
C
100
AcDbDictionary
281
     1
  3
2dWireframe
350
F1
  3
3D Hidden
350
F3
  3
3dWireframe
350
F2
  3
Basic
350
F0
  3
Brighten
350
F7
  3
ColorChange
350
FB
  3
Conceptual
350
F4
  3
Dim
350
F6
  3
Facepattern
350
FA
  3
Flat
350
EC
  3
FlatWithEdges
350
ED
  3
Gouraud
350
EE
  3
GouraudWithEdges
350
EF
  3
Linepattern
350
F9
  3
Realistic
350
F5
  3
Thicken
350
F8
  0
XRECORD
  5
17BB
102
{ACAD_REACTORS
330
C
102
}
330
C
100
AcDbXrecord
280
     1
 90
   990106
  3

 60
     0
 61
     0
 62
     1
 63
     3
 64
     0
 65
     0
 66
     0
 67
     3
 68
     1
 69
     0
 70
     0
 71
     0
 72
     0
 40
0.0
170
     0
  0
DICTIONARY
  5
3CB
102
{ACAD_REACTORS
330
C
102
}
330
C
100
AcDbDictionary
281
     1
  3
CTABLESTYLE
350
3CC
  0
DICTIONARY
  5
622
102
{ACAD_REACTORS
330
61E
102
}
330
61E
100
AcDbDictionary
281
     1
  0
DICTIONARY
  5
621
102
{ACAD_REACTORS
330
61E
102
}
330
61E
100
AcDbDictionary
281
     1
1001
ACAD
1000
<All
  0
SORTENTSTABLE
  5
17B2
102
{ACAD_REACTORS
330
17B1
102
}
330
17B1
100
AcDbSortentsTable
330
1F
331
EA9
  5
EA9
331
444
  5
444
331
44C
  5
44C
331
F27
  5
F27
331
172A
  5
172A
331
EB1
  5
EB1
331
454
  5
454
331
F2F
  5
F2F
331
EB9
  5
EB9
331
F37
  5
F37
331
EC1
  5
EC1
331
1771
  5
1771
331
EC9
  5
EC9
331
F3F
  5
F3F
331
F47
  5
F47
331
F4F
  5
F4F
331
43D
  5
43D
331
EAA
  5
EAA
331
445
  5
445
331
44D
  5
44D
331
EB2
  5
EB2
331
455
  5
455
331
F28
  5
F28
331
EBA
  5
EBA
331
F30
  5
F30
331
F38
  5
F38
331
EC2
  5
EC2
331
F40
  5
F40
331
ECA
  5
ECA
331
F48
  5
F48
331
43E
  5
43E
331
F50
  5
F50
331
EAB
  5
EAB
331
446
  5
446
331
44E
  5
44E
331
F29
  5
F29
331
EB3
  5
EB3
331
456
  5
456
331
F31
  5
F31
331
EBB
  5
EBB
331
EC3
  5
EC3
331
F39
  5
F39
331
ECB
  5
ECB
331
F41
  5
F41
331
F49
  5
F49
331
F51
  5
F51
331
EA4
  5
EA4
331
43F
  5
43F
331
447
  5
447
331
EAC
  5
EAC
331
44F
  5
44F
331
171D
  5
171D
331
1764
  5
1764
331
EB4
  5
EB4
331
457
  5
457
331
F2A
  5
F2A
331
EBC
  5
EBC
331
F32
  5
F32
331
F3A
  5
F3A
331
EC4
  5
EC4
331
F42
  5
F42
331
1784
  5
1784
331
170E
  5
170E
331
F4A
  5
F4A
331
EA5
  5
EA5
331
440
  5
440
331
F52
  5
F52
331
1755
  5
1755
331
EAD
  5
EAD
331
448
  5
448
331
450
  5
450
331
F2B
  5
F2B
331
EB5
  5
EB5
331
D5F
  5
D5F
331
F33
  5
F33
331
EBD
  5
EBD
331
EC5
  5
EC5
331
F3B
  5
F3B
331
F43
  5
F43
331
16FF
  5
16FF
331
F4B
  5
F4B
331
EA6
  5
EA6
331
441
  5
441
331
449
  5
449
331
EAE
  5
EAE
331
451
  5
451
331
EB6
  5
EB6
331
F2C
  5
F2C
331
16F0
  5
16F0
331
EBE
  5
EBE
331
F34
  5
F34
331
F3C
  5
F3C
331
EC6
  5
EC6
331
F44
  5
F44
331
F4C
  5
F4C
331
EA7
  5
EA7
331
442
  5
442
331
EAF
  5
EAF
331
44A
  5
44A
331
F2D
  5
F2D
331
EB7
  5
EB7
331
F35
  5
F35
331
EBF
  5
EBF
331
EC7
  5
EC7
331
F3D
  5
F3D
331
F45
  5
F45
331
F4D
  5
F4D
331
EA8
  5
EA8
331
443
  5
443
331
44B
  5
44B
331
EB0
  5
EB0
331
453
  5
453
331
EB8
  5
EB8
331
F2E
  5
F2E
331
EC0
  5
EC0
331
50B
  5
50B
331
F36
  5
F36
331
F3E
  5
F3E
331
EC8
  5
EC8
331
1739
  5
1739
331
F46
  5
F46
331
F4E
  5
F4E
  0
SORTENTSTABLE
  5
40B
102
{ACAD_REACTORS
330
40A
102
}
330
40A
100
AcDbSortentsTable
330
409
331
410
  5
69
331
40E
  5
6B
331
40F
  5
6D
331
40D
  5
6A
  0
LAYOUT
  5
1E
102
{ACAD_REACTORS
330
1A
102
}
330
1A
100
AcDbPlotSettings
  1

  2
none_device
  4

  6

 40
0.0
 41
0.0
 42
0.0
 43
0.0
 44
0.0
 45
0.0
 46
0.0
 47
0.0
 48
0.0
 49
0.0
140
0.0
141
0.0
142
1.0
143
1.0
 70
   688
 72
     0
 73
     0
 74
     5
  7

 75
    16
147
1.0
 76
     0
 77
     2
 78
   300
148
0.0
149
0.0
100
AcDbLayout
  1
Layout1
 70
     1
 71
     1
 10
0.0
 20
0.0
 11
12.0
 21
9.0
 12
0.0
 22
0.0
 32
0.0
 14
1.000000000000000E+20
 24
1.000000000000000E+20
 34
1.000000000000000E+20
 15
-1.000000000000000E+20
 25
-1.000000000000000E+20
 35
-1.000000000000000E+20
146
0.0
 13
0.0
 23
0.0
 33
0.0
 16
1.0
 26
0.0
 36
0.0
 17
0.0
 27
1.0
 37
0.0
 76
     0
330
1B
  0
LAYOUT
  5
26
102
{ACAD_REACTORS
330
1A
102
}
330
1A
100
AcDbPlotSettings
  1

  2
none_device
  4

  6

 40
0.0
 41
0.0
 42
0.0
 43
0.0
 44
0.0
 45
0.0
 46
0.0
 47
0.0
 48
0.0
 49
0.0
140
0.0
141
0.0
142
1.0
143
1.0
 70
   688
 72
     0
 73
     0
 74
     5
  7

 75
    16
147
1.0
 76
     0
 77
     2
 78
   300
148
0.0
149
0.0
100
AcDbLayout
  1
Layout2
 70
     1
 71
     2
 10
0.0
 20
0.0
 11
0.0
 21
0.0
 12
0.0
 22
0.0
 32
0.0
 14
0.0
 24
0.0
 34
0.0
 15
0.0
 25
0.0
 35
0.0
146
0.0
 13
0.0
 23
0.0
 33
0.0
 16
1.0
 26
0.0
 36
0.0
 17
0.0
 27
1.0
 37
0.0
 76
     0
330
23
  0
LAYOUT
  5
22
102
{ACAD_REACTORS
330
1A
102
}
330
1A
100
AcDbPlotSettings
  1

  2
none_device
  4
Letter_(8.50_x_11.00_Inches)
  6

 40
6.349999904632568
 41
6.349999904632568
 42
6.350006103515625
 43
6.350006103515625
 44
215.8999938964844
 45
279.3999938964844
 46
0.0
 47
0.0
 48
0.0
 49
0.0
140
0.0
141
0.0
142
1.0
143
2.383658744906425
 70
 11952
 72
     0
 73
     1
 74
     0
  7

 75
     0
147
0.4195231394329716
 76
     0
 77
     2
 78
   300
148
135.2900774710282
149
-27.52084133435472
100
AcDbLayout
  1
Model
 70
     1
 71
     0
 10
0.0
 20
0.0
 11
16.53543307086614
 21
11.69291338582677
 12
0.0
 22
0.0
 32
0.0
 14
0.0
 24
0.0
 34
0.0
 15
16.53543307086614
 25
11.69291338582677
 35
0.0
146
0.0
 13
0.0
 23
0.0
 33
0.0
 16
1.0
 26
0.0
 36
0.0
 17
0.0
 27
1.0
 37
0.0
 76
     0
330
1F
331
29
1001
ACAD_PSEXT
1000
None
1000
None
1000
Not applicable
1000
The layout will not be plotted unless a new plotter configuration name is selected.
1070
     0
  0
MATERIAL
  5
E9
102
{ACAD_REACTORS
330
E7
102
}
330
E7
100
AcDbMaterial
  1
ByBlock
  0
MATERIAL
  5
E8
102
{ACAD_REACTORS
330
E7
102
}
330
E7
100
AcDbMaterial
  1
ByLayer
  0
MATERIAL
  5
EA
102
{ACAD_REACTORS
330
E7
102
}
330
E7
100
AcDbMaterial
  1
Global
  0
MLINESTYLE
  5
18
102
{ACAD_REACTORS
330
17
102
}
330
17
100
AcDbMlineStyle
  2
STANDARD
 70
     0
  3

 62
   256
 51
90.0
 52
90.0
 71
     2
 49
0.5
 62
   256
  6
BYLAYER
 49
-0.5
 62
   256
  6
BYLAYER
  0
PLOTSETTINGS
  5
D93
102
{ACAD_REACTORS
330
19
102
}
330
19
100
AcDbPlotSettings
  1
jpg
  2
PublishToWeb JPG.pc3
  4
User-1
  6

 40
75.0
 41
75.0
 42
75.000244140625
 43
75.000244140625
 44
2550.0
 45
3300.0
 46
7.281523769336445
 47
0.0
 48
0.0
 49
0.0
140
35.9606480338857
141
27.23233540430192
142
1.0
143
0.0114160796257189
 70
 11956
 72
     2
 73
     1
 74
     4
  7

 75
     0
147
87.59574501803003
 76
     0
 77
     2
 78
   300
148
0.0
149
0.0
1001
ACAD_PSEXT
1000
PublishToWeb JPG.pc3
1000
Independent JPEG Group JFIF (JPEG Compression)
1000
File
1000

1070
     0
  0
PLOTSETTINGS
  5
D8A
102
{ACAD_REACTORS
330
19
102
}
330
19
100
AcDbPlotSettings
  1
pdf
  2
DWG To PDF.pc3
  4
ISO_expand_A1_(841.00_x_594.00_MM)
  6

 40
5.793749809265136
 41
10.79374980926513
 42
5.79376220703125
 43
10.79376220703125
 44
841.0
 45
594.0
 46
36.76722948979278
 47
0.0
 48
0.0
 49
0.0
140
35.9606480338857
141
27.23233540430192
142
1.0
143
0.0475746703224917
 70
 11956
 72
     1
 73
     0
 74
     4
  7

 75
     0
147
21.01958864289249
 76
     0
 77
     2
 78
   300
148
0.0
149
0.0
1001
ACAD_PSEXT
1000
DWG To PDF.pc3
1000
PDF
1000
File
1000

1070
     0
  0
ACDBPLACEHOLDER
  5
F
102
{ACAD_REACTORS
330
E
102
}
330
E
  0
TABLESTYLE
  5
FE
102
{ACAD_REACTORS
330
FD
102
}
330
FD
100
AcDbTableStyle
  3
Standard
 70
     0
 71
     0
 40
0.06
 41
0.06
280
     0
281
     0
  7
Standard
140
0.18
170
     2
 62
     0
 63
     7
283
     0
 90
      512
 91
        0
  1

274
    -2
284
     1
 64
     0
275
    -2
285
     1
 65
     0
276
    -2
286
     1
 66
     0
277
    -2
287
     1
 67
     0
278
    -2
288
     1
 68
     0
279
    -2
289
     1
 69
     0
  7
Standard
140
0.25
170
     5
 62
     0
 63
     7
283
     0
 90
      512
 91
        0
  1

274
    -2
284
     1
 64
     0
275
    -2
285
     1
 65
     0
276
    -2
286
     1
 66
     0
277
    -2
287
     1
 67
     0
278
    -2
288
     1
 68
     0
279
    -2
289
     1
 69
     0
  7
Standard
140
0.18
170
     5
 62
     0
 63
     7
283
     0
 90
      512
 91
        0
  1

274
    -2
284
     1
 64
     0
275
    -2
285
     1
 65
     0
276
    -2
286
     1
 66
     0
277
    -2
287
     1
 67
     0
278
    -2
288
     1
 68
     0
279
    -2
289
     1
 69
     0
  0
VISUALSTYLE
  5
F1
102
{ACAD_REACTORS
330
EB
102
}
330
EB
100
AcDbVisualStyle
  2
2dWireframe
 70
     4
 71
     0
 72
     2
 73
     0
 90
        0
 40
-0.6
 41
-30.0
 62
     5
 63
     7
421
 16777215
 74
     1
 91
        4
 64
     7
 65
   257
 75
     1
175
     1
 42
1.0
 92
        0
 66
   257
 43
1.0
 76
     1
 77
     6
 78
     2
 67
     7
 79
     5
170
     0
171
     0
290
     0
174
     0
 93
        1
 44
0.0
173
     0
291
     0
 45
0.0
  0
VISUALSTYLE
  5
F3
102
{ACAD_REACTORS
330
EB
102
}
330
EB
100
AcDbVisualStyle
  2
3D Hidden
 70
     6
 71
     1
 72
     2
 73
     2
 90
        0
 40
-0.6
 41
-30.0
 62
     5
 63
     7
421
 16777215
 74
     2
 91
        2
 64
     7
 65
   257
 75
     2
175
     1
 42
40.0
 92
        0
 66
   257
 43
1.0
 76
     1
 77
     6
 78
     2
 67
     7
 79
     3
170
     0
171
     0
290
     0
174
     0
 93
        1
 44
0.0
173
     0
291
     0
 45
0.0
  0
VISUALSTYLE
  5
F2
102
{ACAD_REACTORS
330
EB
102
}
330
EB
100
AcDbVisualStyle
  2
3dWireframe
 70
     5
 71
     0
 72
     2
 73
     0
 90
        0
 40
-0.6
 41
-30.0
 62
     5
 63
     7
421
 16777215
 74
     1
 91
        4
 64
     7
 65
   257
 75
     1
175
     1
 42
1.0
 92
        0
 66
   257
 43
1.0
 76
     1
 77
     6
 78
     2
 67
     7
 79
     5
170
     0
171
     0
290
     0
174
     0
 93
        1
 44
0.0
173
     0
291
     0
 45
0.0
  0
VISUALSTYLE
  5
F0
102
{ACAD_REACTORS
330
EB
102
}
330
EB
100
AcDbVisualStyle
  2
Basic
 70
     7
 71
     1
 72
     0
 73
     1
 90
        0
 40
-0.6
 41
-30.0
 62
     5
 63
     7
421
 16777215
 74
     0
 91
        4
 64
     7
 65
   257
 75
     1
175
     1
 42
1.0
 92
        8
 66
     7
 43
1.0
 76
     1
 77
     6
 78
     2
 67
     7
 79
     5
170
     0
171
     0
290
     0
174
     0
 93
        1
 44
0.0
173
     0
291
     1
 45
0.0
  0
VISUALSTYLE
  5
F7
102
{ACAD_REACTORS
330
EB
102
}
330
EB
100
AcDbVisualStyle
  2
Brighten
 70
    12
 71
     2
 72
     2
 73
     0
 90
        0
 40
-0.6
 41
-30.0
 62
     5
 63
     7
421
 16777215
 74
     1
 91
        4
 64
     7
 65
   257
 75
     1
175
     1
 42
1.0
 92
        8
 66
     7
 43
1.0
 76
     1
 77
     6
 78
     2
 67
     7
 79
     5
170
     0
171
     0
290
     0
174
     0
 93
        1
 44
50.0
173
     0
291
     1
 45
0.0
  0
VISUALSTYLE
  5
FB
102
{ACAD_REACTORS
330
EB
102
}
330
EB
100
AcDbVisualStyle
  2
ColorChange
 70
    16
 71
     2
 72
     2
 73
     3
 90
        0
 40
-0.6
 41
-30.0
 62
     5
 63
     8
421
  8421504
 74
     1
 91
        4
 64
     7
 65
   257
 75
     1
175
     1
 42
1.0
 92
        8
 66
     8
424
  8421504
 43
1.0
 76
     1
 77
     6
 78
     2
 67
     7
 79
     5
170
     0
171
     0
290
     0
174
     0
 93
        1
 44
0.0
173
     0
291
     1
 45
0.0
  0
VISUALSTYLE
  5
F4
102
{ACAD_REACTORS
330
EB
102
}
330
EB
100
AcDbVisualStyle
  2
Conceptual
 70
     9
 71
     3
 72
     2
 73
     0
 90
        0
 40
-0.6
 41
-30.0
 62
     5
 63
     7
421
 16777215
 74
     2
 91
        2
 64
     7
 65
   257
 75
     1
175
     1
 42
40.0
 92
        8
 66
     7
 43
1.0
 76
     1
 77
     6
 78
     2
 67
     7
 79
     3
170
     0
171
     0
290
     0
174
     0
 93
        1
 44
0.0
173
     0
291
     0
 45
0.0
  0
VISUALSTYLE
  5
F6
102
{ACAD_REACTORS
330
EB
102
}
330
EB
100
AcDbVisualStyle
  2
Dim
 70
    11
 71
     2
 72
     2
 73
     0
 90
        0
 40
-0.6
 41
-30.0
 62
     5
 63
     7
421
 16777215
 74
     1
 91
        4
 64
     7
 65
   257
 75
     1
175
     1
 42
1.0
 92
        8
 66
     7
 43
1.0
 76
     1
 77
     6
 78
     2
 67
     7
 79
     5
170
     0
171
     0
290
     0
174
     0
 93
        1
 44
-50.0
173
     0
291
     1
 45
0.0
  0
VISUALSTYLE
  5
FA
102
{ACAD_REACTORS
330
EB
102
}
330
EB
100
AcDbVisualStyle
  2
Facepattern
 70
    15
 71
     2
 72
     2
 73
     0
 90
        0
 40
-0.6
 41
-30.0
 62
     5
 63
     7
421
 16777215
 74
     1
 91
        4
 64
     7
 65
   257
 75
     1
175
     1
 42
1.0
 92
        8
 66
     7
 43
1.0
 76
     1
 77
     6
 78
     2
 67
     7
 79
     5
170
     0
171
     0
290
     0
174
     0
 93
        1
 44
0.0
173
     0
291
     1
 45
0.0
  0
VISUALSTYLE
  5
EC
102
{ACAD_REACTORS
330
EB
102
}
330
EB
100
AcDbVisualStyle
  2
Flat
 70
     0
 71
     2
 72
     1
 73
     1
 90
        2
 40
-0.6
 41
30.0
 62
     5
 63
     7
421
 16777215
 74
     0
 91
        4
 64
     7
 65
   257
 75
     1
175
     1
 42
1.0
 92
        8
 66
     7
 43
1.0
 76
     1
 77
     6
 78
     2
 67
     7
 79
     5
170
     0
171
     0
290
     0
174
     0
 93
       13
 44
0.0
173
     0
291
     1
 45
0.0
  0
VISUALSTYLE
  5
ED
102
{ACAD_REACTORS
330
EB
102
}
330
EB
100
AcDbVisualStyle
  2
FlatWithEdges
 70
     1
 71
     2
 72
     1
 73
     1
 90
        2
 40
-0.6
 41
30.0
 62
     5
 63
     7
421
 16777215
 74
     1
 91
        4
 64
     7
 65
   257
 75
     1
175
     1
 42
1.0
 92
        0
 66
   257
 43
1.0
 76
     1
 77
     6
 78
     2
 67
     7
 79
     5
170
     0
171
     0
290
     0
174
     0
 93
       13
 44
0.0
173
     0
291
     1
 45
0.0
  0
VISUALSTYLE
  5
EE
102
{ACAD_REACTORS
330
EB
102
}
330
EB
100
AcDbVisualStyle
  2
Gouraud
 70
     2
 71
     2
 72
     2
 73
     1
 90
        2
 40
-0.6
 41
30.0
 62
     5
 63
     7
421
 16777215
 74
     0
 91
        4
 64
     7
 65
   257
 75
     1
175
     1
 42
1.0
 92
        0
 66
     7
 43
1.0
 76
     1
 77
     6
 78
     2
 67
     7
 79
     5
170
     0
171
     0
290
     0
174
     0
 93
       13
 44
0.0
173
     0
291
     1
 45
0.0
  0
VISUALSTYLE
  5
EF
102
{ACAD_REACTORS
330
EB
102
}
330
EB
100
AcDbVisualStyle
  2
GouraudWithEdges
 70
     3
 71
     2
 72
     2
 73
     1
 90
        2
 40
-0.6
 41
30.0
 62
     5
 63
     7
421
 16777215
 74
     1
 91
        4
 64
     7
 65
   257
 75
     1
175
     1
 42
1.0
 92
        0
 66
   257
 43
1.0
 76
     1
 77
     6
 78
     2
 67
     7
 79
     5
170
     0
171
     0
290
     0
174
     0
 93
       13
 44
0.0
173
     0
291
     1
 45
0.0
  0
VISUALSTYLE
  5
F9
102
{ACAD_REACTORS
330
EB
102
}
330
EB
100
AcDbVisualStyle
  2
Linepattern
 70
    14
 71
     2
 72
     2
 73
     0
 90
        0
 40
-0.6
 41
-30.0
 62
     5
 63
     7
421
 16777215
 74
     1
 91
        4
 64
     7
 65
   257
 75
     7
175
     7
 42
1.0
 92
        8
 66
     7
 43
1.0
 76
     1
 77
     6
 78
     2
 67
     7
 79
     5
170
     0
171
     0
290
     0
174
     0
 93
        1
 44
0.0
173
     0
291
     1
 45
0.0
  0
VISUALSTYLE
  5
F5
102
{ACAD_REACTORS
330
EB
102
}
330
EB
100
AcDbVisualStyle
  2
Realistic
 70
     8
 71
     2
 72
     2
 73
     0
 90
        0
 40
-0.6
 41
-30.0
 62
     5
 63
     7
421
 16777215
 74
     1
 91
        0
 64
     7
 65
   257
 75
     1
175
     1
 42
1.0
 92
        8
 66
     8
424
  7895160
 43
1.0
 76
     1
 77
     6
 78
     2
 67
     7
 79
     5
170
     0
171
     0
290
     0
174
     0
 93
       13
 44
0.0
173
     0
291
     0
 45
0.0
  0
VISUALSTYLE
  5
F8
102
{ACAD_REACTORS
330
EB
102
}
330
EB
100
AcDbVisualStyle
  2
Thicken
 70
    13
 71
     2
 72
     2
 73
     0
 90
        0
 40
-0.6
 41
-30.0
 62
     5
 63
     7
421
 16777215
 74
     1
 91
        4
 64
     7
 65
   257
 75
     1
175
     1
 42
1.0
 92
       12
 66
     7
 43
1.0
 76
     1
 77
     6
 78
     2
 67
     7
 79
     5
170
     0
171
     0
290
     0
174
     0
 93
        1
 44
0.0
173
     0
291
     1
 45
0.0
  0
DICTIONARYVAR
  5
3CC
102
{ACAD_REACTORS
330
3CB
102
}
330
3CB
100
DictionaryVariables
280
     0
  1
STANDARD
  0
ENDSEC
  0
EOF
