  0
SECTION
  2
HEADER
  9
$ACADVER
  1
AC1018
  9
$ACADMAINTVER
 70
   104
  9
$DWGCODEPAGE
  3
ANSI_1252
  9
$AUTHOR
  1
‘Created by Cad / Cam Services, Inc. for Amazon Services LLC on January, 2013’
  9
$LASTSAVEDBY
  1
jsr
  9
$INSBASE
 10
0.0
 20
0.0
 30
0.0
  9
$EXTMIN
 10
-0.0006291670790546
 20
-0.00071363523519
 30
-0.0000000349181948
  9
$EXTMAX
 10
10.94469081713844
 20
8.288918523264186
 30
0.0000000814935746
  9
$LIMMIN
 10
0.0
 20
0.0
  9
$LIMMAX
 10
16.53543307086614
 20
11.69291338582677
  9
$ORTHOMODE
 70
     1
  9
$REGENMODE
 70
     1
  9
$FILLMODE
 70
     1
  9
$QTEXTMODE
 70
     0
  9
$MIRRTEXT
 70
     1
  9
$LTSCALE
 40
1.0
  9
$ATTMODE
 70
     1
  9
$TEXTSIZE
 40
0.2
  9
$TRACEWID
 40
0.05
  9
$TEXTSTYLE
  7
SLDTEXTSTYLE0
  9
$CLAYER
  8
0
  9
$CELTYPE
  6
ByLayer
  9
$CECOLOR
 62
   256
  9
$CELTSCALE
 40
1.0
  9
$DISPSILH
 70
     0
  9
$DIMSCALE
 40
1.0
  9
$DIMASZ
 40
0.11
  9
$DIMEXO
 40
0.06
  9
$DIMDLI
 40
0.38
  9
$DIMRND
 40
0.0
  9
$DIMDLE
 40
0.0
  9
$DIMEXE
 40
0.06
  9
$DIMTP
 40
0.0
  9
$DIMTM
 40
0.0
  9
$DIMTXT
 40
0.11
  9
$DIMCEN
 40
0.09
  9
$DIMTSZ
 40
0.0
  9
$DIMTOL
 70
     0
  9
$DIMLIM
 70
     0
  9
$DIMTIH
 70
     0
  9
$DIMTOH
 70
     0
  9
$DIMSE1
 70
     0
  9
$DIMSE2
 70
     0
  9
$DIMTAD
 70
     1
  9
$DIMZIN
 70
     0
  9
$DIMBLK
  1

  9
$DIMASO
 70
     1
  9
$DIMSHO
 70
     1
  9
$DIMPOST
  1

  9
$DIMAPOST
  1

  9
$DIMALT
 70
     0
  9
$DIMALTD
 70
     2
  9
$DIMALTF
 40
25.4
  9
$DIMLFAC
 40
1.0
  9
$DIMTOFL
 70
     1
  9
$DIMTVP
 40
0.0
  9
$DIMTIX
 70
     0
  9
$DIMSOXD
 70
     0
  9
$DIMSAH
 70
     0
  9
$DIMBLK1
  1

  9
$DIMBLK2
  1

  9
$DIMSTYLE
  2
Standard
  9
$DIMCLRD
 70
     0
  9
$DIMCLRE
 70
     0
  9
$DIMCLRT
 70
     0
  9
$DIMTFAC
 40
1.0
  9
$DIMGAP
 40
0.05
  9
$DIMJUST
 70
     0
  9
$DIMSD1
 70
     0
  9
$DIMSD2
 70
     0
  9
$DIMTOLJ
 70
     1
  9
$DIMTZIN
 70
     0
  9
$DIMALTZ
 70
     0
  9
$DIMALTTZ
 70
     0
  9
$DIMUPT
 70
     0
  9
$DIMDEC
 70
     3
  9
$DIMTDEC
 70
     3
  9
$DIMALTU
 70
     2
  9
$DIMALTTD
 70
     2
  9
$DIMTXSTY
  7
Standard
  9
$DIMAUNIT
 70
     0
  9
$DIMADEC
 70
     0
  9
$DIMALTRND
 40
0.0
  9
$DIMAZIN
 70
     0
  9
$DIMDSEP
 70
    46
  9
$DIMATFIT
 70
     3
  9
$DIMFRAC
 70
     0
  9
$DIMLDRBLK
  1

  9
$DIMLUNIT
 70
     2
  9
$DIMLWD
 70
    -2
  9
$DIMLWE
 70
    -2
  9
$DIMTMOVE
 70
     0
  9
$LUNITS
 70
     2
  9
$LUPREC
 70
     2
  9
$SKETCHINC
 40
0.1
  9
$FILLETRAD
 40
0.0
  9
$AUNITS
 70
     0
  9
$AUPREC
 70
     2
  9
$MENU
  1
.
  9
$ELEVATION
 40
0.0
  9
$PELEVATION
 40
0.0
  9
$THICKNESS
 40
0.0
  9
$LIMCHECK
 70
     0
  9
$CHAMFERA
 40
0.5
  9
$CHAMFERB
 40
0.5
  9
$CHAMFERC
 40
1.0
  9
$CHAMFERD
 40
0.0
  9
$SKPOLY
 70
     0
  9
$TDCREATE
 40
2456293.535958472
  9
$TDUCREATE
 40
2456293.348458472
  9
$TDUPDATE
 40
2456365.495909468
  9
$TDUUPDATE
 40
2456365.308409468
  9
$TDINDWG
 40
0.0072460995
  9
$TDUSRTIMER
 40
0.0072460995
  9
$USRTIMER
 70
     1
  9
$ANGBASE
 50
0.0
  9
$ANGDIR
 70
     0
  9
$PDMODE
 70
     0
  9
$PDSIZE
 40
-1.0
  9
$PLINEWID
 40
0.0
  9
$SPLFRAME
 70
     0
  9
$SPLINETYPE
 70
     6
  9
$SPLINESEGS
 70
     8
  9
$HANDSEED
  5
1B5E
  9
$SURFTAB1
 70
     6
  9
$SURFTAB2
 70
     6
  9
$SURFTYPE
 70
     6
  9
$SURFU
 70
     6
  9
$SURFV
 70
     6
  9
$UCSBASE
  2

  9
$UCSNAME
  2

  9
$UCSORG
 10
0.0
 20
0.0
 30
0.0
  9
$UCSXDIR
 10
1.0
 20
0.0
 30
0.0
  9
$UCSYDIR
 10
0.0
 20
1.0
 30
0.0
  9
$UCSORTHOREF
  2

  9
$UCSORTHOVIEW
 70
     0
  9
$UCSORGTOP
 10
0.0
 20
0.0
 30
0.0
  9
$UCSORGBOTTOM
 10
0.0
 20
0.0
 30
0.0
  9
$UCSORGLEFT
 10
0.0
 20
0.0
 30
0.0
  9
$UCSORGRIGHT
 10
0.0
 20
0.0
 30
0.0
  9
$UCSORGFRONT
 10
0.0
 20
0.0
 30
0.0
  9
$UCSORGBACK
 10
0.0
 20
0.0
 30
0.0
  9
$PUCSBASE
  2

  9
$PUCSNAME
  2

  9
$PUCSORG
 10
0.0
 20
0.0
 30
0.0
  9
$PUCSXDIR
 10
1.0
 20
0.0
 30
0.0
  9
$PUCSYDIR
 10
0.0
 20
1.0
 30
0.0
  9
$PUCSORTHOREF
  2

  9
$PUCSORTHOVIEW
 70
     0
  9
$PUCSORGTOP
 10
0.0
 20
0.0
 30
0.0
  9
$PUCSORGBOTTOM
 10
0.0
 20
0.0
 30
0.0
  9
$PUCSORGLEFT
 10
0.0
 20
0.0
 30
0.0
  9
$PUCSORGRIGHT
 10
0.0
 20
0.0
 30
0.0
  9
$PUCSORGFRONT
 10
0.0
 20
0.0
 30
0.0
  9
$PUCSORGBACK
 10
0.0
 20
0.0
 30
0.0
  9
$USERI1
 70
     0
  9
$USERI2
 70
     0
  9
$USERI3
 70
     0
  9
$USERI4
 70
     0
  9
$USERI5
 70
     0
  9
$USERR1
 40
0.0
  9
$USERR2
 40
0.0
  9
$USERR3
 40
0.0
  9
$USERR4
 40
0.0
  9
$USERR5
 40
0.0
  9
$WORLDVIEW
 70
     1
  9
$SHADEDGE
 70
     3
  9
$SHADEDIF
 70
    70
  9
$TILEMODE
 70
     1
  9
$MAXACTVP
 70
    64
  9
$PINSBASE
 10
0.0
 20
0.0
 30
0.0
  9
$PLIMCHECK
 70
     0
  9
$PEXTMIN
 10
1.000000000000000E+20
 20
1.000000000000000E+20
 30
1.000000000000000E+20
  9
$PEXTMAX
 10
-1.000000000000000E+20
 20
-1.000000000000000E+20
 30
-1.000000000000000E+20
  9
$PLIMMIN
 10
0.0
 20
0.0
  9
$PLIMMAX
 10
12.0
 20
9.0
  9
$UNITMODE
 70
     0
  9
$VISRETAIN
 70
     1
  9
$PLINEGEN
 70
     0
  9
$PSLTSCALE
 70
     1
  9
$TREEDEPTH
 70
  3020
  9
$CMLSTYLE
  2
Standard
  9
$CMLJUST
 70
     0
  9
$CMLSCALE
 40
1.0
  9
$PROXYGRAPHICS
 70
     1
  9
$MEASUREMENT
 70
     0
  9
$CELWEIGHT
370
    -1
  9
$ENDCAPS
280
     0
  9
$JOINSTYLE
280
     0
  9
$LWDISPLAY
290
     1
  9
$INSUNITS
 70
     1
  9
$HYPERLINKBASE
  1

  9
$STYLESHEET
  1

  9
$XEDIT
290
     1
  9
$CEPSNTYPE
380
     0
  9
$PSTYLEMODE
290
     1
  9
$FINGERPRINTGUID
  2
{456611E4-6F54-4E60-B971-31E828CE7066}
  9
$VERSIONGUID
  2
{7C7169F8-7797-4775-A7D6-89C3ABACF446}
  9
$EXTNAMES
290
     1
  9
$PSVPSCALE
 40
0.0
  9
$OLESTARTUP
290
     0
  9
$SORTENTS
280
   127
  9
$INDEXCTL
280
     0
  9
$HIDETEXT
280
     0
  9
$XCLIPFRAME
290
     0
  9
$HALOGAP
280
     0
  9
$OBSCOLOR
 70
   257
  9
$OBSLTYPE
280
     0
  9
$INTERSECTIONDISPLAY
280
     0
  9
$INTERSECTIONCOLOR
 70
   257
  9
$DIMASSOC
280
     1
  9
$PROJECTNAME
  1

  0
ENDSEC
  0
SECTION
  2
CLASSES
  0
CLASS
  1
ACDBDICTIONARYWDFLT
  2
AcDbDictionaryWithDefault
  3
ObjectDBX Classes
 90
        0
 91
        1
280
     0
281
     0
  0
CLASS
  1
VISUALSTYLE
  2
AcDbVisualStyle
  3
ObjectDBX Classes
 90
     4095
 91
       19
280
     0
281
     0
  0
CLASS
  1
MATERIAL
  2
AcDbMaterial
  3
ObjectDBX Classes
 90
     1153
 91
        3
280
     0
281
     0
  0
CLASS
  1
TABLESTYLE
  2
AcDbTableStyle
  3
ObjectDBX Classes
 90
     4095
 91
        1
280
     0
281
     0
  0
CLASS
  1
DICTIONARYVAR
  2
AcDbDictionaryVar
  3
ObjectDBX Classes
 90
        0
 91
        9
280
     0
281
     0
  0
CLASS
  1
SORTENTSTABLE
  2
AcDbSortentsTable
  3
ObjectDBX Classes
 90
        0
 91
        2
280
     0
281
     0
  0
CLASS
  1
PLOTSETTINGS
  2
AcDbPlotSettings
  3
ObjectDBX Classes
 90
        0
 91
        2
280
     0
281
     0
  0
CLASS
  1
SCALE
  2
AcDbScale
  3
ObjectDBX Classes
 90
     1153
 91
       33
280
     0
281
     0
  0
CLASS
  1
MLEADERSTYLE
  2
AcDbMLeaderStyle
  3
ACDB_MLEADERSTYLE_CLASS
 90
     4095
 91
        1
280
     0
281
     0
  0
CLASS
  1
CELLSTYLEMAP
  2
AcDbCellStyleMap
  3
ObjectDBX Classes
 90
     1152
 91
        3
280
     0
281
     0
  0
ENDSEC
  0
SECTION
  2
TABLES
  0
TABLE
  2
VPORT
  5
8
102
{ACAD_XDICTIONARY
360
4DC
102
}
330
0
100
AcDbSymbolTable
 70
     1
  0
VPORT
  5
29
330
8
100
AcDbSymbolTableRecord
100
AcDbViewportTableRecord
  2
*Active
 70
     0
 10
0.0
 20
0.0
 11
1.0
 21
1.0
 12
5.472030825029694
 22
4.144102444014498
 13
0.0
 23
0.0
 14
0.5
 24
0.5
 15
0.5
 25
0.5
 16
0.0
 26
0.0
 36
1.0
 17
0.0
 27
0.0
 37
0.0
 40
8.381910067499369
 41
2.338289962825278
 42
50.0
 43
0.0
 44
0.0
 50
0.0
 51
0.0
 71
     0
 72
  2000
 73
     1
 74
     3
 75
     0
 76
     0
 77
     0
 78
     0
281
     0
 65
     1
110
0.0
120
0.0
130
0.0
111
1.0
121
0.0
131
0.0
112
0.0
122
1.0
132
0.0
 79
     0
146
0.0
  0
ENDTAB
  0
TABLE
  2
LTYPE
  5
5
330
0
100
AcDbSymbolTable
 70
     2
  0
LTYPE
  5
14
330
5
100
AcDbSymbolTableRecord
100
AcDbLinetypeTableRecord
  2
ByBlock
 70
     0
  3

 72
    65
 73
     0
 40
0.0
  0
LTYPE
  5
15
330
5
100
AcDbSymbolTableRecord
100
AcDbLinetypeTableRecord
  2
ByLayer
 70
     0
  3

 72
    65
 73
     0
 40
0.0
  0
LTYPE
  5
16
330
5
100
AcDbSymbolTableRecord
100
AcDbLinetypeTableRecord
  2
Continuous
 70
     0
  3
Solid line
 72
    65
 73
     0
 40
0.0
  0
LTYPE
  5
C3F
330
5
100
AcDbSymbolTableRecord
100
AcDbLinetypeTableRecord
  2
HIDDEN
 70
     0
  3
Hidden __ __ __ __ __ __ __ __ __ __ __ __ __ __
 72
    65
 73
     2
 40
0.075
 49
0.05
 74
     0
 49
-0.025
 74
     0
  0
ENDTAB
  0
TABLE
  2
LAYER
  5
2
102
{ACAD_XDICTIONARY
360
61E
102
}
330
0
100
AcDbSymbolTable
 70
     4
  0
LAYER
  5
10
102
{ACAD_XDICTIONARY
360
BD2
102
}
330
2
100
AcDbSymbolTableRecord
100
AcDbLayerTableRecord
  2
0
 70
     0
 62
     7
  6
Continuous
370
    -3
390
F
  0
LAYER
  5
44
102
{ACAD_XDICTIONARY
360
BD4
102
}
330
2
100
AcDbSymbolTableRecord
100
AcDbLayerTableRecord
  2
FORMAT
 70
     0
 62
     7
  6
Continuous
370
    -3
390
F
  0
LAYER
  5
125
330
2
100
AcDbSymbolTableRecord
100
AcDbLayerTableRecord
  2
Defpoints
 70
     0
 62
     7
  6
Continuous
290
     0
370
    -3
390
F
  0
LAYER
  5
61C
102
{ACAD_XDICTIONARY
360
BD6
102
}
330
2
100
AcDbSymbolTableRecord
100
AcDbLayerTableRecord
  2
DIM
 70
     0
 62
     8
  6
Continuous
370
    -3
390
F
1001
AcAecLayerStandard
1000

1000

  0
ENDTAB
  0
TABLE
  2
STYLE
  5
3
330
0
100
AcDbSymbolTable
 70
     5
  0
STYLE
  5
11
330
3
100
AcDbSymbolTableRecord
100
AcDbTextStyleTableRecord
  2
Standard
 70
     0
 40
0.0
 41
1.0
 50
0.0
 71
     0
 42
0.2
  3
GOTHIC.TTF
  4

1001
ACAD
1000
Century Gothic
1071
       34
  0
STYLE
  5
66
330
3
100
AcDbSymbolTableRecord
100
AcDbTextStyleTableRecord
  2
SLDTEXTSTYLE0
 70
     0
 40
0.0
 41
0.75
 50
0.0
 71
     0
 42
0.2
  3
GOTHIC.TTF
  4

1001
ACAD
1000
Century Gothic
1071
       34
  0
STYLE
  5
6A
330
3
100
AcDbSymbolTableRecord
100
AcDbTextStyleTableRecord
  2
SLDTEXTSTYLE1
 70
     0
 40
0.0
 41
0.6875
 50
0.0
 71
     0
 42
0.2
  3
GOTHIC.TTF
  4

1001
ACAD
1000
Century Gothic
1071
       34
  0
STYLE
  5
412
330
3
100
AcDbSymbolTableRecord
100
AcDbTextStyleTableRecord
  2
style2
 70
     0
 40
0.0
 41
1.0
 50
0.0
 71
     0
 42
0.2
  3

  4

1001
ACAD
1000
Euphemia
1071
       34
  0
STYLE
  5
EFA
330
3
100
AcDbSymbolTableRecord
100
AcDbTextStyleTableRecord
  2
Annotative
 70
     0
 40
0.0
 41
1.0
 50
0.0
 71
     0
 42
0.2
  3
txt
  4

1001
AcadAnnotative
1000
AnnotativeData
1002
{
1070
     1
1070
     1
1002
}
  0
ENDTAB
  0
TABLE
  2
VIEW
  5
6
330
0
100
AcDbSymbolTable
 70
     0
  0
ENDTAB
  0
TABLE
  2
UCS
  5
7
330
0
100
AcDbSymbolTable
 70
     0
  0
ENDTAB
  0
TABLE
  2
APPID
  5
9
330
0
100
AcDbSymbolTable
 70
     8
  0
APPID
  5
12
330
9
100
AcDbSymbolTableRecord
100
AcDbRegAppTableRecord
  2
ACAD
 70
     0
  0
APPID
  5
3B8
330
9
100
AcDbSymbolTableRecord
100
AcDbRegAppTableRecord
  2
ACAD_EXEMPT_FROM_CAD_STANDARDS
 70
     0
  0
APPID
  5
413
330
9
100
AcDbSymbolTableRecord
100
AcDbRegAppTableRecord
  2
ACAD_PSEXT
 70
     0
  0
APPID
  5
61D
330
9
100
AcDbSymbolTableRecord
100
AcDbRegAppTableRecord
  2
AcAecLayerStandard
 70
     0
  0
APPID
  5
B17
330
9
100
AcDbSymbolTableRecord
100
AcDbRegAppTableRecord
  2
PE_URL
 70
     0
  0
APPID
  5
C14
330
9
100
AcDbSymbolTableRecord
100
AcDbRegAppTableRecord
  2
ACAD_MLEADERVER
 70
     0
  0
APPID
  5
EFC
330
9
100
AcDbSymbolTableRecord
100
AcDbRegAppTableRecord
  2
AcadAnnotative
 70
     0
  0
APPID
  5
EFD
330
9
100
AcDbSymbolTableRecord
100
AcDbRegAppTableRecord
  2
ACAD_DSTYLE_DIMRADIAL_EXTENSION
 70
     0
  0
ENDTAB
  0
TABLE
  2
DIMSTYLE
  5
A
330
0
100
AcDbSymbolTable
 70
     3
100
AcDbDimStyleTable
 71
     1
340
27
  0
DIMSTYLE
105
27
102
{ACAD_REACTORS
330
CF3
330
F9F
330
F92
330
F83
330
FFC
330
FEF
330
1028
330
101B
330
1053
330
1047
330
106B
330
105F
102
}
330
A
100
AcDbSymbolTableRecord
100
AcDbDimStyleTableRecord
  2
Standard
 70
     0
 41
0.11
 42
0.06
 44
0.06
 73
     0
 74
     0
 77
     1
140
0.11
147
0.05
172
     1
271
     3
272
     3
340
11
  0
DIMSTYLE
105
C40
330
A
100
AcDbSymbolTableRecord
100
AcDbDimStyleTableRecord
  2
SLDDIMSTYLE0
 70
     0
 41
0.13
 44
0.0
 78
    12
140
0.125
147
0.03125
173
     1
271
     2
272
     2
284
    12
340
11
  0
DIMSTYLE
105
EFB
330
A
100
AcDbSymbolTableRecord
100
AcDbDimStyleTableRecord
  2
Annotative
 70
     0
340
11
1001
AcadAnnotative
1000
AnnotativeData
1002
{
1070
     1
1070
     1
1002
}
  0
ENDTAB
  0
TABLE
  2
BLOCK_RECORD
  5
1
330
0
100
AcDbSymbolTable
 70
    62
  0
BLOCK_RECORD
  5
1F
102
{ACAD_XDICTIONARY
360
F24
102
}
330
1
100
AcDbSymbolTableRecord
100
AcDbBlockTableRecord
  2
*Model_Space
340
22
  0
BLOCK_RECORD
  5
1B
330
1
100
AcDbSymbolTableRecord
100
AcDbBlockTableRecord
  2
*Paper_Space
340
1E
  0
BLOCK_RECORD
  5
23
330
1
100
AcDbSymbolTableRecord
100
AcDbBlockTableRecord
  2
*Paper_Space0
340
26
  0
BLOCK_RECORD
  5
3F9
330
1
100
AcDbSymbolTableRecord
100
AcDbBlockTableRecord
  2
Block3
340
0
102
{BLKREFS
331
407
102
}
  0
BLOCK_RECORD
  5
405
330
1
100
AcDbSymbolTableRecord
100
AcDbBlockTableRecord
  2
Block2
340
0
102
{BLKREFS
331
44A
102
}
  0
BLOCK_RECORD
  5
409
102
{ACAD_XDICTIONARY
360
40A
102
}
330
1
100
AcDbSymbolTableRecord
100
AcDbBlockTableRecord
  2
amazon
340
0
310
2800000020000000200000000100080000000000000400000000000000000000000000000000000000000000000080000080000000808000800000008000800080800000C0C0C000C0DCC000F0CAA6000020400000206000002080000020A0000020C0000020E00000400000004020000040400000406000004080000040A0
310
000040C0000040E00000600000006020000060400000606000006080000060A0000060C0000060E00000800000008020000080400000806000008080000080A0000080C0000080E00000A0000000A0200000A0400000A0600000A0800000A0A00000A0C00000A0E00000C0000000C0200000C0400000C0600000C0800000C0
310
A00000C0C00000C0E00000E0000000E0200000E0400000E0600000E0800000E0A00000E0C00000E0E00040000000400020004000400040006000400080004000A0004000C0004000E00040200000402020004020400040206000402080004020A0004020C0004020E000404000004040200040404000404060004040800040
310
40A0004040C0004040E00040600000406020004060400040606000406080004060A0004060C0004060E00040800000408020004080400040806000408080004080A0004080C0004080E00040A0000040A0200040A0400040A0600040A0800040A0A00040A0C00040A0E00040C0000040C0200040C0400040C0600040C08000
310
40C0A00040C0C00040C0E00040E0000040E0200040E0400040E0600040E0800040E0A00040E0C00040E0E00080000000800020008000400080006000800080008000A0008000C0008000E00080200000802020008020400080206000802080008020A0008020C0008020E00080400000804020008040400080406000804080
310
008040A0008040C0008040E00080600000806020008060400080606000806080008060A0008060C0008060E00080800000808020008080400080806000808080008080A0008080C0008080E00080A0000080A0200080A0400080A0600080A0800080A0A00080A0C00080A0E00080C0000080C0200080C0400080C0600080C0
310
800080C0A00080C0C00080C0E00080E0000080E0200080E0400080E0600080E0800080E0A00080E0C00080E0E000C0000000C0002000C0004000C0006000C0008000C000A000C000C000C000E000C0200000C0202000C0204000C0206000C0208000C020A000C020C000C020E000C0400000C0402000C0404000C0406000C0
310
408000C040A000C040C000C040E000C0600000C0602000C0604000C0606000C0608000C060A000C060C000C060E000C0800000C0802000C0804000C0806000C0808000C080A000C080C000C080E000C0A00000C0A02000C0A04000C0A06000C0A08000C0A0A000C0A0C000C0A0E000C0C00000C0C02000C0C04000C0C06000
310
C0C08000C0C0A000F0FBFF00A4A0A000808080000000FF0000FF000000FFFF00FF000000FF00FF00FFFF0000FFFFFF0000000000000000000000000000000000000000000000000000000000000000000000000000000000000000000000000000000000000000000000000000000000000000000000000000000000000000
310
00000000000000000000000000000000000000000000000000000000000000000000000000000000000000000000000000000000000000000000000000000000000000000000000000000000000000000000000000000000000000000000000000000000000000000000000000000000000000000000000000000000000000
310
00000000000000000000000000000000000000000000000000000000000000000000000000000000000000000000000000000000000000000000000000000000000000000000000000000000000000000000000000000000000000000000000000000000000000000000000000000000000000000000000000000000000000
310
0000000000000000000000000000000000000000000000000000000000000000000000000000000000000000000000000000000000000000000000000000000000000000000000000000000000000000000000000000000000FFFFFFFFFF00000000000000000000000000000000000000000000000000FFFFFFFFFFFFFFFF
310
00000000000000000000FC00FC0000FCFC00000000FFFFFFFFFFFFFFFFFFFFFFFFFFFFFFFFFCFCFCFCFCFCFCFCFCFCFCFCFC00000000FFFFFFFFFFFFFFFFFFFFFFFFFFFFFFFCFCFC00FCFCFCFC00FCFCFCFC00000000FFFFFFFFFFFFFFFFFFFFFFFFFFFFFFFCFCFC00FCFCFCFCFCFCFCFCFC00000000000000000000000000
310
00000000000000000000000000000000FC0000000000000000000000000000000000000000000000000000000000000000000000000000000000000000000000000000000000000000000000000000000000000000000000000000000000000000000000000000000000000000000000000000000000000000000000000000
310
00000000000000000000000000000000000000000000000000000000000000000000000000000000000000000000000000000000000000000000000000000000000000000000000000000000000000000000000000000000000000000000000000000000000000000000000000000000000000000000000000000000000000
310
00000000000000000000000000000000000000000000000000000000000000000000000000000000000000000000000000000000000000000000000000000000000000000000000000000000000000000000000000000000000000000000000000000000000000000000000000000000000000000000000000000000000000
310
0000000000000000000000000000000000000000000000000000000000000000000000000000000000000000000000000000000000000000
1001
ACAD
1000
DesignCenter Data
1002
{
1070
     1
1070
     1
1002
}
  0
BLOCK_RECORD
  5
B35
330
1
100
AcDbSymbolTableRecord
100
AcDbBlockTableRecord
  2
amazon block
340
0
310
2800000020000000200000000100080000000000000400000000000000000000000000000000000000000000000080000080000000808000800000008000800080800000C0C0C000C0DCC000F0CAA6000020400000206000002080000020A0000020C0000020E00000400000004020000040400000406000004080000040A0
310
000040C0000040E00000600000006020000060400000606000006080000060A0000060C0000060E00000800000008020000080400000806000008080000080A0000080C0000080E00000A0000000A0200000A0400000A0600000A0800000A0A00000A0C00000A0E00000C0000000C0200000C0400000C0600000C0800000C0
310
A00000C0C00000C0E00000E0000000E0200000E0400000E0600000E0800000E0A00000E0C00000E0E00040000000400020004000400040006000400080004000A0004000C0004000E00040200000402020004020400040206000402080004020A0004020C0004020E000404000004040200040404000404060004040800040
310
40A0004040C0004040E00040600000406020004060400040606000406080004060A0004060C0004060E00040800000408020004080400040806000408080004080A0004080C0004080E00040A0000040A0200040A0400040A0600040A0800040A0A00040A0C00040A0E00040C0000040C0200040C0400040C0600040C08000
310
40C0A00040C0C00040C0E00040E0000040E0200040E0400040E0600040E0800040E0A00040E0C00040E0E00080000000800020008000400080006000800080008000A0008000C0008000E00080200000802020008020400080206000802080008020A0008020C0008020E00080400000804020008040400080406000804080
310
008040A0008040C0008040E00080600000806020008060400080606000806080008060A0008060C0008060E00080800000808020008080400080806000808080008080A0008080C0008080E00080A0000080A0200080A0400080A0600080A0800080A0A00080A0C00080A0E00080C0000080C0200080C0400080C0600080C0
310
800080C0A00080C0C00080C0E00080E0000080E0200080E0400080E0600080E0800080E0A00080E0C00080E0E000C0000000C0002000C0004000C0006000C0008000C000A000C000C000C000E000C0200000C0202000C0204000C0206000C0208000C020A000C020C000C020E000C0400000C0402000C0404000C0406000C0
310
408000C040A000C040C000C040E000C0600000C0602000C0604000C0606000C0608000C060A000C060C000C060E000C0800000C0802000C0804000C0806000C0808000C080A000C080C000C080E000C0A00000C0A02000C0A04000C0A06000C0A08000C0A0A000C0A0C000C0A0E000C0C00000C0C02000C0C04000C0C06000
310
C0C08000C0C0A000F0FBFF00A4A0A000808080000000FF0000FF000000FFFF00FF000000FF00FF00FFFF0000FFFFFF0000000000000000000000000000000000000000000000000000000000000000000000000000000000000000000000000000000000000000000000000000000000000000000000000000000000000000
310
00000000000000000000000000000000000000000000000000000000000000000000000000000000000000000000000000000000000000000000000000000000000000000000000000000000000000000000000000000000000000000000000000000000000000000000000000000000000000000000000000000000000000
310
00000000000000000000000000000000000000000000000000000000000000000000000000000000000000000000000000000000000000000000000000000000000000000000000000000000000000000000000000000000000000000000000000000000000000000000000000000000000000000000000000000000000000
310
0000000000000000000000000000000000000000000000000000000000000000000000000000000000000000000000000000000000000000000000000000000000000000000000000000000000000000000000000000000000FFFFFFFFFF00000000000000000000000000000000000000000000000000FFFFFFFFFFFFFFFF
310
00000000000000000000E000E0E000E0E0E0000000FFFFFFFFFFFFFFFFFFFFFFFFFFFFFFFFE0E0E0E0E0E0E0E0E0E0E0E0E000000000FFFFFFFFFFFFFFFFFFFFFFFFFFFFFFE0E0E0E0E0E0E0E0E0E0E0E0E000000000FFFFFFFFFFFFFFFFFFFFFFFFFFFFFFE0E0E0E0E0E0E0E0E0E0E0E0E0E0000000000000000000000000
310
00000000000000000000000000000000E00000000000000000000000000000000000000000000000000000000000000000000000000000000000000000000000000000000000000000000000000000000000000000000000000000000000000000000000000000000000000000000000000000000000000000000000000000
310
00000000000000000000000000000000000000000000000000000000000000000000000000000000000000000000000000000000000000000000000000000000000000000000000000000000000000000000000000000000000000000000000000000000000000000000000000000000000000000000000000000000000000
310
00000000000000000000000000000000000000000000000000000000000000000000000000000000000000000000000000000000000000000000000000000000000000000000000000000000000000000000000000000000000000000000000000000000000000000000000000000000000000000000000000000000000000
310
0000000000000000000000000000000000000000000000000000000000000000000000000000000000000000000000000000000000000000
102
{BLKREFS
331
B41
102
}
1001
ACAD
1000
DesignCenter Data
1002
{
1070
     1
1070
     1
1002
}
  0
BLOCK_RECORD
  5
C29
330
1
100
AcDbSymbolTableRecord
100
AcDbBlockTableRecord
  2
SW_CENTERMARKSYMBOL_0
340
0
102
{BLKREFS
331
D11
102
}
  0
BLOCK_RECORD
  5
C34
330
1
100
AcDbSymbolTableRecord
100
AcDbBlockTableRecord
  2
SW_CENTERMARKSYMBOL_3
340
0
102
{BLKREFS
331
D2B
102
}
  0
BLOCK_RECORD
  5
D4B
330
1
100
AcDbSymbolTableRecord
100
AcDbBlockTableRecord
  2
*D9
340
0
  0
BLOCK_RECORD
  5
EDA
330
1
100
AcDbSymbolTableRecord
100
AcDbBlockTableRecord
  2
*D10
340
0
  0
BLOCK_RECORD
  5
EE6
330
1
100
AcDbSymbolTableRecord
100
AcDbBlockTableRecord
  2
*D11
340
0
  0
BLOCK_RECORD
  5
EF2
330
1
100
AcDbSymbolTableRecord
100
AcDbBlockTableRecord
  2
T
340
0
1001
ACAD
1000
DesignCenter Data
1002
{
1070
     1
1070
     1
1002
}
  0
BLOCK_RECORD
  5
F84
330
1
100
AcDbSymbolTableRecord
100
AcDbBlockTableRecord
  2
*D15
340
0
  0
BLOCK_RECORD
  5
F93
330
1
100
AcDbSymbolTableRecord
100
AcDbBlockTableRecord
  2
*D16
340
0
  0
BLOCK_RECORD
  5
FA0
330
1
100
AcDbSymbolTableRecord
100
AcDbBlockTableRecord
  2
*D17
340
0
  0
BLOCK_RECORD
  5
FF0
330
1
100
AcDbSymbolTableRecord
100
AcDbBlockTableRecord
  2
*D18
340
0
  0
BLOCK_RECORD
  5
FFD
330
1
100
AcDbSymbolTableRecord
100
AcDbBlockTableRecord
  2
*D19
340
0
  0
BLOCK_RECORD
  5
101C
330
1
100
AcDbSymbolTableRecord
100
AcDbBlockTableRecord
  2
*D20
340
0
  0
BLOCK_RECORD
  5
1029
330
1
100
AcDbSymbolTableRecord
100
AcDbBlockTableRecord
  2
*D21
340
0
  0
BLOCK_RECORD
  5
1048
330
1
100
AcDbSymbolTableRecord
100
AcDbBlockTableRecord
  2
*D22
340
0
  0
BLOCK_RECORD
  5
1054
330
1
100
AcDbSymbolTableRecord
100
AcDbBlockTableRecord
  2
*D23
340
0
  0
BLOCK_RECORD
  5
1060
330
1
100
AcDbSymbolTableRecord
100
AcDbBlockTableRecord
  2
*D24
340
0
  0
BLOCK_RECORD
  5
106C
330
1
100
AcDbSymbolTableRecord
100
AcDbBlockTableRecord
  2
*D25
340
0
  0
ENDTAB
  0
ENDSEC
  0
SECTION
  2
BLOCKS
  0
BLOCK
  5
20
330
1F
100
AcDbEntity
  8
0
100
AcDbBlockBegin
  2
*Model_Space
 70
     0
 10
0.0
 20
0.0
 30
0.0
  3
*Model_Space
  1

  0
ENDBLK
  5
21
330
1F
100
AcDbEntity
  8
0
100
AcDbBlockEnd
  0
BLOCK
  5
1C
330
1B
100
AcDbEntity
 67
     1
  8
0
100
AcDbBlockBegin
  2
*Paper_Space
 70
     0
 10
0.0
 20
0.0
 30
0.0
  3
*Paper_Space
  1

  0
ENDBLK
  5
1D
330
1B
100
AcDbEntity
 67
     1
  8
0
100
AcDbBlockEnd
  0
BLOCK
  5
24
330
23
100
AcDbEntity
 67
     1
  8
0
100
AcDbBlockBegin
  2
*Paper_Space0
 70
     0
 10
0.0
 20
0.0
 30
0.0
  3
*Paper_Space0
  1

  0
ENDBLK
  5
25
330
23
100
AcDbEntity
 67
     1
  8
0
100
AcDbBlockEnd
  0
BLOCK
  5
3FA
330
3F9
100
AcDbEntity
  8
0
100
AcDbBlockBegin
  2
Block3
 70
     0
 10
0.0
 20
0.0
 30
0.0
  3
Block3
  1

  0
CIRCLE
  5
3FB
330
3F9
100
AcDbEntity
  8
FORMAT
 62
     7
370
    15
100
AcDbCircle
 10
9.623096090023436
 20
2.115622186524885
 30
0.0
 40
0.0998031496062924
  0
CIRCLE
  5
3FC
330
3F9
100
AcDbEntity
  8
FORMAT
 62
     7
370
    15
100
AcDbCircle
 10
9.623096090023436
 20
2.115622186524885
 30
0.0
 40
0.1996062992125948
  0
LINE
  5
3FD
330
3F9
100
AcDbEntity
  8
FORMAT
 62
     7
370
    15
100
AcDbLine
 10
10.05890680910872
 20
2.020396293772344
 30
0.0
 11
10.05890680910872
 21
2.210848079277426
 31
0.0
  0
LINE
  5
3FE
330
3F9
100
AcDbEntity
  8
FORMAT
 62
     7
370
    15
100
AcDbLine
 10
10.05890680910872
 20
2.210848079277426
 30
0.0
 11
10.55986477488565
 21
2.315228485737483
 31
0.0
  0
LINE
  5
3FF
330
3F9
100
AcDbEntity
  8
FORMAT
 62
     7
370
    15
100
AcDbLine
 10
10.55986477488565
 20
2.315228485737483
 30
0.0
 11
10.55986477488565
 21
1.916015887312285
 31
0.0
  0
LINE
  5
400
330
3F9
100
AcDbEntity
  8
FORMAT
 62
     7
370
    15
100
AcDbLine
 10
10.55986477488565
 20
1.916015887312285
 30
0.0
 11
10.05890680910872
 21
2.020396293772344
 31
0.0
  0
LINE
  5
401
330
3F9
100
AcDbEntity
  8
FORMAT
 62
     7
370
    15
100
AcDbLine
 10
9.987169396213419
 20
2.115622186524885
 30
0.0
 11
10.59626953693931
 21
2.115622186524885
 31
0.0
  0
LINE
  5
402
330
3F9
100
AcDbEntity
  8
FORMAT
 62
     7
370
    15
100
AcDbLine
 10
9.368122674365656
 20
2.115622186524885
 30
0.0
 11
9.87806950568121
 21
2.115622186524885
 31
0.0
  0
LINE
  5
403
330
3F9
100
AcDbEntity
  8
FORMAT
 62
     7
370
    15
100
AcDbLine
 10
9.623096090023436
 20
1.872691387914879
 30
0.0
 11
9.623096090023436
 21
2.382638219230431
 31
0.0
  0
ENDBLK
  5
404
330
3F9
100
AcDbEntity
  8
0
100
AcDbBlockEnd
  0
BLOCK
  5
406
330
405
100
AcDbEntity
  8
0
100
AcDbBlockBegin
  2
Block2
 70
     0
 10
0.0
 20
0.0
 30
0.0
  3
Block2
  1

  0
INSERT
  5
407
330
405
100
AcDbEntity
  8
0
  6
Continuous
 62
     7
100
AcDbBlockReference
  2
Block3
 10
-0.0282699124868556
 20
0.0201145539810274
 30
0.0
  0
ENDBLK
  5
408
330
405
100
AcDbEntity
  8
0
100
AcDbBlockEnd
  0
BLOCK
  5
40C
330
409
100
AcDbEntity
  8
0
100
AcDbBlockBegin
  2
amazon
 70
     0
 10
0.0
 20
0.0
 30
0.0
  3
amazon
  1

  0
HATCH
  5
40D
330
409
100
AcDbEntity
  8
0
100
AcDbHatch
 10
0.0
 20
0.0
 30
0.0
210
0.0
220
0.0
230
0.9999999999999998
  2
SOLID
 70
     1
 71
     0
 91
        1
 92
        5
 93
        1
 72
     4
 94
        3
 73
     0
 74
     0
 95
       18
 96
       14
 40
0.0
 40
0.0
 40
0.0
 40
0.0
 40
0.0596755466403443
 40
0.1035834707990989
 40
0.1695571134872838
 40
0.2000964637947284
 40
0.2237461165360023
 40
0.2565225897680324
 40
0.2756876256135649
 40
0.3018435697278741
 40
0.3302551352352805
 40
0.3457181605243852
 40
0.3618589112597388
 40
0.3618589112597388
 40
0.3618589112597388
 40
0.3618589112597388
 10
0.9280407135556529
 20
0.3678371450737368
 10
1.014164084729102
 20
0.3851494268204694
 10
1.144945011486449
 20
0.4024842103214663
 10
1.481904894757406
 20
0.3990648758382389
 10
1.309526957346704
 20
0.1657833910269666
 10
1.071996456892463
 20
0.0025828528301117
 10
1.213429780952147
 20
0.147260900816045
 10
1.269689397936616
 20
0.2055836989094448
 10
1.328770741103362
 20
0.3426132943554165
 10
1.182110533057802
 20
0.3629915346337151
 10
1.077363991359149
 20
0.3586993230536737
 10
1.01802908590988
 20
0.3618658313307459
 10
0.904746484263093
 20
0.3631546035627498
 10
0.9280407135556529
 20
0.3678371450737368
 97
        0
 75
     0
 76
     1
 47
0.0083360314226261
 98
        1
 10
1.350036184717041
 20
0.3275823953230534
450
        0
451
        0
460
0.0
461
0.0
452
        0
462
0.0
453
        0
470

1001
ACAD
1010
0.0
1020
0.0
1030
0.0
  0
HATCH
  5
40E
330
409
100
AcDbEntity
  8
0
100
AcDbHatch
 10
0.0
 20
0.0
 30
0.0
210
0.0
220
0.0
230
0.9999999999999998
  2
SOLID
 70
     1
 71
     0
 91
        9
 92
        7
 72
     1
 73
     1
 93
       20
 10
-1.397399278738596
 20
0.888299103756417
 42
0.0
 10
-1.517557092146972
 20
0.8521069912840207
 42
0.0
 10
-1.634457615432786
 20
0.8260486703038981
 42
0.113500075695427
 10
-1.796297882939342
 20
0.77249506361993
 42
0.335029435887297
 10
-1.882119182302076
 20
0.5660893728218724
 42
0.2523749963765925
 10
-1.737967057103837
 20
0.4398788302234422
 42
0.1008759599722844
 10
-1.585598263595066
 20
0.4319165654795154
 42
0.1558313267708922
 10
-1.397230403062579
 20
0.516966153393244
 42
0.0
 10
-1.397399278738596
 20
0.5017673425512395
 42
0.1600174655974661
 10
-1.372064800007926
 20
0.4395169090987201
 42
0.0
 10
-1.217886400875514
 20
0.4395169090987201
 42
-0.1096578030042886
 10
-1.250459302100694
 20
0.4735374948229208
 42
-0.1371553684281488
 10
-1.269279200586318
 20
0.540854824021424
 42
0.0
 10
-1.269279200586318
 20
0.9244912162288137
 42
0.267077244638994
 10
-1.391608540743007
 20
1.084460353356798
 42
0.1085027846705916
 10
-1.618171164820246
 20
1.110518674336923
 42
0.3343505200399534
 10
-1.854867580389672
 20
0.9063951599926172
 42
0.0
 10
-1.71371834174733
 20
0.9063951599926172
 42
-0.2815324590939715
 10
-1.623703637535193
 20
0.9970774848409384
 42
-0.1775171235246243
 10
-1.454582816445004
 20
0.984570122933
 42
-0.2483479329952881
 97
        0
 92
       22
 72
     1
 73
     1
 93
        8
 10
-1.397399278738596
 20
0.7768273973414295
 42
0.0
 10
-1.397399278738596
 20
0.658841110681435
 42
-0.2004737922071577
 10
-1.563882996111615
 20
0.5415786662708722
 42
-0.1115040980661369
 10
-1.686936178517754
 20
0.5404929028967014
 42
-0.2738586692622027
 10
-1.742672031725241
 20
0.6002098884761536
 42
-0.289643054085014
 10
-1.707203761502306
 20
0.6928616964054842
 42
-0.1190249358109779
 10
-1.625409587314685
 20
0.7261584398800891
 42
-0.0006545690929014
 10
-1.500908720409647
 20
0.7514929186107651
 42
0.031014715336947
 97
        0
 92
        7
 72
     1
 73
     1
 93
       27
 10
-1.062984159493659
 20
0.4395169090987201
 42
0.0
 10
-0.9348640813413879
 20
0.4395169090987201
 42
0.0
 10
-0.9348640813413879
 20
0.8535546757829193
 42
-0.1716644096531924
 10
-0.8769567013855592
 20
0.9534449062067299
 42
-0.1448545784781812
 10
-0.7799618399595332
 20
0.9997708101713946
 42
-0.1340090766267909
 10
-0.6862242686560336
 20
0.9885512553049524
 42
-0.2563461470910333
 10
-0.6192688605821033
 20
0.8998805797475881
 42
0.0
 10
-0.6192688605821033
 20
0.4395169090987201
 42
0.0
 10
-0.4904249401803611
 20
0.4395169090987201
 42
0.0
 10
-0.4904249401803753
 20
0.8641979875178154
 42
-0.1830801363087423
 10
-0.4212980053581035
 20
0.9621310132001053
 42
-0.1206854715101709
 10
-0.3311796453018374
 20
0.9975992834230517
 42
-0.2157527517618656
 10
-0.216674861049178
 20
0.9774303127070119
 42
-0.2679983488848178
 10
-0.1748297194210906
 20
0.9063951599927708
 42
0.0
 10
-0.1748297194210977
 20
0.4395169090987201
 42
0.0
 10
-0.0467096412688122
 20
0.4395169090987201
 42
0.0
 10
-0.0467096412688122
 20
0.9063951599926172
 42
0.0
 10
-0.0467096412688122
 20
0.9360726922199805
 42
0.2784603970195297
 10
-0.1675912969266093
 20
1.094594144849069
 42
0.1495326253440701
 10
-0.3521710705358245
 20
1.102556409592997
 42
0.1796241607690637
 10
-0.5034541006704388
 20
0.9896370186791244
 42
0.1190036376854939
 10
-0.5809052213613626
 20
1.073602719615081
 42
0.1510696384071214
 10
-0.753179676729971
 20
1.112690201085266
 42
0.122416550902687
 10
-0.8494506959065404
 20
1.081564984359008
 42
0.0903817772246913
 10
-0.9348640813413879
 20
1.001218494670287
 42
0.0
 10
-0.9348640813413879
 20
1.101108725094101
 42
0.0
 10
-1.062984159493659
 20
1.101108725094101
 42
0.0
 97
        0
 92
        7
 72
     1
 73
     1
 93
       20
 10
0.1120662149268909
 20
0.5660893728218764
 42
0.2523749963765703
 10
0.256218340125109
 20
0.4398788302234467
 42
0.100875959972303
 10
0.4085871336339224
 20
0.4319165654795159
 42
0.1558313267708855
 10
0.5969549941663886
 20
0.516966153393244
 42
0.0
 10
0.5967861184903711
 20
0.5017673425512395
 42
0.1600174655974661
 10
0.6221205972210555
 20
0.4395169090987201
 42
0.0
 10
0.7762989963534466
 20
0.4395169090987201
 42
-0.1096578030036369
 10
0.7437260951284089
 20
0.4735374948226645
 42
-0.1371553684287215
 10
0.7249061966426496
 20
0.540854824021424
 42
0.0
 10
0.7249061966426496
 20
0.9244912162288137
 42
0.2670772446390557
 10
0.6025768564859249
 20
1.084460353356814
 42
0.1085027846705556
 10
0.3760142324087567
 20
1.110518674336923
 42
0.3343505200399825
 10
0.1393178168393021
 20
0.9063951599926172
 42
0.0
 10
0.2804670554816368
 20
0.9063951599926172
 42
-0.2815324590939487
 10
0.370481759693746
 20
0.9970774848409313
 42
-0.1775171235246857
 10
0.539602580783992
 20
0.9845701229329858
 42
-0.2483479329952225
 10
0.5967861184903711
 20
0.888299103756417
 42
0.0
 10
0.4766283050820306
 20
0.8521069912840264
 42
0.0
 10
0.359727781796181
 20
0.8260486703038981
 42
0.113500075695427
 10
0.1978875142896257
 20
0.77249506361993
 42
0.335029435887291
 97
        0
 92
       22
 72
     1
 73
     1
 93
        8
 10
0.2869816357266757
 20
0.6928616964054842
 42
-0.1190249358109779
 10
0.3687758099142826
 20
0.7261584398800891
 42
-0.0006545690929014
 10
0.4932766768193205
 20
0.7514929186107651
 42
0.0310147153369478
 10
0.5967861184903711
 20
0.7768273973414419
 42
0.0
 10
0.5967861184903711
 20
0.658841110681435
 42
-0.2004737922071577
 10
0.430302401117352
 20
0.5415786662708722
 42
-0.1115040980661369
 10
0.3072492187112061
 20
0.5404929028967014
 42
-0.2738586692622027
 10
0.251513365503726
 20
0.6002098884761536
 42
-0.289643054085014
 97
        0
 92
        7
 72
     1
 73
     1
 93
       10
 10
1.490731296558529
 20
0.9717250567569255
 42
0.0
 10
1.490731296558529
 20
1.101108725094102
 42
0.0
 10
0.9246866574902696
 20
1.101108725094102
 42
0.0
 10
0.9246866574902767
 20
0.9648744605637409
 42
0.0
 10
1.298313112053691
 20
0.9648744605637409
 42
0.0
 10
0.8993521787595994
 20
0.5408548240214275
 42
0.0
 10
0.8993521787595994
 20
0.4395169090987241
 42
-0.1473109550280885
 10
1.52402804003313
 20
0.4395169090987184
 42
0.0
 10
1.52402804003313
 20
0.581774738538516
 42
0.0747823019347494
 10
1.16328520907988
 20
0.6214717791056393
 42
0.0
 97
        0
 92
        7
 72
     1
 73
     1
 93
        2
 10
1.658662698430447
 20
0.7829800564617493
 42
1.0
 10
2.353551257900427
 20
0.7829800564617493
 42
1.0
 97
        0
 92
       22
 72
     1
 73
     1
 93
        2
 10
2.212041370259932
 20
0.7829800564617493
 42
-1.0
 10
1.800172586070949
 20
0.7829800564617493
 42
-1.0
 97
        0
 92
        7
 72
     1
 73
     1
 93
       15
 10
2.520758817522896
 20
0.4395169090987201
 42
0.0
 10
2.649602737924617
 20
0.4395169090987201
 42
0.0
 10
2.649602737924617
 20
0.7753797128425455
 42
-0.1884880930389393
 10
2.726330016366098
 20
0.9404157457166672
 42
-0.0825504763720134
 10
2.808124190553712
 20
1.002666179169187
 42
-0.1879859195515259
 10
2.9333488997082
 20
1.010628443913113
 42
-0.3400688989443128
 10
3.022381496390295
 20
0.8948632846375158
 42
0.0
 10
3.022381496390295
 20
0.4395169090987201
 42
0.0
 10
3.151225416792009
 20
0.4395169090987201
 42
0.0
 10
3.151225416792023
 20
0.9382442189683235
 42
0.3709832727766776
 10
2.952118968473769
 20
1.109868265359158
 42
0.160618198198489
 10
2.773379762580219
 20
1.083012668857902
 42
0.0920112842116662
 10
2.649602737924617
 20
0.9831224384341012
 42
0.0
 10
2.649602737924631
 20
1.101108725094101
 42
0.0
 10
2.520758817522896
 20
1.1011087250941
 42
0.0
 97
        0
 75
     0
 76
     1
 47
0.0079344138681199
 98
        9
 10
-1.376638647914745
 20
0.8943652481782571
 10
-1.376638647914745
 20
0.8943652481782571
 10
-1.008011843667617
 20
0.7810537369378041
 10
0.2295103337683244
 20
0.706616395506853
 10
0.2295103337683244
 20
0.706616395506853
 10
1.173803717490862
 20
0.7215039733471374
 10
1.736822720547962
 20
0.9152585806937842
 10
1.736822720547962
 20
0.9152585806937842
 10
2.581717008623201
 20
0.8854836988984509
450
        0
451
        0
460
0.0
461
0.0
452
        0
462
0.0
453
        0
470

1001
ACAD
1010
0.0
1020
0.0
1030
0.0
  0
TEXT
  5
40F
330
409
100
AcDbEntity
  8
0
 62
   150
100
AcDbText
 10
3.411151618523078
 20
0.4239129498757777
 30
0.0
 40
1.05
  1
supply
 41
1.08
  7
style2
100
AcDbText
  0
HATCH
  5
410
330
409
100
AcDbEntity
  8
0
100
AcDbHatch
 10
0.0
 20
0.0
 30
0.0
210
0.0
220
0.0
230
0.9999999999999998
  2
SOLID
 70
     1
 71
     0
 91
        1
 92
        7
 72
     1
 73
     1
 93
        2
 10
-1.177902949885989
 20
0.4051926481048067
 42
0.3081272588713221
 10
1.212164975232198
 20
0.2933070771634125
 42
-0.177724595219735
 97
        0
 75
     0
 76
     1
 47
0.0009928164167271
 98
        1
 10
0.1755697210077258
 20
0.0593374821502257
450
        0
451
        0
460
0.0
461
0.0
452
        0
462
0.0
453
        0
470

1001
ACAD
1010
0.0
1020
0.0
1030
0.0
  0
ENDBLK
  5
411
330
409
100
AcDbEntity
  8
0
100
AcDbBlockEnd
  0
BLOCK
  5
B36
330
B35
100
AcDbEntity
  8
0
100
AcDbBlockBegin
  2
amazon block
 70
     0
 10
0.0
 20
0.0
 30
0.0
  3
amazon block
  1

  0
HATCH
  5
B37
330
B35
100
AcDbEntity
  8
0
100
AcDbHatch
 10
0.0
 20
0.0
 30
0.0
210
0.0
220
0.0
230
1.0
  2
SOLID
 70
     1
 71
     0
 91
        1
 92
        7
 72
     1
 73
     1
 93
        2
 10
0.1428560650202613
 20
0.0268249692297831
 42
0.3005568377796329
 10
0.6100026189360293
 20
0.0009915743964171
 42
-0.1486648242730099
 97
        0
 75
     0
 76
     1
 47
0.0083360314226261
 98
        1
 10
0.3681872109149253
 20
-0.0332769951503647
450
        0
451
        0
460
0.0
461
0.0
452
        0
462
0.0
453
        0
470

1001
ACAD
1010
0.0
1020
0.0
1030
0.0
  0
HATCH
  5
B38
330
B35
100
AcDbEntity
  8
0
100
AcDbHatch
 10
0.0
 20
0.0
 30
0.0
210
0.0
220
0.0
230
1.0
  2
SOLID
 70
     1
 71
     0
 91
        1
 92
        5
 93
        1
 72
     4
 94
        3
 73
     0
 74
     0
 95
       18
 96
       14
 40
0.0
 40
0.0
 40
0.0
 40
0.0
 40
0.3060284443094571
 40
0.531197286149225
 40
0.8695236589091486
 40
1.026135711767838
 40
1.14741598223591
 40
1.315500460348882
 40
1.413679231894078
 40
1.543957423309552
 40
1.719337158993241
 40
1.76919128251474
 40
1.852441399548553
 40
1.852441399548553
 40
1.852441399548553
 40
1.852441399548553
 10
0.5476248318910955
 20
0.0189472839500944
 10
0.5671265702171127
 20
0.0228674694218305
 10
0.5967407336623403
 20
0.0267937023518194
 10
0.6730410215606746
 20
0.0260155775369224
 10
0.6340109953118472
 20
-0.0267925718215847
 10
0.5802183818763105
 20
-0.0637796196110996
 10
0.6122605658026537
 20
-0.030937261100445
 10
0.624929189918916
 20
-0.0180757154749651
 10
0.6383573330340191
 20
0.013562833138125
 10
0.6020518241954172
 20
0.0146147000415664
 10
0.5794789444548947
 20
0.0158864032827642
 10
0.5641956865595646
 20
0.0167018526831093
 10
0.5423196975867733
 20
0.017880860532975
 10
0.5476248318910955
 20
0.0189472839500944
 97
        0
 75
     0
 76
     1
 47
0.0083360314226261
 98
        1
 10
0.644363460657651
 20
0.0075847933888076
450
        0
451
        0
460
0.0
461
0.0
452
        0
462
0.0
453
        0
470

1001
ACAD
1010
0.0
1020
0.0
1030
0.0
  0
HATCH
  5
B39
330
B35
100
AcDbEntity
  8
0
100
AcDbHatch
 10
0.0
 20
0.0
 30
0.0
210
0.0
220
0.0
230
1.0
  2
SOLID
 70
     1
 71
     0
 91
        9
 92
        7
 72
     1
 73
     1
 93
       20
 10
0.1000542808940033
 20
0.1169245515333142
 42
0.0
 10
0.076623507279372
 20
0.1098670896011966
 42
0.0
 10
0.0538279052386379
 20
0.1047857170100728
 42
0.113500075695427
 10
0.0222690530748579
 20
0.0943427637066989
 42
0.335029435887297
 10
0.0055338996991239
 20
0.0540936540010777
 42
0.2523749963765925
 10
0.0336435641127828
 20
0.0294825981943836
 42
0.1008759599722844
 10
0.0633554788469937
 20
0.0279299565693179
 42
0.1558313267708922
 10
0.1000872116508269
 20
0.0445146262124951
 42
0.0
 10
0.1000542808940033
 20
0.0415508580983044
 42
0.1600174655974661
 10
0.1049945042464841
 20
0.029412023575063
 42
0.0
 10
0.1350592920773046
 20
0.029412023575063
 42
-0.1096578030042886
 10
0.128707576338396
 20
0.0360460377912819
 42
-0.1371553684281488
 10
0.125037696133699
 20
0.0491729169849902
 42
0.0
 10
0.125037696133699
 20
0.1239820134654312
 42
0.267077244638994
 10
0.1011834748031433
 20
0.1551759952053882
 42
0.1085027846705916
 10
0.0570037631080815
 20
0.1602573677965124
 42
0.3343505200399534
 10
0.0108479620720452
 20
0.1204532824993727
 42
0.0
 10
0.0383720636073015
 20
0.1204532824993727
 42
-0.2815324590939715
 10
0.0559249309286685
 20
0.1381363358447958
 42
-0.1775171235246243
 10
0.0889034910412541
 20
0.1356974002727478
 42
-0.2483479329952881
 97
        0
 92
       22
 72
     1
 73
     1
 93
        8
 10
0.1000542808940033
 20
0.0951875687823911
 42
0.0
 10
0.1000542808940033
 20
0.0721802428836922
 42
-0.2004737922071577
 10
0.0675899560062661
 20
0.0493140662236327
 42
-0.1115040980661369
 10
0.0435945854370701
 20
0.0491023423656691
 42
-0.2738586692622027
 10
0.0327260940616085
 20
0.0607471545536624
 42
-0.289643054085014
 10
0.0396424067550818
 20
0.0788142570998818
 42
-0.1190249358109779
 10
0.0555922707216681
 20
0.0853071220774298
 42
-0.0006545690929014
 10
0.0798699397681482
 20
0.090247345429912
 42
0.031014715336947
 97
        0
 92
        7
 72
     1
 73
     1
 93
       27
 10
0.1652652291467689
 20
0.029412023575063
 42
0.0
 10
0.190248644386461
 20
0.029412023575063
 42
0.0
 10
0.190248644386461
 20
0.1101493880784821
 42
-0.1716644096531924
 10
0.201540583477847
 20
0.1296279830111251
 42
-0.1448545784781812
 10
0.2204545814559218
 20
0.1386615342842345
 42
-0.1340090766267909
 10
0.2387334078601029
 20
0.1364737210852782
 42
-0.2563461470910333
 10
0.251789712434519
 20
0.1191829393515924
 42
0.0
 10
0.251789712434519
 20
0.029412023575063
 42
0.0
 10
0.2769142769128621
 20
0.029412023575063
 42
0.0
 10
0.2769142769128585
 20
0.1122248338667866
 42
-0.1830801363087423
 10
0.290394029203199
 20
0.1313217738748333
 42
-0.1206854715101709
 10
0.3079671094141716
 20
0.1382380865683075
 42
-0.2157527517618656
 10
0.3302955423434426
 20
0.1343051372786799
 42
-0.2679983488848178
 10
0.33845534496092
 20
0.1204532824994029
 42
0.0
 10
0.3384553449609164
 20
0.029412023575063
 42
0.0
 10
0.3634387602006122
 20
0.029412023575063
 42
0.0
 10
0.3634387602006122
 20
0.1204532824993727
 42
0.0
 10
0.3634387602006122
 20
0.1262404012837086
 42
0.2784603970195297
 10
0.3398668373473406
 20
0.1571520845463814
 42
0.1495326253440701
 10
0.3038737814935466
 20
0.1587047261714471
 42
0.1796241607690637
 10
0.2743735906172944
 20
0.1366854449432417
 42
0.1190036376854939
 10
0.259270622082564
 20
0.1530587566257537
 42
0.1510696384071214
 10
0.2256771032856868
 20
0.1606808155124395
 42
0.122416550902687
 10
0.2069042545462558
 20
0.154611398250819
 42
0.0903817772246913
 10
0.190248644386461
 20
0.1389438327615187
 42
0.0
 10
0.190248644386461
 20
0.1584224276941626
 42
0.0
 10
0.1652652291467689
 20
0.1584224276941626
 42
0.0
 97
        0
 92
        7
 72
     1
 73
     1
 93
       20
 10
0.394400052158776
 20
0.0540936540010786
 42
0.2523749963765703
 10
0.4225097165724279
 20
0.0294825981943845
 42
0.100875959972303
 10
0.4522216313066459
 20
0.0279299565693183
 42
0.1558313267708855
 10
0.4889533641104756
 20
0.0445146262124951
 42
0.0
 10
0.4889204333536519
 20
0.0415508580983044
 42
0.1600174655974661
 10
0.4938606567061364
 20
0.029412023575063
 42
0.0
 10
0.5239254445369533
 20
0.029412023575063
 42
-0.1096578030036369
 10
0.5175737287980695
 20
0.0360460377912322
 42
-0.1371553684287215
 10
0.5139038485933476
 20
0.0491729169849902
 42
0.0
 10
0.5139038485933476
 20
0.1239820134654312
 42
0.2670772446390557
 10
0.4900496272627848
 20
0.1551759952053913
 42
0.1085027846705556
 10
0.4458699155677373
 20
0.1602573677965129
 42
0.3343505200399825
 10
0.3997141145316938
 20
0.1204532824993727
 42
0.0
 10
0.4272382160669502
 20
0.1204532824993727
 42
-0.2815324590939487
 10
0.44479108338831
 20
0.138136335844794
 42
-0.1775171235246857
 10
0.4777696435009098
 20
0.1356974002727447
 42
-0.2483479329952225
 10
0.4889204333536519
 20
0.1169245515333142
 42
0.0
 10
0.4654896597390277
 20
0.1098670896011979
 42
0.0
 10
0.4426940576982866
 20
0.1047857170100728
 42
0.113500075695427
 10
0.4111352055345066
 20
0.0943427637066989
 42
0.335029435887291
 97
        0
 92
       22
 72
     1
 73
     1
 93
        8
 10
0.428508559214734
 20
0.0788142570998818
 42
-0.1190249358109779
 10
0.4444584231813167
 20
0.0853071220774298
 42
-0.0006545690929014
 10
0.4687360922277968
 20
0.090247345429912
 42
0.0310147153369478
 10
0.4889204333536519
 20
0.0951875687823938
 42
0.0
 10
0.4889204333536519
 20
0.0721802428836922
 42
-0.2004737922071577
 10
0.4564561084659147
 20
0.0493140662236327
 42
-0.1115040980661369
 10
0.4324607378967152
 20
0.0491023423656691
 42
-0.2738586692622027
 10
0.4215922465212572
 20
0.0607471545536624
 42
-0.289643054085014
 97
        0
 92
        7
 72
     1
 73
     1
 93
       10
 10
0.663239743076943
 20
0.1331926123684131
 42
0.0
 10
0.663239743076943
 20
0.1584224276941626
 42
0.0
 10
0.5528610384586337
 20
0.1584224276941626
 42
0.0
 10
0.5528610384586337
 20
0.131856746110742
 42
0.0
 10
0.6257181970985002
 20
0.131856746110742
 42
0.0
 10
0.5479208151061528
 20
0.0491729169849911
 42
0.0
 10
0.5479208151061528
 20
0.0294120235750635
 42
-0.1473109550280885
 10
0.6697326080544919
 20
0.0294120235750626
 42
0.0
 10
0.6697326080544919
 20
0.0571523003158232
 42
0.0747823019347494
 10
0.5993877560186079
 20
0.0648932232264121
 42
0.0
 97
        0
 92
        7
 72
     1
 73
     1
 93
        2
 10
0.6959863664419679
 20
0.0963873373108535
 42
1.0
 10
0.8314896355386132
 20
0.0963873373108535
 42
1.0
 97
        0
 92
       22
 72
     1
 73
     1
 93
        2
 10
0.8038952074487184
 20
0.0963873373108535
 42
-1.0
 10
0.7235807945318662
 20
0.0963873373108535
 42
-1.0
 97
        0
 92
        7
 72
     1
 73
     1
 93
       15
 10
0.8640951096649978
 20
0.029412023575063
 42
0.0
 10
0.8892196741433302
 20
0.029412023575063
 42
0.0
 10
0.8892196741433302
 20
0.0949052703051088
 42
-0.1884880930389393
 10
0.9041814934394203
 20
0.1270872967155627
 42
-0.0825504763720134
 10
0.9201313574060066
 20
0.1392261312388041
 42
-0.1879859195515259
 10
0.9445501756911305
 20
0.1407787728638694
 42
-0.3400688989443128
 10
0.9619115320441373
 20
0.1182045668051281
 42
0.0
 10
0.9619115320441373
 20
0.029412023575063
 42
0.0
 10
0.9870360965224733
 20
0.029412023575063
 42
0.0
 10
0.9870360965224769
 20
0.1266638489996357
 42
0.3709832727766776
 10
0.9482103391004166
 20
0.1601305380458484
 42
0.160618198198489
 10
0.9133561939511736
 20
0.1548936967281036
 42
0.0920112842116662
 10
0.8892196741433302
 20
0.1354151017954623
 42
0.0
 10
0.8892196741433338
 20
0.1584224276941626
 42
0.0
 10
0.8640951096649978
 20
0.1584224276941621
 42
0.0
 97
        0
 75
     0
 76
     1
 47
0.0079344138681199
 98
        9
 10
0.1041026039046571
 20
0.1181074496955725
 10
0.1041026039046571
 20
0.1181074496955725
 10
0.175984830732844
 20
0.0960117050036842
 10
0.4173016553328531
 20
0.0814964234246487
 10
0.4173016553328531
 20
0.0814964234246487
 10
0.6014388651587482
 20
0.0843995011035044
 10
0.7112275707548826
 20
0.1221816495361003
 10
0.7112275707548826
 20
0.1221816495361003
 10
0.8759819569295572
 20
0.1163755475860104
450
        0
451
        0
460
0.0
461
0.0
452
        0
462
0.0
453
        0
470

1001
ACAD
1010
0.0
1020
0.0
1030
0.0
  0
HATCH
  5
B3A
330
B35
100
AcDbEntity
  8
0
 62
   150
100
AcDbHatch
 10
0.0
 20
0.0
 30
0.0
210
0.0
220
0.0
230
1.0
  2
SOLID
 70
     1
 71
     0
 91
        8
 92
        7
 72
     1
 73
     1
 93
       22
 10
1.131716859301388
 20
0.0982802106585603
 42
0.0484183422992068
 10
1.088571435005292
 20
0.1135920246412381
 42
-0.1024497749852004
 10
1.063583383368957
 20
0.125237861247649
 42
-0.5197370575112227
 10
1.065952625421378
 20
0.1500864950045506
 42
-0.1784163181567931
 10
1.097462280584622
 20
0.1562497626075707
 42
-0.1611556671223822
 10
1.130948711999153
 20
0.1417059730721331
 42
0.0
 10
1.143877562730139
 20
0.1560685971400009
 42
0.0879608039459819
 10
1.125754289819187
 20
0.1671964668262178
 42
0.096844267443967
 10
1.086490181797579
 20
0.1727441735534061
 42
0.1289645081611661
 10
1.053342092127955
 20
0.1633533786648891
 42
0.2520599057044872
 10
1.037629278411372
 20
0.1399706628121899
 42
0.2998873610886212
 10
1.050463850241648
 20
0.1096908005921695
 42
0.087968247036807
 10
1.088782354168369
 20
0.0932096049078468
 42
-0.0908267507933147
 10
1.119928772767817
 20
0.0811747820304691
 42
-0.4466858316882535
 10
1.125453128485816
 20
0.0540976492614389
 42
-0.2058443735084833
 10
1.094059901125532
 20
0.0433269295271455
 42
-0.2322683613354944
 10
1.04833474053288
 20
0.0635860005622337
 42
0.0
 10
1.033442870302863
 20
0.0487121861500608
 42
0.0897498636939959
 10
1.054992265021407
 20
0.0336893058402592
 42
0.1162784600455089
 10
1.100093060274716
 20
0.0271838680846326
 42
0.1305494116801128
 10
1.134902795650507
 20
0.0379471166909786
 42
0.2700443324603339
 10
1.150563716135536
 20
0.0687356163070478
 42
0.2747552069495999
 97
        0
 92
        7
 72
     1
 73
     1
 93
       17
 10
1.204964925758659
 20
0.0711619205531866
 42
0.0
 10
1.204964925758659
 20
0.1705032481376225
 42
0.0
 10
1.182530424786222
 20
0.1705032481376221
 42
0.0
 10
1.182530424786222
 20
0.068114123580882
 42
0.231056446390574
 10
1.200275679141658
 20
0.0337787716591849
 42
0.1033983125445035
 10
1.222016181175408
 20
0.0271400549874108
 42
0.1113661879093152
 10
1.256252700835137
 20
0.0321455417860066
 42
0.060456799039856
 10
1.280359576718197
 20
0.0437750658039402
 42
0.0
 10
1.282436740080608
 20
0.0292528824702614
 42
0.0
 10
1.305008011852606
 20
0.0292528824702614
 42
0.0
 10
1.303035750365566
 20
0.045573054697837
 42
0.0
 10
1.303035750365566
 20
0.1704535782767582
 42
0.0
 10
1.280726706724607
 20
0.1704535782767582
 42
0.0
 10
1.280726706724607
 20
0.0603385752977079
 42
-0.0926529444633646
 10
1.271406905425951
 20
0.0542136206901671
 42
-0.0664344377826394
 10
1.252018117536273
 20
0.0470706779667407
 42
-0.0713593701437487
 10
1.22596399727168
 20
0.0462232117768133
 42
-0.3666103947779491
 97
        0
 92
        7
 72
     1
 73
     1
 93
       12
 10
1.34888971452673
 20
-0.0300855190343001
 42
0.0
 10
1.37158389411627
 20
-0.0300855190342997
 42
0.0
 10
1.37158389411627
 20
0.0381322242109672
 42
0.2065475696655794
 10
1.43316687203049
 20
0.0295489681525751
 42
0.2194428372319613
 10
1.471434120104095
 20
0.0681246169490031
 42
0.1323036971285341
 10
1.475462458348772
 20
0.1210354643912233
 42
0.1641390880683366
 10
1.453695611337639
 20
0.1611617476764042
 42
0.205639974219759
 10
1.404711616991345
 20
0.1717914749112652
 42
0.0657328919071964
 10
1.371062306057382
 20
0.1603071107053626
 42
0.0
 10
1.369185970032088
 20
0.1704922854774775
 42
0.0
 10
1.347893491957236
 20
0.1704922854774775
 42
0.0
 10
1.348889714526734
 20
0.1571025974974671
 42
0.0
 97
        0
 92
       22
 72
     1
 73
     1
 93
        8
 10
1.37158389411627
 20
0.1447873628418232
 42
-0.1242339830404592
 10
1.408127279067805
 20
0.1549128436768488
 42
-0.229840994742505
 10
1.439329608924591
 20
0.143501077402358
 42
-0.1934262502536381
 10
1.452032531529923
 20
0.1169919663469652
 42
-0.1013985410677669
 10
1.45007247035501
 20
0.0757878280977211
 42
-0.2083357761076617
 10
1.426144858393048
 20
0.0470888301796872
 42
-0.1496858148879605
 10
1.383365488627418
 20
0.0497243925890185
 42
-0.0899155484976542
 10
1.37158389411627
 20
0.0564933659367366
 42
0.0
 97
        0
 92
        7
 72
     1
 73
     1
 93
       12
 10
1.536384209201344
 20
0.0381322242109672
 42
0.2065475696655794
 10
1.597967187115564
 20
0.0295489681525751
 42
0.2194428372319613
 10
1.63623443518917
 20
0.0681246169490031
 42
0.1323036971285341
 10
1.640262773433846
 20
0.1210354643912233
 42
0.1641390880683366
 10
1.618495926422713
 20
0.1611617476764042
 42
0.205639974219759
 10
1.569511932076419
 20
0.1717914749112652
 42
0.0657328919071964
 10
1.535862621142456
 20
0.1603071107053626
 42
0.0
 10
1.533986285117165
 20
0.1704922854774775
 42
0.0
 10
1.51269380704231
 20
0.1704922854774775
 42
0.0
 10
1.513690029611812
 20
0.1571025974974671
 42
0.0
 10
1.513690029611804
 20
-0.0300855190343001
 42
0.0
 10
1.536384209201344
 20
-0.0300855190342997
 42
0.0
 97
        0
 92
       22
 72
     1
 73
     1
 93
        8
 10
1.53638420920134
 20
0.0564933659367348
 42
0.0
 10
1.536384209201344
 20
0.1447873628418232
 42
-0.1242339830404592
 10
1.572927594152879
 20
0.1549128436768488
 42
-0.229840994742505
 10
1.604129924009665
 20
0.143501077402358
 42
-0.1934262502536381
 10
1.616832846614997
 20
0.1169919663469652
 42
-0.1013985410677669
 10
1.614872785440084
 20
0.0757878280977211
 42
-0.2083357761076617
 10
1.590945173478122
 20
0.0470888301796872
 42
-0.1496858148879605
 10
1.548165803712493
 20
0.0497243925890185
 42
-0.0899155484976689
 97
        0
 92
        7
 72
     1
 73
     1
 93
        9
 10
1.700061888317705
 20
0.2342426883985293
 42
0.0
 10
1.677630680467434
 20
0.2342426883985293
 42
0.0
 10
1.67763068046743
 20
0.0525526462764159
 42
0.3003574180393968
 10
1.689763445472692
 20
0.0294232917661481
 42
0.1772930531369512
 10
1.716213749579594
 20
0.0296692382956376
 42
0.0
 10
1.726340843842322
 20
0.0328930300171466
 42
0.0
 10
1.722947015877874
 20
0.0450847282577249
 42
0.0
 10
1.715478639728772
 20
0.0445718860057287
 42
-0.4033750267256485
 10
1.700061888317705
 20
0.0551463102997136
 42
0.0
 97
        0
 92
        7
 72
     1
 73
     1
 93
       13
 10
1.756550300014353
 20
0.1705037737446156
 42
0.0
 10
1.733158403445031
 20
0.1705037737446147
 42
0.0
 10
1.789004390745333
 20
0.0387212794769898
 42
-0.1248046720339364
 10
1.779651976914252
 20
0.0098440558334927
 42
-0.2041270254703542
 10
1.758338890268429
 20
-0.0108879300937863
 42
-0.1582846410265598
 10
1.728104948139659
 20
-0.0088290148710986
 42
0.0
 10
1.723524002749954
 20
-0.0288461752875353
 42
0.0503996825504031
 10
1.752727303871125
 20
-0.0310194851179708
 42
0.1573307408029109
 10
1.778748174224848
 20
-0.02185783610684
 42
0.1379639421479074
 10
1.7998397718477
 20
0.0061205808064937
 42
0.0
 10
1.863932002621172
 20
0.1705037737446151
 42
0.0
 10
1.84037943355916
 20
0.1705037737446147
 42
0.0
 10
1.801429340670335
 20
0.0575527643750102
 42
0.0
 97
        0
 75
     0
 76
     1
 47
0.0008892483299936
 98
        8
 10
1.136466178840407
 20
0.0806040287034282
 10
1.218376325116423
 20
0.039698608137611
 10
1.365280380260387
 20
0.0654868019383397
 10
1.365280380260387
 20
0.0654868019383397
 10
1.532067085388874
 20
0.0510462190903649
 10
1.532067085388874
 20
0.0510462190903649
 10
1.692326025665067
 20
0.0661634458554534
 10
1.78937173321124
 20
0.0643849607353548
450
        0
451
        0
460
0.0
461
0.0
452
        0
462
0.0
453
        0
470

1001
ACAD
1010
0.0
1020
0.0
1030
0.0
  0
ENDBLK
  5
B3B
330
B35
100
AcDbEntity
  8
0
100
AcDbBlockEnd
  0
BLOCK
  5
C2A
330
C29
100
AcDbEntity
  8
0
100
AcDbBlockBegin
  2
SW_CENTERMARKSYMBOL_0
 70
     0
 10
0.0
 20
0.0
 30
0.0
  3
SW_CENTERMARKSYMBOL_0
  1

  0
LINE
  5
C2B
330
C29
100
AcDbEntity
  8
0
  6
Continuous
 62
     0
370
     0
100
AcDbLine
 10
0.0
 20
0.0
 30
0.0
 11
0.0
 21
0.0999999999999995
 31
0.0
  0
LINE
  5
C2C
330
C29
100
AcDbEntity
  8
0
  6
Continuous
 62
     0
370
     0
100
AcDbLine
 10
0.0
 20
0.0
 30
0.0
 11
-0.1000000000000006
 21
0.0
 31
0.0
  0
LINE
  5
C2D
330
C29
100
AcDbEntity
  8
0
  6
Continuous
 62
     0
370
     0
100
AcDbLine
 10
0.0
 20
0.0
 30
0.0
 11
0.0
 21
-0.1000000000000017
 31
0.0
  0
LINE
  5
C2E
330
C29
100
AcDbEntity
  8
0
  6
Continuous
 62
     0
370
     0
100
AcDbLine
 10
0.0
 20
0.0
 30
0.0
 11
0.0999999999999995
 21
0.0
 31
0.0
  0
LINE
  5
C2F
330
C29
100
AcDbEntity
  8
0
  6
Continuous
 62
     0
370
     0
100
AcDbLine
 10
0.0
 20
0.199999999999999
 30
0.0
 11
0.0
 21
0.2412249999991068
 31
0.0
  0
LINE
  5
C30
330
C29
100
AcDbEntity
  8
0
  6
Continuous
 62
     0
370
     0
100
AcDbLine
 10
-0.2
 20
0.0
 30
0.0
 11
-0.2412249999991068
 21
0.0
 31
0.0
  0
LINE
  5
C31
330
C29
100
AcDbEntity
  8
0
  6
Continuous
 62
     0
370
     0
100
AcDbLine
 10
0.0
 20
-0.2000000000000011
 30
0.0
 11
0.0
 21
-0.2412249999991068
 31
0.0
  0
LINE
  5
C32
330
C29
100
AcDbEntity
  8
0
  6
Continuous
 62
     0
370
     0
100
AcDbLine
 10
0.2
 20
0.0
 30
0.0
 11
0.2412249999991068
 21
0.0
 31
0.0
  0
ENDBLK
  5
C33
330
C29
100
AcDbEntity
  8
0
100
AcDbBlockEnd
  0
BLOCK
  5
C35
330
C34
100
AcDbEntity
  8
0
100
AcDbBlockBegin
  2
SW_CENTERMARKSYMBOL_3
 70
     0
 10
0.0
 20
0.0
 30
0.0
  3
SW_CENTERMARKSYMBOL_3
  1

  0
LINE
  5
C36
330
C34
100
AcDbEntity
  8
0
  6
Continuous
 62
     0
370
     0
100
AcDbLine
 10
0.0
 20
0.0
 30
0.0
 11
0.0
 21
0.0999999999999995
 31
0.0
  0
LINE
  5
C37
330
C34
100
AcDbEntity
  8
0
  6
Continuous
 62
     0
370
     0
100
AcDbLine
 10
0.0
 20
0.0
 30
0.0
 11
-0.1000000000000017
 21
0.0
 31
0.0
  0
LINE
  5
C38
330
C34
100
AcDbEntity
  8
0
  6
Continuous
 62
     0
370
     0
100
AcDbLine
 10
0.0
 20
0.0
 30
0.0
 11
0.0
 21
-0.0999999999999995
 31
0.0
  0
LINE
  5
C39
330
C34
100
AcDbEntity
  8
0
  6
Continuous
 62
     0
370
     0
100
AcDbLine
 10
0.0
 20
0.0
 30
0.0
 11
0.0999999999999995
 21
0.0
 31
0.0
  0
LINE
  5
C3A
330
C34
100
AcDbEntity
  8
0
  6
Continuous
 62
     0
370
     0
100
AcDbLine
 10
0.0
 20
0.2
 30
0.0
 11
0.0
 21
0.9749999999999992
 31
0.0
  0
LINE
  5
C3B
330
C34
100
AcDbEntity
  8
0
  6
Continuous
 62
     0
370
     0
100
AcDbLine
 10
-0.2000000000000011
 20
0.0
 30
0.0
 11
-0.9750000000000015
 21
0.0
 31
0.0
  0
LINE
  5
C3C
330
C34
100
AcDbEntity
  8
0
  6
Continuous
 62
     0
370
     0
100
AcDbLine
 10
0.0
 20
-0.2
 30
0.0
 11
0.0
 21
-0.9750000000000003
 31
0.0
  0
LINE
  5
C3D
330
C34
100
AcDbEntity
  8
0
  6
Continuous
 62
     0
370
     0
100
AcDbLine
 10
0.199999999999999
 20
0.0
 30
0.0
 11
0.9749999999999992
 21
0.0
 31
0.0
  0
ENDBLK
  5
C3E
330
C34
100
AcDbEntity
  8
0
100
AcDbBlockEnd
  0
BLOCK
  5
D4C
330
D4B
100
AcDbEntity
  8
0
100
AcDbBlockBegin
  2
*D9
 70
     1
 10
0.0
 20
0.0
 30
0.0
  3
*D9
  1

  0
LINE
  5
FE6
330
D4B
100
AcDbEntity
  8
DIM
 62
     0
370
    -2
100
AcDbLine
 10
3.021158303576816
 20
2.235104101346635
 30
0.0
 11
3.400689848213408
 21
2.235104101346635
 31
0.0
  0
LINE
  5
FE7
330
D4B
100
AcDbEntity
  8
DIM
 62
     0
370
    -2
100
AcDbLine
 10
3.021158303576816
 20
3.985104101346635
 30
0.0
 11
3.400689848213409
 21
3.985104101346635
 31
0.0
  0
LINE
  5
FE8
330
D4B
100
AcDbEntity
  8
DIM
 62
     0
370
    -2
100
AcDbLine
 10
3.340689848213408
 20
2.345104101346635
 30
0.0
 11
3.340689848213409
 21
3.875104101346635
 31
0.0
  0
SOLID
  5
FE9
330
D4B
100
AcDbEntity
  8
DIM
 62
     0
100
AcDbTrace
 10
3.322356514880075
 20
2.345104101346635
 30
0.0
 11
3.359023181546742
 21
2.345104101346635
 31
0.0
 12
3.340689848213408
 22
2.235104101346635
 32
0.0
 13
3.340689848213408
 23
2.235104101346635
 33
0.0
  0
SOLID
  5
FEA
330
D4B
100
AcDbEntity
  8
DIM
 62
     0
100
AcDbTrace
 10
3.322356514880075
 20
3.875104101346635
 30
0.0
 11
3.359023181546742
 21
3.875104101346635
 31
0.0
 12
3.340689848213409
 22
3.985104101346635
 32
0.0
 13
3.340689848213409
 23
3.985104101346635
 33
0.0
  0
MTEXT
  5
FEB
330
D4B
100
AcDbEntity
  8
DIM
 62
     0
100
AcDbMText
 10
3.175156197635569
 20
3.110104101346635
 30
0.0
 40
0.11
 41
0.0
 71
     2
 72
     1
  1
\A1;1.750
 11
0.0000000000000001
 21
1.0
 31
0.0
 73
     1
 44
1.0
  0
POINT
  5
FEC
330
D4B
100
AcDbEntity
  8
Defpoints
 62
     0
100
AcDbPoint
 10
2.961158303576816
 20
2.235104101346635
 30
0.0
  0
POINT
  5
FED
330
D4B
100
AcDbEntity
  8
Defpoints
 62
     0
100
AcDbPoint
 10
2.961158303576816
 20
3.985104101346635
 30
0.0
  0
POINT
  5
FEE
330
D4B
100
AcDbEntity
  8
Defpoints
 62
     0
100
AcDbPoint
 10
3.340689848213409
 20
3.985104101346635
 30
0.0
  0
ENDBLK
  5
D4D
330
D4B
100
AcDbEntity
  8
0
100
AcDbBlockEnd
  0
BLOCK
  5
EDB
330
EDA
100
AcDbEntity
  8
0
100
AcDbBlockBegin
  2
*D10
 70
     1
 10
0.0
 20
0.0
 30
0.0
  3
*D10
  1

  0
LINE
  5
EDC
330
EDA
100
AcDbEntity
  8
DIM
 62
     0
370
    -2
100
AcDbLine
 10
-1.226619980290239
 20
1.307097162509198
 30
0.0
 11
-1.32760570428752
 21
1.307097162509198
 31
0.0
  0
LINE
  5
EDD
330
EDA
100
AcDbEntity
  8
DIM
 62
     0
370
    -2
100
AcDbLine
 10
-1.32760570428752
 20
1.307097162509198
 30
0.0
 11
-1.427353701869553
 21
1.21099829805519
 31
0.0
  0
LINE
  5
EDE
330
EDA
100
AcDbEntity
  8
DIM
 62
     0
370
    -2
100
AcDbLine
 10
-1.587948714876804
 20
1.056278416342462
 30
0.0
 11
-1.602351855056827
 21
1.04240219376733
 31
0.0
  0
MTEXT
  5
EDF
102
{ACAD_XDICTIONARY
360
1B3A
102
}
330
EDA
100
AcDbEntity
  8
DIM
 62
     0
100
AcDbMText
 10
-1.272112842288879
 20
1.328225646533672
 30
0.0
 40
0.02
 41
0.0
 71
     5
 72
     1
  1
\A1;\U+22050.183
 73
     1
 44
1.0
  0
LINE
  5
EE0
330
EDA
100
AcDbEntity
  8
DIM
 62
     0
370
    -2
100
AcDbLine
 10
-1.573545574696782
 20
1.070154638917595
 30
0.0
 11
-1.441756842049575
 21
1.197122075480058
 31
0.0
  0
SOLID
  5
EE1
330
EDA
100
AcDbEntity
  8
DIM
 62
     0
100
AcDbTrace
 10
-1.590261418639326
 20
1.058678939705799
 30
0.0
 11
-1.585636011114282
 21
1.053877892979125
 31
0.0
 12
-1.573545574696782
 22
1.070154638917595
 32
0.0
 13
-1.573545574696782
 23
1.070154638917595
 33
0.0
  0
SOLID
  5
EE2
330
EDA
100
AcDbEntity
  8
DIM
 62
     0
100
AcDbTrace
 10
-1.429666405632075
 20
1.213398821418527
 30
0.0
 11
-1.425040998107031
 21
1.208597774691853
 31
0.0
 12
-1.441756842049575
 22
1.197122075480058
 32
0.0
 13
-1.441756842049575
 23
1.197122075480058
 33
0.0
  0
POINT
  5
EE3
330
EDA
100
AcDbEntity
  8
Defpoints
 62
     0
100
AcDbPoint
 10
-1.441756842049575
 20
1.197122075480058
 30
0.0
  0
POINT
  5
EE4
330
EDA
100
AcDbEntity
  8
Defpoints
 62
     0
100
AcDbPoint
 10
-1.573545574696782
 20
1.070154638917595
 30
0.0
  0
ENDBLK
  5
EE5
330
EDA
100
AcDbEntity
  8
0
100
AcDbBlockEnd
  0
BLOCK
  5
EE7
330
EE6
100
AcDbEntity
  8
0
100
AcDbBlockBegin
  2
*D11
 70
     1
 10
0.0
 20
0.0
 30
0.0
  3
*D11
  1

  0
LINE
  5
EE8
330
EE6
100
AcDbEntity
  8
DIM
 62
     0
370
    -2
100
AcDbLine
 10
-1.560738937454367
 20
1.566818836444471
 30
0.0
 11
-1.560738937454367
 21
1.448151352304424
 31
0.0
  0
LINE
  5
EE9
330
EE6
100
AcDbEntity
  8
DIM
 62
     0
370
    -2
100
AcDbLine
 10
-1.247738937454367
 20
1.566818836444471
 30
0.0
 11
-1.247738937454367
 21
1.448151352304424
 31
0.0
  0
LINE
  5
EEA
330
EE6
100
AcDbEntity
  8
DIM
 62
     0
370
    -2
100
AcDbLine
 10
-1.540738937454367
 20
1.458151352304424
 30
0.0
 11
-1.267738937454367
 21
1.458151352304424
 31
0.0
  0
SOLID
  5
EEB
330
EE6
100
AcDbEntity
  8
DIM
 62
     0
100
AcDbTrace
 10
-1.540738937454367
 20
1.461484685637757
 30
0.0
 11
-1.540738937454367
 21
1.454818018971091
 31
0.0
 12
-1.560738937454367
 22
1.458151352304424
 32
0.0
 13
-1.560738937454367
 23
1.458151352304424
 33
0.0
  0
SOLID
  5
EEC
330
EE6
100
AcDbEntity
  8
DIM
 62
     0
100
AcDbTrace
 10
-1.267738937454367
 20
1.461484685637757
 30
0.0
 11
-1.267738937454367
 21
1.454818018971091
 31
0.0
 12
-1.247738937454367
 22
1.458151352304424
 32
0.0
 13
-1.247738937454367
 23
1.458151352304424
 33
0.0
  0
MTEXT
  5
EED
330
EE6
100
AcDbEntity
  8
DIM
 62
     0
100
AcDbMText
 10
-1.404238937454367
 20
1.478654411447864
 30
0.0
 40
0.02
 41
0.0
 71
     5
 72
     1
  1
\A1;0.313
 73
     1
 44
1.0
  0
POINT
  5
EEE
330
EE6
100
AcDbEntity
  8
Defpoints
 62
     0
100
AcDbPoint
 10
-1.560738937454367
 20
1.576818836444472
 30
0.0
  0
POINT
  5
EEF
330
EE6
100
AcDbEntity
  8
Defpoints
 62
     0
100
AcDbPoint
 10
-1.247738937454367
 20
1.576818836444472
 30
0.0
  0
POINT
  5
EF0
330
EE6
100
AcDbEntity
  8
Defpoints
 62
     0
100
AcDbPoint
 10
-1.247738937454367
 20
1.458151352304424
 30
0.0
  0
ENDBLK
  5
EF1
330
EE6
100
AcDbEntity
  8
0
100
AcDbBlockEnd
  0
BLOCK
  5
EF3
330
EF2
100
AcDbEntity
  8
0
100
AcDbBlockBegin
  2
T
 70
     0
 10
0.0
 20
0.0
 30
0.0
  3
T
  1

  0
TEXT
  5
EF4
330
EF2
100
AcDbEntity
  8
FORMAT
 62
     7
100
AcDbText
 10
-0.3333606736270793
 20
0.2084972315030285
 30
0.0
 40
0.04
  1
TOP
 41
0.9
  7
SLDTEXTSTYLE1
 72
     4
 11
-0.286078552620961
 21
0.2284972315030285
 31
0.0
100
AcDbText
  0
TEXT
  5
EF5
330
EF2
100
AcDbEntity
  8
FORMAT
 62
     7
100
AcDbText
 10
-0.3644293344020623
 20
-0.2360664978351554
 30
0.0
 40
0.04
  1
FRONT
 41
0.9
  7
SLDTEXTSTYLE1
 72
     4
 11
-0.286078552620961
 21
-0.2160664978351554
 31
0.0
100
AcDbText
  0
TEXT
  5
EF6
330
EF2
100
AcDbEntity
  8
FORMAT
 62
     7
100
AcDbText
 10
0.0175324295874208
 20
-0.2360664978351554
 30
0.0
 40
0.04
  1
SIDE
 41
0.9
  7
SLDTEXTSTYLE1
 72
     4
 11
0.0677635648695418
 21
-0.2160664978351554
 31
0.0
100
AcDbText
  0
DIMENSION
  5
EF7
330
EF2
100
AcDbEntity
  8
DIM
100
AcDbDimension
  2
*D10
 10
-0.0934624986072939
 20
-0.0900433111733275
 30
0.0
 11
0.2079702338006084
 21
0.1468992124182764
 31
0.0
 12
1.480083076089488
 22
-1.160197950090922
 32
0.0
 70
   131
 71
     5
 42
0.1829999999999996
  3
Standard
100
AcDbDiametricDimension
 15
0.0383262340399127
 25
0.0369241253891355
 35
0.0
 40
0.0
1001
ACAD_DSTYLE_DIMRADIAL_EXTENSION
1070
   387
1070
     1
1070
   388
1040
0.0
1070
   390
1040
0.0
1001
ACAD
1000
DSTYLE
1002
{
1070
    73
1070
     1
1070
    74
1070
     1
1002
}
  0
DIMENSION
  5
EF8
330
EF2
100
AcDbEntity
  8
DIM
100
AcDbDimension
  2
*D11
 10
0.2323441386351208
 20
0.297953402213502
 30
0.0
 11
0.075844138635121
 21
0.3184564613569418
 31
0.0
 12
1.480083076089488
 22
-1.160197950090922
 32
0.0
 71
     5
 42
0.3129999999999997
  3
Standard
100
AcDbAlignedDimension
 13
-0.0806558613648789
 23
0.4166208863535495
 33
0.0
 14
0.2323441386351208
 24
0.4166208863535495
 34
0.0
100
AcDbRotatedDimension
  0
ENDBLK
  5
EF9
330
EF2
100
AcDbEntity
  8
0
100
AcDbBlockEnd
  0
BLOCK
  5
F85
330
F84
100
AcDbEntity
  8
0
100
AcDbBlockBegin
  2
*D15
 70
     1
 10
0.0
 20
0.0
 30
0.0
  3
*D15
  1

  0
LINE
  5
FDB
330
F84
100
AcDbEntity
  8
DIM
 62
     0
370
    -2
100
AcDbLine
 10
2.306158303576815
 20
2.235104101346635
 30
0.0
 11
2.045740061572469
 21
2.235104101346635
 31
0.0
  0
LINE
  5
FDC
330
F84
100
AcDbEntity
  8
DIM
 62
     0
370
    -2
100
AcDbLine
 10
2.306158303576815
 20
2.547604101346635
 30
0.0
 11
2.045740061572469
 21
2.547604101346635
 31
0.0
  0
LINE
  5
FDD
330
F84
100
AcDbEntity
  8
DIM
 62
     0
370
    -2
100
AcDbLine
 10
2.105740061572469
 20
2.125104101346635
 30
0.0
 11
2.105740061572469
 21
2.015104101346635
 31
0.0
  0
LINE
  5
FDE
330
F84
100
AcDbEntity
  8
DIM
 62
     0
370
    -2
100
AcDbLine
 10
2.105740061572469
 20
2.657604101346635
 30
0.0
 11
2.105740061572469
 21
2.767604101346635
 31
0.0
  0
LINE
  5
FDF
330
F84
100
AcDbEntity
  8
DIM
 62
     0
370
    -2
100
AcDbLine
 10
2.105740061572469
 20
2.235104101346635
 30
0.0
 11
2.105740061572469
 21
2.547604101346635
 31
0.0
  0
SOLID
  5
FE0
330
F84
100
AcDbEntity
  8
DIM
 62
     0
100
AcDbTrace
 10
2.087406728239135
 20
2.125104101346635
 30
0.0
 11
2.124073394905802
 21
2.125104101346635
 31
0.0
 12
2.105740061572469
 22
2.235104101346635
 32
0.0
 13
2.105740061572469
 23
2.235104101346635
 33
0.0
  0
SOLID
  5
FE1
330
F84
100
AcDbEntity
  8
DIM
 62
     0
100
AcDbTrace
 10
2.087406728239135
 20
2.657604101346635
 30
0.0
 11
2.124073394905802
 21
2.657604101346635
 31
0.0
 12
2.105740061572469
 22
2.547604101346635
 32
0.0
 13
2.105740061572469
 23
2.547604101346635
 33
0.0
  0
MTEXT
  5
FE2
330
F84
100
AcDbEntity
  8
DIM
 62
     0
100
AcDbMText
 10
1.99797323628355
 20
2.391354101346636
 30
0.0
 40
0.11
 41
0.0
 71
     5
 72
     1
  1
\A1;0.313
 11
0.0000000000000001
 21
1.0
 31
0.0
 73
     1
 44
1.0
  0
POINT
  5
FE3
330
F84
100
AcDbEntity
  8
Defpoints
 62
     0
100
AcDbPoint
 10
2.366158303576815
 20
2.235104101346635
 30
0.0
  0
POINT
  5
FE4
330
F84
100
AcDbEntity
  8
Defpoints
 62
     0
100
AcDbPoint
 10
2.366158303576815
 20
2.547604101346635
 30
0.0
  0
POINT
  5
FE5
330
F84
100
AcDbEntity
  8
Defpoints
 62
     0
100
AcDbPoint
 10
2.105740061572469
 20
2.547604101346635
 30
0.0
  0
ENDBLK
  5
F86
330
F84
100
AcDbEntity
  8
0
100
AcDbBlockEnd
  0
BLOCK
  5
F94
330
F93
100
AcDbEntity
  8
0
100
AcDbBlockBegin
  2
*D16
 70
     1
 10
0.0
 20
0.0
 30
0.0
  3
*D16
  1

  0
LINE
  5
FBC
330
F93
100
AcDbEntity
  8
DIM
 62
     0
370
    -2
100
AcDbLine
 10
2.306158303576815
 20
2.547604101346635
 30
0.0
 11
2.045740061572468
 21
2.547604101346635
 31
0.0
  0
LINE
  5
FBD
330
F93
100
AcDbEntity
  8
DIM
 62
     0
370
    -2
100
AcDbLine
 10
2.306158303576815
 20
3.672604101346635
 30
0.0
 11
2.045740061572469
 21
3.672604101346635
 31
0.0
  0
LINE
  5
FBE
330
F93
100
AcDbEntity
  8
DIM
 62
     0
370
    -2
100
AcDbLine
 10
2.105740061572468
 20
2.657604101346635
 30
0.0
 11
2.105740061572469
 21
3.562604101346635
 31
0.0
  0
SOLID
  5
FBF
330
F93
100
AcDbEntity
  8
DIM
 62
     0
100
AcDbTrace
 10
2.087406728239135
 20
2.657604101346635
 30
0.0
 11
2.124073394905802
 21
2.657604101346635
 31
0.0
 12
2.105740061572468
 22
2.547604101346635
 32
0.0
 13
2.105740061572468
 23
2.547604101346635
 33
0.0
  0
SOLID
  5
FC0
330
F93
100
AcDbEntity
  8
DIM
 62
     0
100
AcDbTrace
 10
2.087406728239135
 20
3.562604101346635
 30
0.0
 11
2.124073394905802
 21
3.562604101346635
 31
0.0
 12
2.105740061572469
 22
3.672604101346635
 32
0.0
 13
2.105740061572469
 23
3.672604101346635
 33
0.0
  0
MTEXT
  5
FC1
330
F93
100
AcDbEntity
  8
DIM
 62
     0
100
AcDbMText
 10
1.997973236283549
 20
3.110104101346636
 30
0.0
 40
0.11
 41
0.0
 71
     5
 72
     1
  1
\A1;1.125
 11
0.0000000000000001
 21
1.0
 31
0.0
 73
     1
 44
1.0
  0
POINT
  5
FC2
330
F93
100
AcDbEntity
  8
Defpoints
 62
     0
100
AcDbPoint
 10
2.366158303576815
 20
2.547604101346635
 30
0.0
  0
POINT
  5
FC3
330
F93
100
AcDbEntity
  8
Defpoints
 62
     0
100
AcDbPoint
 10
2.366158303576815
 20
3.672604101346635
 30
0.0
  0
POINT
  5
FC4
330
F93
100
AcDbEntity
  8
Defpoints
 62
     0
100
AcDbPoint
 10
2.105740061572469
 20
3.672604101346635
 30
0.0
  0
ENDBLK
  5
F95
330
F93
100
AcDbEntity
  8
0
100
AcDbBlockEnd
  0
BLOCK
  5
FA1
330
FA0
100
AcDbEntity
  8
0
100
AcDbBlockBegin
  2
*D17
 70
     1
 10
0.0
 20
0.0
 30
0.0
  3
*D17
  1

  0
LINE
  5
FD0
330
FA0
100
AcDbEntity
  8
DIM
 62
     0
370
    -2
100
AcDbLine
 10
2.306158303576815
 20
3.672604101346635
 30
0.0
 11
2.045740061572469
 21
3.672604101346635
 31
0.0
  0
LINE
  5
FD1
330
FA0
100
AcDbEntity
  8
DIM
 62
     0
370
    -2
100
AcDbLine
 10
2.306158303576815
 20
3.985104101346633
 30
0.0
 11
2.045740061572469
 21
3.985104101346633
 31
0.0
  0
LINE
  5
FD2
330
FA0
100
AcDbEntity
  8
DIM
 62
     0
370
    -2
100
AcDbLine
 10
2.105740061572469
 20
3.562604101346635
 30
0.0
 11
2.105740061572469
 21
3.452604101346635
 31
0.0
  0
LINE
  5
FD3
330
FA0
100
AcDbEntity
  8
DIM
 62
     0
370
    -2
100
AcDbLine
 10
2.105740061572469
 20
4.095104101346633
 30
0.0
 11
2.105740061572469
 21
4.205104101346633
 31
0.0
  0
LINE
  5
FD4
330
FA0
100
AcDbEntity
  8
DIM
 62
     0
370
    -2
100
AcDbLine
 10
2.105740061572469
 20
3.672604101346635
 30
0.0
 11
2.105740061572469
 21
3.985104101346633
 31
0.0
  0
SOLID
  5
FD5
330
FA0
100
AcDbEntity
  8
DIM
 62
     0
100
AcDbTrace
 10
2.087406728239136
 20
3.562604101346635
 30
0.0
 11
2.124073394905803
 21
3.562604101346635
 31
0.0
 12
2.105740061572469
 22
3.672604101346635
 32
0.0
 13
2.105740061572469
 23
3.672604101346635
 33
0.0
  0
SOLID
  5
FD6
330
FA0
100
AcDbEntity
  8
DIM
 62
     0
100
AcDbTrace
 10
2.087406728239136
 20
4.095104101346633
 30
0.0
 11
2.124073394905803
 21
4.095104101346633
 31
0.0
 12
2.105740061572469
 22
3.985104101346633
 32
0.0
 13
2.105740061572469
 23
3.985104101346633
 33
0.0
  0
MTEXT
  5
FD7
330
FA0
100
AcDbEntity
  8
DIM
 62
     0
100
AcDbMText
 10
1.99797323628355
 20
3.828854101346635
 30
0.0
 40
0.11
 41
0.0
 71
     5
 72
     1
  1
\A1;0.313
 11
0.0000000000000001
 21
1.0
 31
0.0
 73
     1
 44
1.0
  0
POINT
  5
FD8
330
FA0
100
AcDbEntity
  8
Defpoints
 62
     0
100
AcDbPoint
 10
2.366158303576815
 20
3.672604101346635
 30
0.0
  0
POINT
  5
FD9
330
FA0
100
AcDbEntity
  8
Defpoints
 62
     0
100
AcDbPoint
 10
2.366158303576815
 20
3.985104101346633
 30
0.0
  0
POINT
  5
FDA
330
FA0
100
AcDbEntity
  8
Defpoints
 62
     0
100
AcDbPoint
 10
2.105740061572469
 20
3.985104101346633
 30
0.0
  0
ENDBLK
  5
FA2
330
FA0
100
AcDbEntity
  8
0
100
AcDbBlockEnd
  0
BLOCK
  5
FF1
330
FF0
100
AcDbEntity
  8
0
100
AcDbBlockBegin
  2
*D18
 70
     1
 10
0.0
 20
0.0
 30
0.0
  3
*D18
  1

  0
LINE
  5
1012
330
FF0
100
AcDbEntity
  8
DIM
 62
     0
370
    -2
100
AcDbLine
 10
2.306158303576815
 20
5.708884980994058
 30
0.0
 11
2.051993226665248
 21
5.708884980994058
 31
0.0
  0
LINE
  5
1013
330
FF0
100
AcDbEntity
  8
DIM
 62
     0
370
    -2
100
AcDbLine
 10
2.362933303577708
 20
6.583884980994056
 30
0.0
 11
2.051993226665248
 21
6.583884980994056
 31
0.0
  0
LINE
  5
1014
330
FF0
100
AcDbEntity
  8
DIM
 62
     0
370
    -2
100
AcDbLine
 10
2.111993226665248
 20
5.818884980994059
 30
0.0
 11
2.111993226665248
 21
6.473884980994056
 31
0.0
  0
SOLID
  5
1015
330
FF0
100
AcDbEntity
  8
DIM
 62
     0
100
AcDbTrace
 10
2.093659893331914
 20
5.818884980994059
 30
0.0
 11
2.130326559998581
 21
5.818884980994059
 31
0.0
 12
2.111993226665248
 22
5.708884980994058
 32
0.0
 13
2.111993226665248
 23
5.708884980994058
 33
0.0
  0
SOLID
  5
1016
330
FF0
100
AcDbEntity
  8
DIM
 62
     0
100
AcDbTrace
 10
2.093659893331914
 20
6.473884980994056
 30
0.0
 11
2.130326559998581
 21
6.473884980994056
 31
0.0
 12
2.111993226665248
 22
6.583884980994056
 32
0.0
 13
2.111993226665248
 23
6.583884980994056
 33
0.0
  0
MTEXT
  5
1017
330
FF0
100
AcDbEntity
  8
DIM
 62
     0
100
AcDbMText
 10
2.004226401376328
 20
6.146384980994058
 30
0.0
 40
0.11
 41
0.0
 71
     5
 72
     1
  1
\A1;0.875
 11
0.0000000000000001
 21
1.0
 31
0.0
 73
     1
 44
1.0
  0
POINT
  5
1018
330
FF0
100
AcDbEntity
  8
Defpoints
 62
     0
100
AcDbPoint
 10
2.366158303576815
 20
5.708884980994058
 30
0.0
  0
POINT
  5
1019
330
FF0
100
AcDbEntity
  8
Defpoints
 62
     0
100
AcDbPoint
 10
2.422933303577708
 20
6.583884980994056
 30
0.0
  0
POINT
  5
101A
330
FF0
100
AcDbEntity
  8
Defpoints
 62
     0
100
AcDbPoint
 10
2.111993226665248
 20
6.583884980994056
 30
0.0
  0
ENDBLK
  5
FF2
330
FF0
100
AcDbEntity
  8
0
100
AcDbBlockEnd
  0
BLOCK
  5
FFE
330
FFD
100
AcDbEntity
  8
0
100
AcDbBlockBegin
  2
*D19
 70
     1
 10
0.0
 20
0.0
 30
0.0
  3
*D19
  1

  0
LINE
  5
1009
330
FFD
100
AcDbEntity
  8
DIM
 62
     0
370
    -2
100
AcDbLine
 10
2.362933303577708
 20
6.583884980994056
 30
0.0
 11
2.051993226665248
 21
6.583884980994056
 31
0.0
  0
LINE
  5
100A
330
FFD
100
AcDbEntity
  8
DIM
 62
     0
370
    -2
100
AcDbLine
 10
2.306158303576815
 20
7.458884980994058
 30
0.0
 11
2.051993226665248
 21
7.458884980994058
 31
0.0
  0
LINE
  5
100B
330
FFD
100
AcDbEntity
  8
DIM
 62
     0
370
    -2
100
AcDbLine
 10
2.111993226665248
 20
6.693884980994057
 30
0.0
 11
2.111993226665248
 21
7.348884980994058
 31
0.0
  0
SOLID
  5
100C
330
FFD
100
AcDbEntity
  8
DIM
 62
     0
100
AcDbTrace
 10
2.093659893331914
 20
6.693884980994057
 30
0.0
 11
2.130326559998581
 21
6.693884980994057
 31
0.0
 12
2.111993226665248
 22
6.583884980994056
 32
0.0
 13
2.111993226665248
 23
6.583884980994056
 33
0.0
  0
SOLID
  5
100D
330
FFD
100
AcDbEntity
  8
DIM
 62
     0
100
AcDbTrace
 10
2.093659893331915
 20
7.348884980994058
 30
0.0
 11
2.130326559998582
 21
7.348884980994058
 31
0.0
 12
2.111993226665248
 22
7.458884980994058
 32
0.0
 13
2.111993226665248
 23
7.458884980994058
 33
0.0
  0
MTEXT
  5
100E
330
FFD
100
AcDbEntity
  8
DIM
 62
     0
100
AcDbMText
 10
2.004226401376328
 20
7.021384980994058
 30
0.0
 40
0.11
 41
0.0
 71
     5
 72
     1
  1
\A1;0.875
 11
0.0000000000000001
 21
1.0
 31
0.0
 73
     1
 44
1.0
  0
POINT
  5
100F
330
FFD
100
AcDbEntity
  8
Defpoints
 62
     0
100
AcDbPoint
 10
2.422933303577708
 20
6.583884980994056
 30
0.0
  0
POINT
  5
1010
330
FFD
100
AcDbEntity
  8
Defpoints
 62
     0
100
AcDbPoint
 10
2.366158303576815
 20
7.458884980994058
 30
0.0
  0
POINT
  5
1011
330
FFD
100
AcDbEntity
  8
Defpoints
 62
     0
100
AcDbPoint
 10
2.111993226665248
 20
7.458884980994058
 30
0.0
  0
ENDBLK
  5
FFF
330
FFD
100
AcDbEntity
  8
0
100
AcDbBlockEnd
  0
BLOCK
  5
101D
330
101C
100
AcDbEntity
  8
0
100
AcDbBlockBegin
  2
*D20
 70
     1
 10
0.0
 20
0.0
 30
0.0
  3
*D20
  1

  0
LINE
  5
103E
330
101C
100
AcDbEntity
  8
DIM
 62
     0
370
    -2
100
AcDbLine
 10
2.351158303576815
 20
5.663884980994061
 30
0.0
 11
2.351158303576815
 21
5.207134999138924
 31
0.0
  0
LINE
  5
103F
330
101C
100
AcDbEntity
  8
DIM
 62
     0
370
    -2
100
AcDbLine
 10
2.976158303576816
 20
5.66388498099406
 30
0.0
 11
2.976158303576816
 21
5.207134999138924
 31
0.0
  0
LINE
  5
1040
330
101C
100
AcDbEntity
  8
DIM
 62
     0
370
    -2
100
AcDbLine
 10
2.461158303576814
 20
5.267134999138924
 30
0.0
 11
2.866158303576817
 21
5.267134999138924
 31
0.0
  0
SOLID
  5
1041
330
101C
100
AcDbEntity
  8
DIM
 62
     0
100
AcDbTrace
 10
2.461158303576814
 20
5.285468332472258
 30
0.0
 11
2.461158303576814
 21
5.248801665805591
 31
0.0
 12
2.351158303576815
 22
5.267134999138924
 32
0.0
 13
2.351158303576815
 23
5.267134999138924
 33
0.0
  0
SOLID
  5
1042
330
101C
100
AcDbEntity
  8
DIM
 62
     0
100
AcDbTrace
 10
2.866158303576817
 20
5.285468332472258
 30
0.0
 11
2.866158303576817
 21
5.248801665805591
 31
0.0
 12
2.976158303576816
 22
5.267134999138924
 32
0.0
 13
2.976158303576816
 23
5.267134999138924
 33
0.0
  0
MTEXT
  5
1043
330
101C
100
AcDbEntity
  8
DIM
 62
     0
100
AcDbMText
 10
2.663658303576815
 20
5.374901824427843
 30
0.0
 40
0.11
 41
0.0
 71
     5
 72
     1
  1
\A1;0.625
 73
     1
 44
1.0
  0
POINT
  5
1044
330
101C
100
AcDbEntity
  8
Defpoints
 62
     0
100
AcDbPoint
 10
2.351158303576815
 20
5.723884980994061
 30
0.0
  0
POINT
  5
1045
330
101C
100
AcDbEntity
  8
Defpoints
 62
     0
100
AcDbPoint
 10
2.976158303576816
 20
5.72388498099406
 30
0.0
  0
POINT
  5
1046
330
101C
100
AcDbEntity
  8
Defpoints
 62
     0
100
AcDbPoint
 10
2.976158303576816
 20
5.267134999138924
 30
0.0
  0
ENDBLK
  5
101E
330
101C
100
AcDbEntity
  8
0
100
AcDbBlockEnd
  0
BLOCK
  5
102A
330
1029
100
AcDbEntity
  8
0
100
AcDbBlockBegin
  2
*D21
 70
     1
 10
0.0
 20
0.0
 30
0.0
  3
*D21
  1

  0
LINE
  5
1035
330
1029
100
AcDbEntity
  8
DIM
 62
     0
370
    -2
100
AcDbLine
 10
2.366158303576815
 20
5.648884980994059
 30
0.0
 11
2.366158303576815
 21
5.4102991797142
 31
0.0
  0
LINE
  5
1036
330
1029
100
AcDbEntity
  8
DIM
 62
     0
370
    -2
100
AcDbLine
 10
2.961158303576816
 20
5.648884980994059
 30
0.0
 11
2.961158303576816
 21
5.4102991797142
 31
0.0
  0
LINE
  5
1037
330
1029
100
AcDbEntity
  8
DIM
 62
     0
370
    -2
100
AcDbLine
 10
2.476158303576815
 20
5.470299179714199
 30
0.0
 11
2.851158303576816
 21
5.470299179714199
 31
0.0
  0
SOLID
  5
1038
330
1029
100
AcDbEntity
  8
DIM
 62
     0
100
AcDbTrace
 10
2.476158303576815
 20
5.488632513047533
 30
0.0
 11
2.476158303576815
 21
5.451965846380866
 31
0.0
 12
2.366158303576815
 22
5.470299179714199
 32
0.0
 13
2.366158303576815
 23
5.470299179714199
 33
0.0
  0
SOLID
  5
1039
330
1029
100
AcDbEntity
  8
DIM
 62
     0
100
AcDbTrace
 10
2.851158303576816
 20
5.488632513047533
 30
0.0
 11
2.851158303576816
 21
5.451965846380866
 31
0.0
 12
2.961158303576816
 22
5.470299179714199
 32
0.0
 13
2.961158303576816
 23
5.470299179714199
 33
0.0
  0
MTEXT
  5
103A
330
1029
100
AcDbEntity
  8
DIM
 62
     0
100
AcDbMText
 10
2.663658303576815
 20
5.578066005003118
 30
0.0
 40
0.11
 41
0.0
 71
     5
 72
     1
  1
\A1;0.595
 73
     1
 44
1.0
  0
POINT
  5
103B
330
1029
100
AcDbEntity
  8
Defpoints
 62
     0
100
AcDbPoint
 10
2.366158303576815
 20
5.708884980994058
 30
0.0
  0
POINT
  5
103C
330
1029
100
AcDbEntity
  8
Defpoints
 62
     0
100
AcDbPoint
 10
2.961158303576816
 20
5.708884980994058
 30
0.0
  0
POINT
  5
103D
330
1029
100
AcDbEntity
  8
Defpoints
 62
     0
100
AcDbPoint
 10
2.961158303576816
 20
5.470299179714199
 30
0.0
  0
ENDBLK
  5
102B
330
1029
100
AcDbEntity
  8
0
100
AcDbBlockEnd
  0
BLOCK
  5
1049
330
1048
100
AcDbEntity
  8
0
100
AcDbBlockBegin
  2
*D22
 70
     1
 10
0.0
 20
0.0
 30
0.0
  3
*D22
  1

  0
LINE
  5
1084
330
1048
100
AcDbEntity
  8
DIM
 62
     0
370
    -2
100
AcDbLine
 10
3.79072065005935
 20
6.927117210361078
 30
0.0
 11
3.240000051826855
 21
6.927117210361078
 31
0.0
  0
LINE
  5
1085
330
1048
100
AcDbEntity
  8
DIM
 62
     0
370
    -2
100
AcDbLine
 10
3.240000051826855
 20
6.927117210361078
 30
0.0
 11
2.879956823908583
 21
6.712512346850509
 31
0.0
  0
LINE
  5
1086
330
1048
100
AcDbEntity
  8
DIM
 62
     0
370
    -2
100
AcDbLine
 10
2.448359783245047
 20
6.455257615137602
 30
0.0
 11
2.353871427243141
 21
6.398937542516406
 31
0.0
  0
MTEXT
  5
1087
102
{ACAD_XDICTIONARY
360
1B3E
102
}
330
1048
100
AcDbEntity
  8
DIM
 62
     0
100
AcDbMText
 10
3.540360350943102
 20
7.038323872495682
 30
0.0
 40
0.11
 41
0.0
 71
     5
 72
     1
  1
\A1;\U+22050.282
 73
     1
 44
1.0
  0
LINE
  5
1088
330
1048
100
AcDbEntity
  8
DIM
 62
     0
370
    -2
100
AcDbLine
 10
2.542848139246954
 20
6.5115776877588
 30
0.0
 11
2.785468467906676
 21
6.656192274229312
 31
0.0
  0
SOLID
  5
1089
330
1048
100
AcDbEntity
  8
DIM
 62
     0
100
AcDbTrace
 10
2.438973104474847
 20
6.471005674471253
 30
0.0
 11
2.457746462015247
 21
6.439509555803951
 31
0.0
 12
2.542848139246954
 22
6.5115776877588
 32
0.0
 13
2.542848139246954
 23
6.5115776877588
 33
0.0
  0
SOLID
  5
108A
330
1048
100
AcDbEntity
  8
DIM
 62
     0
100
AcDbTrace
 10
2.870570145138383
 20
6.72826040618416
 30
0.0
 11
2.889343502678783
 21
6.696764287516858
 31
0.0
 12
2.785468467906676
 22
6.656192274229312
 32
0.0
 13
2.785468467906676
 23
6.656192274229312
 33
0.0
  0
POINT
  5
108B
330
1048
100
AcDbEntity
  8
Defpoints
 62
     0
100
AcDbPoint
 10
2.785468467906676
 20
6.656192274229312
 30
0.0
  0
POINT
  5
108C
330
1048
100
AcDbEntity
  8
Defpoints
 62
     0
100
AcDbPoint
 10
2.542848139246954
 20
6.5115776877588
 30
0.0
  0
ENDBLK
  5
104A
330
1048
100
AcDbEntity
  8
0
100
AcDbBlockEnd
  0
BLOCK
  5
1055
330
1054
100
AcDbEntity
  8
0
100
AcDbBlockBegin
  2
*D23
 70
     1
 10
0.0
 20
0.0
 30
0.0
  3
*D23
  1

  0
LINE
  5
10A0
330
1054
100
AcDbEntity
  8
DIM
 62
     0
370
    -2
100
AcDbLine
 10
3.790421533811892
 20
6.350493116422521
 30
0.0
 11
3.240000051826848
 21
6.350493116422521
 31
0.0
  0
LINE
  5
10A1
330
1054
100
AcDbEntity
  8
DIM
 62
     0
370
    -2
100
AcDbLine
 10
3.240000051826848
 20
6.350493116422521
 30
0.0
 11
2.869537483791586
 21
6.500643656515294
 31
0.0
  0
LINE
  5
10A2
330
1054
100
AcDbEntity
  8
DIM
 62
     0
370
    -2
100
AcDbLine
 10
2.458779123362045
 20
6.667126305472818
 30
0.0
 11
2.356834260339851
 21
6.708445125680881
 31
0.0
  0
MTEXT
  5
10A3
102
{ACAD_XDICTIONARY
360
1B42
102
}
330
1054
100
AcDbEntity
  8
DIM
 62
     0
100
AcDbMText
 10
3.54021079281937
 20
6.461699778557124
 30
0.0
 40
0.11
 41
0.0
 71
     5
 72
     1
  1
\A1;\U+22050.223
 73
     1
 44
1.0
  0
LINE
  5
10A4
330
1054
100
AcDbEntity
  8
DIM
 62
     0
370
    -2
100
AcDbLine
 10
2.560723986384239
 20
6.625807485264756
 30
0.0
 11
2.767592620769392
 21
6.541962476723357
 31
0.0
  0
SOLID
  5
10A5
330
1054
100
AcDbEntity
  8
DIM
 62
     0
100
AcDbTrace
 10
2.465665593396722
 20
6.684117115976517
 30
0.0
 11
2.451892653327368
 21
6.650135494969119
 31
0.0
 12
2.560723986384239
 22
6.625807485264756
 32
0.0
 13
2.560723986384239
 23
6.625807485264756
 33
0.0
  0
SOLID
  5
10A6
330
1054
100
AcDbEntity
  8
DIM
 62
     0
100
AcDbTrace
 10
2.876423953826263
 20
6.517634467018994
 30
0.0
 11
2.862651013756909
 21
6.483652846011596
 31
0.0
 12
2.767592620769392
 22
6.541962476723357
 32
0.0
 13
2.767592620769392
 23
6.541962476723357
 33
0.0
  0
POINT
  5
10A7
330
1054
100
AcDbEntity
  8
Defpoints
 62
     0
100
AcDbPoint
 10
2.767592620769392
 20
6.541962476723357
 30
0.0
  0
POINT
  5
10A8
330
1054
100
AcDbEntity
  8
Defpoints
 62
     0
100
AcDbPoint
 10
2.560723986384239
 20
6.625807485264756
 30
0.0
  0
ENDBLK
  5
1056
330
1054
100
AcDbEntity
  8
0
100
AcDbBlockEnd
  0
BLOCK
  5
1061
330
1060
100
AcDbEntity
  8
0
100
AcDbBlockBegin
  2
*D24
 70
     1
 10
0.0
 20
0.0
 30
0.0
  3
*D24
  1

  0
LINE
  5
1096
330
1060
100
AcDbEntity
  8
DIM
 62
     0
370
    -2
100
AcDbLine
 10
8.351812399403188
 20
3.861766790530257
 30
0.0
 11
7.802213487098633
 21
3.861766790530257
 31
0.0
  0
LINE
  5
1097
330
1060
100
AcDbEntity
  8
DIM
 62
     0
370
    -2
100
AcDbLine
 10
7.802213487098633
 20
3.861766790530257
 30
0.0
 11
7.342799688809607
 21
3.520256200384834
 31
0.0
  0
LINE
  5
1098
330
1060
100
AcDbEntity
  8
DIM
 62
     0
370
    -2
100
AcDbLine
 10
6.239293448402138
 20
2.699952002308435
 30
0.0
 11
6.15101294916954
 21
2.634327666462324
 31
0.0
  0
MTEXT
  5
1099
102
{ACAD_XDICTIONARY
360
1B40
102
}
330
1060
100
AcDbEntity
  8
DIM
 62
     0
100
AcDbMText
 10
8.10201294325091
 20
3.972973452664859
 30
0.0
 40
0.11
 41
0.0
 71
     5
 72
     1
  1
\A1;\U+22051.155
 73
     1
 44
1.0
  0
LINE
  5
109A
330
1060
100
AcDbEntity
  8
DIM
 62
     0
370
    -2
100
AcDbLine
 10
6.327573947634736
 20
2.765576338154548
 30
0.0
 11
7.25451918957701
 21
3.454631864538722
 31
0.0
  0
SOLID
  5
109B
330
1060
100
AcDbEntity
  8
DIM
 62
     0
100
AcDbTrace
 10
6.228356059094453
 20
2.714665418847202
 30
0.0
 11
6.250230837709824
 21
2.685238585769669
 31
0.0
 12
6.327573947634736
 22
2.765576338154548
 32
0.0
 13
6.327573947634736
 23
2.765576338154548
 33
0.0
  0
SOLID
  5
109C
330
1060
100
AcDbEntity
  8
DIM
 62
     0
100
AcDbTrace
 10
7.331862299501922
 20
3.534969616923601
 30
0.0
 11
7.353737078117293
 21
3.505542783846068
 31
0.0
 12
7.25451918957701
 22
3.454631864538722
 32
0.0
 13
7.25451918957701
 23
3.454631864538722
 33
0.0
  0
POINT
  5
109D
330
1060
100
AcDbEntity
  8
Defpoints
 62
     0
100
AcDbPoint
 10
7.25451918957701
 20
3.454631864538722
 30
0.0
  0
POINT
  5
109E
330
1060
100
AcDbEntity
  8
Defpoints
 62
     0
100
AcDbPoint
 10
6.327573947634736
 20
2.765576338154548
 30
0.0
  0
ENDBLK
  5
1062
330
1060
100
AcDbEntity
  8
0
100
AcDbBlockEnd
  0
BLOCK
  5
106D
330
106C
100
AcDbEntity
  8
0
100
AcDbBlockBegin
  2
*D25
 70
     1
 10
0.0
 20
0.0
 30
0.0
  3
*D25
  1

  0
LINE
  5
10AA
330
106C
100
AcDbEntity
  8
DIM
 62
     0
370
    -2
100
AcDbLine
 10
5.29450485885031
 20
3.861766790530256
 30
0.0
 11
5.845898468639569
 21
3.861766790530257
 31
0.0
  0
LINE
  5
10AB
330
106C
100
AcDbEntity
  8
DIM
 62
     0
370
    -2
100
AcDbLine
 10
5.845898468639569
 20
3.861766790530257
 30
0.0
 11
6.031861069011776
 21
3.713873409283089
 31
0.0
  0
LINE
  5
10AC
330
106C
100
AcDbEntity
  8
DIM
 62
     0
370
    -2
100
AcDbLine
 10
7.550232068199962
 20
2.506334793410182
 30
0.0
 11
7.636325269184859
 21
2.437866109005017
 31
0.0
  0
MTEXT
  5
10AD
102
{ACAD_XDICTIONARY
360
1B44
102
}
330
106C
100
AcDbEntity
  8
DIM
 62
     0
100
AcDbMText
 10
5.54520166374494
 20
3.972973452664858
 30
0.0
 40
0.11
 41
0.0
 71
     5
 72
     1
  1
\A1;\U+22051.720
 73
     1
 44
1.0
  0
LINE
  5
10AE
330
106C
100
AcDbEntity
  8
DIM
 62
     0
370
    -2
100
AcDbLine
 10
7.464138867215065
 20
2.574803477815347
 30
0.0
 11
6.117954269996674
 21
3.645404724877924
 31
0.0
  0
SOLID
  5
10AF
330
106C
100
AcDbEntity
  8
DIM
 62
     0
100
AcDbTrace
 10
7.561643515600824
 20
2.520683660240999
 30
0.0
 11
7.538820620799102
 21
2.491985926579366
 31
0.0
 12
7.464138867215065
 22
2.574803477815347
 32
0.0
 13
7.464138867215065
 23
2.574803477815347
 33
0.0
  0
SOLID
  5
10B0
330
106C
100
AcDbEntity
  8
DIM
 62
     0
100
AcDbTrace
 10
6.043272516412637
 20
3.728222276113905
 30
0.0
 11
6.020449621610915
 21
3.699524542452272
 31
0.0
 12
6.117954269996674
 22
3.645404724877924
 32
0.0
 13
6.117954269996674
 23
3.645404724877924
 33
0.0
  0
POINT
  5
10B1
330
106C
100
AcDbEntity
  8
Defpoints
 62
     0
100
AcDbPoint
 10
6.117954269996674
 20
3.645404724877924
 30
0.0
  0
POINT
  5
10B2
330
106C
100
AcDbEntity
  8
Defpoints
 62
     0
100
AcDbPoint
 10
7.464138867215065
 20
2.574803477815347
 30
0.0
  0
ENDBLK
  5
106E
330
106C
100
AcDbEntity
  8
0
100
AcDbBlockEnd
  0
ENDSEC
  0
SECTION
  2
ENTITIES
  0
LWPOLYLINE
  5
43D
330
1F
100
AcDbEntity
  8
FORMAT
370
    15
100
AcDbPolyline
 90
        4
 70
     1
 43
0.0
 10
0.0
 20
0.0
 10
10.9445450537913
 20
0.0
 10
10.9445450537913
 20
8.288102079570146
 10
0.0
 20
8.288102079570146
  0
LINE
  5
43E
330
1F
100
AcDbEntity
  8
FORMAT
370
    15
100
AcDbLine
 10
4.314997355692092
 20
1.288102079570147
 30
0.0
 11
10.9445450537913
 21
1.288102079570147
 31
0.0
  0
LINE
  5
43F
330
1F
100
AcDbEntity
  8
FORMAT
370
    15
100
AcDbLine
 10
0.0
 20
1.288102079570147
 30
0.0
 11
4.314997355692092
 21
1.288102079570147
 31
0.0
  0
LINE
  5
440
330
1F
100
AcDbEntity
  8
FORMAT
370
    15
100
AcDbLine
 10
6.348588237842301
 20
0.6754753017446787
 30
0.0
 11
4.314997355692092
 21
0.6754753017446787
 31
0.0
  0
LINE
  5
441
330
1F
100
AcDbEntity
  8
FORMAT
370
    15
100
AcDbLine
 10
6.348588237842301
 20
1.288102079570147
 30
0.0
 11
6.348588237842301
 21
0.0
 31
0.0
  0
LINE
  5
442
330
1F
100
AcDbEntity
  8
FORMAT
370
    15
100
AcDbLine
 10
9.326958550386715
 20
1.288102079570147
 30
0.0
 11
9.326958550386715
 21
0.6754753017446787
 31
0.0
  0
LINE
  5
443
330
1F
100
AcDbEntity
  8
FORMAT
370
    15
100
AcDbLine
 10
10.9445450537913
 20
0.4027064756295072
 30
0.0
 11
8.684678909369578
 21
0.4027064756295072
 31
0.0
  0
LINE
  5
444
330
1F
100
AcDbEntity
  8
FORMAT
370
    15
100
AcDbLine
 10
8.684678909369578
 20
0.0
 30
0.0
 11
8.684678909369578
 21
0.6754753017446787
 31
0.0
  0
LINE
  5
445
330
1F
100
AcDbEntity
  8
FORMAT
370
    15
100
AcDbLine
 10
9.307410846319418
 20
8.288102079570146
 30
0.0
 11
9.307410846319418
 21
7.998918151813815
 31
0.0
  0
LINE
  5
446
330
1F
100
AcDbEntity
  8
FORMAT
370
    15
100
AcDbLine
 10
10.9445450537913
 20
0.6754753017446787
 30
0.0
 11
6.348588237842301
 21
0.6754753017446787
 31
0.0
  0
LINE
  5
447
330
1F
100
AcDbEntity
  8
FORMAT
370
    15
100
AcDbLine
 10
9.307410846319418
 20
7.998918151813815
 30
0.0
 11
10.9445450537913
 21
7.998918151813815
 31
0.0
  0
LINE
  5
448
330
1F
100
AcDbEntity
  8
FORMAT
370
    15
100
AcDbLine
 10
4.314997355692092
 20
1.288102079570147
 30
0.0
 11
4.314997355692092
 21
0.0
 31
0.0
  0
MTEXT
  5
449
330
1F
100
AcDbEntity
  8
0
  6
Continuous
 62
   160
370
     0
100
AcDbMText
 10
8.804833835830498
 20
0.6311420474876615
 30
0.0
 40
0.0885480991407077
 41
0.0
 71
     1
 72
     1
  1
http://www.amazonsupply.com
  7
SLDTEXTSTYLE0
 73
     1
 44
1.0
1001
PE_URL
1000
http://www.amazonsupply.com/
1002
{
1000
http://www.amazonsupply.com/
1002
{
1071
        1
1002
}
1002
}
  0
INSERT
  5
44A
330
1F
100
AcDbEntity
  8
0
  6
Continuous
 62
     7
100
AcDbBlockReference
  2
Block2
 10
-0.4855379170503598
 20
-1.285591254179417
 30
0.0
 41
1.06257718968852
 42
1.062577189688476
 43
1.06257718968848
  0
TEXT
  5
44B
330
1F
100
AcDbEntity
  8
FORMAT
 62
     7
100
AcDbText
 10
6.390137962179618
 20
1.13285645982341
 30
0.0
 40
0.106257718968848
  1
MATERIAL :
 41
0.9
  7
SLDTEXTSTYLE1
100
AcDbText
  0
TEXT
  5
44C
330
1F
100
AcDbEntity
  8
FORMAT
 62
     7
100
AcDbText
 10
4.677751060282117
 20
0.8397992198904928
 30
0.0
 40
0.1328221487110601
  1
B000P0Q95K
 41
0.9
  7
SLDTEXTSTYLE1
100
AcDbText
  0
TEXT
  5
44D
330
1F
100
AcDbEntity
  8
FORMAT
 62
     7
100
AcDbText
 10
9.550709097224537
 20
8.065402050020727
 30
0.0
 40
0.1328221487110601
  1
B000P0Q95K
  7
SLDTEXTSTYLE1
100
AcDbText
  0
TEXT
  5
44E
330
1F
100
AcDbEntity
  8
FORMAT
 62
     7
100
AcDbText
 10
4.679070448470985
 20
0.1968908335551594
 30
0.0
 40
0.1328221487110601
  1
Climax Metal 
 41
0.9
  7
SLDTEXTSTYLE1
100
AcDbText
  0
TEXT
  5
44F
330
1F
100
AcDbEntity
  8
FORMAT
 62
     0
100
AcDbText
 10
6.905989888070772
 20
0.8713311645329088
 30
0.0
 40
0.1328221487110614
  1
Stainless Steel 
 41
0.9
  7
SLDTEXTSTYLE1
100
AcDbText
  0
TEXT
  5
450
330
1F
100
AcDbEntity
  8
FORMAT
 62
     7
100
AcDbText
 10
0.1094472542761458
 20
0.997966418911049
 30
0.0
 40
0.106257718968848
  1
ITEM NAME:
 41
0.9
  7
SLDTEXTSTYLE1
100
AcDbText
  0
TEXT
  5
451
330
1F
100
AcDbEntity
  8
FORMAT
 62
     7
100
AcDbText
 10
4.398165184901957
 20
1.082047423039585
 30
0.0
 40
0.106257718968848
  1
ASIN :
 41
0.9
  7
SLDTEXTSTYLE1
100
AcDbText
  0
TEXT
  5
453
330
1F
100
AcDbEntity
  8
FORMAT
 62
     0
100
AcDbText
 10
6.430716421968572
 20
0.4969893146810782
 30
0.0
 40
0.0664110743555307
  1
# UNLESS OTHERWISE SPECIFIED
 41
0.95
  7
SLDTEXTSTYLE1
100
AcDbText
  0
TEXT
  5
454
330
1F
100
AcDbEntity
  8
FORMAT
 62
     0
100
AcDbText
 10
6.530502334337224
 20
0.3966532027455338
 30
0.0
 40
0.0664110743555307
  1
DIMENSIONS ARE IN INCHES
 41
0.95
  7
SLDTEXTSTYLE1
100
AcDbText
  0
TEXT
  5
455
330
1F
100
AcDbEntity
  8
FORMAT
 62
     0
100
AcDbText
 10
6.430716421968572
 20
0.2013106189438121
 30
0.0
 40
0.0664110743555307
  1
# INFORMATION IN THIS DRAWING IS PROVIDED FOR
 41
0.95
  7
SLDTEXTSTYLE1
100
AcDbText
  0
TEXT
  5
456
330
1F
100
AcDbEntity
  8
FORMAT
 62
     0
100
AcDbText
 10
6.530231453000631
 20
0.1009745070082677
 30
0.0
 40
0.0664110743555307
  1
REFERENCE ONLY
 41
0.95
  7
SLDTEXTSTYLE1
100
AcDbText
  0
TEXT
  5
457
330
1F
100
AcDbEntity
  8
FORMAT
 62
     7
100
AcDbText
 10
4.373845101521808
 20
0.4583940533930666
 30
0.0
 40
0.106257718968848
  1
BRAND :
 41
0.9
  7
SLDTEXTSTYLE1
100
AcDbText
  0
MTEXT
  5
50B
330
1F
100
AcDbEntity
  8
FORMAT
 62
     7
100
AcDbMText
 10
0.4047632047137342
 20
0.8858086890901237
 30
0.0
 40
0.1328221487110601
 41
3.823303827161756
 71
     1
 72
     1
  1
{\fCalibri|b0|i0|c0|p34;\H0.91667x;\C256;Climax Metal C-112-S Shaft Collar, One Piece, Set Screw Style, Stainless Steel, 1-1/8" Bore, 1-3/4" OD, 5/8" Width, With 5/16-18 x 5/16 Set Screw}
  7
SLDTEXTSTYLE1
 73
     1
 44
1.0
  0
INSERT
  5
B41
330
1F
100
AcDbEntity
  8
0
100
AcDbBlockReference
  2
amazon block
 10
8.819707802748025
 20
0.117578505042242
 30
0.0
 41
1.05
 42
1.05
 43
1.05
  0
SPLINE
  5
CC8
330
1F
100
AcDbEntity
  8
0
  6
Continuous
 62
     7
370
    15
100
AcDbSpline
210
0.0
220
0.0
230
1.0
 70
    24
 71
     1
 72
     4
 73
     2
 74
     0
 42
0.0000000001
 43
0.0000000001
 40
0.0
 40
0.0
 40
1.0
 40
1.0
 10
2.507908303577519
 20
3.985104101346635
 30
0.0
 10
2.366158303576815
 20
3.985104101346635
 30
0.0
  0
SPLINE
  5
CC9
330
1F
100
AcDbEntity
  8
0
  6
Continuous
 62
     7
370
    15
100
AcDbSpline
210
0.0
220
0.0
230
1.0
 70
    24
 71
     1
 72
     4
 73
     2
 74
     0
 42
0.0000000001
 43
0.0000000001
 40
0.0
 40
0.0
 40
1.0
 40
1.0
 10
2.961158303576816
 20
3.985104101346635
 30
0.0
 10
2.820408303576112
 20
3.985104101346635
 30
0.0
  0
SPLINE
  5
CCA
330
1F
100
AcDbEntity
  8
0
  6
Continuous
 62
     7
370
    15
100
AcDbSpline
210
0.0
220
0.0
230
1.0
 70
    24
 71
     1
 72
     4
 73
     2
 74
     0
 42
0.0000000001
 43
0.0000000001
 40
0.0
 40
0.0
 40
1.0
 40
1.0
 10
2.366158303576815
 20
2.235104101346635
 30
0.0
 10
2.961158303576816
 20
2.235104101346635
 30
0.0
  0
SPLINE
  5
CCB
330
1F
100
AcDbEntity
  8
0
  6
Continuous
 62
     7
370
    15
100
AcDbSpline
210
0.0
220
0.0
230
1.0
 70
    24
 71
     1
 72
     4
 73
     2
 74
     0
 42
0.0000000001
 43
0.0000000001
 40
0.0
 40
0.0
 40
1.0
 40
1.0
 10
2.961158303576816
 20
2.235104101346635
 30
0.0
 10
2.976158303576816
 20
2.250104101346636
 30
0.0
  0
SPLINE
  5
CCC
330
1F
100
AcDbEntity
  8
0
  6
Continuous
 62
     7
370
    15
100
AcDbSpline
210
0.0
220
0.0
230
1.0
 70
    24
 71
     1
 72
     4
 73
     2
 74
     0
 42
0.0000000001
 43
0.0000000001
 40
0.0
 40
0.0
 40
1.0
 40
1.0
 10
2.976158303576816
 20
3.970104101346636
 30
0.0
 10
2.961158303576816
 20
3.985104101346635
 30
0.0
  0
SPLINE
  5
CCD
330
1F
100
AcDbEntity
  8
0
  6
Continuous
 62
     7
370
    15
100
AcDbSpline
210
0.0
220
0.0
230
1.0
 70
    24
 71
     1
 72
     4
 73
     2
 74
     0
 42
0.0000000001
 43
0.0000000001
 40
0.0
 40
0.0
 40
1.0
 40
1.0
 10
2.366158303576815
 20
3.985104101346635
 30
0.0
 10
2.351158303576816
 20
3.970104101346635
 30
0.0
  0
SPLINE
  5
CCE
330
1F
100
AcDbEntity
  8
0
  6
Continuous
 62
     7
370
    15
100
AcDbSpline
210
0.0
220
0.0
230
1.0
 70
    24
 71
     1
 72
     4
 73
     2
 74
     0
 42
0.0000000001
 43
0.0000000001
 40
0.0
 40
0.0
 40
1.0
 40
1.0
 10
2.351158303576816
 20
2.250104101346636
 30
0.0
 10
2.366158303576815
 20
2.235104101346635
 30
0.0
  0
SPLINE
  5
CCF
330
1F
100
AcDbEntity
  8
0
  6
Continuous
 62
     7
370
    15
100
AcDbSpline
210
0.0
220
0.0
230
1.0
 70
    24
 71
     1
 72
     4
 73
     2
 74
     0
 42
0.0000000001
 43
0.0000000001
 40
0.0
 40
0.0
 40
1.0
 40
1.0
 10
2.794017839072756
 20
3.981444565850596
 30
0.0
 10
2.790358303577589
 20
3.98510410134631
 30
0.0
  0
SPLINE
  5
CD0
330
1F
100
AcDbEntity
  8
0
  6
Continuous
 62
     7
370
    15
100
AcDbSpline
210
0.0
220
0.0
230
1.0
 70
    24
 71
     1
 72
     4
 73
     2
 74
     0
 42
0.0000000001
 43
0.0000000001
 40
0.0
 40
0.0
 40
1.0
 40
1.0
 10
2.537958303576042
 20
3.98510410134631
 30
0.0
 10
2.534299548486098
 20
3.981445346255819
 30
0.0
  0
ARC
  5
CD1
330
1F
100
AcDbEntity
  8
0
  6
Continuous
 62
     7
370
    15
100
AcDbCircle
 10
2.664158303576815
 20
5.00540788989058
 30
0.0
 40
1.032198567823511
100
AcDbArc
 50
261.2933288871056
 51
278.7066711128959
  0
LINE
  5
CD2
330
1F
100
AcDbEntity
  8
0
  6
Continuous
 62
     7
370
    15
100
AcDbLine
 10
2.961158303576816
 20
2.235104101346637
 30
0.0
 11
2.961158303576816
 21
3.985104101346628
 31
0.0
  0
LINE
  5
CD3
330
1F
100
AcDbEntity
  8
0
  6
Continuous
 62
     7
370
    15
100
AcDbLine
 10
2.366158303576815
 20
3.985104101346633
 30
0.0
 11
2.366158303576815
 21
2.235104101346642
 31
0.0
  0
LINE
  5
CD4
330
1F
100
AcDbEntity
  8
0
  6
Continuous
 62
     7
370
    15
100
AcDbLine
 10
2.976158303576816
 20
3.110104101346635
 30
0.0
 11
2.976158303576816
 21
3.970104101346636
 31
0.0
  0
LINE
  5
CD5
330
1F
100
AcDbEntity
  8
0
  6
Continuous
 62
     7
370
    15
100
AcDbLine
 10
2.976158303576816
 20
2.250104101346636
 30
0.0
 11
2.976158303576816
 21
3.110104101346635
 31
0.0
  0
LINE
  5
CD6
330
1F
100
AcDbEntity
  8
0
  6
Continuous
 62
     7
370
    15
100
AcDbLine
 10
2.351158303576816
 20
3.970104101346635
 30
0.0
 11
2.351158303576816
 21
2.250104101346636
 31
0.0
  0
LINE
  5
CD7
330
1F
100
AcDbEntity
  8
0
  6
Continuous
 62
     7
370
    15
100
AcDbLine
 10
2.790358303577589
 20
3.98510410134631
 30
0.0
 11
2.537958303576042
 21
3.98510410134631
 31
0.0
  0
SPLINE
  5
CD8
330
1F
100
AcDbEntity
  8
0
  6
HIDDEN
 62
     7
370
     0
100
AcDbSpline
210
0.0
220
0.0
230
1.0
 70
     8
 71
     3
 72
    38
 73
    34
 74
     0
 42
0.0000000001
 43
0.0000000001
 40
0.0
 40
0.0
 40
0.0
 40
0.0
 40
0.0624999999999998
 40
0.0624999999999998
 40
0.1249999999999996
 40
0.1249999999999996
 40
0.1874999999999994
 40
0.1874999999999994
 40
0.2499999999999993
 40
0.2499999999999993
 40
0.3124999999999991
 40
0.3124999999999991
 40
0.374999999999999
 40
0.374999999999999
 40
0.4374999999999989
 40
0.4374999999999989
 40
0.4999999999999988
 40
0.4999999999999988
 40
0.562499999999999
 40
0.562499999999999
 40
0.6249999999999991
 40
0.6249999999999991
 40
0.6874999999999992
 40
0.6874999999999992
 40
0.7499999999999993
 40
0.7499999999999993
 40
0.8124999999999994
 40
0.8124999999999994
 40
0.8749999999999996
 40
0.8749999999999996
 40
0.9374999999999998
 40
0.9374999999999998
 40
1.0
 40
1.0
 40
1.0
 40
1.0
 10
2.790358303576814
 20
3.672604101346635
 30
0.0
 10
2.790358303576816
 20
3.672604101346635
 30
0.0
 10
2.789535574641343
 20
3.672417897847266
 30
0.0
 10
2.786316880336508
 20
3.671709001175083
 30
0.0
 10
2.783880090414568
 20
3.671177634060091
 30
0.0
 10
2.777542435543935
 20
3.669859551744281
 30
0.0
 10
2.773668068109035
 20
3.669078174993648
 30
0.0
 10
2.764519697804635
 20
3.667358115179633
 30
0.0
 10
2.759212870426814
 20
3.666415575404604
 30
0.0
 10
2.747621116620264
 20
3.664552590072716
 30
0.0
 10
2.741291553045677
 20
3.663622577337807
 30
0.0
 10
2.727520430674527
 20
3.661872099911532
 30
0.0
 10
2.720222747431625
 20
3.661072358061161
 30
0.0
 10
2.705062539387567
 20
3.659736664564606
 30
0.0
 10
2.697100610490052
 20
3.659192919708658
 30
0.0
 10
2.680777499426138
 20
3.658455751782845
 30
0.0
 10
2.672516822769507
 20
3.658264446188319
 30
0.0
 10
2.655794240894305
 20
3.658264530745197
 30
0.0
 10
2.64757809904294
 20
3.65845580788272
 30
0.0
 10
2.631422494552777
 20
3.659181804473533
 30
0.0
 10
2.623397675911501
 20
3.659725295879699
 30
0.0
 10
2.608135749709628
 20
3.661067398902911
 30
0.0
 10
2.6009012211963
 20
3.66186052739804
 30
0.0
 10
2.58720903274759
 20
3.663597448640775
 30
0.0
 10
2.580746697081385
 20
3.664544854276703
 30
0.0
 10
2.569149248528153
 20
3.666407771074556
 30
0.0
 10
2.563934721366832
 20
3.667332990998115
 30
0.0
 10
2.554706001125882
 20
3.669066600574472
 30
0.0
 10
2.55079970913675
 20
3.669854455204037
 30
0.0
 10
2.544490193475867
 20
3.6711662585852
 30
0.0
 10
2.542050256822919
 20
3.671697942797367
 30
0.0
 10
2.538781078430048
 20
3.672417818286604
 30
0.0
 10
2.537958303576814
 20
3.672604101346635
 30
0.0
 10
2.537958303576814
 20
3.672604101346635
 30
0.0
  0
LINE
  5
CD9
330
1F
100
AcDbEntity
  8
0
  6
HIDDEN
 62
     7
370
     0
100
AcDbLine
 10
2.52293330357771
 20
3.970079101346446
 30
0.0
 11
2.805383303575922
 21
3.970079101346446
 31
0.0
  0
LINE
  5
CDA
330
1F
100
AcDbEntity
  8
0
  6
HIDDEN
 62
     7
370
     0
100
AcDbLine
 10
2.664158303576815
 20
3.687196958488657
 30
0.0
 11
2.537958303577303
 21
3.687196958489494
 31
0.0
  0
LINE
  5
CDB
330
1F
100
AcDbEntity
  8
0
  6
HIDDEN
 62
     7
370
     0
100
AcDbLine
 10
2.79035830357782
 20
3.687196958489494
 30
0.0
 11
2.664158303576815
 21
3.687196958488657
 31
0.0
  0
LINE
  5
CDC
330
1F
100
AcDbEntity
  8
0
  6
HIDDEN
 62
     7
370
     0
100
AcDbLine
 10
2.664158303576815
 20
3.672604101348664
 30
0.0
 11
2.664158303576815
 21
3.687196958488657
 31
0.0
  0
LINE
  5
CDD
330
1F
100
AcDbEntity
  8
0
  6
HIDDEN
 62
     7
370
     0
100
AcDbLine
 10
2.552551160715479
 20
3.672604101349783
 30
0.0
 11
2.664158303576815
 21
3.672604101348664
 31
0.0
  0
LINE
  5
CDE
330
1F
100
AcDbEntity
  8
0
  6
HIDDEN
 62
     7
370
     0
100
AcDbLine
 10
2.664158303576815
 20
3.672604101348664
 30
0.0
 11
2.775765446435915
 21
3.672604101347545
 31
0.0
  0
LINE
  5
CDF
330
1F
100
AcDbEntity
  8
0
  6
HIDDEN
 62
     7
370
     0
100
AcDbLine
 10
2.586033303576815
 20
3.925604101346635
 30
0.0
 11
2.664158303576815
 21
3.925604101346635
 31
0.0
  0
LINE
  5
CE0
330
1F
100
AcDbEntity
  8
0
  6
HIDDEN
 62
     7
370
     0
100
AcDbLine
 10
2.664158303576815
 20
3.925604101346635
 30
0.0
 11
2.742283303576815
 21
3.925604101346635
 31
0.0
  0
LINE
  5
CE1
330
1F
100
AcDbEntity
  8
0
  6
HIDDEN
 62
     7
370
     0
100
AcDbLine
 10
2.664158303576815
 20
3.985104101346635
 30
0.0
 11
2.664158303576815
 21
3.925604101346635
 31
0.0
  0
LINE
  5
CE2
330
1F
100
AcDbEntity
  8
0
  6
HIDDEN
 62
     7
370
     0
100
AcDbLine
 10
2.742283303576815
 20
3.925604101346635
 30
0.0
 11
2.742283303576815
 21
3.985104101346635
 31
0.0
  0
LINE
  5
CE3
330
1F
100
AcDbEntity
  8
0
  6
HIDDEN
 62
     7
370
     0
100
AcDbLine
 10
2.586033303576815
 20
3.925604101346635
 30
0.0
 11
2.586033303576815
 21
3.985104101346635
 31
0.0
  0
SPLINE
  5
CE4
330
1F
100
AcDbEntity
  8
0
  6
HIDDEN
 62
     7
370
     0
100
AcDbSpline
210
0.0
220
0.0
230
1.0
 70
    24
 71
     1
 72
     4
 73
     2
 74
     0
 42
0.0000000001
 43
0.0000000001
 40
0.0
 40
0.0
 40
1.0
 40
1.0
 10
2.351158303576815
 20
2.532604101346635
 30
0.0
 10
2.366158303576815
 20
2.547604101346635
 30
0.0
  0
SPLINE
  5
CE5
330
1F
100
AcDbEntity
  8
0
  6
HIDDEN
 62
     7
370
     0
100
AcDbSpline
210
0.0
220
0.0
230
1.0
 70
    24
 71
     1
 72
     4
 73
     2
 74
     0
 42
0.0000000001
 43
0.0000000001
 40
0.0
 40
0.0
 40
1.0
 40
1.0
 10
2.366158303576815
 20
3.672604101346635
 30
0.0
 10
2.351158303576815
 20
3.687604101346634
 30
0.0
  0
SPLINE
  5
CE6
330
1F
100
AcDbEntity
  8
0
  6
HIDDEN
 62
     7
370
     0
100
AcDbSpline
210
0.0
220
0.0
230
1.0
 70
    24
 71
     1
 72
     4
 73
     2
 74
     0
 42
0.0000000001
 43
0.0000000001
 40
0.0
 40
0.0
 40
1.0
 40
1.0
 10
2.976158303576816
 20
3.687604101346634
 30
0.0
 10
2.961158303576816
 20
3.672604101346635
 30
0.0
  0
SPLINE
  5
CE7
330
1F
100
AcDbEntity
  8
0
  6
HIDDEN
 62
     7
370
     0
100
AcDbSpline
210
0.0
220
0.0
230
1.0
 70
    24
 71
     1
 72
     4
 73
     2
 74
     0
 42
0.0000000001
 43
0.0000000001
 40
0.0
 40
0.0
 40
1.0
 40
1.0
 10
2.961158303576816
 20
2.547604101346635
 30
0.0
 10
2.976158303576816
 20
2.532604101346635
 30
0.0
  0
SPLINE
  5
CE8
330
1F
100
AcDbEntity
  8
0
  6
HIDDEN
 62
     7
370
     0
100
AcDbSpline
210
0.0
220
0.0
230
1.0
 70
    24
 71
     1
 72
     4
 73
     2
 74
     0
 42
0.0000000001
 43
0.0000000001
 40
0.0
 40
0.0
 40
1.0
 40
1.0
 10
2.366158303576815
 20
2.547604101346635
 30
0.0
 10
2.961158303576816
 20
2.547604101346635
 30
0.0
  0
SPLINE
  5
CE9
330
1F
100
AcDbEntity
  8
0
  6
HIDDEN
 62
     7
370
     0
100
AcDbSpline
210
0.0
220
0.0
230
1.0
 70
    24
 71
     1
 72
     4
 73
     2
 74
     0
 42
0.0000000001
 43
0.0000000001
 40
0.0
 40
0.0
 40
1.0
 40
1.0
 10
2.537958303576814
 20
3.672604101346635
 30
0.0
 10
2.366158303576815
 20
3.672604101346635
 30
0.0
  0
SPLINE
  5
CEA
330
1F
100
AcDbEntity
  8
0
  6
HIDDEN
 62
     7
370
     0
100
AcDbSpline
210
0.0
220
0.0
230
1.0
 70
    24
 71
     1
 72
     4
 73
     2
 74
     0
 42
0.0000000001
 43
0.0000000001
 40
0.0
 40
0.0
 40
1.0
 40
1.0
 10
2.961158303576816
 20
3.672604101346635
 30
0.0
 10
2.790358303576814
 20
3.672604101346635
 30
0.0
  0
SPLINE
  5
CEB
330
1F
100
AcDbEntity
  8
0
  6
HIDDEN
 62
     7
370
     0
100
AcDbSpline
210
0.0
220
0.0
230
1.0
 70
    24
 71
     1
 72
     4
 73
     2
 74
     0
 42
0.0000000001
 43
0.0000000001
 40
0.0
 40
0.0
 40
1.0
 40
1.0
 10
2.507908303577519
 20
3.985104101346635
 30
0.0
 10
2.52293330357771
 20
3.970079101346446
 30
0.0
  0
SPLINE
  5
CEC
330
1F
100
AcDbEntity
  8
0
  6
HIDDEN
 62
     7
370
     0
100
AcDbSpline
210
0.0
220
0.0
230
1.0
 70
    24
 71
     1
 72
     4
 73
     2
 74
     0
 42
0.0000000001
 43
0.0000000001
 40
0.0
 40
0.0
 40
1.0
 40
1.0
 10
2.805383303575922
 20
3.970079101346446
 30
0.0
 10
2.820408303576112
 20
3.985104101346635
 30
0.0
  0
SPLINE
  5
CED
330
1F
100
AcDbEntity
  8
0
  6
HIDDEN
 62
     7
370
     0
100
AcDbSpline
210
0.0
220
0.0
230
1.0
 70
    24
 71
     1
 72
     4
 73
     2
 74
     0
 42
0.0000000001
 43
0.0000000001
 40
0.0
 40
0.0
 40
1.0
 40
1.0
 10
2.805383303575215
 20
3.970079101346446
 30
0.0
 10
2.794017839072756
 20
3.981444565850596
 30
0.0
  0
SPLINE
  5
CEE
330
1F
100
AcDbEntity
  8
0
  6
HIDDEN
 62
     7
370
     0
100
AcDbSpline
210
0.0
220
0.0
230
1.0
 70
    24
 71
     1
 72
     4
 73
     2
 74
     0
 42
0.0000000001
 43
0.0000000001
 40
0.0
 40
0.0
 40
1.0
 40
1.0
 10
2.534299548486098
 20
3.981445346255819
 30
0.0
 10
2.522933303578417
 20
3.970079101346446
 30
0.0
  0
SPLINE
  5
CEF
330
1F
100
AcDbEntity
  8
0
  6
HIDDEN
 62
     7
370
     0
100
AcDbSpline
210
0.0
220
0.0
230
1.0
 70
    24
 71
     1
 72
     4
 73
     2
 74
     0
 42
0.0000000001
 43
0.0000000001
 40
0.0
 40
0.0
 40
1.0
 40
1.0
 10
2.790358303576814
 20
3.672604101346635
 30
0.0
 10
2.790358303576814
 20
3.687196958489494
 30
0.0
  0
SPLINE
  5
CF0
330
1F
100
AcDbEntity
  8
0
  6
HIDDEN
 62
     7
370
     0
100
AcDbSpline
210
0.0
220
0.0
230
1.0
 70
    24
 71
     1
 72
     4
 73
     2
 74
     0
 42
0.0000000001
 43
0.0000000001
 40
0.0
 40
0.0
 40
1.0
 40
1.0
 10
2.537958303576814
 20
3.687196958489494
 30
0.0
 10
2.537958303576814
 20
3.672604101346635
 30
0.0
  0
SPLINE
  5
CF1
330
1F
100
AcDbEntity
  8
0
  6
HIDDEN
 62
     7
370
     0
100
AcDbSpline
210
0.0
220
0.0
230
1.0
 70
    24
 71
     1
 72
     4
 73
     2
 74
     0
 42
0.0000000001
 43
0.0000000001
 40
0.0
 40
0.0
 40
1.0
 40
1.0
 10
2.537958303575766
 20
3.687196958489494
 30
0.0
 10
2.552551160715479
 20
3.672604101349783
 30
0.0
  0
SPLINE
  5
CF2
330
1F
100
AcDbEntity
  8
0
  6
HIDDEN
 62
     7
370
     0
100
AcDbSpline
210
0.0
220
0.0
230
1.0
 70
    24
 71
     1
 72
     4
 73
     2
 74
     0
 42
0.0000000001
 43
0.0000000001
 40
0.0
 40
0.0
 40
1.0
 40
1.0
 10
2.775765446435915
 20
3.672604101347545
 30
0.0
 10
2.790358303575626
 20
3.687196958489494
 30
0.0
  0
DIMENSION
  5
CF3
330
1F
100
AcDbEntity
  8
DIM
100
AcDbDimension
  2
*D9
 10
3.340689848213409
 20
3.985104101346635
 30
0.0
 11
3.340689848213408
 21
3.110104101346635
 31
0.0
 70
   160
 71
     2
 42
1.75
  3
Standard
100
AcDbAlignedDimension
 13
2.961158303576816
 23
2.235104101346635
 33
0.0
 14
2.961158303576816
 24
3.985104101346635
 34
0.0
 50
90.00000000000019
100
AcDbRotatedDimension
  0
SPLINE
  5
CF4
330
1F
100
AcDbEntity
  8
0
  6
Continuous
 62
     7
370
    15
100
AcDbSpline
210
0.0
220
0.0
230
1.0
 70
    24
 71
     1
 72
     4
 73
     2
 74
     0
 42
0.0000000001
 43
0.0000000001
 40
0.0
 40
0.0
 40
1.0
 40
1.0
 10
2.961158303576816
 20
7.458884980994058
 30
0.0
 10
2.366158303576815
 20
7.458884980994058
 30
0.0
  0
SPLINE
  5
CF5
330
1F
100
AcDbEntity
  8
0
  6
Continuous
 62
     7
370
    15
100
AcDbSpline
210
0.0
220
0.0
230
1.0
 70
    24
 71
     1
 72
     4
 73
     2
 74
     0
 42
0.0000000001
 43
0.0000000001
 40
0.0
 40
0.0
 40
1.0
 40
1.0
 10
2.366158303576815
 20
5.708884980994058
 30
0.0
 10
2.961158303576816
 20
5.708884980994058
 30
0.0
  0
SPLINE
  5
CF6
330
1F
100
AcDbEntity
  8
0
  6
Continuous
 62
     7
370
    15
100
AcDbSpline
210
0.0
220
0.0
230
1.0
 70
    24
 71
     1
 72
     4
 73
     2
 74
     0
 42
0.0000000001
 43
0.0000000001
 40
0.0
 40
0.0
 40
1.0
 40
1.0
 10
2.366158303576815
 20
7.458884980994058
 30
0.0
 10
2.351158303576816
 20
7.443884980994059
 30
0.0
  0
SPLINE
  5
CF7
330
1F
100
AcDbEntity
  8
0
  6
Continuous
 62
     7
370
    15
100
AcDbSpline
210
0.0
220
0.0
230
1.0
 70
    24
 71
     1
 72
     4
 73
     2
 74
     0
 42
0.0000000001
 43
0.0000000001
 40
0.0
 40
0.0
 40
1.0
 40
1.0
 10
2.351158303576815
 20
5.723884980994061
 30
0.0
 10
2.366158303576815
 20
5.708884980994058
 30
0.0
  0
SPLINE
  5
CF8
330
1F
100
AcDbEntity
  8
0
  6
Continuous
 62
     7
370
    15
100
AcDbSpline
210
0.0
220
0.0
230
1.0
 70
    24
 71
     1
 72
     4
 73
     2
 74
     0
 42
0.0000000001
 43
0.0000000001
 40
0.0
 40
0.0
 40
1.0
 40
1.0
 10
2.961158303576816
 20
5.708884980994058
 30
0.0
 10
2.976158303576816
 20
5.723884980994057
 30
0.0
  0
SPLINE
  5
CF9
330
1F
100
AcDbEntity
  8
0
  6
Continuous
 62
     7
370
    15
100
AcDbSpline
210
0.0
220
0.0
230
1.0
 70
    24
 71
     1
 72
     4
 73
     2
 74
     0
 42
0.0000000001
 43
0.0000000001
 40
0.0
 40
0.0
 40
1.0
 40
1.0
 10
2.976158303576816
 20
7.443884980994059
 30
0.0
 10
2.961158303576816
 20
7.458884980994058
 30
0.0
  0
SPLINE
  5
CFA
330
1F
100
AcDbEntity
  8
0
  6
Continuous
 62
     7
370
    15
100
AcDbSpline
210
0.0
220
0.0
230
1.0
 70
    11
 71
     3
 72
    70
 73
    66
 74
     0
 42
0.0000000001
 43
0.0000000001
 40
0.0
 40
0.0
 40
0.0
 40
0.0
 40
0.03125
 40
0.03125
 40
0.0624999999999999
 40
0.0624999999999999
 40
0.0937499999999999
 40
0.0937499999999999
 40
0.1249999999999998
 40
0.1249999999999998
 40
0.1562499999999997
 40
0.1562499999999997
 40
0.1874999999999996
 40
0.1874999999999996
 40
0.2187499999999995
 40
0.2187499999999995
 40
0.2499999999999995
 40
0.2499999999999995
 40
0.2812499999999994
 40
0.2812499999999994
 40
0.3124999999999993
 40
0.3124999999999993
 40
0.3437499999999993
 40
0.3437499999999993
 40
0.3749999999999992
 40
0.3749999999999992
 40
0.4062499999999992
 40
0.4062499999999992
 40
0.4374999999999992
 40
0.4374999999999992
 40
0.4687499999999991
 40
0.4687499999999991
 40
0.4999999999999991
 40
0.4999999999999991
 40
0.5312499999999991
 40
0.5312499999999991
 40
0.562499999999999
 40
0.562499999999999
 40
0.593749999999999
 40
0.593749999999999
 40
0.6249999999999988
 40
0.6249999999999988
 40
0.6562499999999988
 40
0.6562499999999988
 40
0.6874999999999987
 40
0.6874999999999987
 40
0.7187499999999987
 40
0.7187499999999987
 40
0.7499999999999986
 40
0.7499999999999986
 40
0.7812499999999987
 40
0.7812499999999987
 40
0.8124999999999989
 40
0.8124999999999989
 40
0.8437499999999989
 40
0.8437499999999989
 40
0.8749999999999992
 40
0.8749999999999992
 40
0.9062499999999992
 40
0.9062499999999992
 40
0.9374999999999996
 40
0.9374999999999996
 40
0.9687499999999996
 40
0.9687499999999996
 40
1.0
 40
1.0
 40
1.0
 40
1.0
 10
2.507908303577519
 20
6.583884980994056
 30
0.0
 10
2.507908303577519
 20
6.593838172389897
 30
0.0
 10
2.509017139081938
 20
6.603590540911127
 30
0.0
 10
2.513328010808303
 20
6.622716677642275
 30
0.0
 10
2.516591961239663
 20
6.632190030693498
 30
0.0
 10
2.524945240538164
 20
6.649983436724813
 30
0.0
 10
2.530024049441694
 20
6.65836913592023
 30
0.0
 10
2.541940077578583
 20
6.674150382724256
 30
0.0
 10
2.548659464436155
 20
6.681373482150235
 30
0.0
 10
2.563308951656207
 20
6.694368606342241
 30
0.0
 10
2.571357077277678
 20
6.700226035193566
 30
0.0
 10
2.588274250006421
 20
6.710269817605892
 30
0.0
 10
2.597118990525164
 20
6.714468232520102
 30
0.0
 10
2.615558139973241
 20
6.721276318386472
 30
0.0
 10
2.625204570042264
 20
6.723878225527759
 30
0.0
 10
2.644532168112345
 20
6.727299802457217
 30
0.0
 10
2.654296136002477
 20
6.72815895364706
 30
0.0
 10
2.674026514232119
 20
6.728158599616017
 30
0.0
 10
2.683952527665404
 20
6.727278880200058
 30
0.0
 10
2.7032387764771
 20
6.723846818117523
 30
0.0
 10
2.712695752836495
 20
6.721298168814671
 30
0.0
 10
2.731222220987801
 20
6.714460450343914
 30
0.0
 10
2.74016294254206
 20
6.710202682651219
 30
0.0
 10
2.7569465085272
 20
6.700229280359375
 30
0.0
 10
2.764863520058526
 20
6.6944889155065
 30
0.0
 10
2.779671782106555
 20
6.68136797933211
 30
0.0
 10
2.786351416695653
 20
6.674165345466148
 30
0.0
 10
2.798121394243766
 20
6.658613813140631
 30
0.0
 10
2.803272999261579
 20
6.650167608643485
 30
0.0
 10
2.811695306291136
 20
6.632277506608815
 30
0.0
 10
2.814893654824482
 20
6.623028050902147
 30
0.0
 10
2.819250577985592
 20
6.603913721804582
 30
0.0
 10
2.820399014898145
 20
6.593965710449133
 30
0.0
 10
2.82041747830808
 20
6.574050068336665
 30
0.0
 10
2.819316201307309
 20
6.564289062665267
 30
0.0
 10
2.815018362847059
 20
6.545150329419112
 30
0.0
 10
2.811759821735458
 20
6.535670118442499
 30
0.0
 10
2.803413510926809
 20
6.517861179128923
 30
0.0
 10
2.798337022425974
 20
6.509468380385817
 30
0.0
 10
2.786424012749465
 20
6.493673864708158
 30
0.0
 10
2.779703492586177
 20
6.486442813732702
 30
0.0
 10
2.765051765401084
 20
6.473435298035841
 30
0.0
 10
2.757001860864534
 20
6.467572350972144
 30
0.0
 10
2.740078395116903
 20
6.457518263327511
 30
0.0
 10
2.73123006328883
 20
6.453315653006875
 30
0.0
 10
2.712782988030443
 20
6.446500759547481
 30
0.0
 10
2.703131848006714
 20
6.443896148960499
 30
0.0
 10
2.683794516105466
 20
6.440471039513402
 30
0.0
 10
2.67402557697644
 20
6.43961101008511
 30
0.0
 10
2.654285049731495
 20
6.439611360626917
 30
0.0
 10
2.644353996318853
 20
6.440491979241617
 30
0.0
 10
2.625058212415339
 20
6.443927533282321
 30
0.0
 10
2.615596656882466
 20
6.446478772103544
 30
0.0
 10
2.597061462766786
 20
6.453323620801755
 30
0.0
 10
2.588117679647641
 20
6.45758543960396
 30
0.0
 10
2.57132844144035
 20
6.467568674076368
 30
0.0
 10
2.563409087675777
 20
6.473314746706982
 30
0.0
 10
2.548597474920391
 20
6.486449255855719
 30
0.0
 10
2.541918842942273
 20
6.49365750991342
 30
0.0
 10
2.530150810213601
 20
6.509223227218306
 30
0.0
 10
2.525000506973791
 20
6.517678659102152
 30
0.0
 10
2.516586502054039
 20
6.535581760727376
 30
0.0
 10
2.513393163608432
 20
6.544837979030363
 30
0.0
 10
2.50904884596229
 20
6.563966619227908
 30
0.0
 10
2.507908303577519
 20
6.573931789598216
 30
0.0
 10
2.507908303577519
 20
6.583884980994056
 30
0.0
  0
LINE
  5
CFB
330
1F
100
AcDbEntity
  8
0
  6
Continuous
 62
     7
370
    15
100
AcDbLine
 10
2.961158303576816
 20
5.708884980994058
 30
0.0
 11
2.961158303576816
 21
7.458884980994058
 31
0.0
  0
LINE
  5
CFC
330
1F
100
AcDbEntity
  8
0
  6
Continuous
 62
     7
370
    15
100
AcDbLine
 10
2.366158303576815
 20
7.458884980994058
 30
0.0
 11
2.366158303576815
 21
5.708884980994064
 31
0.0
  0
LINE
  5
CFD
330
1F
100
AcDbEntity
  8
0
  6
Continuous
 62
     7
370
    15
100
AcDbLine
 10
2.351158303576816
 20
7.443884980994059
 30
0.0
 11
2.351158303576815
 21
5.723884980994061
 31
0.0
  0
LINE
  5
CFE
330
1F
100
AcDbEntity
  8
0
  6
Continuous
 62
     7
370
    15
100
AcDbLine
 10
2.976158303576816
 20
5.723884980994057
 30
0.0
 11
2.976158303576816
 21
7.443884980994059
 31
0.0
  0
CIRCLE
  5
CFF
330
1F
100
AcDbEntity
  8
0
  6
Continuous
 62
     7
370
    15
100
AcDbCircle
 10
2.664158303576815
 20
6.583884980994056
 30
0.0
 40
0.1412249999991051
  0
LINE
  5
D00
330
1F
100
AcDbEntity
  8
0
  6
Continuous
 62
     7
370
    15
100
AcDbLine
 10
2.664158303576815
 20
6.674095960554934
 30
0.0
 11
2.742283303576815
 21
6.628990470774496
 31
0.0
  0
LINE
  5
D01
330
1F
100
AcDbEntity
  8
0
  6
Continuous
 62
     7
370
    15
100
AcDbLine
 10
2.586033303576815
 20
6.628990470774496
 30
0.0
 11
2.664158303576815
 21
6.674095960554934
 31
0.0
  0
LINE
  5
D02
330
1F
100
AcDbEntity
  8
0
  6
Continuous
 62
     7
370
    15
100
AcDbLine
 10
2.586033303576815
 20
6.538779491213617
 30
0.0
 11
2.586033303576815
 21
6.628990470774496
 31
0.0
  0
LINE
  5
D03
330
1F
100
AcDbEntity
  8
0
  6
Continuous
 62
     7
370
    15
100
AcDbLine
 10
2.664158303576815
 20
6.493674001433177
 30
0.0
 11
2.586033303576815
 21
6.538779491213617
 31
0.0
  0
LINE
  5
D04
330
1F
100
AcDbEntity
  8
0
  6
Continuous
 62
     7
370
    15
100
AcDbLine
 10
2.742283303576815
 20
6.538779491213617
 30
0.0
 11
2.664158303576815
 21
6.493674001433177
 31
0.0
  0
LINE
  5
D05
330
1F
100
AcDbEntity
  8
0
  6
Continuous
 62
     7
370
    15
100
AcDbLine
 10
2.742283303576815
 20
6.628990470774496
 30
0.0
 11
2.742283303576815
 21
6.538779491213617
 31
0.0
  0
CIRCLE
  5
D06
330
1F
100
AcDbEntity
  8
0
  6
Continuous
 62
     7
370
    15
100
AcDbCircle
 10
2.664158303576815
 20
6.583884980994056
 30
0.0
 40
0.1262000000007735
  0
LINE
  5
D07
330
1F
100
AcDbEntity
  8
0
  6
HIDDEN
 62
     7
370
     0
100
AcDbLine
 10
2.664158303576815
 20
6.472277838134957
 30
0.0
 11
2.664158303576815
 21
6.457684980994544
 31
0.0
  0
LINE
  5
D08
330
1F
100
AcDbEntity
  8
0
  6
HIDDEN
 62
     7
370
     0
100
AcDbLine
 10
2.664158303576815
 20
6.710084980995061
 30
0.0
 11
2.664158303576815
 21
6.695492123854275
 31
0.0
  0
ARC
  5
D09
330
1F
100
AcDbEntity
  8
0
  6
HIDDEN
 62
     7
370
     0
100
AcDbCircle
 10
2.664158303576815
 20
6.583884980994056
 30
0.0
 40
0.111607142860219
100
AcDbArc
 50
270.0000000000008
 51
90.0
  0
ARC
  5
D0A
330
1F
100
AcDbEntity
  8
0
  6
HIDDEN
 62
     7
370
     0
100
AcDbCircle
 10
2.664158303576815
 20
6.583884980994056
 30
0.0
 40
0.111607142860219
100
AcDbArc
 50
90.0
 51
270.0000000000008
  0
SPLINE
  5
D0B
330
1F
100
AcDbEntity
  8
0
  6
HIDDEN
 62
     7
370
     0
100
AcDbSpline
210
0.0
220
0.0
230
1.0
 70
    24
 71
     1
 72
     4
 73
     2
 74
     0
 42
0.0000000001
 43
0.0000000001
 40
0.0
 40
0.0
 40
1.0
 40
1.0
 10
2.351158303576815
 20
6.006384980994059
 30
0.0
 10
2.366158303576815
 20
6.021384980994058
 30
0.0
  0
SPLINE
  5
D0C
330
1F
100
AcDbEntity
  8
0
  6
HIDDEN
 62
     7
370
     0
100
AcDbSpline
210
0.0
220
0.0
230
1.0
 70
    24
 71
     1
 72
     4
 73
     2
 74
     0
 42
0.0000000001
 43
0.0000000001
 40
0.0
 40
0.0
 40
1.0
 40
1.0
 10
2.366158303576815
 20
7.146384980994058
 30
0.0
 10
2.351158303576816
 20
7.161384980994061
 30
0.0
  0
SPLINE
  5
D0D
330
1F
100
AcDbEntity
  8
0
  6
HIDDEN
 62
     7
370
     0
100
AcDbSpline
210
0.0
220
0.0
230
1.0
 70
    24
 71
     1
 72
     4
 73
     2
 74
     0
 42
0.0000000001
 43
0.0000000001
 40
0.0
 40
0.0
 40
1.0
 40
1.0
 10
2.976158303576816
 20
7.161384980994057
 30
0.0
 10
2.961158303576816
 20
7.146384980994058
 30
0.0
  0
SPLINE
  5
D0E
330
1F
100
AcDbEntity
  8
0
  6
HIDDEN
 62
     7
370
     0
100
AcDbSpline
210
0.0
220
0.0
230
1.0
 70
    24
 71
     1
 72
     4
 73
     2
 74
     0
 42
0.0000000001
 43
0.0000000001
 40
0.0
 40
0.0
 40
1.0
 40
1.0
 10
2.961158303576816
 20
6.021384980994058
 30
0.0
 10
2.976158303576816
 20
6.006384980994059
 30
0.0
  0
SPLINE
  5
D0F
330
1F
100
AcDbEntity
  8
0
  6
HIDDEN
 62
     7
370
     0
100
AcDbSpline
210
0.0
220
0.0
230
1.0
 70
    24
 71
     1
 72
     4
 73
     2
 74
     0
 42
0.0000000001
 43
0.0000000001
 40
0.0
 40
0.0
 40
1.0
 40
1.0
 10
2.366158303576815
 20
6.021384980994058
 30
0.0
 10
2.961158303576816
 20
6.021384980994058
 30
0.0
  0
SPLINE
  5
D10
330
1F
100
AcDbEntity
  8
0
  6
HIDDEN
 62
     7
370
     0
100
AcDbSpline
210
0.0
220
0.0
230
1.0
 70
    24
 71
     1
 72
     4
 73
     2
 74
     0
 42
0.0000000001
 43
0.0000000001
 40
0.0
 40
0.0
 40
1.0
 40
1.0
 10
2.961158303576816
 20
7.146384980994058
 30
0.0
 10
2.366158303576815
 20
7.146384980994058
 30
0.0
  0
INSERT
  5
D11
330
1F
100
AcDbEntity
  8
0
  6
Continuous
 62
     7
370
     0
100
AcDbBlockReference
  2
SW_CENTERMARKSYMBOL_0
 10
2.664158303576815
 20
6.583884980994056
 30
0.0
  0
SPLINE
  5
D12
330
1F
100
AcDbEntity
  8
0
  6
Continuous
 62
     7
370
    15
100
AcDbSpline
210
0.0
220
0.0
230
1.0
 70
    24
 71
     1
 72
     4
 73
     2
 74
     0
 42
0.0000000001
 43
0.0000000001
 40
0.0
 40
0.0
 40
1.0
 40
1.0
 10
6.928036695251199
 20
3.97431397470015
 30
0.0
 10
6.917246568606644
 20
3.98510410134631
 30
0.0
  0
SPLINE
  5
D13
330
1F
100
AcDbEntity
  8
0
  6
Continuous
 62
     7
370
    15
100
AcDbSpline
210
0.0
220
0.0
230
1.0
 70
    24
 71
     1
 72
     4
 73
     2
 74
     0
 42
0.0000000001
 43
0.0000000001
 40
0.0
 40
0.0
 40
1.0
 40
1.0
 10
6.664846568605099
 20
3.98510410134631
 30
0.0
 10
6.654056441960547
 20
3.97431397470015
 30
0.0
  0
CIRCLE
  5
D14
330
1F
100
AcDbEntity
  8
0
  6
Continuous
 62
     7
370
    15
100
AcDbCircle
 10
6.791046568605873
 20
3.110104101346635
 30
0.0
 40
0.5774999999999988
  0
CIRCLE
  5
D15
330
1F
100
AcDbEntity
  8
0
  6
Continuous
 62
     7
370
    15
100
AcDbCircle
 10
6.791046568605869
 20
3.110104101346635
 30
0.0
 40
0.8599999999999976
  0
CIRCLE
  5
D16
330
1F
100
AcDbEntity
  8
0
  6
Continuous
 62
     7
370
    15
100
AcDbCircle
 10
6.791046568605873
 20
3.110104101346635
 30
0.0
 40
0.875
  0
CIRCLE
  5
D17
330
1F
100
AcDbEntity
  8
0
  6
Continuous
 62
     7
370
    15
100
AcDbCircle
 10
6.791046568605873
 20
3.110104101346635
 30
0.0
 40
0.5625000000000018
  0
LINE
  5
D18
330
1F
100
AcDbEntity
  8
0
  6
Continuous
 62
     7
370
    15
100
AcDbLine
 10
6.917246568606644
 20
3.98510410134631
 30
0.0
 11
6.664846568605099
 21
3.98510410134631
 31
0.0
  0
LINE
  5
D19
330
1F
100
AcDbEntity
  8
0
  6
HIDDEN
 62
     7
370
     0
100
AcDbLine
 10
6.649821568606764
 20
3.970079101346446
 30
0.0
 11
6.93227156860498
 21
3.970079101346446
 31
0.0
  0
LINE
  5
D1A
330
1F
100
AcDbEntity
  8
0
  6
HIDDEN
 62
     7
370
     0
100
AcDbLine
 10
6.679439425746773
 20
3.672604101348664
 30
0.0
 11
6.90265371146609
 21
3.672604101348664
 31
0.0
  0
LINE
  5
D1B
330
1F
100
AcDbEntity
  8
0
  6
HIDDEN
 62
     7
370
     0
100
AcDbLine
 10
6.679439425746773
 20
3.672604101348664
 30
0.0
 11
6.66484656860636
 21
3.687196958488657
 31
0.0
  0
LINE
  5
D1C
330
1F
100
AcDbEntity
  8
0
  6
HIDDEN
 62
     7
370
     0
100
AcDbLine
 10
6.917246568606877
 20
3.687196958489401
 30
0.0
 11
6.66484656860636
 21
3.687196958488657
 31
0.0
  0
LINE
  5
D1D
330
1F
100
AcDbEntity
  8
0
  6
HIDDEN
 62
     7
370
     0
100
AcDbLine
 10
6.917246568606877
 20
3.687196958489401
 30
0.0
 11
6.90265371146609
 21
3.672604101348664
 31
0.0
  0
LINE
  5
D1E
330
1F
100
AcDbEntity
  8
0
  6
HIDDEN
 62
     7
370
     0
100
AcDbLine
 10
6.836152058386311
 20
3.925604101346635
 30
0.0
 11
6.88125754816675
 21
3.925604101346635
 31
0.0
  0
LINE
  5
D1F
330
1F
100
AcDbEntity
  8
0
  6
HIDDEN
 62
     7
370
     0
100
AcDbLine
 10
6.745941078825433
 20
3.925604101346635
 30
0.0
 11
6.836152058386311
 21
3.925604101346635
 31
0.0
  0
LINE
  5
D20
330
1F
100
AcDbEntity
  8
0
  6
HIDDEN
 62
     7
370
     0
100
AcDbLine
 10
6.836152058386311
 20
3.925604101346635
 30
0.0
 11
6.836152058386311
 21
3.985104101346635
 31
0.0
  0
LINE
  5
D21
330
1F
100
AcDbEntity
  8
0
  6
HIDDEN
 62
     7
370
     0
100
AcDbLine
 10
6.745941078825433
 20
3.925604101346635
 30
0.0
 11
6.745941078825433
 21
3.985104101346635
 31
0.0
  0
LINE
  5
D22
330
1F
100
AcDbEntity
  8
0
  6
HIDDEN
 62
     7
370
     0
100
AcDbLine
 10
6.700835589044993
 20
3.925604101346635
 30
0.0
 11
6.745941078825433
 21
3.925604101346635
 31
0.0
  0
LINE
  5
D23
330
1F
100
AcDbEntity
  8
0
  6
HIDDEN
 62
     7
370
     0
100
AcDbLine
 10
6.88125754816675
 20
3.925604101346635
 30
0.0
 11
6.88125754816675
 21
3.985104101346635
 31
0.0
  0
LINE
  5
D24
330
1F
100
AcDbEntity
  8
0
  6
HIDDEN
 62
     7
370
     0
100
AcDbLine
 10
6.700835589044993
 20
3.985104101346635
 30
0.0
 11
6.700835589044993
 21
3.925604101346635
 31
0.0
  0
SPLINE
  5
D25
330
1F
100
AcDbEntity
  8
0
  6
HIDDEN
 62
     7
370
     0
100
AcDbSpline
210
0.0
220
0.0
230
1.0
 70
    24
 71
     1
 72
     4
 73
     2
 74
     0
 42
0.0000000001
 43
0.0000000001
 40
0.0
 40
0.0
 40
1.0
 40
1.0
 10
6.646966980381199
 20
3.972933689572011
 30
0.0
 10
6.649821568606764
 20
3.970079101346446
 30
0.0
  0
SPLINE
  5
D26
330
1F
100
AcDbEntity
  8
0
  6
HIDDEN
 62
     7
370
     0
100
AcDbSpline
210
0.0
220
0.0
230
1.0
 70
    24
 71
     1
 72
     4
 73
     2
 74
     0
 42
0.0000000001
 43
0.0000000001
 40
0.0
 40
0.0
 40
1.0
 40
1.0
 10
6.93227156860498
 20
3.970079101346446
 30
0.0
 10
6.935126156830547
 20
3.972933689572011
 30
0.0
  0
SPLINE
  5
D27
330
1F
100
AcDbEntity
  8
0
  6
HIDDEN
 62
     7
370
     0
100
AcDbSpline
210
0.0
220
0.0
230
1.0
 70
    24
 71
     1
 72
     4
 73
     2
 74
     0
 42
0.0000000001
 43
0.0000000001
 40
0.0
 40
0.0
 40
1.0
 40
1.0
 10
6.932271568604271
 20
3.970079101346446
 30
0.0
 10
6.928036695251199
 20
3.97431397470015
 30
0.0
  0
SPLINE
  5
D28
330
1F
100
AcDbEntity
  8
0
  6
HIDDEN
 62
     7
370
     0
100
AcDbSpline
210
0.0
220
0.0
230
1.0
 70
    24
 71
     1
 72
     4
 73
     2
 74
     0
 42
0.0000000001
 43
0.0000000001
 40
0.0
 40
0.0
 40
1.0
 40
1.0
 10
6.654056441960547
 20
3.97431397470015
 30
0.0
 10
6.649821568607473
 20
3.970079101346446
 30
0.0
  0
SPLINE
  5
D29
330
1F
100
AcDbEntity
  8
0
  6
HIDDEN
 62
     7
370
     0
100
AcDbSpline
210
0.0
220
0.0
230
1.0
 70
    24
 71
     1
 72
     4
 73
     2
 74
     0
 42
0.0000000001
 43
0.0000000001
 40
0.0
 40
0.0
 40
1.0
 40
1.0
 10
6.917246568605872
 20
3.658364403216388
 30
0.0
 10
6.917246568605872
 20
3.687196958489494
 30
0.0
  0
SPLINE
  5
D2A
330
1F
100
AcDbEntity
  8
0
  6
HIDDEN
 62
     7
370
     0
100
AcDbSpline
210
0.0
220
0.0
230
1.0
 70
    24
 71
     1
 72
     4
 73
     2
 74
     0
 42
0.0000000001
 43
0.0000000001
 40
0.0
 40
0.0
 40
1.0
 40
1.0
 10
6.664846568605872
 20
3.687196958489494
 30
0.0
 10
6.664846568605872
 20
3.658264488459749
 30
0.0
  0
INSERT
  5
D2B
330
1F
100
AcDbEntity
  8
0
  6
Continuous
 62
     7
370
     0
100
AcDbBlockReference
  2
SW_CENTERMARKSYMBOL_3
 10
6.791046568605874
 20
3.110104101346635
 30
0.0
  0
SPLINE
  5
D2C
330
1F
100
AcDbEntity
  8
0
  6
Continuous
 62
     7
370
    15
100
AcDbSpline
210
0.0
220
0.0
230
1.0
 70
    24
 71
     1
 72
     4
 73
     2
 74
     0
 42
0.0000000001
 43
0.0000000001
 40
0.0
 40
0.0
 40
1.0
 40
1.0
 10
7.127258010374012
 20
6.025931595328046
 30
0.0
 10
7.137862888220738
 20
6.032055651336305
 30
0.0
  0
SPLINE
  5
D2D
330
1F
100
AcDbEntity
  8
0
  6
Continuous
 62
     7
370
    15
100
AcDbSpline
210
0.0
220
0.0
230
1.0
 70
    24
 71
     1
 72
     4
 73
     2
 74
     0
 42
0.0000000001
 43
0.0000000001
 40
0.0
 40
0.0
 40
1.0
 40
1.0
 10
7.745875884766265
 20
7.08527917197731
 30
0.0
 10
7.745875884766265
 20
7.097525293654651
 30
0.0
  0
SPLINE
  5
D2E
330
1F
100
AcDbEntity
  8
0
  6
Continuous
 62
     7
370
    15
100
AcDbSpline
210
0.0
220
0.0
230
1.0
 70
    24
 71
     1
 72
     4
 73
     2
 74
     0
 42
0.0000000001
 43
0.0000000001
 40
0.0
 40
0.0
 40
1.0
 40
1.0
 10
7.564621896756314
 20
7.498139499315318
 30
0.0
 10
7.143893361950318
 20
7.741020912582575
 30
0.0
  0
SPLINE
  5
D2F
330
1F
100
AcDbEntity
  8
0
  6
Continuous
 62
     7
370
    15
100
AcDbSpline
210
0.0
220
0.0
230
1.0
 70
    24
 71
     1
 72
     4
 73
     2
 74
     0
 42
0.0000000001
 43
0.0000000001
 40
0.0
 40
0.0
 40
1.0
 40
1.0
 10
6.268964470893759
 20
6.225435403416383
 30
0.0
 10
6.689693005699757
 20
5.982553990149126
 30
0.0
  0
SPLINE
  5
D30
330
1F
100
AcDbEntity
  8
0
  6
Continuous
 62
     7
370
    15
100
AcDbSpline
210
0.0
220
0.0
230
1.0
 70
    24
 71
     1
 72
     4
 73
     2
 74
     0
 42
0.0000000001
 43
0.0000000001
 40
0.0
 40
0.0
 40
1.0
 40
1.0
 10
6.706328357276063
 20
7.697643307403655
 30
0.0
 10
6.695723479429339
 20
7.691519251395396
 30
0.0
  0
SPLINE
  5
D31
330
1F
100
AcDbEntity
  8
0
  6
Continuous
 62
     7
370
    15
100
AcDbSpline
210
0.0
220
0.0
230
1.0
 70
    24
 71
     1
 72
     4
 73
     2
 74
     0
 42
0.0000000001
 43
0.0000000001
 40
0.0
 40
0.0
 40
1.0
 40
1.0
 10
6.087710482883808
 20
6.638295730754391
 30
0.0
 10
6.087710482883808
 20
6.62604960907705
 30
0.0
  0
SPLINE
  5
D32
330
1F
100
AcDbEntity
  8
0
  6
Continuous
 62
     7
370
    15
100
AcDbSpline
210
0.0
220
0.0
230
1.0
 70
    24
 71
     1
 72
     4
 73
     2
 74
     0
 42
0.0000000001
 43
0.0000000001
 40
0.0
 40
0.0
 40
1.0
 40
1.0
 10
7.017024118692859
 20
7.62142728306564
 30
0.0
 10
7.006398112982289
 20
7.627563539573136
 30
0.0
  0
SPLINE
  5
D33
330
1F
100
AcDbEntity
  8
0
  6
Continuous
 62
     7
370
    15
100
AcDbSpline
210
0.0
220
0.0
230
1.0
 70
    24
 71
     1
 72
     4
 73
     2
 74
     0
 42
0.0000000001
 43
0.0000000001
 40
0.0
 40
0.0
 40
1.0
 40
1.0
 10
6.827895361448971
 20
7.627563539573136
 30
0.0
 10
6.8172693557384
 20
7.62142728306564
 30
0.0
  0
LWPOLYLINE
  5
D34
330
1F
100
AcDbEntity
  8
0
  6
Continuous
 62
     7
370
    15
100
AcDbPolyline
 90
      108
 70
   128
 43
0.0
 10
7.127258010374012
 20
6.025931595328046
 10
7.127157451228033
 20
6.025873534332193
 10
7.099398753672604
 20
6.01056820631083
 10
7.07169595843985
 20
5.996732555145003
 10
7.04410485527261
 20
5.984394443994871
 10
7.01668100898077
 20
5.973578720174305
 10
6.989479647541118
 20
5.964307165111696
 10
6.962555550875567
 20
5.956598450485053
 10
6.935962940531673
 20
5.950468100619739
 10
6.909755370487651
 20
5.945928461224543
 10
6.883985619301803
 20
5.942988674529058
 10
6.858705583823505
 20
5.941654660872453
 10
6.833966174679883
 20
5.941929106780698
 10
6.80981721374856
 20
5.943811459556261
 10
6.786307333823049
 20
5.947297928391154
 10
6.76348388067276
 20
5.952381492001141
 10
6.741392817694935
 20
5.959051912765639
 10
6.720078633350475
 20
5.967295757344947
 10
6.699584251570101
 20
5.977096423733195
 10
6.67995094531127
 20
5.988434174692576
 10
6.66121825343994
 20
6.001286177501514
 10
6.643423901104542
 20
6.015626549936731
 10
6.626603723762558
 20
6.031426412396598
 10
6.610791595012686
 20
6.048653946060809
 10
6.596019358377903
 20
6.067274456969245
 10
6.582316763176869
 20
6.087250445891006
 10
6.569711404612737
 20
6.108541683842863
 10
6.558228668200104
 20
6.13110529310507
 10
6.547891678641949
 20
6.1548958335714
 10
6.538721253259573
 20
6.179865394259463
 10
6.530735860069267
 20
6.205963689797046
 10
6.523951580590201
 20
6.233138161690165
 10
6.518382077458376
 20
6.261334084168881
 10
6.514038566911898
 20
6.290494674397704
 10
6.510929796202958
 20
6.320561206828688
 10
6.509062025982041
 20
6.351473131466844
 10
6.508439017689807
 20
6.383168195809794
 10
6.509062025982041
 20
6.415582570216015
 10
6.510929796202958
 20
6.44865097644924
 10
6.514038566911899
 20
6.482306819140148
 10
6.518382077458378
 20
6.516482319900564
 10
6.523951580590203
 20
6.551108653820127
 10
6.530735860069269
 20
6.586116088070486
 10
6.538721253259575
 20
6.621434122337939
 10
6.547891678641954
 20
6.656991630801689
 10
6.558228668200108
 20
6.692717005371775
 10
6.569711404612743
 20
6.728538299898247
 10
6.582316763176873
 20
6.764383375061113
 10
6.59601935837791
 20
6.800180043649355
 10
6.610791595012692
 20
6.835856215936349
 10
6.626603723762565
 20
6.871340044858992
 10
6.643423901104549
 20
6.90656007070811
 10
6.661218253439948
 20
6.94144536503882
 10
6.679950945311279
 20
6.975925673510968
 10
6.699584251570108
 20
7.009931557372015
 10
6.720078633350484
 20
7.043394533297464
 10
6.741392817694944
 20
7.076247211307139
 10
6.763483880672769
 20
7.108423430479646
 10
6.786307333823057
 20
7.139858392191673
 10
6.809817213748569
 20
7.170488790613777
 10
6.83396617467989
 20
7.200252940199911
 10
6.858705583823516
 20
7.229090899913899
 10
6.883985619301814
 20
7.256944593942707
 10
6.909755370487662
 20
7.283757928653406
 10
6.93596294053168
 20
7.309476905558277
 10
6.962555550875576
 20
7.334049730060581
 10
6.989479647541127
 20
7.35742691576199
 10
7.016681008980778
 20
7.379561384121595
 10
7.044104855272619
 20
7.400408559265835
 10
7.071695958439859
 20
7.419926457758368
 10
7.099398753672613
 20
7.438075773149119
 10
7.127157451228042
 20
7.454819955132251
 10
7.15491614878347
 20
7.470125283153613
 10
7.182618944016223
 20
7.483960934319442
 10
7.21021004718346
 20
7.496299045469571
 10
7.237633893475305
 20
7.507114769290136
 10
7.264835254914956
 20
7.516386324352748
 10
7.291759351580505
 20
7.524095038979389
 10
7.318351961924399
 20
7.530225388844701
 10
7.344559531968419
 20
7.534765028239899
 10
7.370329283154269
 20
7.537704814935384
 10
7.395609318632564
 20
7.539038828591989
 10
7.420348727776188
 20
7.538764382683742
 10
7.44449768870751
 20
7.536882029908181
 10
7.468007568633023
 20
7.533395561073284
 10
7.490831021783309
 20
7.528311997463299
 10
7.512922084761134
 20
7.521641576698801
 10
7.534236269105594
 20
7.513397732119493
 10
7.554730650885968
 20
7.503597065731245
 10
7.574363957144798
 20
7.492259314771864
 10
7.593096649016128
 20
7.479407311962926
 10
7.610891001351527
 20
7.465066939527709
 10
7.627711178693509
 20
7.44926707706784
 10
7.643523307443382
 20
7.432039543403631
 10
7.658295544078164
 20
7.413419032495195
 10
7.671998139279198
 20
7.393443043573432
 10
7.68460349784333
 20
7.372151805621577
 10
7.696086234255965
 20
7.349588196359368
 10
7.706423223814118
 20
7.325797655893037
 10
7.715593649196495
 20
7.300828095204975
 10
7.7235790423868
 20
7.274729799667392
 10
7.730363321865866
 20
7.247555327774273
 10
7.735932824997689
 20
7.219359405295559
 10
7.740276335544168
 20
7.190198815066732
 10
7.743385106253109
 20
7.160132282635752
 10
7.745252876474024
 20
7.129220357997594
 10
7.745875884766265
 20
7.097525293654658
 10
7.745875884766265
 20
7.097525293654658
  0
LWPOLYLINE
  5
D35
330
1F
100
AcDbEntity
  8
0
  6
Continuous
 62
     7
370
    15
100
AcDbPolyline
 90
      140
 70
   128
 43
0.0
 10
6.529652221125401
 20
6.383168195809789
 10
6.530273389939184
 20
6.41525850117512
 10
6.532135627368239
 20
6.448000434132024
 10
6.535235128968203
 20
6.481327104787581
 10
6.539565562634912
 20
6.515170428663262
 10
6.545118081540516
 20
6.549461265787613
 10
6.551881342207053
 20
6.584129561945259
 10
6.55984152768052
 20
6.619104491793644
 10
6.568982375758103
 20
6.654314603555151
 10
6.57928521221096
 20
6.689687964988994
 10
6.590728988934568
 20
6.725152310344659
 10
6.60329032694881
 20
6.760635187996697
 10
6.616943564159887
 20
6.796064108459232
 10
6.631660807786509
 20
6.831366692477841
 10
6.647411991343245
 20
6.866470818896209
 10
6.664164936064635
 20
6.901304771995535
 10
6.681885416644558
 20
6.935797388005626
 10
6.700537231156568
 20
6.969878200488402
 10
6.720082275012373
 20
7.003477584296792
 10
6.740480618807305
 20
7.036526897814923
 10
6.761690589893817
 20
7.068958623189002
 10
6.783668857516314
 20
7.100706504262436
 10
6.806370521333397
 20
7.131705681933341
 10
6.829749203146695
 20
7.161892826657991
 10
6.853757141648864
 20
7.191206267829445
 10
6.878345289997202
 20
7.219586119767042
 10
6.903463416013531
 20
7.24697440405945
 10
6.929060204805676
 20
7.273315168011201
 10
6.955083363600824
 20
7.298554598950875
 10
6.981479728576694
 20
7.322641134167282
 10
7.008195373472146
 20
7.345525566249136
 10
7.035175719755473
 20
7.367161143612968
 10
7.062365648125187
 20
7.387503666013948
 10
7.089709611115617
 20
7.406511574844438
 10
7.117151746577185
 20
7.42414603803585
 10
7.144635991799578
 20
7.440371029390343
 10
7.172106198044655
 20
7.455153402180267
 10
7.199506245255102
 20
7.468462956865048
 10
7.22678015670449
 20
7.480272502787101
 10
7.253872213354529
 20
7.490557913720795
 10
7.280727067685861
 20
7.499298177160952
 10
7.307289856769864
 20
7.506475437250173
 10
7.333506314350493
 20
7.51207503125736
 10
7.359322881707118
 20
7.516085519532808
 10
7.384686817071914
 20
7.518498708878775
 10
7.409546303378292
 20
7.519309669287702
 10
7.433850554120175
 20
7.518516744013943
 10
7.457549917105932
 20
7.516121552958395
 10
7.480595975894958
 20
7.512128989359144
 10
7.502941648709692
 20
7.506547209794844
 10
7.524541284620973
 20
7.499387617521311
 10
7.545350756810304
 20
7.490664839175314
 10
7.565327552718381
 20
7.480396694893201
 10
7.584430860895835
 20
7.468604161905373
 10
7.60262165437868
 20
7.455311331681011
 10
7.619862770418167
 20
7.440545360710581
 10
7.636118986402143
 20
7.424336415026692
 10
7.651357091812837
 20
7.406717608576595
 10
7.665545956074033
 20
7.387724935572313
 10
7.678656592149074
 20
7.367397196956511
 10
7.690662215759699
 20
7.345775921134402
 10
7.701538300104791
 20
7.322905279133587
 10
7.711262625967234
 20
7.298831994365187
 10
7.719815327106497
 20
7.273605247170584
 10
7.727178930844221
 20
7.247276574348802
 10
7.733338393759906
 20
7.219899763869779
 10
7.738281132423754
 20
7.191530744988632
 10
7.74199704910389
 20
7.162227473985391
 10
7.744478552395463
 20
7.132049815763634
 10
7.745720572729435
 20
7.101059421549926
 10
7.745720572729435
 20
7.069319602943895
 10
7.744478552395463
 20
7.036895202576262
 10
7.74199704910389
 20
7.003852461639057
 10
7.738281132423752
 20
6.97025888455866
 10
7.733338393759904
 20
6.936183101088136
 10
7.727178930844219
 20
6.90169472610057
 10
7.719815327106495
 20
6.866864217369876
 10
7.711262625967231
 20
6.8317627316296
 10
7.701538300104786
 20
6.796461979203792
 10
7.690662215759695
 20
6.761034077506923
 10
7.678656592149071
 20
6.72555140371214
 10
7.66554595607403
 20
6.690086446888845
 10
7.651357091812833
 20
6.654711659911685
 10
7.63611898640214
 20
6.619499311443476
 10
7.619862770418162
 20
6.584521338294468
 10
7.602621654378674
 20
6.549849198459565
 10
7.584430860895828
 20
6.515553725133738
 10
7.565327552718374
 20
6.481704982003853
 10
7.545350756810297
 20
6.448372120112594
 10
7.524541284620966
 20
6.415623236586826
 10
7.502941648709684
 20
6.383525235519085
 10
7.480595975894953
 20
6.352143691286327
 10
7.457549917105923
 20
6.321542714585262
 10
7.433850554120166
 20
6.291784821457852
 10
7.409546303378286
 20
6.262930805574622
 10
7.384686817071909
 20
6.23503961403669
 10
7.359322881707109
 20
6.208168226950197
 10
7.333506314350485
 20
6.182371541019232
 10
7.307289856769855
 20
6.157702257394998
 10
7.280727067685852
 20
6.134210774010391
 10
7.253872213354524
 20
6.1119450826199
 10
7.226780156704483
 20
6.090950670755207
 10
7.199506245255093
 20
6.071270428796779
 10
7.172106198044646
 20
6.05294456235125
 10
7.144635991799571
 20
6.036010510113701
 10
7.117151746577178
 20
6.020502867382527
 10
7.08970961111561
 20
6.00645331538324
 10
7.062365648125179
 20
5.993890556545533
 10
7.035175719755464
 20
5.98284025586587
 10
7.00819537347214
 20
5.973324988475351
 10
6.981479728576685
 20
5.965364193520031
 10
6.955083363600818
 20
5.958974134447853
 10
6.929060204805667
 20
5.954167865783343
 10
6.903463416013526
 20
5.950955206457992
 10
6.878345289997195
 20
5.94934271975071
 10
6.853757141648859
 20
5.949333699879447
 10
6.829749203146688
 20
5.950928165271283
 10
6.80637052133339
 20
5.954122858524787
 10
6.783668857516307
 20
5.958911253064693
 10
6.761690589893811
 20
5.965283566475337
 10
6.740480618807298
 20
5.97322678048555
 10
6.720082275012366
 20
5.98272466756426
 10
6.700537231156562
 20
5.993757824072394
 10
6.681885416644551
 20
6.006303709903402
 10
6.664164936064633
 20
6.020336694531417
 10
6.647411991343242
 20
6.035828109372932
 10
6.631660807786506
 20
6.052746306355086
 10
6.616943564159884
 20
6.071056722570856
 10
6.603290326948808
 20
6.090721950889102
 10
6.590728988934566
 20
6.111701816375193
 10
6.579285212210958
 20
6.133953458366079
 10
6.568982375758102
 20
6.157431418032203
 10
6.559841527680516
 20
6.182087731247248
 10
6.551881342207053
 20
6.207872026576128
 10
6.545118081540516
 20
6.234731628180925
 10
6.539565562634912
 20
6.262611663434622
 10
6.535235128968203
 20
6.291455175022719
 10
6.532135627368239
 20
6.321203237303775
 10
6.530273389939184
 20
6.35179507669112
 10
6.529652221125401
 20
6.383168195809789
  0
SPLINE
  5
D36
330
1F
100
AcDbEntity
  8
0
  6
Continuous
 62
     7
370
    15
100
AcDbSpline
210
0.0
220
0.0
230
1.0
 70
    11
 71
     3
 72
    70
 73
    66
 74
     0
 42
0.0000000001
 43
0.0000000001
 40
0.0
 40
0.0
 40
0.0
 40
0.0
 40
0.03125
 40
0.03125
 40
0.0624999999999999
 40
0.0624999999999999
 40
0.0937499999999999
 40
0.0937499999999999
 40
0.1249999999999998
 40
0.1249999999999998
 40
0.1562499999999997
 40
0.1562499999999997
 40
0.1874999999999996
 40
0.1874999999999996
 40
0.2187499999999995
 40
0.2187499999999995
 40
0.2499999999999995
 40
0.2499999999999995
 40
0.2812499999999994
 40
0.2812499999999994
 40
0.3124999999999993
 40
0.3124999999999993
 40
0.3437499999999993
 40
0.3437499999999993
 40
0.3749999999999992
 40
0.3749999999999992
 40
0.4062499999999992
 40
0.4062499999999992
 40
0.4374999999999992
 40
0.4374999999999992
 40
0.4687499999999991
 40
0.4687499999999991
 40
0.4999999999999991
 40
0.4999999999999991
 40
0.5312499999999991
 40
0.5312499999999991
 40
0.562499999999999
 40
0.562499999999999
 40
0.593749999999999
 40
0.593749999999999
 40
0.6249999999999988
 40
0.6249999999999988
 40
0.6562499999999988
 40
0.6562499999999988
 40
0.6874999999999987
 40
0.6874999999999987
 40
0.7187499999999987
 40
0.7187499999999987
 40
0.7499999999999986
 40
0.7499999999999986
 40
0.7812499999999987
 40
0.7812499999999987
 40
0.8124999999999989
 40
0.8124999999999989
 40
0.8437499999999989
 40
0.8437499999999989
 40
0.8749999999999992
 40
0.8749999999999992
 40
0.9062499999999992
 40
0.9062499999999992
 40
0.9374999999999996
 40
0.9374999999999996
 40
0.9687499999999996
 40
0.9687499999999996
 40
1.0
 40
1.0
 40
1.0
 40
1.0
 10
6.806661302655731
 20
7.639838443473788
 30
0.0
 10
6.813699271786179
 20
7.643901376570834
 30
0.0
 10
6.821379302804563
 20
7.647291224352647
 30
0.0
 10
6.837951770415598
 20
7.652816187569426
 30
0.0
 10
6.846958404082165
 20
7.654959629547256
 30
0.0
 10
6.865446902584425
 20
7.657861278089429
 30
0.0
 10
6.874967747566532
 20
7.658651534969248
 30
0.0
 10
6.894552678497644
 20
7.659010796435156
 30
0.0
 10
6.904411505095341
 20
7.658570593726121
 30
0.0
 10
6.923959197288075
 20
7.656625245680592
 30
0.0
 10
6.933791909151947
 20
7.655097758201698
 30
0.0
 10
6.952856183359465
 20
7.651143405567285
 30
0.0
 10
6.962079087014174
 20
7.648731323043671
 30
0.0
 10
6.979931578311235
 20
7.643122063823879
 30
0.0
 10
6.988592460610902
 20
7.639901208638269
 30
0.0
 10
7.004678556519477
 20
7.63294979557455
 30
0.0
 10
7.012190236058279
 20
7.629196473571006
 30
0.0
 10
7.026141469962084
 20
7.621142356962437
 30
0.0
 10
7.032538165806343
 20
7.616852551341693
 30
0.0
 10
7.043748768752728
 20
7.608038673274563
 30
0.0
 10
7.048633693661066
 20
7.603476227740038
 30
0.0
 10
7.056898887823773
 20
7.593987671634714
 30
0.0
 10
7.060210236255269
 20
7.589122250579555
 30
0.0
 10
7.065025749183787
 20
7.579340199663022
 30
0.0
 10
7.06656487081037
 20
7.574386845504422
 30
0.0
 10
7.067757990377689
 20
7.564269077656126
 30
0.0
 10
7.067388174042466
 20
7.559245086351424
 30
0.0
 10
7.064714211015933
 20
7.549295043840162
 30
0.0
 10
7.062384577382804
 20
7.544310935875756
 30
0.0
 10
7.055689835331804
 20
7.534529408168291
 30
0.0
 10
7.051411056415862
 20
7.529831581492805
 30
0.0
 10
7.040975994605471
 20
7.520778555465383
 30
0.0
 10
7.034753755845342
 20
7.516392313149099
 30
0.0
 10
7.020684325858303
 20
7.508257414684873
 30
0.0
 10
7.013003532121647
 20
7.504584932723934
 30
0.0
 10
6.996431373340284
 20
7.498005635797641
 30
0.0
 10
6.987423715354854
 20
7.49507522410251
 30
0.0
 10
6.968929160629796
 20
7.490261238914579
 30
0.0
 10
6.959404936281856
 20
7.488347958215928
 30
0.0
 10
6.939812757214026
 20
7.485544860683303
 30
0.0
 10
6.929947506653615
 20
7.48469027351604
 30
0.0
 10
6.910389468449297
 20
7.484090703647593
 30
0.0
 10
6.90055159673712
 20
7.484349764990911
 30
0.0
 10
6.88147558579363
 20
7.486004312455262
 30
0.0
 10
6.872247176099403
 20
7.487384824028158
 30
0.0
 10
6.854384266712937
 20
7.4912709239019
 30
0.0
 10
6.845718142347573
 20
7.493801745365407
 30
0.0
 10
6.829622665713799
 20
7.499838203813759
 30
0.0
 10
6.822106849969902
 20
7.503356395095774
 30
0.0
 10
6.808148437161291
 20
7.511414749325627
 30
0.0
 10
6.80174881334298
 20
7.515949380939401
 30
0.0
 10
6.79053393725581
 20
7.525688692901901
 30
0.0
 10
6.785647605448852
 20
7.530930998070774
 30
0.0
 10
6.777381282929749
 20
7.542157274664706
 30
0.0
 10
6.774070634211966
 20
7.548070547033267
 30
0.0
 10
6.76925806281825
 20
7.560140333795379
 30
0.0
 10
6.767721320991004
 20
7.566340717224431
 30
0.0
 10
6.76653542965799
 20
7.579032301969858
 30
0.0
 10
6.766909929021929
 20
7.58534395421336
 30
0.0
 10
6.769595297538579
 20
7.597704624413681
 30
0.0
 10
6.77193237641547
 20
7.603825153951518
 30
0.0
 10
6.778642181043244
 20
7.61552651266439
 30
0.0
 10
6.782929284503918
 20
7.620991372178009
 30
0.0
 10
6.793383379235264
 20
7.631099712701329
 30
0.0
 10
6.799623333525284
 20
7.635775510376744
 30
0.0
 10
6.806661302655731
 20
7.639838443473788
 30
0.0
  0
LWPOLYLINE
  5
D37
330
1F
100
AcDbEntity
  8
0
  6
Continuous
 62
     7
370
    15
100
AcDbPolyline
 90
       72
 70
   128
 43
0.0
 10
7.143893361950318
 20
7.741020912582575
 10
7.134002116079971
 20
7.746478478998511
 10
7.113507734299597
 20
7.756279145386757
 10
7.092193549955137
 20
7.764522989966067
 10
7.07010248697731
 20
7.771193410730562
 10
7.047279033827022
 20
7.776276974340548
 10
7.023769153901511
 20
7.779763443175443
 10
6.999620192970187
 20
7.781645795951005
 10
6.974880783826563
 20
7.78192024185925
 10
6.949600748348267
 20
7.780586228202643
 10
6.923830997162417
 20
7.777646441507158
 10
6.897623427118396
 20
7.773106802111959
 10
6.871030816774503
 20
7.766976452246648
 10
6.844106720108953
 20
7.759267737620005
 10
6.8169053586693
 20
7.749996182557394
 10
6.789481512377458
 20
7.739180458736829
 10
6.76189040921022
 20
7.726842347586696
 10
6.734187613977466
 20
7.713006696420869
 10
6.706428916422037
 20
7.697701368399506
 10
6.678670218866608
 20
7.680957186416373
 10
6.650967423633856
 20
7.66280787102562
 10
6.623376320466617
 20
7.643289972533088
 10
6.595952474174774
 20
7.622442797388847
 10
6.568751112735123
 20
7.600308329029241
 10
6.541827016069573
 20
7.576931143327831
 10
6.51523440572568
 20
7.552358318825527
 10
6.489026835681658
 20
7.526639341920656
 10
6.463257084495809
 20
7.499826007209957
 10
6.437977049017511
 20
7.471972313181149
 10
6.413237639873889
 20
7.44313435346716
 10
6.389088678942565
 20
7.413370203881026
 10
6.365578799017054
 20
7.382739805458921
 10
6.342755345866766
 20
7.351304843746893
 10
6.320664282888941
 20
7.319128624574386
 10
6.299350098544479
 20
7.286275946564709
 10
6.278855716764105
 20
7.252812970639261
 10
6.259222410505277
 20
7.218807086778213
 10
6.240489718633947
 20
7.184326778306067
 10
6.222695366298546
 20
7.149441483975357
 10
6.205875188956564
 20
7.114221458126236
 10
6.190063060206691
 20
7.078737629203594
 10
6.175290823571909
 20
7.043061456916598
 10
6.161588228370874
 20
7.007264788328358
 10
6.148982869806742
 20
6.97141971316549
 10
6.137500133394107
 20
6.93559841863902
 10
6.127163143835954
 20
6.899873044068932
 10
6.117992718453576
 20
6.864315535605182
 10
6.110007325263271
 20
6.828997501337731
 10
6.103223045784204
 20
6.793990067087372
 10
6.097653542652382
 20
6.759363733167811
 10
6.093310032105902
 20
6.725188232407392
 10
6.090201261396963
 20
6.691532389716487
 10
6.088333491176047
 20
6.65846398348326
 10
6.087710482883814
 20
6.626049609077041
 10
6.088333491176047
 20
6.594354544734089
 10
6.090201261396964
 20
6.563442620095935
 10
6.093310032105904
 20
6.533376087664953
 10
6.097653542652384
 20
6.504215497436128
 10
6.10322304578421
 20
6.476019574957414
 10
6.110007325263275
 20
6.448845103064295
 10
6.117992718453582
 20
6.422746807526712
 10
6.127163143835959
 20
6.397777246838652
 10
6.137500133394112
 20
6.373986706372319
 10
6.148982869806747
 20
6.351423097110112
 10
6.161588228370879
 20
6.330131859158257
 10
6.175290823571915
 20
6.310155870236496
 10
6.190063060206698
 20
6.29153535932806
 10
6.205875188956571
 20
6.274307825663852
 10
6.222695366298554
 20
6.258507963203985
 10
6.240489718633954
 20
6.244167590768768
 10
6.259222410505284
 20
6.231315587959828
 10
6.268964470893759
 20
6.225435403416383
  0
LWPOLYLINE
  5
D38
330
1F
100
AcDbEntity
  8
0
  6
Continuous
 62
     7
370
    15
100
AcDbPolyline
 90
      115
 70
   128
 43
0.0
 10
7.546118219081064
 20
6.969961526182359
 10
7.545498139990401
 20
6.943626801005963
 10
7.54363978587823
 20
6.916656125445275
 10
7.540548800504911
 20
6.889131408555533
 10
7.536234571091435
 20
6.861136241997286
 10
7.530710199810732
 20
6.832755646171266
 10
7.523992463996821
 20
6.804075812014225
 10
7.516101765192573
 20
6.775183839239884
 10
7.507062067190918
 20
6.74616747181998
 10
7.496900823257583
 20
6.717114831508695
 10
7.485648892756426
 20
6.688114150219792
 10
7.473340447430569
 20
6.659253502069191
 10
7.460012867623929
 20
6.630620535896774
 10
7.445706628758344
 20
6.602302209079738
 10
7.430465178411051
 20
6.574384523445893
 10
7.414334804365822
 20
6.546952264088956
 10
7.397364494038479
 20
6.520088741878982
 10
7.379605785703727
 20
6.493875540450014
 10
7.361112611975116
 20
6.468392268433248
 10
7.341941136013446
 20
6.443716317688252
 10
7.322149580961117
 20
6.419922628266423
 10
7.301798053120334
 20
6.397083460820519
 10
7.280948359412263
 20
6.37526817715142
 10
7.259663819671445
 20
6.354543029558641
 10
7.238009074345514
 20
6.334970959634249
 10
7.216049888184308
 20
6.316611407111345
 10
7.193852950514475
 20
6.299520129347516
 10
7.171485672706179
 20
6.283749031991602
 10
7.149015983446988
 20
6.269346011347929
 10
7.126512122444676
 20
6.256354808916814
 10
7.104042433185483
 20
6.244814878553063
 10
7.081675155377189
 20
6.234761266645913
 10
7.059478217707354
 20
6.226224505684292
 10
7.03751903154615
 20
6.219230521530674
 10
7.015864286220217
 20
6.213800554685061
 10
6.994579746479397
 20
6.209951095778297
 10
6.97373005277133
 20
6.207693835490566
 10
6.953378524930547
 20
6.207035629047171
 10
6.933586969878215
 20
6.20797847539945
 10
6.914415493916548
 20
6.210519511154014
 10
6.895922320187935
 20
6.214651019268798
 10
6.878163611853185
 20
6.220360452489444
 10
6.861193301525842
 20
6.22763047145491
 10
6.845062927480613
 20
6.23643899735654
 10
6.82982147713332
 20
6.246759278990674
 10
6.815515238267735
 20
6.258559974001187
 10
6.802187658461095
 20
6.271805244065177
 10
6.789879213135236
 20
6.286454863732791
 10
6.778627282634081
 20
6.302464342590576
 10
6.768466038700747
 20
6.319785060377428
 10
6.759426340699093
 20
6.338364414642693
 10
6.751535641894845
 20
6.358145980498111
 10
6.744817906080932
 20
6.379069681978336
 10
6.739293534800232
 20
6.401071974489662
 10
6.734979305386755
 20
6.424086037792871
 10
6.731888320013437
 20
6.448041978934107
 10
6.730029965901266
 20
6.472867044507477
 10
6.729409886810602
 20
6.498485841604749
 10
6.730029965901266
 20
6.524820566781144
 10
6.731888320013437
 20
6.551791242341835
 10
6.734979305386755
 20
6.579315959231577
 10
6.739293534800232
 20
6.607311125789824
 10
6.744817906080935
 20
6.63569172161584
 10
6.751535641894847
 20
6.664371555772884
 10
6.759426340699096
 20
6.693263528547223
 10
6.768466038700749
 20
6.722279895967128
 10
6.778627282634085
 20
6.751332536278413
 10
6.789879213135241
 20
6.780333217567317
 10
6.802187658461098
 20
6.809193865717917
 10
6.815515238267739
 20
6.837826831890334
 10
6.829821477133323
 20
6.866145158707373
 10
6.845062927480617
 20
6.894062844341215
 10
6.861193301525849
 20
6.921495103698152
 10
6.878163611853192
 20
6.948358625908126
 10
6.89592232018794
 20
6.974571827337094
 10
6.914415493916552
 20
7.000055099353859
 10
6.933586969878222
 20
7.024731050098854
 10
6.953378524930554
 20
7.048524739520683
 10
6.973730052771337
 20
7.071363906966588
 10
6.994579746479404
 20
7.093179190635684
 10
7.015864286220224
 20
7.113904338228465
 10
7.037519031546155
 20
7.133476408152855
 10
7.059478217707361
 20
7.151835960675761
 10
7.081675155377192
 20
7.168927238439589
 10
7.104042433185489
 20
7.184698335795504
 10
7.126512122444681
 20
7.199101356439175
 10
7.149015983446991
 20
7.21209255887029
 10
7.171485672706184
 20
7.223632489234041
 10
7.193852950514481
 20
7.233686101141191
 10
7.216049888184313
 20
7.24222286210281
 10
7.238009074345519
 20
7.249216846256429
 10
7.25966381967145
 20
7.254646813102043
 10
7.280948359412271
 20
7.258496272008807
 10
7.301798053120338
 20
7.260753532296536
 10
7.32214958096112
 20
7.261411738739932
 10
7.341941136013451
 20
7.260468892387654
 10
7.361112611975119
 20
7.257927856633086
 10
7.379605785703731
 20
7.253796348518303
 10
7.39736449403848
 20
7.248086915297658
 10
7.414334804365823
 20
7.240816896332193
 10
7.430465178411054
 20
7.232008370430564
 10
7.445706628758346
 20
7.221688088796426
 10
7.46001286762393
 20
7.209887393785916
 10
7.473340447430571
 20
7.196642123721924
 10
7.485648892756428
 20
7.181992504054312
 10
7.496900823257584
 20
7.165983025196524
 10
7.507062067190918
 20
7.148662307409674
 10
7.516101765192573
 20
7.130082953144407
 10
7.523992463996821
 20
7.110301387288989
 10
7.530710199810732
 20
7.089377685808763
 10
7.536234571091434
 20
7.067375393297439
 10
7.540548800504911
 20
7.044361329994231
 10
7.543639785878228
 20
7.020405388852994
 10
7.545498139990399
 20
6.995580323279623
 10
7.546118219081064
 20
6.969961526182359
  0
LWPOLYLINE
  5
D39
330
1F
100
AcDbEntity
  8
0
  6
Continuous
 62
     7
370
    15
100
AcDbPolyline
 90
       85
 70
   128
 43
0.0
 10
6.729444768627756
 20
6.50466932606815
 10
6.730035617305643
 20
6.485339797521158
 10
6.731910840011131
 20
6.46074997795964
 10
6.735029654782671
 20
6.437039873267229
 10
6.739382248675141
 20
6.414284084205181
 10
6.744954926817849
 20
6.392554208904718
 10
6.751730155503665
 20
6.371918617592813
 10
6.759686617356553
 20
6.352442237474168
 10
6.768799278403916
 20
6.334186348446202
 10
6.779039466842736
 20
6.317208390289824
 10
6.790374963251682
 20
6.301561781942636
 10
6.802770101965323
 20
6.287295753423187
 10
6.816185883291502
 20
6.274455190935118
 10
6.830580096218811
 20
6.263080495638568
 10
6.845907451228034
 20
6.253207456533173
 10
6.862119722789733
 20
6.244867137852629
 10
6.879165901099616
 20
6.23808578132513
 10
6.896992352574237
 20
6.232884723607169
 10
6.915542988602112
 20
6.22928032915053
 10
6.934759442019215
 20
6.227283938713675
 10
6.954581250753697
 20
6.226901833679511
 10
6.974946048061916
 20
6.228135216291841
 10
6.995789758757293
 20
6.230980205872656
 10
7.017046800814547
 20
6.235427851032193
 10
7.038650291715018
 20
6.241464157833311
 10
7.060532258883814
 20
6.249070133821593
 10
7.082623853556672
 20
6.258221847782639
 10
7.104855567403648
 20
6.268890505038521
 10
7.127157451228036
 20
6.281042538046488
 10
7.149459335052425
 20
6.29463971201488
 10
7.171691048899401
 20
6.30963924520392
 10
7.193782643572259
 20
6.325993943532903
 10
7.215664610741054
 20
6.343652349070231
 10
7.237268101641523
 20
6.362558901939102
 10
7.258525143698779
 20
6.38265411512944
 10
7.279368854394155
 20
6.403874761666038
 10
7.299733651702375
 20
6.426154073544006
 10
7.319555460436857
 20
6.449421951805623
 10
7.33877191385396
 20
6.473605187097595
 10
7.357322549881834
 20
6.498627690014757
 10
7.375149001356456
 20
6.524410730505495
 10
7.392195179666339
 20
6.550873185585624
 10
7.408407451228038
 20
6.577931794581294
 10
7.423734806237257
 20
6.60550142109788
 10
7.438129019164566
 20
6.633495320890586
 10
7.451544800490747
 20
6.661825414793918
 10
7.463939939204388
 20
6.690402565851329
 10
7.475275435613337
 20
6.719136859773065
 10
7.485515624052156
 20
6.747937887839787
 10
7.494628285099519
 20
6.776715031361838
 10
7.502584746952404
 20
6.805377746799182
 10
7.509359975638224
 20
6.83383585064487
 10
7.514932653780929
 20
6.86199980317572
 10
7.519285247673398
 20
6.889780990177408
 10
7.522404062444937
 20
6.917092001757582
 10
7.524279285150429
 20
6.943846907369705
 10
7.524905015645471
 20
6.969961526182363
 10
7.524279285150427
 20
6.995353691943291
 10
7.522404062444937
 20
7.019943511504809
 10
7.519285247673398
 20
7.04365361619722
 10
7.514932653780929
 20
7.066409405259266
 10
7.509359975638222
 20
7.08813928055973
 10
7.502584746952404
 20
7.108774871871634
 10
7.494628285099516
 20
7.128251251990281
 10
7.485515624052155
 20
7.146507141018247
 10
7.475275435613331
 20
7.163485099174625
 10
7.463939939204387
 20
7.179131707521809
 10
7.451544800490745
 20
7.19339773604126
 10
7.438129019164565
 20
7.20623829852933
 10
7.423734806237256
 20
7.217612993825879
 10
7.408407451228033
 20
7.227486032931274
 10
7.392195179666334
 20
7.235826351611816
 10
7.375149001356451
 20
7.242607708139317
 10
7.35732254988183
 20
7.24780876585728
 10
7.338771913853959
 20
7.251413160313918
 10
7.319555460436852
 20
7.253409550750772
 10
7.29973365170237
 20
7.253791655784935
 10
7.279368854394149
 20
7.252558273172605
 10
7.258525143698774
 20
7.249713283591789
 10
7.23726810164152
 20
7.245265638432252
 10
7.215664610741049
 20
7.239229331631134
 10
7.193782643572253
 20
7.231623355642852
 10
7.171691048899395
 20
7.222471641681806
 10
7.149459335052419
 20
7.211802984425926
 10
7.132360363169306
 20
7.202615230869792
  0
ARC
  5
D3A
330
1F
100
AcDbEntity
  8
0
  6
Continuous
 62
     7
370
    15
100
AcDbCircle
 10
7.406441297903615
 20
6.579119611862424
 30
0.0
 40
1.320057868250449
100
AcDbArc
 50
122.5747172933518
 51
177.4306592393473
  0
ARC
  5
D3B
330
1F
100
AcDbEntity
  8
0
  6
Continuous
 62
     7
370
    15
100
AcDbCircle
 10
6.228796219495089
 20
7.258959644825687
 30
0.0
 40
0.8778157417840823
100
AcDbArc
 50
304.8853089630955
 51
355.1200675696054
  0
LWPOLYLINE
  5
D3C
330
1F
100
AcDbEntity
  8
0
  6
Continuous
 62
     7
370
    15
100
AcDbPolyline
 90
       16
 70
   128
 43
0.0
 10
6.817285582043192
 20
7.621436651834905
 10
6.806732586104782
 20
7.614619572136684
 10
6.797568112180371
 20
7.607163256353739
 10
6.789907408846916
 20
7.5991614719833
 10
6.783846813893676
 20
7.590714846106569
 10
6.779462542818624
 20
7.581929599944789
 10
6.776809730374344
 20
7.572916213065765
 10
6.775921737216524
 20
7.563788034039189
 10
6.776809730374344
 20
7.55465985501261
 10
6.779462542818624
 20
7.545646468133586
 10
6.783846813893676
 20
7.536861221971806
 10
6.789907408846916
 20
7.528414596095075
 10
6.797568112180371
 20
7.520412811724636
 10
6.806732586104782
 20
7.512956495941692
 10
6.817285582043192
 20
7.50613941624347
 10
6.817269355752767
 20
7.506148785003862
  0
LWPOLYLINE
  5
D3D
330
1F
100
AcDbEntity
  8
0
  6
Continuous
 62
     7
370
    15
100
AcDbPolyline
 90
       16
 70
   128
 43
0.0
 10
7.020151103359385
 20
7.508012954649721
 10
7.02756088832648
 20
7.512956495941693
 10
7.036725362250889
 20
7.520412811724636
 10
7.044386065584346
 20
7.528414596095075
 10
7.050446660537586
 20
7.536861221971808
 10
7.054830931612638
 20
7.545646468133588
 10
7.057483744056915
 20
7.55465985501261
 10
7.058371737214738
 20
7.563788034039189
 10
7.057483744056915
 20
7.572916213065765
 10
7.054830931612638
 20
7.581929599944789
 10
7.050446660537586
 20
7.590714846106569
 10
7.044386065584346
 20
7.599161471983302
 10
7.036725362250889
 20
7.607163256353739
 10
7.02756088832648
 20
7.614619572136684
 10
7.017007892388066
 20
7.621436651834905
 10
7.017024118692859
 20
7.62142728306564
  0
LWPOLYLINE
  5
D3E
330
1F
100
AcDbEntity
  8
0
  6
Continuous
 62
     7
370
    15
100
AcDbPolyline
 90
       54
 70
   128
 43
0.0
 10
7.006383613001919
 20
7.627571911593989
 10
7.016311596201081
 20
7.6211174462703
 10
7.024847522152141
 20
7.614030424874377
 10
7.031871565165722
 20
7.606410333651671
 10
7.037285123074809
 20
7.598364141979509
 10
7.041012201393025
 20
7.590004800751492
 10
7.043000480110633
 20
7.581449656794562
 10
7.043222048152804
 20
7.572818805576769
 10
7.041673795189906
 20
7.564233405330149
 10
7.038377455299727
 20
7.555813976254736
 10
7.033379301868658
 20
7.547678708679134
 10
7.026749498014787
 20
7.539941803927376
 10
7.018581111651508
 20
7.532711871182675
 10
7.00898880901804
 20
7.526090402852558
 10
6.998107245016772
 20
7.520170349837936
 10
6.986089172953596
 20
7.515034816706229
 10
6.973103300216344
 20
7.510755895085369
 10
6.959331919992859
 20
7.507393651655407
 10
6.944968352274242
 20
7.504995284943968
 10
6.930214230065937
 20
7.503594462762398
 10
6.915276668902309
 20
7.503210849583485
 10
6.900365359398563
 20
7.50384983049537
 10
6.885689623654133
 20
7.505502435606715
 10
6.871455476829261
 20
7.508145465964309
 10
6.857862735143736
 20
7.511741819215529
 10
6.845102210895168
 20
7.51624101044403
 10
6.833353033872588
 20
7.521579880867312
 10
6.822780136766883
 20
7.527683484447583
 10
6.813531939877337
 20
7.534466139969834
 10
6.805738267615984
 20
7.541832633818305
 10
6.799508526057435
 20
7.549679556566911
 10
6.794930167117405
 20
7.557896754620928
 10
6.792067460919533
 20
7.566368876532003
 10
6.790960593583697
 20
7.574976992279621
 10
6.79162510310102
 20
7.583600262787909
 10
6.794051661214496
 20
7.592117636241372
 10
6.798206204367293
 20
7.600409547387037
 10
6.804030411880415
 20
7.608359595968513
 10
6.811442524647203
 20
7.615856180730435
 10
6.820338492851959
 20
7.622794066055465
 10
6.830593436601294
 20
7.629075859241671
 10
6.842063398964077
 20
7.634613377682576
 10
6.854587366811207
 20
7.639328886757663
 10
6.867989531086982
 20
7.643156191056041
 10
6.88208175478288
 20
7.646041563614916
 10
6.896666213968742
 20
7.647944500128373
 10
6.911538174807132
 20
7.648838287539055
 10
6.926488867567616
 20
7.648710379030919
 10
6.941308417296161
 20
7.647562570159042
 10
6.955788789999429
 20
7.645410973643956
 10
6.969726712986041
 20
7.642285793184377
 10
6.982926528369562
 20
7.638230899463474
 10
6.995202939676362
 20
7.633303214300656
 10
7.006383613001919
 20
7.627571911593989
  0
LINE
  5
D3F
330
1F
100
AcDbEntity
  8
0
  6
Continuous
 62
     7
370
    15
100
AcDbLine
 10
6.980935532600607
 20
7.612881047482412
 30
0.0
 11
7.004283852188319
 21
7.562577861742097
 31
0.0
  0
LINE
  5
D40
330
1F
100
AcDbEntity
  8
0
  6
Continuous
 62
     7
370
    15
100
AcDbLine
 10
6.893798417627921
 20
7.626359745478245
 30
0.0
 11
6.980935532600607
 21
7.612881047482412
 31
0.0
  0
LINE
  5
D41
330
1F
100
AcDbEntity
  8
0
  6
Continuous
 62
     7
370
    15
100
AcDbLine
 10
6.830009622242943
 20
7.589535257733757
 30
0.0
 11
6.893798417627921
 21
7.626359745478245
 31
0.0
  0
LINE
  5
D42
330
1F
100
AcDbEntity
  8
0
  6
Continuous
 62
     7
370
    15
100
AcDbLine
 10
6.853357941830651
 20
7.53923207199344
 30
0.0
 11
6.830009622242943
 21
7.589535257733757
 31
0.0
  0
LINE
  5
D43
330
1F
100
AcDbEntity
  8
0
  6
Continuous
 62
     7
370
    15
100
AcDbLine
 10
6.940495056803341
 20
7.525753373997609
 30
0.0
 11
6.853357941830651
 21
7.53923207199344
 31
0.0
  0
LINE
  5
D44
330
1F
100
AcDbEntity
  8
0
  6
Continuous
 62
     7
370
    15
100
AcDbLine
 10
7.004283852188319
 20
7.562577861742097
 30
0.0
 11
6.940495056803341
 21
7.525753373997609
 31
0.0
  0
LINE
  5
D45
330
1F
100
AcDbEntity
  8
0
  6
Continuous
 62
     7
370
    15
100
AcDbLine
 10
6.893798417627921
 20
7.577775567171043
 30
0.0
 11
6.847794592763968
 21
7.551218124368146
 31
0.0
  0
LINE
  5
D46
330
1F
100
AcDbEntity
  8
0
  6
Continuous
 62
     7
370
    15
100
AcDbLine
 10
6.980935532600607
 20
7.564296869175212
 30
0.0
 11
6.893798417627921
 21
7.577775567171043
 31
0.0
  0
LINE
  5
D47
330
1F
100
AcDbEntity
  8
0
  6
Continuous
 62
     7
370
    15
100
AcDbLine
 10
6.986498881667294
 20
7.552310816800504
 30
0.0
 11
6.980935532600607
 21
7.564296869175212
 31
0.0
  0
LINE
  5
D48
330
1F
100
AcDbEntity
  8
0
  6
Continuous
 62
     7
370
    15
100
AcDbLine
 10
6.980935532600607
 20
7.564296869175212
 30
0.0
 11
6.980935532600607
 21
7.612881047482412
 31
0.0
  0
ARC
  5
D49
330
1F
100
AcDbEntity
  8
0
  6
Continuous
 62
     7
370
    15
100
AcDbCircle
 10
6.200335316704855
 20
7.275389774281347
 30
0.0
 40
0.9069753279418348
100
AcDbArc
 50
305.802909342435
 51
354.2024671902662
  0
LINE
  5
D4A
330
1F
100
AcDbEntity
  8
0
  6
Continuous
 62
     7
370
    15
100
AcDbLine
 10
6.893798417627921
 20
7.577775567171043
 30
0.0
 11
6.893798417627921
 21
7.626359745478245
 31
0.0
  0
TEXT
  5
F05
330
1F
100
AcDbEntity
  8
FORMAT
 62
     7
100
AcDbText
 10
2.468548527348364
 20
4.880981649018918
 30
0.0
 40
0.13
  1
TOP
 41
0.9
  7
SLDTEXTSTYLE1
 72
     4
 11
2.622215420618249
 21
4.945981649018919
 31
0.0
100
AcDbText
  0
TEXT
  5
F06
330
1F
100
AcDbEntity
  8
FORMAT
 62
     7
100
AcDbText
 10
2.367575379829669
 20
1.793672514053422
 30
0.0
 40
0.13
  1
FRONT
 41
0.9
  7
SLDTEXTSTYLE1
 72
     4
 11
2.622215420618249
 21
1.858672514053422
 31
0.0
100
AcDbText
  0
TEXT
  5
F07
330
1F
100
AcDbEntity
  8
FORMAT
 62
     7
100
AcDbText
 10
6.661903587726149
 20
1.793672514053422
 30
0.0
 40
0.13
  1
SIDE
 41
0.9
  7
SLDTEXTSTYLE1
 72
     4
 11
6.825154777393042
 21
1.858672514053422
 31
0.0
100
AcDbText
  0
DIMENSION
  5
F83
330
1F
100
AcDbEntity
  8
DIM
100
AcDbDimension
  2
*D15
 10
2.105740061572469
 20
2.547604101346635
 30
0.0
 11
2.105740061572468
 21
2.391354101346636
 31
0.0
 70
   160
 71
     5
 42
0.3125
  3
Standard
100
AcDbAlignedDimension
 13
2.366158303576815
 23
2.235104101346635
 33
0.0
 14
2.366158303576815
 24
2.547604101346635
 34
0.0
 50
90.0
100
AcDbRotatedDimension
  0
DIMENSION
  5
F92
330
1F
100
AcDbEntity
  8
DIM
100
AcDbDimension
  2
*D16
 10
2.105740061572469
 20
3.672604101346635
 30
0.0
 11
1.997973236283549
 21
3.110104101346636
 31
0.0
 70
    32
 71
     5
 42
1.125
  3
Standard
100
AcDbAlignedDimension
 13
2.366158303576815
 23
2.547604101346635
 33
0.0
 14
2.366158303576815
 24
3.672604101346635
 34
0.0
 50
90.0
100
AcDbRotatedDimension
  0
DIMENSION
  5
F9F
330
1F
100
AcDbEntity
  8
DIM
100
AcDbDimension
  2
*D17
 10
2.105740061572469
 20
3.985104101346633
 30
0.0
 11
2.105740061572469
 21
3.828854101346635
 31
0.0
 70
   160
 71
     5
 42
0.3124999999999982
  3
Standard
100
AcDbAlignedDimension
 13
2.366158303576815
 23
3.672604101346635
 33
0.0
 14
2.366158303576815
 24
3.985104101346633
 34
0.0
 50
90.0
100
AcDbRotatedDimension
  0
DIMENSION
  5
FEF
330
1F
100
AcDbEntity
  8
DIM
100
AcDbDimension
  2
*D18
 10
2.111993226665248
 20
6.583884980994056
 30
0.0
 11
2.004226401376328
 21
6.146384980994058
 31
0.0
 70
    32
 71
     5
 42
0.8749999999999982
  3
Standard
100
AcDbAlignedDimension
 13
2.366158303576815
 23
5.708884980994058
 33
0.0
 14
2.422933303577708
 24
6.583884980994056
 34
0.0
 50
90.0
100
AcDbRotatedDimension
  0
DIMENSION
  5
FFC
330
1F
100
AcDbEntity
  8
DIM
100
AcDbDimension
  2
*D19
 10
2.111993226665248
 20
7.458884980994058
 30
0.0
 11
2.004226401376328
 21
7.021384980994058
 31
0.0
 70
    32
 71
     5
 42
0.8750000000000017
  3
Standard
100
AcDbAlignedDimension
 13
2.422933303577708
 23
6.583884980994056
 33
0.0
 14
2.366158303576815
 24
7.458884980994058
 34
0.0
 50
90.0
100
AcDbRotatedDimension
  0
DIMENSION
  5
101B
330
1F
100
AcDbEntity
  8
DIM
100
AcDbDimension
  2
*D20
 10
2.976158303576816
 20
5.267134999138924
 30
0.0
 11
2.663658303576815
 21
5.374901824427843
 31
0.0
 70
    32
 71
     5
 42
0.6250000000000018
  3
Standard
100
AcDbAlignedDimension
 13
2.351158303576815
 23
5.723884980994061
 33
0.0
 14
2.976158303576816
 24
5.72388498099406
 34
0.0
100
AcDbRotatedDimension
  0
DIMENSION
  5
1028
330
1F
100
AcDbEntity
  8
DIM
100
AcDbDimension
  2
*D21
 10
2.961158303576816
 20
5.470299179714199
 30
0.0
 11
2.663658303576815
 21
5.578066005003118
 31
0.0
 70
    32
 71
     5
 42
0.5950000000000007
  3
Standard
100
AcDbAlignedDimension
 13
2.366158303576815
 23
5.708884980994058
 33
0.0
 14
2.961158303576816
 24
5.708884980994058
 34
0.0
100
AcDbRotatedDimension
  0
DIMENSION
  5
1047
330
1F
100
AcDbEntity
  8
DIM
100
AcDbDimension
  2
*D22
 10
2.542848139246954
 20
6.5115776877588
 30
0.0
 11
3.540360350943102
 21
6.927117210361079
 31
0.0
 70
   163
 71
     5
 42
0.2824499999982102
  3
Standard
100
AcDbDiametricDimension
 15
2.785468467906676
 25
6.656192274229312
 35
0.0
 40
0.0
1001
ACAD_DSTYLE_DIMRADIAL_EXTENSION
1070
   387
1070
     1
1070
   388
1040
0.0
1070
   390
1040
0.0
1001
ACAD
1000
DSTYLE
1002
{
1070
    73
1070
     1
1070
    74
1070
     1
1002
}
  0
DIMENSION
  5
1053
330
1F
100
AcDbEntity
  8
DIM
100
AcDbDimension
  2
*D23
 10
2.560723986384239
 20
6.625807485264756
 30
0.0
 11
3.54021079281937
 21
6.350493116422522
 31
0.0
 70
   163
 71
     5
 42
0.2232142857204384
  3
Standard
100
AcDbDiametricDimension
 15
2.767592620769392
 25
6.541962476723357
 35
0.0
 40
0.0
1001
ACAD_DSTYLE_DIMRADIAL_EXTENSION
1070
   387
1070
     1
1070
   388
1040
4.712388980384703
1070
   390
1040
1.570796326794896
1001
ACAD
1000
DSTYLE
1002
{
1070
    73
1070
     1
1070
    74
1070
     1
1002
}
  0
DIMENSION
  5
105F
330
1F
100
AcDbEntity
  8
DIM
100
AcDbDimension
  2
*D24
 10
6.327573947634736
 20
2.765576338154548
 30
0.0
 11
8.10201294325091
 21
3.861766790530257
 31
0.0
 70
   163
 71
     5
 42
1.154999999999996
  3
Standard
100
AcDbDiametricDimension
 15
7.25451918957701
 25
3.454631864538722
 35
0.0
 40
0.0
1001
ACAD_DSTYLE_DIMRADIAL_EXTENSION
1070
   387
1070
     1
1070
   388
1040
0.0
1070
   390
1040
0.0
1001
ACAD
1000
DSTYLE
1002
{
1070
    73
1070
     1
1070
    74
1070
     1
1002
}
  0
DIMENSION
  5
106B
330
1F
100
AcDbEntity
  8
DIM
100
AcDbDimension
  2
*D25
 10
7.464138867215065
 20
2.574803477815347
 30
0.0
 11
5.54520166374494
 21
3.861766790530256
 31
0.0
 70
   163
 71
     5
 42
1.719999999999996
  3
Standard
100
AcDbDiametricDimension
 15
6.117954269996674
 25
3.645404724877924
 35
0.0
 40
0.0
1001
ACAD_DSTYLE_DIMRADIAL_EXTENSION
1070
   387
1070
     1
1070
   388
1040
0.0
1070
   390
1040
0.0
1001
ACAD
1000
DSTYLE
1002
{
1070
    73
1070
     1
1070
    74
1070
     1
1002
}
  0
ENDSEC
  0
SECTION
  2
OBJECTS
  0
DICTIONARY
  5
C
330
0
100
AcDbDictionary
281
     1
  3
ACAD_COLOR
350
FC
  3
ACAD_GROUP
350
D
  3
ACAD_LAYOUT
350
1A
  3
ACAD_MATERIAL
350
E7
  3
ACAD_MLEADERSTYLE
350
BCC
  3
ACAD_MLINESTYLE
350
17
  3
ACAD_PLOTSETTINGS
350
19
  3
ACAD_PLOTSTYLENAME
350
E
  3
ACAD_SCALELIST
350
BAA
  3
ACAD_TABLESTYLE
350
FD
  3
ACAD_VISUALSTYLE
350
EB
  3
ACDB_RECOMPOSE_DATA
350
1B0C
  3
AcDbVariableDictionary
350
3CB
  0
DICTIONARY
  5
4DC
330
8
100
AcDbDictionary
280
     1
281
     1
  0
DICTIONARY
  5
61E
330
2
100
AcDbDictionary
280
     1
281
     1
  3
ACAD_LAYERFILTERS
360
622
  3
ACLYDICTIONARY
360
621
  0
DICTIONARY
  5
BD2
330
10
100
AcDbDictionary
280
     1
281
     1
  3
ADSK_XREC_LAYER_RECONCILED
360
BD3
  0
DICTIONARY
  5
BD4
330
44
100
AcDbDictionary
280
     1
281
     1
  3
ADSK_XREC_LAYER_RECONCILED
360
BD5
  0
DICTIONARY
  5
BD6
330
61C
100
AcDbDictionary
280
     1
281
     1
  3
ADSK_XREC_LAYER_RECONCILED
360
BD7
  0
DICTIONARY
  5
F24
330
1F
100
AcDbDictionary
280
     1
281
     1
  3
ACAD_SORTENTS
360
F25
  0
DICTIONARY
  5
40A
330
409
100
AcDbDictionary
280
     1
281
     1
  3
ACAD_SORTENTS
360
40B
  0
DICTIONARY
  5
1B3A
330
EDF
100
AcDbDictionary
280
     1
281
     1
  3
ACAD_MTEXT_2008_RT
360
1B3B
  0
DICTIONARY
  5
1B3E
330
1087
100
AcDbDictionary
280
     1
281
     1
  3
ACAD_MTEXT_2008_RT
360
1B3F
  0
DICTIONARY
  5
1B42
330
10A3
100
AcDbDictionary
280
     1
281
     1
  3
ACAD_MTEXT_2008_RT
360
1B43
  0
DICTIONARY
  5
1B40
330
1099
100
AcDbDictionary
280
     1
281
     1
  3
ACAD_MTEXT_2008_RT
360
1B41
  0
DICTIONARY
  5
1B44
330
10AD
100
AcDbDictionary
280
     1
281
     1
  3
ACAD_MTEXT_2008_RT
360
1B45
  0
DICTIONARY
  5
FC
102
{ACAD_REACTORS
330
C
102
}
330
C
100
AcDbDictionary
281
     1
  0
DICTIONARY
  5
D
102
{ACAD_REACTORS
330
C
102
}
330
C
100
AcDbDictionary
281
     1
  0
DICTIONARY
  5
1A
102
{ACAD_REACTORS
330
C
102
}
330
C
100
AcDbDictionary
281
     1
  3
Layout1
350
1E
  3
Layout2
350
26
  3
Model
350
22
  0
DICTIONARY
  5
E7
102
{ACAD_REACTORS
330
C
102
}
330
C
100
AcDbDictionary
281
     1
  3
ByBlock
350
E9
  3
ByLayer
350
E8
  3
Global
350
EA
  0
DICTIONARY
  5
BCC
102
{ACAD_REACTORS
330
C
102
}
330
C
100
AcDbDictionary
281
     1
  3
Standard
350
BCD
  0
DICTIONARY
  5
17
102
{ACAD_REACTORS
330
C
102
}
330
C
100
AcDbDictionary
281
     1
  3
Standard
350
18
  0
DICTIONARY
  5
19
102
{ACAD_REACTORS
330
C
102
}
330
C
100
AcDbDictionary
281
     1
  3
JPG
350
B81
  3
PDF
350
B78
  0
ACDBDICTIONARYWDFLT
  5
E
102
{ACAD_REACTORS
330
C
102
}
330
C
100
AcDbDictionary
281
     1
  3
Normal
350
F
100
AcDbDictionaryWithDefault
340
F
  0
DICTIONARY
  5
BAA
102
{ACAD_REACTORS
330
C
102
}
330
C
100
AcDbDictionary
281
     1
  3
A0
350
BAB
  3
A1
350
BAC
  3
A2
350
BAD
  3
A3
350
BAE
  3
A4
350
BAF
  3
A5
350
BB0
  3
A6
350
BB1
  3
A7
350
BB2
  3
A8
350
BB3
  3
A9
350
BB4
  3
B0
350
BB5
  3
B1
350
BB6
  3
B2
350
BB7
  3
B3
350
BB8
  3
B4
350
BB9
  3
B5
350
BBA
  3
B6
350
BBB
  3
B7
350
BBC
  3
B8
350
BBD
  3
B9
350
BBE
  3
C0
350
BBF
  3
C1
350
BC0
  3
C2
350
BC1
  3
C3
350
BC2
  3
C4
350
BC3
  3
C5
350
BC4
  3
C6
350
BC5
  3
C7
350
BC6
  3
C8
350
BC7
  3
C9
350
BC8
  3
D0
350
BC9
  3
D1
350
BCA
  3
D2
350
BCB
  0
DICTIONARY
  5
FD
102
{ACAD_REACTORS
330
C
102
}
330
C
100
AcDbDictionary
281
     1
  3
Standard
350
FE
  0
DICTIONARY
  5
EB
102
{ACAD_REACTORS
330
C
102
}
330
C
100
AcDbDictionary
281
     1
  3
2dWireframe
350
F1
  3
3D Hidden
350
F3
  3
3dWireframe
350
F2
  3
Basic
350
F0
  3
Brighten
350
F7
  3
ColorChange
350
FB
  3
Conceptual
350
F4
  3
Dim
350
F6
  3
EdgeColorOff
350
BA9
  3
Facepattern
350
FA
  3
Flat
350
EC
  3
FlatWithEdges
350
ED
  3
Gouraud
350
EE
  3
GouraudWithEdges
350
EF
  3
JitterOff
350
BA7
  3
Linepattern
350
F9
  3
OverhangOff
350
BA8
  3
Realistic
350
F5
  3
Thicken
350
F8
  0
XRECORD
  5
1B0C
102
{ACAD_REACTORS
330
C
102
}
330
C
100
AcDbXrecord
280
     1
 90
        1
330
FE
  0
DICTIONARY
  5
3CB
102
{ACAD_REACTORS
330
C
102
}
330
C
100
AcDbDictionary
281
     1
  3
CANNOSCALE
350
C16
  3
CMLEADERSTYLE
350
C15
  3
CTABLESTYLE
350
3CC
  3
DIMASSOC
350
C1A
  3
INDEXCTL
350
C18
  3
SORTENTS
350
C17
  3
XCLIPFRAME
350
1B0A
  0
DICTIONARY
  5
622
102
{ACAD_REACTORS
330
61E
102
}
330
61E
100
AcDbDictionary
281
     1
  0
DICTIONARY
  5
621
102
{ACAD_REACTORS
330
61E
102
}
330
61E
100
AcDbDictionary
281
     1
1001
ACAD
1000
<All
  0
XRECORD
  5
BD3
102
{ACAD_REACTORS
330
BD2
102
}
330
BD2
100
AcDbXrecord
280
     1
290
     1
  0
XRECORD
  5
BD5
102
{ACAD_REACTORS
330
BD4
102
}
330
BD4
100
AcDbXrecord
280
     1
290
     1
  0
XRECORD
  5
BD7
102
{ACAD_REACTORS
330
BD6
102
}
330
BD6
100
AcDbXrecord
280
     1
290
     1
  0
SORTENTSTABLE
  5
F25
102
{ACAD_REACTORS
330
F24
102
}
330
F24
100
AcDbSortentsTable
330
1F
331
448
  5
448
331
CD4
  5
CD4
331
D0B
  5
D0B
331
450
  5
450
331
D4A
  5
D4A
331
CDC
  5
CDC
331
D13
  5
D13
331
CE4
  5
CE4
331
D1B
  5
D1B
331
D23
  5
D23
331
CEC
  5
CEC
331
CF4
  5
CF4
331
D2B
  5
D2B
331
CFC
  5
CFC
331
D33
  5
D33
331
441
  5
441
331
D04
  5
D04
331
D3B
  5
D3B
331
D43
  5
D43
331
CCD
  5
CCD
331
449
  5
449
331
451
  5
451
331
CD5
  5
CD5
331
D0C
  5
D0C
331
CDD
  5
CDD
331
D14
  5
D14
331
CE5
  5
CE5
331
D1C
  5
D1C
331
CED
  5
CED
331
D24
  5
D24
331
CF5
  5
CF5
331
D2C
  5
D2C
331
D34
  5
D34
331
CFD
  5
CFD
331
442
  5
442
331
D05
  5
D05
331
D3C
  5
D3C
331
CCE
  5
CCE
331
D44
  5
D44
331
44A
  5
44A
331
CD6
  5
CD6
331
D0D
  5
D0D
331
B41
  5
B41
331
CDE
  5
CDE
331
D15
  5
D15
331
CE6
  5
CE6
331
D1D
  5
D1D
331
CEE
  5
CEE
331
D25
  5
D25
331
CF6
  5
CF6
331
D2D
  5
D2D
331
CFE
  5
CFE
331
D35
  5
D35
331
443
  5
443
331
D06
  5
D06
331
D3D
  5
D3D
331
D45
  5
D45
331
CCF
  5
CCF
331
44B
  5
44B
331
453
  5
453
331
CD7
  5
CD7
331
D0E
  5
D0E
331
CDF
  5
CDF
331
D16
  5
D16
331
CE7
  5
CE7
331
D1E
  5
D1E
331
50B
  5
50B
331
CEF
  5
CEF
331
D26
  5
D26
331
CF7
  5
CF7
331
D2E
  5
D2E
331
CFF
  5
CFF
331
D36
  5
D36
331
D07
  5
D07
331
D3E
  5
D3E
331
F05
  5
F05
331
444
  5
444
331
CC8
  5
CC8
331
D46
  5
D46
331
CD0
  5
CD0
331
44C
  5
44C
331
CD8
  5
CD8
331
D0F
  5
D0F
331
454
  5
454
331
CE0
  5
CE0
331
D17
  5
D17
331
CE8
  5
CE8
331
D1F
  5
D1F
331
D27
  5
D27
331
CF0
  5
CF0
331
CF8
  5
CF8
331
D2F
  5
D2F
331
43D
  5
43D
331
D00
  5
D00
331
D37
  5
D37
331
F06
  5
F06
331
CC9
  5
CC9
331
445
  5
445
331
D3F
  5
D3F
331
D47
  5
D47
331
CD1
  5
CD1
331
D08
  5
D08
331
44D
  5
44D
331
D10
  5
D10
331
455
  5
455
331
CD9
  5
CD9
331
CE1
  5
CE1
331
D18
  5
D18
331
CE9
  5
CE9
331
D20
  5
D20
331
CF1
  5
CF1
331
D28
  5
D28
331
CF9
  5
CF9
331
D30
  5
D30
331
D01
  5
D01
331
D38
  5
D38
331
43E
  5
43E
331
F07
  5
F07
331
D40
  5
D40
331
446
  5
446
331
CCA
  5
CCA
331
CD2
  5
CD2
331
D09
  5
D09
331
44E
  5
44E
331
D48
  5
D48
331
CDA
  5
CDA
331
D11
  5
D11
331
456
  5
456
331
CE2
  5
CE2
331
D19
  5
D19
331
D21
  5
D21
331
CEA
  5
CEA
331
CF2
  5
CF2
331
D29
  5
D29
331
CFA
  5
CFA
331
D31
  5
D31
331
43F
  5
43F
331
D02
  5
D02
331
D39
  5
D39
331
D41
  5
D41
331
CCB
  5
CCB
331
447
  5
447
331
D49
  5
D49
331
CD3
  5
CD3
331
D0A
  5
D0A
331
44F
  5
44F
331
D12
  5
D12
331
457
  5
457
331
CDB
  5
CDB
331
CE3
  5
CE3
331
D1A
  5
D1A
331
CEB
  5
CEB
331
D22
  5
D22
331
CF3
  5
CF3
331
D2A
  5
D2A
331
D32
  5
D32
331
CFB
  5
CFB
331
440
  5
440
331
D03
  5
D03
331
D3A
  5
D3A
331
CCC
  5
CCC
331
D42
  5
D42
  0
SORTENTSTABLE
  5
40B
102
{ACAD_REACTORS
330
40A
102
}
330
40A
100
AcDbSortentsTable
330
409
331
410
  5
69
331
40E
  5
6B
331
40F
  5
6D
331
40D
  5
6A
  0
XRECORD
  5
1B3B
102
{ACAD_REACTORS
330
1B3A
102
}
330
1B3A
100
AcDbXrecord
280
     1
 40
7305.0
  1
\A1;\U+22050.183
  0
XRECORD
  5
1B3F
102
{ACAD_REACTORS
330
1B3E
102
}
330
1B3E
100
AcDbXrecord
280
     1
 40
7303.0
  1
\A1;\U+22050.282
  0
XRECORD
  5
1B43
102
{ACAD_REACTORS
330
1B42
102
}
330
1B42
100
AcDbXrecord
280
     1
 40
7229.0
  1
\A1;\U+22050.223
  0
XRECORD
  5
1B41
102
{ACAD_REACTORS
330
1B40
102
}
330
1B40
100
AcDbXrecord
280
     1
 40
7304.0
  1
\A1;\U+22051.155
  0
XRECORD
  5
1B45
102
{ACAD_REACTORS
330
1B44
102
}
330
1B44
100
AcDbXrecord
280
     1
 40
7263.0
  1
\A1;\U+22051.720
  0
LAYOUT
  5
1E
102
{ACAD_REACTORS
330
1A
102
}
330
1A
100
AcDbPlotSettings
  1

  2
none_device
  4

  6

 40
0.0
 41
0.0
 42
0.0
 43
0.0
 44
0.0
 45
0.0
 46
0.0
 47
0.0
 48
0.0
 49
0.0
140
0.0
141
0.0
142
1.0
143
1.0
 70
   688
 72
     0
 73
     0
 74
     5
  7

 75
    16
147
1.0
 76
     0
 77
     2
 78
   300
148
0.0
149
0.0
100
AcDbLayout
  1
Layout1
 70
     1
 71
     1
 10
0.0
 20
0.0
 11
12.0
 21
9.0
 12
0.0
 22
0.0
 32
0.0
 14
1.000000000000000E+20
 24
1.000000000000000E+20
 34
1.000000000000000E+20
 15
-1.000000000000000E+20
 25
-1.000000000000000E+20
 35
-1.000000000000000E+20
146
0.0
 13
0.0
 23
0.0
 33
0.0
 16
1.0
 26
0.0
 36
0.0
 17
0.0
 27
1.0
 37
0.0
 76
     0
330
1B
  0
LAYOUT
  5
26
102
{ACAD_REACTORS
330
1A
102
}
330
1A
100
AcDbPlotSettings
  1

  2
none_device
  4

  6

 40
0.0
 41
0.0
 42
0.0
 43
0.0
 44
0.0
 45
0.0
 46
0.0
 47
0.0
 48
0.0
 49
0.0
140
0.0
141
0.0
142
1.0
143
1.0
 70
   688
 72
     0
 73
     0
 74
     5
  7

 75
    16
147
1.0
 76
     0
 77
     2
 78
   300
148
0.0
149
0.0
100
AcDbLayout
  1
Layout2
 70
     1
 71
     2
 10
0.0
 20
0.0
 11
0.0
 21
0.0
 12
0.0
 22
0.0
 32
0.0
 14
0.0
 24
0.0
 34
0.0
 15
0.0
 25
0.0
 35
0.0
146
0.0
 13
0.0
 23
0.0
 33
0.0
 16
1.0
 26
0.0
 36
0.0
 17
0.0
 27
1.0
 37
0.0
 76
     0
330
23
  0
LAYOUT
  5
22
102
{ACAD_REACTORS
330
1A
102
}
330
1A
100
AcDbPlotSettings
  1

  2
none_device
  4
Letter_(8.50_x_11.00_Inches)
  6

 40
6.349999904632568
 41
6.349999904632568
 42
6.350006103515625
 43
6.350006103515625
 44
215.8999938964844
 45
279.3999938964844
 46
0.0
 47
0.0
 48
0.0
 49
0.0
140
0.0
141
0.0
142
1.0
143
2.383658744906425
 70
 11952
 72
     0
 73
     1
 74
     0
  7

 75
     0
147
0.4195231394329716
 76
     0
 77
     2
 78
   300
148
135.2900774710282
149
-27.52084133435472
100
AcDbLayout
  1
Model
 70
     1
 71
     0
 10
0.0
 20
0.0
 11
16.53543307086614
 21
11.69291338582677
 12
0.0
 22
0.0
 32
0.0
 14
0.0
 24
0.0
 34
0.0
 15
16.53543307086614
 25
11.69291338582677
 35
0.0
146
0.0
 13
0.0
 23
0.0
 33
0.0
 16
1.0
 26
0.0
 36
0.0
 17
0.0
 27
1.0
 37
0.0
 76
     0
330
1F
331
29
1001
ACAD_PSEXT
1000
None
1000
None
1000
Not applicable
1000
The layout will not be plotted unless a new plotter configuration name is selected.
1070
     0
  0
MATERIAL
  5
E9
102
{ACAD_XDICTIONARY
360
1B0F
102
}
102
{ACAD_REACTORS
330
E7
102
}
330
E7
100
AcDbMaterial
  1
ByBlock
 73
     1
 78
     1
172
     1
176
     1
270
     1
274
     1
  0
MATERIAL
  5
E8
102
{ACAD_XDICTIONARY
360
1B0D
102
}
102
{ACAD_REACTORS
330
E7
102
}
330
E7
100
AcDbMaterial
  1
ByLayer
 73
     1
 78
     1
172
     1
176
     1
270
     1
274
     1
  0
MATERIAL
  5
EA
102
{ACAD_XDICTIONARY
360
1B11
102
}
102
{ACAD_REACTORS
330
E7
102
}
330
E7
100
AcDbMaterial
  1
Global
 73
     1
 78
     1
172
     1
176
     1
270
     1
274
     1
  0
MLEADERSTYLE
  5
BCD
102
{ACAD_REACTORS
330
BCC
102
}
330
BCC
100
AcDbMLeaderStyle
170
     2
171
     1
172
     0
 90
        2
 40
0.0
 41
0.0
173
     1
 91
-1056964608
340
14
 92
       -2
290
     1
 42
0.09
291
     1
 43
0.36
  3
Standard
 44
0.18
300

342
11
174
     1
178
     6
175
     1
176
     0
 93
-1056964608
 45
0.18
292
     0
297
     0
 46
0.18
 94
-1056964608
 47
1.0
 49
1.0
140
1.0
293
     1
141
0.0
294
     1
177
     0
142
1.0
295
     0
296
     0
143
0.125
1001
ACAD_MLEADERVER
1070
     2
  0
MLINESTYLE
  5
18
102
{ACAD_REACTORS
330
17
102
}
330
17
100
AcDbMlineStyle
  2
STANDARD
 70
     0
  3

 62
   256
 51
90.0
 52
90.0
 71
     2
 49
0.5
 62
   256
  6
BYLAYER
 49
-0.5
 62
   256
  6
BYLAYER
  0
PLOTSETTINGS
  5
B81
102
{ACAD_REACTORS
330
19
102
}
330
19
100
AcDbPlotSettings
  1
JPG
  2
PublishToWeb JPG.pc3
  4
User-1
  6

 40
75.0
 41
75.0
 42
75.000244140625
 43
75.000244140625
 44
2550.0
 45
3300.0
 46
7.281523769336445
 47
0.0
 48
0.0
 49
0.0
140
10.9445450537913
141
8.288102079570146
142
1.0
143
0.0034744590165231
 70
 11956
 72
     2
 73
     1
 74
     4
  7

 75
     0
147
287.8145907735273
 76
     0
 77
     2
 78
   300
148
0.0
149
0.0
1001
ACAD_PSEXT
1000
PublishToWeb JPG.pc3
1000
Independent JPEG Group JFIF (JPEG Compression)
1000
File
1000

1070
     0
  0
PLOTSETTINGS
  5
B78
102
{ACAD_REACTORS
330
19
102
}
330
19
100
AcDbPlotSettings
  1
PDF
  2
DWG To PDF.pc3
  4
ISO_expand_A1_(841.00_x_594.00_MM)
  6

 40
5.793749809265136
 41
10.79374980926513
 42
5.79376220703125
 43
10.79376220703125
 44
841.0
 45
594.0
 46
36.76722948979278
 47
0.0
 48
0.0
 49
0.0
140
10.9445450537913
141
8.288102079570146
142
1.0
143
0.014479247489454
 70
 11956
 72
     1
 73
     0
 74
     4
  7

 75
     0
147
69.06436268378962
 76
     0
 77
     2
 78
   300
148
0.0
149
0.0
1001
ACAD_PSEXT
1000
DWG To PDF.pc3
1000
PDF
1000
File
1000

1070
     0
  0
ACDBPLACEHOLDER
  5
F
102
{ACAD_REACTORS
330
E
102
}
330
E
  0
SCALE
  5
BAB
102
{ACAD_REACTORS
330
BAA
102
}
330
BAA
100
AcDbScale
 70
     0
300
1:1
140
1.0
141
1.0
290
     1
  0
SCALE
  5
BAC
102
{ACAD_REACTORS
330
BAA
102
}
330
BAA
100
AcDbScale
 70
     0
300
1:2
140
1.0
141
2.0
290
     0
  0
SCALE
  5
BAD
102
{ACAD_REACTORS
330
BAA
102
}
330
BAA
100
AcDbScale
 70
     0
300
1:4
140
1.0
141
4.0
290
     0
  0
SCALE
  5
BAE
102
{ACAD_REACTORS
330
BAA
102
}
330
BAA
100
AcDbScale
 70
     0
300
1:5
140
1.0
141
5.0
290
     0
  0
SCALE
  5
BAF
102
{ACAD_REACTORS
330
BAA
102
}
330
BAA
100
AcDbScale
 70
     0
300
1:8
140
1.0
141
8.0
290
     0
  0
SCALE
  5
BB0
102
{ACAD_REACTORS
330
BAA
102
}
330
BAA
100
AcDbScale
 70
     0
300
1:10
140
1.0
141
10.0
290
     0
  0
SCALE
  5
BB1
102
{ACAD_REACTORS
330
BAA
102
}
330
BAA
100
AcDbScale
 70
     0
300
1:16
140
1.0
141
16.0
290
     0
  0
SCALE
  5
BB2
102
{ACAD_REACTORS
330
BAA
102
}
330
BAA
100
AcDbScale
 70
     0
300
1:20
140
1.0
141
20.0
290
     0
  0
SCALE
  5
BB3
102
{ACAD_REACTORS
330
BAA
102
}
330
BAA
100
AcDbScale
 70
     0
300
1:30
140
1.0
141
30.0
290
     0
  0
SCALE
  5
BB4
102
{ACAD_REACTORS
330
BAA
102
}
330
BAA
100
AcDbScale
 70
     0
300
1:40
140
1.0
141
40.0
290
     0
  0
SCALE
  5
BB5
102
{ACAD_REACTORS
330
BAA
102
}
330
BAA
100
AcDbScale
 70
     0
300
1:50
140
1.0
141
50.0
290
     0
  0
SCALE
  5
BB6
102
{ACAD_REACTORS
330
BAA
102
}
330
BAA
100
AcDbScale
 70
     0
300
1:100
140
1.0
141
100.0
290
     0
  0
SCALE
  5
BB7
102
{ACAD_REACTORS
330
BAA
102
}
330
BAA
100
AcDbScale
 70
     0
300
2:1
140
2.0
141
1.0
290
     0
  0
SCALE
  5
BB8
102
{ACAD_REACTORS
330
BAA
102
}
330
BAA
100
AcDbScale
 70
     0
300
4:1
140
4.0
141
1.0
290
     0
  0
SCALE
  5
BB9
102
{ACAD_REACTORS
330
BAA
102
}
330
BAA
100
AcDbScale
 70
     0
300
8:1
140
8.0
141
1.0
290
     0
  0
SCALE
  5
BBA
102
{ACAD_REACTORS
330
BAA
102
}
330
BAA
100
AcDbScale
 70
     0
300
10:1
140
10.0
141
1.0
290
     0
  0
SCALE
  5
BBB
102
{ACAD_REACTORS
330
BAA
102
}
330
BAA
100
AcDbScale
 70
     0
300
100:1
140
100.0
141
1.0
290
     0
  0
SCALE
  5
BBC
102
{ACAD_REACTORS
330
BAA
102
}
330
BAA
100
AcDbScale
 70
     0
300
1/128" = 1'-0"
140
0.0078125
141
12.0
290
     0
  0
SCALE
  5
BBD
102
{ACAD_REACTORS
330
BAA
102
}
330
BAA
100
AcDbScale
 70
     0
300
1/64" = 1'-0"
140
0.015625
141
12.0
290
     0
  0
SCALE
  5
BBE
102
{ACAD_REACTORS
330
BAA
102
}
330
BAA
100
AcDbScale
 70
     0
300
1/32" = 1'-0"
140
0.03125
141
12.0
290
     0
  0
SCALE
  5
BBF
102
{ACAD_REACTORS
330
BAA
102
}
330
BAA
100
AcDbScale
 70
     0
300
1/16" = 1'-0"
140
0.0625
141
12.0
290
     0
  0
SCALE
  5
BC0
102
{ACAD_REACTORS
330
BAA
102
}
330
BAA
100
AcDbScale
 70
     0
300
3/32" = 1'-0"
140
0.09375
141
12.0
290
     0
  0
SCALE
  5
BC1
102
{ACAD_REACTORS
330
BAA
102
}
330
BAA
100
AcDbScale
 70
     0
300
1/8" = 1'-0"
140
0.125
141
12.0
290
     0
  0
SCALE
  5
BC2
102
{ACAD_REACTORS
330
BAA
102
}
330
BAA
100
AcDbScale
 70
     0
300
3/16" = 1'-0"
140
0.1875
141
12.0
290
     0
  0
SCALE
  5
BC3
102
{ACAD_REACTORS
330
BAA
102
}
330
BAA
100
AcDbScale
 70
     0
300
1/4" = 1'-0"
140
0.25
141
12.0
290
     0
  0
SCALE
  5
BC4
102
{ACAD_REACTORS
330
BAA
102
}
330
BAA
100
AcDbScale
 70
     0
300
3/8" = 1'-0"
140
0.375
141
12.0
290
     0
  0
SCALE
  5
BC5
102
{ACAD_REACTORS
330
BAA
102
}
330
BAA
100
AcDbScale
 70
     0
300
1/2" = 1'-0"
140
0.5
141
12.0
290
     0
  0
SCALE
  5
BC6
102
{ACAD_REACTORS
330
BAA
102
}
330
BAA
100
AcDbScale
 70
     0
300
3/4" = 1'-0"
140
0.75
141
12.0
290
     0
  0
SCALE
  5
BC7
102
{ACAD_REACTORS
330
BAA
102
}
330
BAA
100
AcDbScale
 70
     0
300
1" = 1'-0"
140
1.0
141
12.0
290
     0
  0
SCALE
  5
BC8
102
{ACAD_REACTORS
330
BAA
102
}
330
BAA
100
AcDbScale
 70
     0
300
1-1/2" = 1'-0"
140
1.5
141
12.0
290
     0
  0
SCALE
  5
BC9
102
{ACAD_REACTORS
330
BAA
102
}
330
BAA
100
AcDbScale
 70
     0
300
3" = 1'-0"
140
3.0
141
12.0
290
     0
  0
SCALE
  5
BCA
102
{ACAD_REACTORS
330
BAA
102
}
330
BAA
100
AcDbScale
 70
     0
300
6" = 1'-0"
140
6.0
141
12.0
290
     0
  0
SCALE
  5
BCB
102
{ACAD_REACTORS
330
BAA
102
}
330
BAA
100
AcDbScale
 70
     0
300
1'-0" = 1'-0"
140
12.0
141
12.0
290
     0
  0
TABLESTYLE
  5
FE
102
{ACAD_XDICTIONARY
360
BD8
102
}
102
{ACAD_REACTORS
330
FD
102
}
330
FD
100
AcDbTableStyle
  3
Standard
 70
     0
 71
     0
 40
0.06
 41
0.06
280
     0
281
     0
  7
Standard
140
0.18
170
     2
 62
     0
 63
     7
283
     0
274
    -2
284
     1
 64
     0
275
    -2
285
     1
 65
     0
276
    -2
286
     1
 66
     0
277
    -2
287
     1
 67
     0
278
    -2
288
     1
 68
     0
279
    -2
289
     1
 69
     0
  7
Standard
140
0.25
170
     5
 62
     0
 63
     7
283
     0
274
    -2
284
     1
 64
     0
275
    -2
285
     1
 65
     0
276
    -2
286
     1
 66
     0
277
    -2
287
     1
 67
     0
278
    -2
288
     1
 68
     0
279
    -2
289
     1
 69
     0
  7
Standard
140
0.18
170
     5
 62
     0
 63
     7
283
     0
274
    -2
284
     1
 64
     0
275
    -2
285
     1
 65
     0
276
    -2
286
     1
 66
     0
277
    -2
287
     1
 67
     0
278
    -2
288
     1
 68
     0
279
    -2
289
     1
 69
     0
  0
VISUALSTYLE
  5
F1
102
{ACAD_XDICTIONARY
360
1B1D
102
}
102
{ACAD_REACTORS
330
EB
102
}
330
EB
100
AcDbVisualStyle
  2
2dWireframe
 70
     4
 71
     0
 72
     2
 73
     0
 90
        0
 40
-0.6
 41
-30.0
 62
     5
 63
     7
 74
     1
 91
        4
 64
     7
 65
   257
 75
     1
175
     1
 42
1.0
 92
        0
 66
   257
 43
1.0
 76
     1
 77
     6
 78
     2
 67
     7
 79
     5
170
     0
171
     0
290
     0
174
     0
 93
        1
 44
0.0
173
     0
291
     0
 45
0.0
1001
ACAD
1000
AcDbSavedByObjectVersion
1070
     0
  0
VISUALSTYLE
  5
F3
102
{ACAD_XDICTIONARY
360
1B21
102
}
102
{ACAD_REACTORS
330
EB
102
}
330
EB
100
AcDbVisualStyle
  2
3D Hidden
 70
     6
 71
     1
 72
     2
 73
     2
 90
        0
 40
-0.6
 41
-30.0
 62
     5
 63
     7
 74
     2
 91
        2
 64
     7
 65
   257
 75
     2
175
     1
 42
40.0
 92
        0
 66
   257
 43
1.0
 76
     1
 77
     6
 78
     2
 67
     7
 79
     3
170
     0
171
     0
290
     0
174
     0
 93
        1
 44
0.0
173
     0
291
     0
 45
0.0
1001
ACAD
1000
AcDbSavedByObjectVersion
1070
     0
  0
VISUALSTYLE
  5
F2
102
{ACAD_XDICTIONARY
360
1B1F
102
}
102
{ACAD_REACTORS
330
EB
102
}
330
EB
100
AcDbVisualStyle
  2
3dWireframe
 70
     5
 71
     0
 72
     2
 73
     0
 90
        0
 40
-0.6
 41
-30.0
 62
     5
 63
     7
 74
     1
 91
        4
 64
     7
 65
   257
 75
     1
175
     1
 42
1.0
 92
        0
 66
   257
 43
1.0
 76
     1
 77
     6
 78
     2
 67
     7
 79
     5
170
     0
171
     0
290
     0
174
     0
 93
        1
 44
0.0
173
     0
291
     0
 45
0.0
1001
ACAD
1000
AcDbSavedByObjectVersion
1070
     0
  0
VISUALSTYLE
  5
F0
102
{ACAD_XDICTIONARY
360
1B1B
102
}
102
{ACAD_REACTORS
330
EB
102
}
330
EB
100
AcDbVisualStyle
  2
Basic
 70
     7
 71
     1
 72
     0
 73
     1
 90
        0
 40
-0.6
 41
-30.0
 62
     5
 63
     7
 74
     0
 91
        4
 64
     7
 65
   257
 75
     1
175
     1
 42
1.0
 92
        8
 66
     7
 43
1.0
 76
     1
 77
     6
 78
     2
 67
     7
 79
     5
170
     0
171
     0
290
     0
174
     0
 93
        1
 44
0.0
173
     0
291
     1
 45
0.0
1001
ACAD
1000
AcDbSavedByObjectVersion
1070
     0
  0
VISUALSTYLE
  5
F7
102
{ACAD_XDICTIONARY
360
1B29
102
}
102
{ACAD_REACTORS
330
EB
102
}
330
EB
100
AcDbVisualStyle
  2
Brighten
 70
    12
 71
     2
 72
     2
 73
     0
 90
        0
 40
-0.6
 41
-30.0
 62
     5
 63
     7
 74
     1
 91
        4
 64
     7
 65
   257
 75
     1
175
     1
 42
1.0
 92
        8
 66
     7
 43
1.0
 76
     1
 77
     6
 78
     2
 67
     7
 79
     5
170
     0
171
     0
290
     0
174
     0
 93
        1
 44
50.0
173
     0
291
     1
 45
0.0
1001
ACAD
1000
AcDbSavedByObjectVersion
1070
     0
  0
VISUALSTYLE
  5
FB
102
{ACAD_XDICTIONARY
360
1B31
102
}
102
{ACAD_REACTORS
330
EB
102
}
330
EB
100
AcDbVisualStyle
  2
ColorChange
 70
    16
 71
     2
 72
     2
 73
     3
 90
        0
 40
-0.6
 41
-30.0
 62
     5
 63
     8
 74
     1
 91
        4
 64
     7
 65
   257
 75
     1
175
     1
 42
1.0
 92
        8
 66
     8
 43
1.0
 76
     1
 77
     6
 78
     2
 67
     7
 79
     5
170
     0
171
     0
290
     0
174
     0
 93
        1
 44
0.0
173
     0
291
     1
 45
0.0
1001
ACAD
1000
AcDbSavedByObjectVersion
1070
     0
  0
VISUALSTYLE
  5
F4
102
{ACAD_XDICTIONARY
360
1B23
102
}
102
{ACAD_REACTORS
330
EB
102
}
330
EB
100
AcDbVisualStyle
  2
Conceptual
 70
     9
 71
     3
 72
     2
 73
     0
 90
        0
 40
-0.6
 41
-30.0
 62
     5
 63
     7
 74
     2
 91
        2
 64
     7
 65
   257
 75
     1
175
     1
 42
40.0
 92
        8
 66
     7
 43
1.0
 76
     1
 77
     6
 78
     2
 67
     7
 79
     3
170
     0
171
     0
290
     0
174
     0
 93
        1
 44
0.0
173
     0
291
     0
 45
0.0
1001
ACAD
1000
AcDbSavedByObjectVersion
1070
     0
  0
VISUALSTYLE
  5
F6
102
{ACAD_XDICTIONARY
360
1B27
102
}
102
{ACAD_REACTORS
330
EB
102
}
330
EB
100
AcDbVisualStyle
  2
Dim
 70
    11
 71
     2
 72
     2
 73
     0
 90
        0
 40
-0.6
 41
-30.0
 62
     5
 63
     7
 74
     1
 91
        4
 64
     7
 65
   257
 75
     1
175
     1
 42
1.0
 92
        8
 66
     7
 43
1.0
 76
     1
 77
     6
 78
     2
 67
     7
 79
     5
170
     0
171
     0
290
     0
174
     0
 93
        1
 44
-50.0
173
     0
291
     1
 45
0.0
1001
ACAD
1000
AcDbSavedByObjectVersion
1070
     0
  0
VISUALSTYLE
  5
BA9
102
{ACAD_XDICTIONARY
360
1B38
102
}
102
{ACAD_REACTORS
330
EB
102
}
330
EB
100
AcDbVisualStyle
  2
EdgeColorOff
 70
    22
 71
     2
 72
     2
 73
     0
 90
        0
 40
-0.6
 41
-30.0
 62
     5
 63
     7
 74
     1
 91
        4
 64
     7
 65
   257
 75
     1
175
     1
 42
1.0
 92
        8
 66
     7
 43
1.0
 76
     1
 77
     6
 78
     2
 67
     7
 79
     5
170
     0
171
     0
290
     0
174
     0
 93
        1
 44
0.0
173
     0
291
     1
 45
0.0
1001
ACAD
1000
AcDbSavedByObjectVersion
1070
     0
  0
VISUALSTYLE
  5
FA
102
{ACAD_XDICTIONARY
360
1B2F
102
}
102
{ACAD_REACTORS
330
EB
102
}
330
EB
100
AcDbVisualStyle
  2
Facepattern
 70
    15
 71
     2
 72
     2
 73
     0
 90
        0
 40
-0.6
 41
-30.0
 62
     5
 63
     7
 74
     1
 91
        4
 64
     7
 65
   257
 75
     1
175
     1
 42
1.0
 92
        8
 66
     7
 43
1.0
 76
     1
 77
     6
 78
     2
 67
     7
 79
     5
170
     0
171
     0
290
     0
174
     0
 93
        1
 44
0.0
173
     0
291
     1
 45
0.0
1001
ACAD
1000
AcDbSavedByObjectVersion
1070
     0
  0
VISUALSTYLE
  5
EC
102
{ACAD_XDICTIONARY
360
1B13
102
}
102
{ACAD_REACTORS
330
EB
102
}
330
EB
100
AcDbVisualStyle
  2
Flat
 70
     0
 71
     2
 72
     1
 73
     1
 90
        2
 40
-0.6
 41
30.0
 62
     5
 63
     7
 74
     0
 91
        4
 64
     7
 65
   257
 75
     1
175
     1
 42
1.0
 92
        8
 66
     7
 43
1.0
 76
     1
 77
     6
 78
     2
 67
     7
 79
     5
170
     0
171
     0
290
     0
174
     0
 93
       13
 44
0.0
173
     0
291
     1
 45
0.0
1001
ACAD
1000
AcDbSavedByObjectVersion
1070
     0
  0
VISUALSTYLE
  5
ED
102
{ACAD_XDICTIONARY
360
1B15
102
}
102
{ACAD_REACTORS
330
EB
102
}
330
EB
100
AcDbVisualStyle
  2
FlatWithEdges
 70
     1
 71
     2
 72
     1
 73
     1
 90
        2
 40
-0.6
 41
30.0
 62
     5
 63
     7
 74
     1
 91
        4
 64
     7
 65
   257
 75
     1
175
     1
 42
1.0
 92
        0
 66
   257
 43
1.0
 76
     1
 77
     6
 78
     2
 67
     7
 79
     5
170
     0
171
     0
290
     0
174
     0
 93
       13
 44
0.0
173
     0
291
     1
 45
0.0
1001
ACAD
1000
AcDbSavedByObjectVersion
1070
     0
  0
VISUALSTYLE
  5
EE
102
{ACAD_XDICTIONARY
360
1B17
102
}
102
{ACAD_REACTORS
330
EB
102
}
330
EB
100
AcDbVisualStyle
  2
Gouraud
 70
     2
 71
     2
 72
     2
 73
     1
 90
        2
 40
-0.6
 41
30.0
 62
     5
 63
     7
 74
     0
 91
        4
 64
     7
 65
   257
 75
     1
175
     1
 42
1.0
 92
        0
 66
     7
 43
1.0
 76
     1
 77
     6
 78
     2
 67
     7
 79
     5
170
     0
171
     0
290
     0
174
     0
 93
       13
 44
0.0
173
     0
291
     1
 45
0.0
1001
ACAD
1000
AcDbSavedByObjectVersion
1070
     0
  0
VISUALSTYLE
  5
EF
102
{ACAD_XDICTIONARY
360
1B19
102
}
102
{ACAD_REACTORS
330
EB
102
}
330
EB
100
AcDbVisualStyle
  2
GouraudWithEdges
 70
     3
 71
     2
 72
     2
 73
     1
 90
        2
 40
-0.6
 41
30.0
 62
     5
 63
     7
 74
     1
 91
        4
 64
     7
 65
   257
 75
     1
175
     1
 42
1.0
 92
        0
 66
   257
 43
1.0
 76
     1
 77
     6
 78
     2
 67
     7
 79
     5
170
     0
171
     0
290
     0
174
     0
 93
       13
 44
0.0
173
     0
291
     1
 45
0.0
1001
ACAD
1000
AcDbSavedByObjectVersion
1070
     0
  0
VISUALSTYLE
  5
BA7
102
{ACAD_XDICTIONARY
360
1B34
102
}
102
{ACAD_REACTORS
330
EB
102
}
330
EB
100
AcDbVisualStyle
  2
JitterOff
 70
    20
 71
     2
 72
     2
 73
     0
 90
        0
 40
-0.6
 41
-30.0
 62
     5
 63
     7
 74
     1
 91
        4
 64
     7
 65
   257
 75
     1
175
     1
 42
1.0
 92
       10
 66
     7
 43
1.0
 76
     1
 77
     6
 78
     2
 67
     7
 79
     5
170
     0
171
     0
290
     0
174
     0
 93
        1
 44
0.0
173
     0
291
     1
 45
0.0
1001
ACAD
1000
AcDbSavedByObjectVersion
1070
     0
  0
VISUALSTYLE
  5
F9
102
{ACAD_XDICTIONARY
360
1B2D
102
}
102
{ACAD_REACTORS
330
EB
102
}
330
EB
100
AcDbVisualStyle
  2
Linepattern
 70
    14
 71
     2
 72
     2
 73
     0
 90
        0
 40
-0.6
 41
-30.0
 62
     5
 63
     7
 74
     1
 91
        4
 64
     7
 65
   257
 75
     7
175
     7
 42
1.0
 92
        8
 66
     7
 43
1.0
 76
     1
 77
     6
 78
     2
 67
     7
 79
     5
170
     0
171
     0
290
     0
174
     0
 93
        1
 44
0.0
173
     0
291
     1
 45
0.0
1001
ACAD
1000
AcDbSavedByObjectVersion
1070
     0
  0
VISUALSTYLE
  5
BA8
102
{ACAD_XDICTIONARY
360
1B36
102
}
102
{ACAD_REACTORS
330
EB
102
}
330
EB
100
AcDbVisualStyle
  2
OverhangOff
 70
    21
 71
     2
 72
     2
 73
     0
 90
        0
 40
-0.6
 41
-30.0
 62
     5
 63
     7
 74
     1
 91
        4
 64
     7
 65
   257
 75
     1
175
     1
 42
1.0
 92
        9
 66
     7
 43
1.0
 76
     1
 77
     6
 78
     2
 67
     7
 79
     5
170
     0
171
     0
290
     0
174
     0
 93
        1
 44
0.0
173
     0
291
     1
 45
0.0
1001
ACAD
1000
AcDbSavedByObjectVersion
1070
     0
  0
VISUALSTYLE
  5
F5
102
{ACAD_XDICTIONARY
360
1B25
102
}
102
{ACAD_REACTORS
330
EB
102
}
330
EB
100
AcDbVisualStyle
  2
Realistic
 70
     8
 71
     2
 72
     2
 73
     0
 90
        0
 40
-0.6
 41
-30.0
 62
     5
 63
     7
 74
     1
 91
        0
 64
     7
 65
   257
 75
     1
175
     1
 42
1.0
 92
        8
 66
     8
 43
1.0
 76
     1
 77
     6
 78
     2
 67
     7
 79
     5
170
     0
171
     0
290
     0
174
     0
 93
       13
 44
0.0
173
     0
291
     0
 45
0.0
1001
ACAD
1000
AcDbSavedByObjectVersion
1070
     0
  0
VISUALSTYLE
  5
F8
102
{ACAD_XDICTIONARY
360
1B2B
102
}
102
{ACAD_REACTORS
330
EB
102
}
330
EB
100
AcDbVisualStyle
  2
Thicken
 70
    13
 71
     2
 72
     2
 73
     0
 90
        0
 40
-0.6
 41
-30.0
 62
     5
 63
     7
 74
     1
 91
        4
 64
     7
 65
   257
 75
     1
175
     1
 42
1.0
 92
       12
 66
     7
 43
1.0
 76
     1
 77
     6
 78
     2
 67
     7
 79
     5
170
     0
171
     0
290
     0
174
     0
 93
        1
 44
0.0
173
     0
291
     1
 45
0.0
1001
ACAD
1000
AcDbSavedByObjectVersion
1070
     0
  0
DICTIONARYVAR
  5
C16
102
{ACAD_REACTORS
330
3CB
102
}
330
3CB
100
DictionaryVariables
280
     0
  1
1:1
  0
DICTIONARYVAR
  5
C15
102
{ACAD_REACTORS
330
3CB
102
}
330
3CB
100
DictionaryVariables
280
     0
  1
STANDARD
  0
DICTIONARYVAR
  5
3CC
102
{ACAD_REACTORS
330
3CB
102
}
330
3CB
100
DictionaryVariables
280
     0
  1
STANDARD
  0
DICTIONARYVAR
  5
C1A
102
{ACAD_REACTORS
330
3CB
102
}
330
3CB
100
DictionaryVariables
280
     0
  1
1
  0
DICTIONARYVAR
  5
C18
102
{ACAD_REACTORS
330
3CB
102
}
330
3CB
100
DictionaryVariables
280
     0
  1
0
  0
DICTIONARYVAR
  5
C17
102
{ACAD_REACTORS
330
3CB
102
}
330
3CB
100
DictionaryVariables
280
     0
  1
127
  0
DICTIONARYVAR
  5
1B0A
102
{ACAD_REACTORS
330
3CB
102
}
330
3CB
100
DictionaryVariables
280
     0
  1
2
  0
DICTIONARY
  5
1B0F
330
E9
100
AcDbDictionary
280
     1
281
     1
  3
ACAD_XREC_ROUNDTRIP
360
1B10
  0
DICTIONARY
  5
1B0D
330
E8
100
AcDbDictionary
280
     1
281
     1
  3
ACAD_XREC_ROUNDTRIP
360
1B0E
  0
DICTIONARY
  5
1B11
330
EA
100
AcDbDictionary
280
     1
281
     1
  3
ACAD_XREC_ROUNDTRIP
360
1B12
  0
DICTIONARY
  5
BD8
330
FE
100
AcDbDictionary
280
     1
281
     1
  3
ACAD_ROUNDTRIP_2008_TABLESTYLE_CELLSTYLEMAP
360
1B0B
  3
ACAD_XREC_ROUNDTRIP
360
1B33
  0
DICTIONARY
  5
1B1D
330
F1
100
AcDbDictionary
280
     1
281
     1
  3
ACAD_XREC_ROUNDTRIP
360
1B1E
  0
DICTIONARY
  5
1B21
330
F3
100
AcDbDictionary
280
     1
281
     1
  3
ACAD_XREC_ROUNDTRIP
360
1B22
  0
DICTIONARY
  5
1B1F
330
F2
100
AcDbDictionary
280
     1
281
     1
  3
ACAD_XREC_ROUNDTRIP
360
1B20
  0
DICTIONARY
  5
1B1B
330
F0
100
AcDbDictionary
280
     1
281
     1
  3
ACAD_XREC_ROUNDTRIP
360
1B1C
  0
DICTIONARY
  5
1B29
330
F7
100
AcDbDictionary
280
     1
281
     1
  3
ACAD_XREC_ROUNDTRIP
360
1B2A
  0
DICTIONARY
  5
1B31
330
FB
100
AcDbDictionary
280
     1
281
     1
  3
ACAD_XREC_ROUNDTRIP
360
1B32
  0
DICTIONARY
  5
1B23
330
F4
100
AcDbDictionary
280
     1
281
     1
  3
ACAD_XREC_ROUNDTRIP
360
1B24
  0
DICTIONARY
  5
1B27
330
F6
100
AcDbDictionary
280
     1
281
     1
  3
ACAD_XREC_ROUNDTRIP
360
1B28
  0
DICTIONARY
  5
1B38
330
BA9
100
AcDbDictionary
280
     1
281
     1
  3
ACAD_XREC_ROUNDTRIP
360
1B39
  0
DICTIONARY
  5
1B2F
330
FA
100
AcDbDictionary
280
     1
281
     1
  3
ACAD_XREC_ROUNDTRIP
360
1B30
  0
DICTIONARY
  5
1B13
330
EC
100
AcDbDictionary
280
     1
281
     1
  3
ACAD_XREC_ROUNDTRIP
360
1B14
  0
DICTIONARY
  5
1B15
330
ED
100
AcDbDictionary
280
     1
281
     1
  3
ACAD_XREC_ROUNDTRIP
360
1B16
  0
DICTIONARY
  5
1B17
330
EE
100
AcDbDictionary
280
     1
281
     1
  3
ACAD_XREC_ROUNDTRIP
360
1B18
  0
DICTIONARY
  5
1B19
330
EF
100
AcDbDictionary
280
     1
281
     1
  3
ACAD_XREC_ROUNDTRIP
360
1B1A
  0
DICTIONARY
  5
1B34
330
BA7
100
AcDbDictionary
280
     1
281
     1
  3
ACAD_XREC_ROUNDTRIP
360
1B35
  0
DICTIONARY
  5
1B2D
330
F9
100
AcDbDictionary
280
     1
281
     1
  3
ACAD_XREC_ROUNDTRIP
360
1B2E
  0
DICTIONARY
  5
1B36
330
BA8
100
AcDbDictionary
280
     1
281
     1
  3
ACAD_XREC_ROUNDTRIP
360
1B37
  0
DICTIONARY
  5
1B25
330
F5
100
AcDbDictionary
280
     1
281
     1
  3
ACAD_XREC_ROUNDTRIP
360
1B26
  0
DICTIONARY
  5
1B2B
330
F8
100
AcDbDictionary
280
     1
281
     1
  3
ACAD_XREC_ROUNDTRIP
360
1B2C
  0
XRECORD
  5
1B10
102
{ACAD_REACTORS
330
1B0F
102
}
330
1B0F
100
AcDbXrecord
280
     1
102
MATERIAL
148
0.0
149
0.0
149
0.0
 93
        0
 94
       63
282
     0
 72
     1
 77
     1
171
     1
175
     1
179
     1
273
     0
  0
XRECORD
  5
1B0E
102
{ACAD_REACTORS
330
1B0D
102
}
330
1B0D
100
AcDbXrecord
280
     1
102
MATERIAL
148
0.0
149
0.0
149
0.0
 93
        0
 94
       63
282
     0
 72
     1
 77
     1
171
     1
175
     1
179
     1
273
     0
  0
XRECORD
  5
1B12
102
{ACAD_REACTORS
330
1B11
102
}
330
1B11
100
AcDbXrecord
280
     1
102
MATERIAL
148
0.0
149
0.0
149
0.0
 93
        0
 94
       63
282
     0
 72
     1
 77
     1
171
     1
175
     1
179
     1
273
     0
  0
CELLSTYLEMAP
  5
1B0B
102
{ACAD_REACTORS
330
BD8
102
}
330
BD8
100
AcDbCellStyleMap
 90
        3
300
CELLSTYLE
  1
TABLEFORMAT_BEGIN
 90
        5
170
     1
 91
        0
 92
    32768
 62
   257
 93
        1
300
CONTENTFORMAT
  1
CONTENTFORMAT_BEGIN
 90
        0
 91
        0
 92
      512
 93
        0
300

 40
0.0
140
1.0
 94
        5
 62
     0
340
11
144
0.25
309
CONTENTFORMAT_END
171
     0
 94
        6
 95
        1
302
GRIDFORMAT
  1
GRIDFORMAT_BEGIN
 90
        0
 91
        1
 62
     0
 92
       -2
340
0
 93
        0
 40
0.045
309
GRIDFORMAT_END
 95
        2
302
GRIDFORMAT
  1
GRIDFORMAT_BEGIN
 90
        0
 91
        1
 62
     0
 92
       -2
340
0
 93
        0
 40
0.045
309
GRIDFORMAT_END
 95
        4
302
GRIDFORMAT
  1
GRIDFORMAT_BEGIN
 90
        0
 91
        1
 62
     0
 92
       -2
340
0
 93
        0
 40
0.045
309
GRIDFORMAT_END
 95
        8
302
GRIDFORMAT
  1
GRIDFORMAT_BEGIN
 90
        0
 91
        1
 62
     0
 92
       -2
340
0
 93
        0
 40
0.045
309
GRIDFORMAT_END
 95
       16
302
GRIDFORMAT
  1
GRIDFORMAT_BEGIN
 90
        0
 91
        1
 62
     0
 92
       -2
340
0
 93
        0
 40
0.045
309
GRIDFORMAT_END
 95
       32
302
GRIDFORMAT
  1
GRIDFORMAT_BEGIN
 90
        0
 91
        1
 62
     0
 92
       -2
340
0
 93
        0
 40
0.045
309
GRIDFORMAT_END
309
TABLEFORMAT_END
  1
CELLSTYLE_BEGIN
 90
        1
 91
        1
300
_TITLE
309
CELLSTYLE_END
300
CELLSTYLE
  1
TABLEFORMAT_BEGIN
 90
        5
170
     1
 91
        0
 92
        0
 62
   257
 93
        1
300
CONTENTFORMAT
  1
CONTENTFORMAT_BEGIN
 90
        0
 91
        0
 92
      512
 93
        0
300

 40
0.0
140
1.0
 94
        5
 62
     0
340
11
144
0.18
309
CONTENTFORMAT_END
171
     0
 94
        6
 95
        1
302
GRIDFORMAT
  1
GRIDFORMAT_BEGIN
 90
        0
 91
        1
 62
     0
 92
       -2
340
0
 93
        0
 40
0.045
309
GRIDFORMAT_END
 95
        2
302
GRIDFORMAT
  1
GRIDFORMAT_BEGIN
 90
        0
 91
        1
 62
     0
 92
       -2
340
0
 93
        0
 40
0.045
309
GRIDFORMAT_END
 95
        4
302
GRIDFORMAT
  1
GRIDFORMAT_BEGIN
 90
        0
 91
        1
 62
     0
 92
       -2
340
0
 93
        0
 40
0.045
309
GRIDFORMAT_END
 95
        8
302
GRIDFORMAT
  1
GRIDFORMAT_BEGIN
 90
        0
 91
        1
 62
     0
 92
       -2
340
0
 93
        0
 40
0.045
309
GRIDFORMAT_END
 95
       16
302
GRIDFORMAT
  1
GRIDFORMAT_BEGIN
 90
        0
 91
        1
 62
     0
 92
       -2
340
0
 93
        0
 40
0.045
309
GRIDFORMAT_END
 95
       32
302
GRIDFORMAT
  1
GRIDFORMAT_BEGIN
 90
        0
 91
        1
 62
     0
 92
       -2
340
0
 93
        0
 40
0.045
309
GRIDFORMAT_END
309
TABLEFORMAT_END
  1
CELLSTYLE_BEGIN
 90
        2
 91
        1
300
_HEADER
309
CELLSTYLE_END
300
CELLSTYLE
  1
TABLEFORMAT_BEGIN
 90
        5
170
     1
 91
        0
 92
        0
 62
   257
 93
        1
300
CONTENTFORMAT
  1
CONTENTFORMAT_BEGIN
 90
        0
 91
        0
 92
      512
 93
        0
300

 40
0.0
140
1.0
 94
        2
 62
     0
340
11
144
0.18
309
CONTENTFORMAT_END
171
     0
 94
        6
 95
        1
302
GRIDFORMAT
  1
GRIDFORMAT_BEGIN
 90
        0
 91
        1
 62
     0
 92
       -2
340
0
 93
        0
 40
0.045
309
GRIDFORMAT_END
 95
        2
302
GRIDFORMAT
  1
GRIDFORMAT_BEGIN
 90
        0
 91
        1
 62
     0
 92
       -2
340
0
 93
        0
 40
0.045
309
GRIDFORMAT_END
 95
        4
302
GRIDFORMAT
  1
GRIDFORMAT_BEGIN
 90
        0
 91
        1
 62
     0
 92
       -2
340
0
 93
        0
 40
0.045
309
GRIDFORMAT_END
 95
        8
302
GRIDFORMAT
  1
GRIDFORMAT_BEGIN
 90
        0
 91
        1
 62
     0
 92
       -2
340
0
 93
        0
 40
0.045
309
GRIDFORMAT_END
 95
       16
302
GRIDFORMAT
  1
GRIDFORMAT_BEGIN
 90
        0
 91
        1
 62
     0
 92
       -2
340
0
 93
        0
 40
0.045
309
GRIDFORMAT_END
 95
       32
302
GRIDFORMAT
  1
GRIDFORMAT_BEGIN
 90
        0
 91
        1
 62
     0
 92
       -2
340
0
 93
        0
 40
0.045
309
GRIDFORMAT_END
309
TABLEFORMAT_END
  1
CELLSTYLE_BEGIN
 90
        3
 91
        2
300
_DATA
309
CELLSTYLE_END
  0
XRECORD
  5
1B33
102
{ACAD_REACTORS
330
BD8
102
}
330
BD8
100
AcDbXrecord
280
     1
102
ACAD_ROUNDTRIP_PRE2007_TABLESTYLE
 90
      512
 91
        0
  1

 92
      512
 93
        0
  2

 94
      512
 95
        0
  3

  0
XRECORD
  5
1B1E
102
{ACAD_REACTORS
330
1B1D
102
}
330
1B1D
100
AcDbXrecord
280
     1
102
RTVSPropertyOp0
 70
     1
102
RTVSPropertyOp1
 70
     1
102
RTVSPropertyOp2
 70
     1
102
RTVSPropertyOp3
 70
     1
102
RTVSPropertyOp4
 70
     1
102
RTVSPropertyOp5
 70
     1
102
RTVSPropertyOp6
 70
     1
102
RTVSPropertyOp7
 70
     1
102
RTVSPropertyOp8
 70
     1
102
RTVSPropertyOp9
 70
     1
102
RTVSPropertyOp10
 70
     1
102
RTVSPropertyOp11
 70
     1
102
RTVSPropertyOp12
 70
     1
102
RTVSPropertyOp13
 70
     1
102
RTVSPropertyOp14
 70
     1
102
RTVSPropertyOp15
 70
     1
102
RTVSPropertyOp16
 70
     1
102
RTVSPropertyOp17
 70
     1
102
RTVSPropertyOp18
 70
     1
102
RTVSPropertyOp19
 70
     1
102
RTVSPropertyOp20
 70
     1
102
RTVSPropertyOp21
 70
     1
102
RTVSPropertyOp22
 70
     1
102
RTVSPropertyOp23
 70
     1
102
RTVSPropertyOp24
 70
     1
102
RTVSPropertyOp25
 70
     1
102
RTVSPropertyOp26
 70
     1
102
RTVSPropertyOp27
 70
     1
  0
XRECORD
  5
1B22
102
{ACAD_REACTORS
330
1B21
102
}
330
1B21
100
AcDbXrecord
280
     1
102
RTVSPropertyOp0
 70
     1
102
RTVSPropertyOp1
 70
     1
102
RTVSPropertyOp2
 70
     1
102
RTVSPropertyOp3
 70
     1
102
RTVSPropertyOp4
 70
     1
102
RTVSPropertyOp5
 70
     1
102
RTVSPropertyOp6
 70
     1
102
RTVSPropertyOp7
 70
     1
102
RTVSPropertyOp8
 70
     1
102
RTVSPropertyOp9
 70
     1
102
RTVSPropertyOp10
 70
     1
102
RTVSPropertyOp11
 70
     1
102
RTVSPropertyOp12
 70
     1
102
RTVSPropertyOp13
 70
     1
102
RTVSPropertyOp14
 70
     1
102
RTVSPropertyOp15
 70
     1
102
RTVSPropertyOp16
 70
     1
102
RTVSPropertyOp17
 70
     1
102
RTVSPropertyOp18
 70
     1
102
RTVSPropertyOp19
 70
     1
102
RTVSPropertyOp20
 70
     1
102
RTVSPropertyOp21
 70
     1
102
RTVSPropertyOp22
 70
     1
102
RTVSPropertyOp23
 70
     1
102
RTVSPropertyOp24
 70
     1
102
RTVSPropertyOp25
 70
     1
102
RTVSPropertyOp26
 70
     1
102
RTVSPropertyOp27
 70
     1
  0
XRECORD
  5
1B20
102
{ACAD_REACTORS
330
1B1F
102
}
330
1B1F
100
AcDbXrecord
280
     1
102
RTVSPropertyOp0
 70
     1
102
RTVSPropertyOp1
 70
     1
102
RTVSPropertyOp2
 70
     1
102
RTVSPropertyOp3
 70
     1
102
RTVSPropertyOp4
 70
     1
102
RTVSPropertyOp5
 70
     1
102
RTVSPropertyOp6
 70
     1
102
RTVSPropertyOp7
 70
     1
102
RTVSPropertyOp8
 70
     1
102
RTVSPropertyOp9
 70
     1
102
RTVSPropertyOp10
 70
     1
102
RTVSPropertyOp11
 70
     1
102
RTVSPropertyOp12
 70
     1
102
RTVSPropertyOp13
 70
     1
102
RTVSPropertyOp14
 70
     1
102
RTVSPropertyOp15
 70
     1
102
RTVSPropertyOp16
 70
     1
102
RTVSPropertyOp17
 70
     1
102
RTVSPropertyOp18
 70
     1
102
RTVSPropertyOp19
 70
     1
102
RTVSPropertyOp20
 70
     1
102
RTVSPropertyOp21
 70
     1
102
RTVSPropertyOp22
 70
     1
102
RTVSPropertyOp23
 70
     1
102
RTVSPropertyOp24
 70
     1
102
RTVSPropertyOp25
 70
     1
102
RTVSPropertyOp26
 70
     1
102
RTVSPropertyOp27
 70
     1
  0
XRECORD
  5
1B1C
102
{ACAD_REACTORS
330
1B1B
102
}
330
1B1B
100
AcDbXrecord
280
     1
102
RTVSPropertyOp0
 70
     1
102
RTVSPropertyOp1
 70
     1
102
RTVSPropertyOp2
 70
     1
102
RTVSPropertyOp3
 70
     1
102
RTVSPropertyOp4
 70
     1
102
RTVSPropertyOp5
 70
     1
102
RTVSPropertyOp6
 70
     1
102
RTVSPropertyOp7
 70
     1
102
RTVSPropertyOp8
 70
     1
102
RTVSPropertyOp9
 70
     1
102
RTVSPropertyOp10
 70
     1
102
RTVSPropertyOp11
 70
     1
102
RTVSPropertyOp12
 70
     1
102
RTVSPropertyOp13
 70
     1
102
RTVSPropertyOp14
 70
     1
102
RTVSPropertyOp15
 70
     1
102
RTVSPropertyOp16
 70
     1
102
RTVSPropertyOp17
 70
     1
102
RTVSPropertyOp18
 70
     1
102
RTVSPropertyOp19
 70
     1
102
RTVSPropertyOp20
 70
     1
102
RTVSPropertyOp21
 70
     1
102
RTVSPropertyOp22
 70
     1
102
RTVSPropertyOp23
 70
     1
102
RTVSPropertyOp24
 70
     1
102
RTVSPropertyOp25
 70
     1
102
RTVSPropertyOp26
 70
     1
102
RTVSPropertyOp27
 70
     1
  0
XRECORD
  5
1B2A
102
{ACAD_REACTORS
330
1B29
102
}
330
1B29
100
AcDbXrecord
280
     1
102
RTVSPropertyOp0
 70
     1
102
RTVSPropertyOp1
 70
     1
102
RTVSPropertyOp2
 70
     1
102
RTVSPropertyOp3
 70
     1
102
RTVSPropertyOp4
 70
     1
102
RTVSPropertyOp5
 70
     1
102
RTVSPropertyOp6
 70
     1
102
RTVSPropertyOp7
 70
     1
102
RTVSPropertyOp8
 70
     1
102
RTVSPropertyOp9
 70
     1
102
RTVSPropertyOp10
 70
     1
102
RTVSPropertyOp11
 70
     1
102
RTVSPropertyOp12
 70
     1
102
RTVSPropertyOp13
 70
     1
102
RTVSPropertyOp14
 70
     1
102
RTVSPropertyOp15
 70
     1
102
RTVSPropertyOp16
 70
     1
102
RTVSPropertyOp17
 70
     1
102
RTVSPropertyOp18
 70
     1
102
RTVSPropertyOp19
 70
     1
102
RTVSPropertyOp20
 70
     1
102
RTVSPropertyOp21
 70
     1
102
RTVSPropertyOp22
 70
     1
102
RTVSPropertyOp23
 70
     1
102
RTVSPropertyOp24
 70
     1
102
RTVSPropertyOp25
 70
     1
102
RTVSPropertyOp26
 70
     1
102
RTVSPropertyOp27
 70
     1
  0
XRECORD
  5
1B32
102
{ACAD_REACTORS
330
1B31
102
}
330
1B31
100
AcDbXrecord
280
     1
102
RTVSPropertyOp0
 70
     1
102
RTVSPropertyOp1
 70
     1
102
RTVSPropertyOp2
 70
     1
102
RTVSPropertyOp3
 70
     1
102
RTVSPropertyOp4
 70
     1
102
RTVSPropertyOp5
 70
     1
102
RTVSPropertyOp6
 70
     1
102
RTVSPropertyOp7
 70
     1
102
RTVSPropertyOp8
 70
     1
102
RTVSPropertyOp9
 70
     1
102
RTVSPropertyOp10
 70
     1
102
RTVSPropertyOp11
 70
     1
102
RTVSPropertyOp12
 70
     1
102
RTVSPropertyOp13
 70
     1
102
RTVSPropertyOp14
 70
     1
102
RTVSPropertyOp15
 70
     1
102
RTVSPropertyOp16
 70
     1
102
RTVSPropertyOp17
 70
     1
102
RTVSPropertyOp18
 70
     1
102
RTVSPropertyOp19
 70
     1
102
RTVSPropertyOp20
 70
     1
102
RTVSPropertyOp21
 70
     1
102
RTVSPropertyOp22
 70
     1
102
RTVSPropertyOp23
 70
     1
102
RTVSPropertyOp24
 70
     1
102
RTVSPropertyOp25
 70
     1
102
RTVSPropertyOp26
 70
     1
102
RTVSPropertyOp27
 70
     1
  0
XRECORD
  5
1B24
102
{ACAD_REACTORS
330
1B23
102
}
330
1B23
100
AcDbXrecord
280
     1
102
RTVSPropertyOp0
 70
     1
102
RTVSPropertyOp1
 70
     1
102
RTVSPropertyOp2
 70
     1
102
RTVSPropertyOp3
 70
     1
102
RTVSPropertyOp4
 70
     1
102
RTVSPropertyOp5
 70
     1
102
RTVSPropertyOp6
 70
     1
102
RTVSPropertyOp7
 70
     1
102
RTVSPropertyOp8
 70
     1
102
RTVSPropertyOp9
 70
     1
102
RTVSPropertyOp10
 70
     1
102
RTVSPropertyOp11
 70
     1
102
RTVSPropertyOp12
 70
     1
102
RTVSPropertyOp13
 70
     1
102
RTVSPropertyOp14
 70
     1
102
RTVSPropertyOp15
 70
     1
102
RTVSPropertyOp16
 70
     1
102
RTVSPropertyOp17
 70
     1
102
RTVSPropertyOp18
 70
     1
102
RTVSPropertyOp19
 70
     1
102
RTVSPropertyOp20
 70
     1
102
RTVSPropertyOp21
 70
     1
102
RTVSPropertyOp22
 70
     1
102
RTVSPropertyOp23
 70
     1
102
RTVSPropertyOp24
 70
     1
102
RTVSPropertyOp25
 70
     1
102
RTVSPropertyOp26
 70
     1
102
RTVSPropertyOp27
 70
     1
  0
XRECORD
  5
1B28
102
{ACAD_REACTORS
330
1B27
102
}
330
1B27
100
AcDbXrecord
280
     1
102
RTVSPropertyOp0
 70
     1
102
RTVSPropertyOp1
 70
     1
102
RTVSPropertyOp2
 70
     1
102
RTVSPropertyOp3
 70
     1
102
RTVSPropertyOp4
 70
     1
102
RTVSPropertyOp5
 70
     1
102
RTVSPropertyOp6
 70
     1
102
RTVSPropertyOp7
 70
     1
102
RTVSPropertyOp8
 70
     1
102
RTVSPropertyOp9
 70
     1
102
RTVSPropertyOp10
 70
     1
102
RTVSPropertyOp11
 70
     1
102
RTVSPropertyOp12
 70
     1
102
RTVSPropertyOp13
 70
     1
102
RTVSPropertyOp14
 70
     1
102
RTVSPropertyOp15
 70
     1
102
RTVSPropertyOp16
 70
     1
102
RTVSPropertyOp17
 70
     1
102
RTVSPropertyOp18
 70
     1
102
RTVSPropertyOp19
 70
     1
102
RTVSPropertyOp20
 70
     1
102
RTVSPropertyOp21
 70
     1
102
RTVSPropertyOp22
 70
     1
102
RTVSPropertyOp23
 70
     1
102
RTVSPropertyOp24
 70
     1
102
RTVSPropertyOp25
 70
     1
102
RTVSPropertyOp26
 70
     1
102
RTVSPropertyOp27
 70
     1
  0
XRECORD
  5
1B39
102
{ACAD_REACTORS
330
1B38
102
}
330
1B38
100
AcDbXrecord
280
     1
102
RTVSPropertyOp0
 70
     0
102
RTVSPropertyOp1
 70
     0
102
RTVSPropertyOp2
 70
     0
102
RTVSPropertyOp3
 70
     0
102
RTVSPropertyOp4
 70
     0
102
RTVSPropertyOp5
 70
     0
102
RTVSPropertyOp6
 70
     0
102
RTVSPropertyOp7
 70
     0
102
RTVSPropertyOp8
 70
     0
102
RTVSPropertyOp9
 70
     0
102
RTVSPropertyOp10
 70
     0
102
RTVSPropertyOp11
 70
     0
102
RTVSPropertyOp12
 70
     0
102
RTVSPropertyOp13
 70
     0
102
RTVSPropertyOp14
 70
     2
102
RTVSPropertyOp15
 70
     0
102
RTVSPropertyOp16
 70
     0
102
RTVSPropertyOp17
 70
     0
102
RTVSPropertyOp18
 70
     0
102
RTVSPropertyOp19
 70
     0
102
RTVSPropertyOp20
 70
     0
102
RTVSPropertyOp21
 70
     0
102
RTVSPropertyOp22
 70
     0
102
RTVSPropertyOp23
 70
     0
102
RTVSPropertyOp24
 70
     0
102
RTVSPropertyOp25
 70
     0
102
RTVSPropertyOp26
 70
     0
102
RTVSPropertyOp27
 70
     0
  0
XRECORD
  5
1B30
102
{ACAD_REACTORS
330
1B2F
102
}
330
1B2F
100
AcDbXrecord
280
     1
102
RTVSPropertyOp0
 70
     1
102
RTVSPropertyOp1
 70
     1
102
RTVSPropertyOp2
 70
     1
102
RTVSPropertyOp3
 70
     1
102
RTVSPropertyOp4
 70
     1
102
RTVSPropertyOp5
 70
     1
102
RTVSPropertyOp6
 70
     1
102
RTVSPropertyOp7
 70
     1
102
RTVSPropertyOp8
 70
     1
102
RTVSPropertyOp9
 70
     1
102
RTVSPropertyOp10
 70
     1
102
RTVSPropertyOp11
 70
     1
102
RTVSPropertyOp12
 70
     1
102
RTVSPropertyOp13
 70
     1
102
RTVSPropertyOp14
 70
     1
102
RTVSPropertyOp15
 70
     1
102
RTVSPropertyOp16
 70
     1
102
RTVSPropertyOp17
 70
     1
102
RTVSPropertyOp18
 70
     1
102
RTVSPropertyOp19
 70
     1
102
RTVSPropertyOp20
 70
     1
102
RTVSPropertyOp21
 70
     1
102
RTVSPropertyOp22
 70
     1
102
RTVSPropertyOp23
 70
     1
102
RTVSPropertyOp24
 70
     1
102
RTVSPropertyOp25
 70
     1
102
RTVSPropertyOp26
 70
     1
102
RTVSPropertyOp27
 70
     1
  0
XRECORD
  5
1B14
102
{ACAD_REACTORS
330
1B13
102
}
330
1B13
100
AcDbXrecord
280
     1
102
RTVSPropertyOp0
 70
     1
102
RTVSPropertyOp1
 70
     1
102
RTVSPropertyOp2
 70
     1
102
RTVSPropertyOp3
 70
     1
102
RTVSPropertyOp4
 70
     1
102
RTVSPropertyOp5
 70
     1
102
RTVSPropertyOp6
 70
     1
102
RTVSPropertyOp7
 70
     1
102
RTVSPropertyOp8
 70
     1
102
RTVSPropertyOp9
 70
     1
102
RTVSPropertyOp10
 70
     1
102
RTVSPropertyOp11
 70
     1
102
RTVSPropertyOp12
 70
     1
102
RTVSPropertyOp13
 70
     1
102
RTVSPropertyOp14
 70
     1
102
RTVSPropertyOp15
 70
     1
102
RTVSPropertyOp16
 70
     1
102
RTVSPropertyOp17
 70
     1
102
RTVSPropertyOp18
 70
     1
102
RTVSPropertyOp19
 70
     1
102
RTVSPropertyOp20
 70
     1
102
RTVSPropertyOp21
 70
     1
102
RTVSPropertyOp22
 70
     1
102
RTVSPropertyOp23
 70
     1
102
RTVSPropertyOp24
 70
     1
102
RTVSPropertyOp25
 70
     1
102
RTVSPropertyOp26
 70
     1
102
RTVSPropertyOp27
 70
     1
  0
XRECORD
  5
1B16
102
{ACAD_REACTORS
330
1B15
102
}
330
1B15
100
AcDbXrecord
280
     1
102
RTVSPropertyOp0
 70
     1
102
RTVSPropertyOp1
 70
     1
102
RTVSPropertyOp2
 70
     1
102
RTVSPropertyOp3
 70
     1
102
RTVSPropertyOp4
 70
     1
102
RTVSPropertyOp5
 70
     1
102
RTVSPropertyOp6
 70
     1
102
RTVSPropertyOp7
 70
     1
102
RTVSPropertyOp8
 70
     1
102
RTVSPropertyOp9
 70
     1
102
RTVSPropertyOp10
 70
     1
102
RTVSPropertyOp11
 70
     1
102
RTVSPropertyOp12
 70
     1
102
RTVSPropertyOp13
 70
     1
102
RTVSPropertyOp14
 70
     1
102
RTVSPropertyOp15
 70
     1
102
RTVSPropertyOp16
 70
     1
102
RTVSPropertyOp17
 70
     1
102
RTVSPropertyOp18
 70
     1
102
RTVSPropertyOp19
 70
     1
102
RTVSPropertyOp20
 70
     1
102
RTVSPropertyOp21
 70
     1
102
RTVSPropertyOp22
 70
     1
102
RTVSPropertyOp23
 70
     1
102
RTVSPropertyOp24
 70
     1
102
RTVSPropertyOp25
 70
     1
102
RTVSPropertyOp26
 70
     1
102
RTVSPropertyOp27
 70
     1
  0
XRECORD
  5
1B18
102
{ACAD_REACTORS
330
1B17
102
}
330
1B17
100
AcDbXrecord
280
     1
102
RTVSPropertyOp0
 70
     1
102
RTVSPropertyOp1
 70
     1
102
RTVSPropertyOp2
 70
     1
102
RTVSPropertyOp3
 70
     1
102
RTVSPropertyOp4
 70
     1
102
RTVSPropertyOp5
 70
     1
102
RTVSPropertyOp6
 70
     1
102
RTVSPropertyOp7
 70
     1
102
RTVSPropertyOp8
 70
     1
102
RTVSPropertyOp9
 70
     1
102
RTVSPropertyOp10
 70
     1
102
RTVSPropertyOp11
 70
     1
102
RTVSPropertyOp12
 70
     1
102
RTVSPropertyOp13
 70
     1
102
RTVSPropertyOp14
 70
     1
102
RTVSPropertyOp15
 70
     1
102
RTVSPropertyOp16
 70
     1
102
RTVSPropertyOp17
 70
     1
102
RTVSPropertyOp18
 70
     1
102
RTVSPropertyOp19
 70
     1
102
RTVSPropertyOp20
 70
     1
102
RTVSPropertyOp21
 70
     1
102
RTVSPropertyOp22
 70
     1
102
RTVSPropertyOp23
 70
     1
102
RTVSPropertyOp24
 70
     1
102
RTVSPropertyOp25
 70
     1
102
RTVSPropertyOp26
 70
     1
102
RTVSPropertyOp27
 70
     1
  0
XRECORD
  5
1B1A
102
{ACAD_REACTORS
330
1B19
102
}
330
1B19
100
AcDbXrecord
280
     1
102
RTVSPropertyOp0
 70
     1
102
RTVSPropertyOp1
 70
     1
102
RTVSPropertyOp2
 70
     1
102
RTVSPropertyOp3
 70
     1
102
RTVSPropertyOp4
 70
     1
102
RTVSPropertyOp5
 70
     1
102
RTVSPropertyOp6
 70
     1
102
RTVSPropertyOp7
 70
     1
102
RTVSPropertyOp8
 70
     1
102
RTVSPropertyOp9
 70
     1
102
RTVSPropertyOp10
 70
     1
102
RTVSPropertyOp11
 70
     1
102
RTVSPropertyOp12
 70
     1
102
RTVSPropertyOp13
 70
     1
102
RTVSPropertyOp14
 70
     1
102
RTVSPropertyOp15
 70
     1
102
RTVSPropertyOp16
 70
     1
102
RTVSPropertyOp17
 70
     1
102
RTVSPropertyOp18
 70
     1
102
RTVSPropertyOp19
 70
     1
102
RTVSPropertyOp20
 70
     1
102
RTVSPropertyOp21
 70
     1
102
RTVSPropertyOp22
 70
     1
102
RTVSPropertyOp23
 70
     1
102
RTVSPropertyOp24
 70
     1
102
RTVSPropertyOp25
 70
     1
102
RTVSPropertyOp26
 70
     1
102
RTVSPropertyOp27
 70
     1
  0
XRECORD
  5
1B35
102
{ACAD_REACTORS
330
1B34
102
}
330
1B34
100
AcDbXrecord
280
     1
102
RTVSPropertyOp0
 70
     0
102
RTVSPropertyOp1
 70
     0
102
RTVSPropertyOp2
 70
     0
102
RTVSPropertyOp3
 70
     0
102
RTVSPropertyOp4
 70
     0
102
RTVSPropertyOp5
 70
     0
102
RTVSPropertyOp6
 70
     0
102
RTVSPropertyOp7
 70
     0
102
RTVSPropertyOp8
 70
     0
102
RTVSPropertyOp9
 70
     0
102
RTVSPropertyOp10
 70
     0
102
RTVSPropertyOp11
 70
     0
102
RTVSPropertyOp12
 70
     0
102
RTVSPropertyOp13
 70
     0
102
RTVSPropertyOp14
 70
     2
102
RTVSPropertyOp15
 70
     0
102
RTVSPropertyOp16
 70
     0
102
RTVSPropertyOp17
 70
     0
102
RTVSPropertyOp18
 70
     0
102
RTVSPropertyOp19
 70
     0
102
RTVSPropertyOp20
 70
     0
102
RTVSPropertyOp21
 70
     0
102
RTVSPropertyOp22
 70
     0
102
RTVSPropertyOp23
 70
     0
102
RTVSPropertyOp24
 70
     0
102
RTVSPropertyOp25
 70
     0
102
RTVSPropertyOp26
 70
     0
102
RTVSPropertyOp27
 70
     0
  0
XRECORD
  5
1B2E
102
{ACAD_REACTORS
330
1B2D
102
}
330
1B2D
100
AcDbXrecord
280
     1
102
RTVSPropertyOp0
 70
     1
102
RTVSPropertyOp1
 70
     1
102
RTVSPropertyOp2
 70
     1
102
RTVSPropertyOp3
 70
     1
102
RTVSPropertyOp4
 70
     1
102
RTVSPropertyOp5
 70
     1
102
RTVSPropertyOp6
 70
     1
102
RTVSPropertyOp7
 70
     1
102
RTVSPropertyOp8
 70
     1
102
RTVSPropertyOp9
 70
     1
102
RTVSPropertyOp10
 70
     1
102
RTVSPropertyOp11
 70
     1
102
RTVSPropertyOp12
 70
     1
102
RTVSPropertyOp13
 70
     1
102
RTVSPropertyOp14
 70
     1
102
RTVSPropertyOp15
 70
     1
102
RTVSPropertyOp16
 70
     1
102
RTVSPropertyOp17
 70
     1
102
RTVSPropertyOp18
 70
     1
102
RTVSPropertyOp19
 70
     1
102
RTVSPropertyOp20
 70
     1
102
RTVSPropertyOp21
 70
     1
102
RTVSPropertyOp22
 70
     1
102
RTVSPropertyOp23
 70
     1
102
RTVSPropertyOp24
 70
     1
102
RTVSPropertyOp25
 70
     1
102
RTVSPropertyOp26
 70
     1
102
RTVSPropertyOp27
 70
     1
  0
XRECORD
  5
1B37
102
{ACAD_REACTORS
330
1B36
102
}
330
1B36
100
AcDbXrecord
280
     1
102
RTVSPropertyOp0
 70
     0
102
RTVSPropertyOp1
 70
     0
102
RTVSPropertyOp2
 70
     0
102
RTVSPropertyOp3
 70
     0
102
RTVSPropertyOp4
 70
     0
102
RTVSPropertyOp5
 70
     0
102
RTVSPropertyOp6
 70
     0
102
RTVSPropertyOp7
 70
     0
102
RTVSPropertyOp8
 70
     0
102
RTVSPropertyOp9
 70
     0
102
RTVSPropertyOp10
 70
     0
102
RTVSPropertyOp11
 70
     0
102
RTVSPropertyOp12
 70
     0
102
RTVSPropertyOp13
 70
     0
102
RTVSPropertyOp14
 70
     2
102
RTVSPropertyOp15
 70
     0
102
RTVSPropertyOp16
 70
     0
102
RTVSPropertyOp17
 70
     0
102
RTVSPropertyOp18
 70
     0
102
RTVSPropertyOp19
 70
     0
102
RTVSPropertyOp20
 70
     0
102
RTVSPropertyOp21
 70
     0
102
RTVSPropertyOp22
 70
     0
102
RTVSPropertyOp23
 70
     0
102
RTVSPropertyOp24
 70
     0
102
RTVSPropertyOp25
 70
     0
102
RTVSPropertyOp26
 70
     0
102
RTVSPropertyOp27
 70
     0
  0
XRECORD
  5
1B26
102
{ACAD_REACTORS
330
1B25
102
}
330
1B25
100
AcDbXrecord
280
     1
102
RTVSPropertyOp0
 70
     1
102
RTVSPropertyOp1
 70
     1
102
RTVSPropertyOp2
 70
     1
102
RTVSPropertyOp3
 70
     1
102
RTVSPropertyOp4
 70
     1
102
RTVSPropertyOp5
 70
     1
102
RTVSPropertyOp6
 70
     1
102
RTVSPropertyOp7
 70
     1
102
RTVSPropertyOp8
 70
     1
102
RTVSPropertyOp9
 70
     1
102
RTVSPropertyOp10
 70
     1
102
RTVSPropertyOp11
 70
     1
102
RTVSPropertyOp12
 70
     1
102
RTVSPropertyOp13
 70
     1
102
RTVSPropertyOp14
 70
     1
102
RTVSPropertyOp15
 70
     1
102
RTVSPropertyOp16
 70
     1
102
RTVSPropertyOp17
 70
     1
102
RTVSPropertyOp18
 70
     1
102
RTVSPropertyOp19
 70
     1
102
RTVSPropertyOp20
 70
     1
102
RTVSPropertyOp21
 70
     1
102
RTVSPropertyOp22
 70
     1
102
RTVSPropertyOp23
 70
     1
102
RTVSPropertyOp24
 70
     1
102
RTVSPropertyOp25
 70
     1
102
RTVSPropertyOp26
 70
     1
102
RTVSPropertyOp27
 70
     1
  0
XRECORD
  5
1B2C
102
{ACAD_REACTORS
330
1B2B
102
}
330
1B2B
100
AcDbXrecord
280
     1
102
RTVSPropertyOp0
 70
     1
102
RTVSPropertyOp1
 70
     1
102
RTVSPropertyOp2
 70
     1
102
RTVSPropertyOp3
 70
     1
102
RTVSPropertyOp4
 70
     1
102
RTVSPropertyOp5
 70
     1
102
RTVSPropertyOp6
 70
     1
102
RTVSPropertyOp7
 70
     1
102
RTVSPropertyOp8
 70
     1
102
RTVSPropertyOp9
 70
     1
102
RTVSPropertyOp10
 70
     1
102
RTVSPropertyOp11
 70
     1
102
RTVSPropertyOp12
 70
     1
102
RTVSPropertyOp13
 70
     1
102
RTVSPropertyOp14
 70
     1
102
RTVSPropertyOp15
 70
     1
102
RTVSPropertyOp16
 70
     1
102
RTVSPropertyOp17
 70
     1
102
RTVSPropertyOp18
 70
     1
102
RTVSPropertyOp19
 70
     1
102
RTVSPropertyOp20
 70
     1
102
RTVSPropertyOp21
 70
     1
102
RTVSPropertyOp22
 70
     1
102
RTVSPropertyOp23
 70
     1
102
RTVSPropertyOp24
 70
     1
102
RTVSPropertyOp25
 70
     1
102
RTVSPropertyOp26
 70
     1
102
RTVSPropertyOp27
 70
     1
  0
ENDSEC
  0
EOF
