  0
SECTION
  2
HEADER
  9
$ACADVER
  1
AC1018
  9
$ACADMAINTVER
 70
   104
  9
$DWGCODEPAGE
  3
ANSI_1252
  9
$AUTHOR
  1
‘Created by Cad / Cam Services, Inc. for Amazon Services LLC on November, 2012’
  9
$LASTSAVEDBY
  1
jsr
  9
$INSBASE
 10
0.0
 20
0.0
 30
0.0
  9
$EXTMIN
 10
-0.000059555843805
 20
-0.0008919623620436
 30
-0.000000000000013
  9
$EXTMAX
 10
7.818173083688968
 20
5.920236710205294
 30
0.0000000000000023
  9
$LIMMIN
 10
0.0
 20
0.0
  9
$LIMMAX
 10
16.53543307086614
 20
11.69291338582677
  9
$ORTHOMODE
 70
     0
  9
$REGENMODE
 70
     1
  9
$FILLMODE
 70
     1
  9
$QTEXTMODE
 70
     0
  9
$MIRRTEXT
 70
     1
  9
$LTSCALE
 40
1.0
  9
$ATTMODE
 70
     1
  9
$TEXTSIZE
 40
0.2
  9
$TRACEWID
 40
0.05
  9
$TEXTSTYLE
  7
SLDTEXTSTYLE0
  9
$CLAYER
  8
0
  9
$CELTYPE
  6
ByLayer
  9
$CECOLOR
 62
   256
  9
$CELTSCALE
 40
1.0
  9
$DISPSILH
 70
     0
  9
$DIMSCALE
 40
1.0
  9
$DIMASZ
 40
0.07
  9
$DIMEXO
 40
0.05
  9
$DIMDLI
 40
0.38
  9
$DIMRND
 40
0.0
  9
$DIMDLE
 40
0.0
  9
$DIMEXE
 40
0.04
  9
$DIMTP
 40
0.0
  9
$DIMTM
 40
0.0
  9
$DIMTXT
 40
0.07
  9
$DIMCEN
 40
0.09
  9
$DIMTSZ
 40
0.0
  9
$DIMTOL
 70
     0
  9
$DIMLIM
 70
     0
  9
$DIMTIH
 70
     0
  9
$DIMTOH
 70
     1
  9
$DIMSE1
 70
     0
  9
$DIMSE2
 70
     0
  9
$DIMTAD
 70
     1
  9
$DIMZIN
 70
     0
  9
$DIMBLK
  1

  9
$DIMASO
 70
     1
  9
$DIMSHO
 70
     1
  9
$DIMPOST
  1

  9
$DIMAPOST
  1

  9
$DIMALT
 70
     0
  9
$DIMALTD
 70
     2
  9
$DIMALTF
 40
25.4
  9
$DIMLFAC
 40
1.0
  9
$DIMTOFL
 70
     1
  9
$DIMTVP
 40
0.0
  9
$DIMTIX
 70
     0
  9
$DIMSOXD
 70
     0
  9
$DIMSAH
 70
     0
  9
$DIMBLK1
  1

  9
$DIMBLK2
  1

  9
$DIMSTYLE
  2
Standard
  9
$DIMCLRD
 70
     0
  9
$DIMCLRE
 70
     0
  9
$DIMCLRT
 70
     0
  9
$DIMTFAC
 40
1.0
  9
$DIMGAP
 40
0.03
  9
$DIMJUST
 70
     0
  9
$DIMSD1
 70
     0
  9
$DIMSD2
 70
     0
  9
$DIMTOLJ
 70
     1
  9
$DIMTZIN
 70
     0
  9
$DIMALTZ
 70
     0
  9
$DIMALTTZ
 70
     0
  9
$DIMUPT
 70
     0
  9
$DIMDEC
 70
     3
  9
$DIMTDEC
 70
     3
  9
$DIMALTU
 70
     2
  9
$DIMALTTD
 70
     2
  9
$DIMTXSTY
  7
Standard
  9
$DIMAUNIT
 70
     0
  9
$DIMADEC
 70
     0
  9
$DIMALTRND
 40
0.0
  9
$DIMAZIN
 70
     0
  9
$DIMDSEP
 70
    46
  9
$DIMATFIT
 70
     3
  9
$DIMFRAC
 70
     0
  9
$DIMLDRBLK
  1

  9
$DIMLUNIT
 70
     2
  9
$DIMLWD
 70
    -2
  9
$DIMLWE
 70
    -2
  9
$DIMTMOVE
 70
     0
  9
$LUNITS
 70
     2
  9
$LUPREC
 70
     2
  9
$SKETCHINC
 40
0.1
  9
$FILLETRAD
 40
0.0
  9
$AUNITS
 70
     0
  9
$AUPREC
 70
     2
  9
$MENU
  1
.
  9
$ELEVATION
 40
0.0
  9
$PELEVATION
 40
0.0
  9
$THICKNESS
 40
0.0
  9
$LIMCHECK
 70
     0
  9
$CHAMFERA
 40
0.5
  9
$CHAMFERB
 40
0.5
  9
$CHAMFERC
 40
1.0
  9
$CHAMFERD
 40
0.0
  9
$SKPOLY
 70
     0
  9
$TDCREATE
 40
2456296.574909387
  9
$TDUCREATE
 40
2456296.387409387
  9
$TDUPDATE
 40
2456365.479195232
  9
$TDUUPDATE
 40
2456365.291695231
  9
$TDINDWG
 40
0.0075652894
  9
$TDUSRTIMER
 40
0.0075652894
  9
$USRTIMER
 70
     1
  9
$ANGBASE
 50
0.0
  9
$ANGDIR
 70
     0
  9
$PDMODE
 70
     0
  9
$PDSIZE
 40
-1.0
  9
$PLINEWID
 40
0.0
  9
$SPLFRAME
 70
     0
  9
$SPLINETYPE
 70
     6
  9
$SPLINESEGS
 70
     8
  9
$HANDSEED
  5
168B
  9
$SURFTAB1
 70
     6
  9
$SURFTAB2
 70
     6
  9
$SURFTYPE
 70
     6
  9
$SURFU
 70
     6
  9
$SURFV
 70
     6
  9
$UCSBASE
  2

  9
$UCSNAME
  2

  9
$UCSORG
 10
0.0
 20
0.0
 30
0.0
  9
$UCSXDIR
 10
1.0
 20
0.0
 30
0.0
  9
$UCSYDIR
 10
0.0
 20
1.0
 30
0.0
  9
$UCSORTHOREF
  2

  9
$UCSORTHOVIEW
 70
     0
  9
$UCSORGTOP
 10
0.0
 20
0.0
 30
0.0
  9
$UCSORGBOTTOM
 10
0.0
 20
0.0
 30
0.0
  9
$UCSORGLEFT
 10
0.0
 20
0.0
 30
0.0
  9
$UCSORGRIGHT
 10
0.0
 20
0.0
 30
0.0
  9
$UCSORGFRONT
 10
0.0
 20
0.0
 30
0.0
  9
$UCSORGBACK
 10
0.0
 20
0.0
 30
0.0
  9
$PUCSBASE
  2

  9
$PUCSNAME
  2

  9
$PUCSORG
 10
0.0
 20
0.0
 30
0.0
  9
$PUCSXDIR
 10
1.0
 20
0.0
 30
0.0
  9
$PUCSYDIR
 10
0.0
 20
1.0
 30
0.0
  9
$PUCSORTHOREF
  2

  9
$PUCSORTHOVIEW
 70
     0
  9
$PUCSORGTOP
 10
0.0
 20
0.0
 30
0.0
  9
$PUCSORGBOTTOM
 10
0.0
 20
0.0
 30
0.0
  9
$PUCSORGLEFT
 10
0.0
 20
0.0
 30
0.0
  9
$PUCSORGRIGHT
 10
0.0
 20
0.0
 30
0.0
  9
$PUCSORGFRONT
 10
0.0
 20
0.0
 30
0.0
  9
$PUCSORGBACK
 10
0.0
 20
0.0
 30
0.0
  9
$USERI1
 70
     0
  9
$USERI2
 70
     0
  9
$USERI3
 70
     0
  9
$USERI4
 70
     0
  9
$USERI5
 70
     0
  9
$USERR1
 40
0.0
  9
$USERR2
 40
0.0
  9
$USERR3
 40
0.0
  9
$USERR4
 40
0.0
  9
$USERR5
 40
0.0
  9
$WORLDVIEW
 70
     1
  9
$SHADEDGE
 70
     3
  9
$SHADEDIF
 70
    70
  9
$TILEMODE
 70
     1
  9
$MAXACTVP
 70
    64
  9
$PINSBASE
 10
0.0
 20
0.0
 30
0.0
  9
$PLIMCHECK
 70
     0
  9
$PEXTMIN
 10
1.000000000000000E+20
 20
1.000000000000000E+20
 30
1.000000000000000E+20
  9
$PEXTMAX
 10
-1.000000000000000E+20
 20
-1.000000000000000E+20
 30
-1.000000000000000E+20
  9
$PLIMMIN
 10
0.0
 20
0.0
  9
$PLIMMAX
 10
12.0
 20
9.0
  9
$UNITMODE
 70
     0
  9
$VISRETAIN
 70
     1
  9
$PLINEGEN
 70
     0
  9
$PSLTSCALE
 70
     1
  9
$TREEDEPTH
 70
  3020
  9
$CMLSTYLE
  2
Standard
  9
$CMLJUST
 70
     0
  9
$CMLSCALE
 40
1.0
  9
$PROXYGRAPHICS
 70
     1
  9
$MEASUREMENT
 70
     0
  9
$CELWEIGHT
370
    -1
  9
$ENDCAPS
280
     0
  9
$JOINSTYLE
280
     0
  9
$LWDISPLAY
290
     1
  9
$INSUNITS
 70
     1
  9
$HYPERLINKBASE
  1

  9
$STYLESHEET
  1

  9
$XEDIT
290
     1
  9
$CEPSNTYPE
380
     0
  9
$PSTYLEMODE
290
     1
  9
$FINGERPRINTGUID
  2
{1F4CF9D0-7598-42CE-B790-6C533FA3516C}
  9
$VERSIONGUID
  2
{831137B8-4D59-4D95-BA44-4518C7C8CAA1}
  9
$EXTNAMES
290
     1
  9
$PSVPSCALE
 40
0.0
  9
$OLESTARTUP
290
     0
  9
$SORTENTS
280
   127
  9
$INDEXCTL
280
     0
  9
$HIDETEXT
280
     0
  9
$XCLIPFRAME
290
     0
  9
$HALOGAP
280
     0
  9
$OBSCOLOR
 70
   257
  9
$OBSLTYPE
280
     0
  9
$INTERSECTIONDISPLAY
280
     0
  9
$INTERSECTIONCOLOR
 70
   257
  9
$DIMASSOC
280
     1
  9
$PROJECTNAME
  1

  0
ENDSEC
  0
SECTION
  2
CLASSES
  0
CLASS
  1
ACDBDICTIONARYWDFLT
  2
AcDbDictionaryWithDefault
  3
ObjectDBX Classes
 90
        0
 91
        1
280
     0
281
     0
  0
CLASS
  1
VISUALSTYLE
  2
AcDbVisualStyle
  3
ObjectDBX Classes
 90
     4095
 91
       19
280
     0
281
     0
  0
CLASS
  1
MATERIAL
  2
AcDbMaterial
  3
ObjectDBX Classes
 90
     1153
 91
        3
280
     0
281
     0
  0
CLASS
  1
TABLESTYLE
  2
AcDbTableStyle
  3
ObjectDBX Classes
 90
     4095
 91
        1
280
     0
281
     0
  0
CLASS
  1
DICTIONARYVAR
  2
AcDbDictionaryVar
  3
ObjectDBX Classes
 90
        0
 91
       10
280
     0
281
     0
  0
CLASS
  1
SORTENTSTABLE
  2
AcDbSortentsTable
  3
ObjectDBX Classes
 90
        0
 91
        1
280
     0
281
     0
  0
CLASS
  1
PLOTSETTINGS
  2
AcDbPlotSettings
  3
ObjectDBX Classes
 90
        0
 91
        2
280
     0
281
     0
  0
CLASS
  1
SCALE
  2
AcDbScale
  3
ObjectDBX Classes
 90
     1153
 91
       33
280
     0
281
     0
  0
CLASS
  1
MLEADERSTYLE
  2
AcDbMLeaderStyle
  3
ACDB_MLEADERSTYLE_CLASS
 90
     4095
 91
        1
280
     0
281
     0
  0
CLASS
  1
CELLSTYLEMAP
  2
AcDbCellStyleMap
  3
ObjectDBX Classes
 90
     1152
 91
        4
280
     0
281
     0
  0
ENDSEC
  0
SECTION
  2
TABLES
  0
TABLE
  2
VPORT
  5
8
102
{ACAD_XDICTIONARY
360
4DC
102
}
330
0
100
AcDbSymbolTable
 70
     1
  0
VPORT
  5
29
330
8
100
AcDbSymbolTableRecord
100
AcDbViewportTableRecord
  2
*Active
 70
     0
 10
0.0
 20
0.0
 11
1.0
 21
1.0
 12
3.909056763922581
 22
2.959672373921625
 13
0.0
 23
0.0
 14
0.5
 24
0.5
 15
0.5
 25
0.5
 16
0.0
 26
0.0
 36
1.0
 17
0.0
 27
0.0
 37
0.0
 40
5.991618299621711
 41
2.644135188866798
 42
50.0
 43
0.0
 44
0.0
 50
0.0
 51
0.0
 71
     0
 72
  2000
 73
     1
 74
     3
 75
     0
 76
     0
 77
     0
 78
     0
281
     0
 65
     1
110
0.0
120
0.0
130
0.0
111
1.0
121
0.0
131
0.0
112
0.0
122
1.0
132
0.0
 79
     0
146
0.0
  0
ENDTAB
  0
TABLE
  2
LTYPE
  5
5
330
0
100
AcDbSymbolTable
 70
     2
  0
LTYPE
  5
14
330
5
100
AcDbSymbolTableRecord
100
AcDbLinetypeTableRecord
  2
ByBlock
 70
     0
  3

 72
    65
 73
     0
 40
0.0
  0
LTYPE
  5
15
330
5
100
AcDbSymbolTableRecord
100
AcDbLinetypeTableRecord
  2
ByLayer
 70
     0
  3

 72
    65
 73
     0
 40
0.0
  0
LTYPE
  5
16
330
5
100
AcDbSymbolTableRecord
100
AcDbLinetypeTableRecord
  2
Continuous
 70
     0
  3
Solid line
 72
    65
 73
     0
 40
0.0
  0
LTYPE
  5
BD6
330
5
100
AcDbSymbolTableRecord
100
AcDbLinetypeTableRecord
  2
HIDDEN
 70
     0
  3
Hidden __ __ __ __ __ __ __ __ __ __ __ __ __ __
 72
    65
 73
     2
 40
0.075
 49
0.05
 74
     0
 49
-0.025
 74
     0
  0
ENDTAB
  0
TABLE
  2
LAYER
  5
2
102
{ACAD_XDICTIONARY
360
61E
102
}
330
0
100
AcDbSymbolTable
 70
     4
  0
LAYER
  5
10
102
{ACAD_XDICTIONARY
360
E80
102
}
330
2
100
AcDbSymbolTableRecord
100
AcDbLayerTableRecord
  2
0
 70
     0
 62
     7
  6
Continuous
370
    -3
390
F
  0
LAYER
  5
44
102
{ACAD_XDICTIONARY
360
E82
102
}
330
2
100
AcDbSymbolTableRecord
100
AcDbLayerTableRecord
  2
FORMAT
 70
     0
 62
     7
  6
Continuous
370
    -3
390
F
  0
LAYER
  5
125
330
2
100
AcDbSymbolTableRecord
100
AcDbLayerTableRecord
  2
Defpoints
 70
     0
 62
     7
  6
Continuous
290
     0
370
    -3
390
F
  0
LAYER
  5
61C
102
{ACAD_XDICTIONARY
360
E84
102
}
330
2
100
AcDbSymbolTableRecord
100
AcDbLayerTableRecord
  2
DIM
 70
     0
 62
     8
  6
Continuous
370
    -3
390
F
1001
AcAecLayerStandard
1000

1000

  0
ENDTAB
  0
TABLE
  2
STYLE
  5
3
330
0
100
AcDbSymbolTable
 70
     5
  0
STYLE
  5
11
330
3
100
AcDbSymbolTableRecord
100
AcDbTextStyleTableRecord
  2
Standard
 70
     0
 40
0.0
 41
1.0
 50
0.0
 71
     0
 42
0.2
  3
GOTHIC.TTF
  4

1001
ACAD
1000
Century Gothic
1071
       34
  0
STYLE
  5
66
330
3
100
AcDbSymbolTableRecord
100
AcDbTextStyleTableRecord
  2
SLDTEXTSTYLE0
 70
     0
 40
0.0
 41
0.75
 50
0.0
 71
     0
 42
0.2
  3
GOTHIC.TTF
  4

1001
ACAD
1000
Century Gothic
1071
       34
  0
STYLE
  5
6A
330
3
100
AcDbSymbolTableRecord
100
AcDbTextStyleTableRecord
  2
SLDTEXTSTYLE1
 70
     0
 40
0.0
 41
0.6875
 50
0.0
 71
     0
 42
0.2
  3
GOTHIC.TTF
  4

1001
ACAD
1000
Century Gothic
1071
       34
  0
STYLE
  5
412
330
3
100
AcDbSymbolTableRecord
100
AcDbTextStyleTableRecord
  2
style2
 70
     0
 40
0.0
 41
1.0
 50
0.0
 71
     0
 42
0.2
  3

  4

1001
ACAD
1000
Euphemia
1071
       34
  0
STYLE
  5
B37
330
3
100
AcDbSymbolTableRecord
100
AcDbTextStyleTableRecord
  2
style1
 70
     0
 40
0.0
 41
1.0
 50
0.0
 71
     0
 42
0.2
  3

  4

1001
ACAD
1000
@MS PGothic
1071
    32802
  0
ENDTAB
  0
TABLE
  2
VIEW
  5
6
330
0
100
AcDbSymbolTable
 70
     0
  0
ENDTAB
  0
TABLE
  2
UCS
  5
7
330
0
100
AcDbSymbolTable
 70
     0
  0
ENDTAB
  0
TABLE
  2
APPID
  5
9
330
0
100
AcDbSymbolTable
 70
     7
  0
APPID
  5
12
330
9
100
AcDbSymbolTableRecord
100
AcDbRegAppTableRecord
  2
ACAD
 70
     0
  0
APPID
  5
3B8
330
9
100
AcDbSymbolTableRecord
100
AcDbRegAppTableRecord
  2
ACAD_EXEMPT_FROM_CAD_STANDARDS
 70
     0
  0
APPID
  5
413
330
9
100
AcDbSymbolTableRecord
100
AcDbRegAppTableRecord
  2
ACAD_PSEXT
 70
     0
  0
APPID
  5
61D
330
9
100
AcDbSymbolTableRecord
100
AcDbRegAppTableRecord
  2
AcAecLayerStandard
 70
     0
  0
APPID
  5
B19
330
9
100
AcDbSymbolTableRecord
100
AcDbRegAppTableRecord
  2
PE_URL
 70
     0
  0
APPID
  5
D94
330
9
100
AcDbSymbolTableRecord
100
AcDbRegAppTableRecord
  2
ACAD_DSTYLE_DIMRADIAL_EXTENSION
 70
     0
  0
APPID
  5
1599
330
9
100
AcDbSymbolTableRecord
100
AcDbRegAppTableRecord
  2
ACAD_MLEADERVER
 70
     0
  0
ENDTAB
  0
TABLE
  2
DIMSTYLE
  5
A
330
0
100
AcDbSymbolTable
 70
     2
100
AcDbDimStyleTable
 71
     1
340
27
  0
DIMSTYLE
105
27
102
{ACAD_REACTORS
330
C81
330
D12
330
D48
330
D36
330
D28
330
DD5
330
DC8
330
DBB
330
DAE
330
DA1
330
D95
330
E6A
102
}
330
A
100
AcDbSymbolTableRecord
100
AcDbDimStyleTableRecord
  2
Standard
 70
     0
 41
0.07
 42
0.05
 44
0.04
 73
     0
 74
     0
 77
     1
140
0.07
147
0.03
172
     1
271
     3
272
     3
340
11
  0
DIMSTYLE
105
BD7
330
A
100
AcDbSymbolTableRecord
100
AcDbDimStyleTableRecord
  2
SLDDIMSTYLE0
 70
     0
 41
0.13
 44
0.0
 78
    12
140
0.125
147
0.03125
173
     1
271
     2
272
     2
284
    12
340
11
  0
ENDTAB
  0
TABLE
  2
BLOCK_RECORD
  5
1
330
0
100
AcDbSymbolTable
 70
    57
  0
BLOCK_RECORD
  5
1F
330
1
100
AcDbSymbolTableRecord
100
AcDbBlockTableRecord
  2
*Model_Space
340
22
  0
BLOCK_RECORD
  5
1B
330
1
100
AcDbSymbolTableRecord
100
AcDbBlockTableRecord
  2
*Paper_Space
340
1E
  0
BLOCK_RECORD
  5
23
330
1
100
AcDbSymbolTableRecord
100
AcDbBlockTableRecord
  2
*Paper_Space0
340
26
  0
BLOCK_RECORD
  5
3F9
330
1
100
AcDbSymbolTableRecord
100
AcDbBlockTableRecord
  2
Block3
340
0
102
{BLKREFS
331
407
102
}
  0
BLOCK_RECORD
  5
405
330
1
100
AcDbSymbolTableRecord
100
AcDbBlockTableRecord
  2
Block2
340
0
102
{BLKREFS
331
44A
102
}
  0
BLOCK_RECORD
  5
409
102
{ACAD_XDICTIONARY
360
40A
102
}
330
1
100
AcDbSymbolTableRecord
100
AcDbBlockTableRecord
  2
amazon
340
0
310
2800000020000000200000000100080000000000000400000000000000000000000000000000000000000000000080000080000000808000800000008000800080800000C0C0C000C0DCC000F0CAA6000020400000206000002080000020A0000020C0000020E00000400000004020000040400000406000004080000040A0
310
000040C0000040E00000600000006020000060400000606000006080000060A0000060C0000060E00000800000008020000080400000806000008080000080A0000080C0000080E00000A0000000A0200000A0400000A0600000A0800000A0A00000A0C00000A0E00000C0000000C0200000C0400000C0600000C0800000C0
310
A00000C0C00000C0E00000E0000000E0200000E0400000E0600000E0800000E0A00000E0C00000E0E00040000000400020004000400040006000400080004000A0004000C0004000E00040200000402020004020400040206000402080004020A0004020C0004020E000404000004040200040404000404060004040800040
310
40A0004040C0004040E00040600000406020004060400040606000406080004060A0004060C0004060E00040800000408020004080400040806000408080004080A0004080C0004080E00040A0000040A0200040A0400040A0600040A0800040A0A00040A0C00040A0E00040C0000040C0200040C0400040C0600040C08000
310
40C0A00040C0C00040C0E00040E0000040E0200040E0400040E0600040E0800040E0A00040E0C00040E0E00080000000800020008000400080006000800080008000A0008000C0008000E00080200000802020008020400080206000802080008020A0008020C0008020E00080400000804020008040400080406000804080
310
008040A0008040C0008040E00080600000806020008060400080606000806080008060A0008060C0008060E00080800000808020008080400080806000808080008080A0008080C0008080E00080A0000080A0200080A0400080A0600080A0800080A0A00080A0C00080A0E00080C0000080C0200080C0400080C0600080C0
310
800080C0A00080C0C00080C0E00080E0000080E0200080E0400080E0600080E0800080E0A00080E0C00080E0E000C0000000C0002000C0004000C0006000C0008000C000A000C000C000C000E000C0200000C0202000C0204000C0206000C0208000C020A000C020C000C020E000C0400000C0402000C0404000C0406000C0
310
408000C040A000C040C000C040E000C0600000C0602000C0604000C0606000C0608000C060A000C060C000C060E000C0800000C0802000C0804000C0806000C0808000C080A000C080C000C080E000C0A00000C0A02000C0A04000C0A06000C0A08000C0A0A000C0A0C000C0A0E000C0C00000C0C02000C0C04000C0C06000
310
C0C08000C0C0A000F0FBFF00A4A0A000808080000000FF0000FF000000FFFF00FF000000FF00FF00FFFF0000FFFFFF0000000000000000000000000000000000000000000000000000000000000000000000000000000000000000000000000000000000000000000000000000000000000000000000000000000000000000
310
00000000000000000000000000000000000000000000000000000000000000000000000000000000000000000000000000000000000000000000000000000000000000000000000000000000000000000000000000000000000000000000000000000000000000000000000000000000000000000000000000000000000000
310
00000000000000000000000000000000000000000000000000000000000000000000000000000000000000000000000000000000000000000000000000000000000000000000000000000000000000000000000000000000000000000000000000000000000000000000000000000000000000000000000000000000000000
310
0000000000000000000000000000000000000000000000000000000000000000000000000000000000000000000000000000000000000000000000000000000000000000000000000000000000000000000000000000000000FFFFFFFFFF00000000000000000000000000000000000000000000000000FFFFFFFFFFFFFFFF
310
00000000000000000000FC00FC0000FCFC00000000FFFFFFFFFFFFFFFFFFFFFFFFFFFFFFFFFCFCFCFCFCFCFCFCFCFCFCFCFC00000000FFFFFFFFFFFFFFFFFFFFFFFFFFFFFFFCFCFC00FCFCFCFC00FCFCFCFC00000000FFFFFFFFFFFFFFFFFFFFFFFFFFFFFFFCFCFC00FCFCFCFCFCFCFCFCFC00000000000000000000000000
310
00000000000000000000000000000000FC0000000000000000000000000000000000000000000000000000000000000000000000000000000000000000000000000000000000000000000000000000000000000000000000000000000000000000000000000000000000000000000000000000000000000000000000000000
310
00000000000000000000000000000000000000000000000000000000000000000000000000000000000000000000000000000000000000000000000000000000000000000000000000000000000000000000000000000000000000000000000000000000000000000000000000000000000000000000000000000000000000
310
00000000000000000000000000000000000000000000000000000000000000000000000000000000000000000000000000000000000000000000000000000000000000000000000000000000000000000000000000000000000000000000000000000000000000000000000000000000000000000000000000000000000000
310
0000000000000000000000000000000000000000000000000000000000000000000000000000000000000000000000000000000000000000
1001
ACAD
1000
DesignCenter Data
1002
{
1070
     1
1070
     1
1002
}
  0
BLOCK_RECORD
  5
B30
330
1
100
AcDbSymbolTableRecord
100
AcDbBlockTableRecord
  2
amazon block
340
0
310
2800000020000000200000000100080000000000000400000000000000000000000000000000000000000000000080000080000000808000800000008000800080800000C0C0C000C0DCC000F0CAA6000020400000206000002080000020A0000020C0000020E00000400000004020000040400000406000004080000040A0
310
000040C0000040E00000600000006020000060400000606000006080000060A0000060C0000060E00000800000008020000080400000806000008080000080A0000080C0000080E00000A0000000A0200000A0400000A0600000A0800000A0A00000A0C00000A0E00000C0000000C0200000C0400000C0600000C0800000C0
310
A00000C0C00000C0E00000E0000000E0200000E0400000E0600000E0800000E0A00000E0C00000E0E00040000000400020004000400040006000400080004000A0004000C0004000E00040200000402020004020400040206000402080004020A0004020C0004020E000404000004040200040404000404060004040800040
310
40A0004040C0004040E00040600000406020004060400040606000406080004060A0004060C0004060E00040800000408020004080400040806000408080004080A0004080C0004080E00040A0000040A0200040A0400040A0600040A0800040A0A00040A0C00040A0E00040C0000040C0200040C0400040C0600040C08000
310
40C0A00040C0C00040C0E00040E0000040E0200040E0400040E0600040E0800040E0A00040E0C00040E0E00080000000800020008000400080006000800080008000A0008000C0008000E00080200000802020008020400080206000802080008020A0008020C0008020E00080400000804020008040400080406000804080
310
008040A0008040C0008040E00080600000806020008060400080606000806080008060A0008060C0008060E00080800000808020008080400080806000808080008080A0008080C0008080E00080A0000080A0200080A0400080A0600080A0800080A0A00080A0C00080A0E00080C0000080C0200080C0400080C0600080C0
310
800080C0A00080C0C00080C0E00080E0000080E0200080E0400080E0600080E0800080E0A00080E0C00080E0E000C0000000C0002000C0004000C0006000C0008000C000A000C000C000C000E000C0200000C0202000C0204000C0206000C0208000C020A000C020C000C020E000C0400000C0402000C0404000C0406000C0
310
408000C040A000C040C000C040E000C0600000C0602000C0604000C0606000C0608000C060A000C060C000C060E000C0800000C0802000C0804000C0806000C0808000C080A000C080C000C080E000C0A00000C0A02000C0A04000C0A06000C0A08000C0A0A000C0A0C000C0A0E000C0C00000C0C02000C0C04000C0C06000
310
C0C08000C0C0A000F0FBFF00A4A0A000808080000000FF0000FF000000FFFF00FF000000FF00FF00FFFF0000FFFFFF0000000000000000000000000000000000000000000000000000000000000000000000000000000000000000000000000000000000000000000000000000000000000000000000000000000000000000
310
00000000000000000000000000000000000000000000000000000000000000000000000000000000000000000000000000000000000000000000000000000000000000000000000000000000000000000000000000000000000000000000000000000000000000000000000000000000000000000000000000000000000000
310
00000000000000000000000000000000000000000000000000000000000000000000000000000000000000000000000000000000000000000000000000000000000000000000000000000000000000000000000000000000000000000000000000000000000000000000000000000000000000000000000000000000000000
310
0000000000000000000000000000000000000000000000000000000000000000000000000000000000000000000000000000000000000000000000000000000000000000000000000000000000000000000000000000000000FFFFFFFFFF00000000000000000000000000000000000000000000000000FFFFFFFFFFFFFFFF
310
00000000000000000000E000E0E000E0E0E0000000FFFFFFFFFFFFFFFFFFFFFFFFFFFFFFFFE0E0E0E0E0E0E0E0E0E0E0E0E000000000FFFFFFFFFFFFFFFFFFFFFFFFFFFFFFE0E0E0E0E0E0E0E0E0E0E0E0E000000000FFFFFFFFFFFFFFFFFFFFFFFFFFFFFFE0E0E0E0E0E0E0E0E0E0E0E0E0E0000000000000000000000000
310
00000000000000000000000000000000E00000000000000000000000000000000000000000000000000000000000000000000000000000000000000000000000000000000000000000000000000000000000000000000000000000000000000000000000000000000000000000000000000000000000000000000000000000
310
00000000000000000000000000000000000000000000000000000000000000000000000000000000000000000000000000000000000000000000000000000000000000000000000000000000000000000000000000000000000000000000000000000000000000000000000000000000000000000000000000000000000000
310
00000000000000000000000000000000000000000000000000000000000000000000000000000000000000000000000000000000000000000000000000000000000000000000000000000000000000000000000000000000000000000000000000000000000000000000000000000000000000000000000000000000000000
310
0000000000000000000000000000000000000000000000000000000000000000000000000000000000000000000000000000000000000000
102
{BLKREFS
331
B40
102
}
1001
ACAD
1000
DesignCenter Data
1002
{
1070
     1
1070
     1
1002
}
  0
BLOCK_RECORD
  5
BC0
330
1
100
AcDbSymbolTableRecord
100
AcDbBlockTableRecord
  2
SW_CENTERMARKSYMBOL_0
340
0
102
{BLKREFS
331
C9C
102
}
  0
BLOCK_RECORD
  5
BCB
330
1
100
AcDbSymbolTableRecord
100
AcDbBlockTableRecord
  2
SW_CENTERMARKSYMBOL_3
340
0
102
{BLKREFS
331
CB6
102
}
  0
BLOCK_RECORD
  5
CD6
330
1
100
AcDbSymbolTableRecord
100
AcDbBlockTableRecord
  2
*D9
340
0
  0
BLOCK_RECORD
  5
D13
330
1
100
AcDbSymbolTableRecord
100
AcDbBlockTableRecord
  2
*D10
340
0
  0
BLOCK_RECORD
  5
D29
330
1
100
AcDbSymbolTableRecord
100
AcDbBlockTableRecord
  2
*D11
340
0
  0
BLOCK_RECORD
  5
D37
330
1
100
AcDbSymbolTableRecord
100
AcDbBlockTableRecord
  2
*D12
340
0
  0
BLOCK_RECORD
  5
D49
330
1
100
AcDbSymbolTableRecord
100
AcDbBlockTableRecord
  2
*D13
340
0
  0
BLOCK_RECORD
  5
D96
330
1
100
AcDbSymbolTableRecord
100
AcDbBlockTableRecord
  2
*D14
340
0
  0
BLOCK_RECORD
  5
DA2
330
1
100
AcDbSymbolTableRecord
100
AcDbBlockTableRecord
  2
*D15
340
0
  0
BLOCK_RECORD
  5
DAF
330
1
100
AcDbSymbolTableRecord
100
AcDbBlockTableRecord
  2
*D16
340
0
  0
BLOCK_RECORD
  5
DBC
330
1
100
AcDbSymbolTableRecord
100
AcDbBlockTableRecord
  2
*D17
340
0
  0
BLOCK_RECORD
  5
DC9
330
1
100
AcDbSymbolTableRecord
100
AcDbBlockTableRecord
  2
*D18
340
0
  0
BLOCK_RECORD
  5
DD6
330
1
100
AcDbSymbolTableRecord
100
AcDbBlockTableRecord
  2
*D19
340
0
  0
BLOCK_RECORD
  5
E6B
330
1
100
AcDbSymbolTableRecord
100
AcDbBlockTableRecord
  2
*D20
340
0
  0
ENDTAB
  0
ENDSEC
  0
SECTION
  2
BLOCKS
  0
BLOCK
  5
20
330
1F
100
AcDbEntity
  8
0
100
AcDbBlockBegin
  2
*Model_Space
 70
     0
 10
0.0
 20
0.0
 30
0.0
  3
*Model_Space
  1

  0
ENDBLK
  5
21
330
1F
100
AcDbEntity
  8
0
100
AcDbBlockEnd
  0
BLOCK
  5
1C
330
1B
100
AcDbEntity
 67
     1
  8
0
100
AcDbBlockBegin
  2
*Paper_Space
 70
     0
 10
0.0
 20
0.0
 30
0.0
  3
*Paper_Space
  1

  0
ENDBLK
  5
1D
330
1B
100
AcDbEntity
 67
     1
  8
0
100
AcDbBlockEnd
  0
BLOCK
  5
24
330
23
100
AcDbEntity
 67
     1
  8
0
100
AcDbBlockBegin
  2
*Paper_Space0
 70
     0
 10
0.0
 20
0.0
 30
0.0
  3
*Paper_Space0
  1

  0
ENDBLK
  5
25
330
23
100
AcDbEntity
 67
     1
  8
0
100
AcDbBlockEnd
  0
BLOCK
  5
3FA
330
3F9
100
AcDbEntity
  8
0
100
AcDbBlockBegin
  2
Block3
 70
     0
 10
0.0
 20
0.0
 30
0.0
  3
Block3
  1

  0
CIRCLE
  5
3FB
330
3F9
100
AcDbEntity
  8
FORMAT
 62
     7
370
    15
100
AcDbCircle
 10
9.623096090023436
 20
2.115622186524885
 30
0.0
 40
0.0998031496062924
  0
CIRCLE
  5
3FC
330
3F9
100
AcDbEntity
  8
FORMAT
 62
     7
370
    15
100
AcDbCircle
 10
9.623096090023436
 20
2.115622186524885
 30
0.0
 40
0.1996062992125948
  0
LINE
  5
3FD
330
3F9
100
AcDbEntity
  8
FORMAT
 62
     7
370
    15
100
AcDbLine
 10
10.05890680910872
 20
2.020396293772344
 30
0.0
 11
10.05890680910872
 21
2.210848079277426
 31
0.0
  0
LINE
  5
3FE
330
3F9
100
AcDbEntity
  8
FORMAT
 62
     7
370
    15
100
AcDbLine
 10
10.05890680910872
 20
2.210848079277426
 30
0.0
 11
10.55986477488565
 21
2.315228485737483
 31
0.0
  0
LINE
  5
3FF
330
3F9
100
AcDbEntity
  8
FORMAT
 62
     7
370
    15
100
AcDbLine
 10
10.55986477488565
 20
2.315228485737483
 30
0.0
 11
10.55986477488565
 21
1.916015887312285
 31
0.0
  0
LINE
  5
400
330
3F9
100
AcDbEntity
  8
FORMAT
 62
     7
370
    15
100
AcDbLine
 10
10.55986477488565
 20
1.916015887312285
 30
0.0
 11
10.05890680910872
 21
2.020396293772344
 31
0.0
  0
LINE
  5
401
330
3F9
100
AcDbEntity
  8
FORMAT
 62
     7
370
    15
100
AcDbLine
 10
9.987169396213419
 20
2.115622186524885
 30
0.0
 11
10.59626953693931
 21
2.115622186524885
 31
0.0
  0
LINE
  5
402
330
3F9
100
AcDbEntity
  8
FORMAT
 62
     7
370
    15
100
AcDbLine
 10
9.368122674365656
 20
2.115622186524885
 30
0.0
 11
9.87806950568121
 21
2.115622186524885
 31
0.0
  0
LINE
  5
403
330
3F9
100
AcDbEntity
  8
FORMAT
 62
     7
370
    15
100
AcDbLine
 10
9.623096090023436
 20
1.872691387914879
 30
0.0
 11
9.623096090023436
 21
2.382638219230431
 31
0.0
  0
ENDBLK
  5
404
330
3F9
100
AcDbEntity
  8
0
100
AcDbBlockEnd
  0
BLOCK
  5
406
330
405
100
AcDbEntity
  8
0
100
AcDbBlockBegin
  2
Block2
 70
     0
 10
0.0
 20
0.0
 30
0.0
  3
Block2
  1

  0
INSERT
  5
407
330
405
100
AcDbEntity
  8
0
  6
Continuous
 62
     7
100
AcDbBlockReference
  2
Block3
 10
-0.0282699124868556
 20
0.0201145539810274
 30
0.0
  0
ENDBLK
  5
408
330
405
100
AcDbEntity
  8
0
100
AcDbBlockEnd
  0
BLOCK
  5
40C
330
409
100
AcDbEntity
  8
0
100
AcDbBlockBegin
  2
amazon
 70
     0
 10
0.0
 20
0.0
 30
0.0
  3
amazon
  1

  0
HATCH
  5
40D
330
409
100
AcDbEntity
  8
0
100
AcDbHatch
 10
0.0
 20
0.0
 30
0.0
210
0.0
220
0.0
230
0.9999999999999998
  2
SOLID
 70
     1
 71
     0
 91
        1
 92
        5
 93
        1
 72
     4
 94
        3
 73
     0
 74
     0
 95
       18
 96
       14
 40
0.0
 40
0.0
 40
0.0
 40
0.0
 40
0.0596755466403443
 40
0.1035834707990989
 40
0.1695571134872838
 40
0.2000964637947284
 40
0.2237461165360023
 40
0.2565225897680324
 40
0.2756876256135649
 40
0.3018435697278741
 40
0.3302551352352805
 40
0.3457181605243852
 40
0.3618589112597388
 40
0.3618589112597388
 40
0.3618589112597388
 40
0.3618589112597388
 10
0.9280407135556529
 20
0.3678371450737368
 10
1.014164084729102
 20
0.3851494268204694
 10
1.144945011486449
 20
0.4024842103214663
 10
1.481904894757406
 20
0.3990648758382389
 10
1.309526957346704
 20
0.1657833910269666
 10
1.071996456892463
 20
0.0025828528301117
 10
1.213429780952147
 20
0.147260900816045
 10
1.269689397936616
 20
0.2055836989094448
 10
1.328770741103362
 20
0.3426132943554165
 10
1.182110533057802
 20
0.3629915346337151
 10
1.077363991359149
 20
0.3586993230536737
 10
1.01802908590988
 20
0.3618658313307459
 10
0.904746484263093
 20
0.3631546035627498
 10
0.9280407135556529
 20
0.3678371450737368
 97
        0
 75
     0
 76
     1
 47
0.0083360314226261
 98
        1
 10
1.350036184717041
 20
0.3275823953230534
450
        0
451
        0
460
0.0
461
0.0
452
        0
462
0.0
453
        0
470

1001
ACAD
1010
0.0
1020
0.0
1030
0.0
  0
HATCH
  5
40E
330
409
100
AcDbEntity
  8
0
100
AcDbHatch
 10
0.0
 20
0.0
 30
0.0
210
0.0
220
0.0
230
0.9999999999999998
  2
SOLID
 70
     1
 71
     0
 91
        9
 92
        7
 72
     1
 73
     1
 93
       20
 10
-1.397399278738596
 20
0.888299103756417
 42
0.0
 10
-1.517557092146972
 20
0.8521069912840207
 42
0.0
 10
-1.634457615432786
 20
0.8260486703038981
 42
0.113500075695427
 10
-1.796297882939342
 20
0.77249506361993
 42
0.335029435887297
 10
-1.882119182302076
 20
0.5660893728218724
 42
0.2523749963765925
 10
-1.737967057103837
 20
0.4398788302234422
 42
0.1008759599722844
 10
-1.585598263595066
 20
0.4319165654795154
 42
0.1558313267708922
 10
-1.397230403062579
 20
0.516966153393244
 42
0.0
 10
-1.397399278738596
 20
0.5017673425512395
 42
0.1600174655974661
 10
-1.372064800007926
 20
0.4395169090987201
 42
0.0
 10
-1.217886400875514
 20
0.4395169090987201
 42
-0.1096578030042886
 10
-1.250459302100694
 20
0.4735374948229208
 42
-0.1371553684281488
 10
-1.269279200586318
 20
0.540854824021424
 42
0.0
 10
-1.269279200586318
 20
0.9244912162288137
 42
0.267077244638994
 10
-1.391608540743007
 20
1.084460353356798
 42
0.1085027846705916
 10
-1.618171164820246
 20
1.110518674336923
 42
0.3343505200399534
 10
-1.854867580389672
 20
0.9063951599926172
 42
0.0
 10
-1.71371834174733
 20
0.9063951599926172
 42
-0.2815324590939715
 10
-1.623703637535193
 20
0.9970774848409384
 42
-0.1775171235246243
 10
-1.454582816445004
 20
0.984570122933
 42
-0.2483479329952881
 97
        0
 92
       22
 72
     1
 73
     1
 93
        8
 10
-1.397399278738596
 20
0.7768273973414295
 42
0.0
 10
-1.397399278738596
 20
0.658841110681435
 42
-0.2004737922071577
 10
-1.563882996111615
 20
0.5415786662708722
 42
-0.1115040980661369
 10
-1.686936178517754
 20
0.5404929028967014
 42
-0.2738586692622027
 10
-1.742672031725241
 20
0.6002098884761536
 42
-0.289643054085014
 10
-1.707203761502306
 20
0.6928616964054842
 42
-0.1190249358109779
 10
-1.625409587314685
 20
0.7261584398800891
 42
-0.0006545690929014
 10
-1.500908720409647
 20
0.7514929186107651
 42
0.031014715336947
 97
        0
 92
        7
 72
     1
 73
     1
 93
       27
 10
-1.062984159493659
 20
0.4395169090987201
 42
0.0
 10
-0.9348640813413879
 20
0.4395169090987201
 42
0.0
 10
-0.9348640813413879
 20
0.8535546757829193
 42
-0.1716644096531924
 10
-0.8769567013855592
 20
0.9534449062067299
 42
-0.1448545784781812
 10
-0.7799618399595332
 20
0.9997708101713946
 42
-0.1340090766267909
 10
-0.6862242686560336
 20
0.9885512553049524
 42
-0.2563461470910333
 10
-0.6192688605821033
 20
0.8998805797475881
 42
0.0
 10
-0.6192688605821033
 20
0.4395169090987201
 42
0.0
 10
-0.4904249401803611
 20
0.4395169090987201
 42
0.0
 10
-0.4904249401803753
 20
0.8641979875178154
 42
-0.1830801363087423
 10
-0.4212980053581035
 20
0.9621310132001053
 42
-0.1206854715101709
 10
-0.3311796453018374
 20
0.9975992834230517
 42
-0.2157527517618656
 10
-0.216674861049178
 20
0.9774303127070119
 42
-0.2679983488848178
 10
-0.1748297194210906
 20
0.9063951599927708
 42
0.0
 10
-0.1748297194210977
 20
0.4395169090987201
 42
0.0
 10
-0.0467096412688122
 20
0.4395169090987201
 42
0.0
 10
-0.0467096412688122
 20
0.9063951599926172
 42
0.0
 10
-0.0467096412688122
 20
0.9360726922199805
 42
0.2784603970195297
 10
-0.1675912969266093
 20
1.094594144849069
 42
0.1495326253440701
 10
-0.3521710705358245
 20
1.102556409592997
 42
0.1796241607690637
 10
-0.5034541006704388
 20
0.9896370186791244
 42
0.1190036376854939
 10
-0.5809052213613626
 20
1.073602719615081
 42
0.1510696384071214
 10
-0.753179676729971
 20
1.112690201085266
 42
0.122416550902687
 10
-0.8494506959065404
 20
1.081564984359008
 42
0.0903817772246913
 10
-0.9348640813413879
 20
1.001218494670287
 42
0.0
 10
-0.9348640813413879
 20
1.101108725094101
 42
0.0
 10
-1.062984159493659
 20
1.101108725094101
 42
0.0
 97
        0
 92
        7
 72
     1
 73
     1
 93
       20
 10
0.1120662149268909
 20
0.5660893728218764
 42
0.2523749963765703
 10
0.256218340125109
 20
0.4398788302234467
 42
0.100875959972303
 10
0.4085871336339224
 20
0.4319165654795159
 42
0.1558313267708855
 10
0.5969549941663886
 20
0.516966153393244
 42
0.0
 10
0.5967861184903711
 20
0.5017673425512395
 42
0.1600174655974661
 10
0.6221205972210555
 20
0.4395169090987201
 42
0.0
 10
0.7762989963534466
 20
0.4395169090987201
 42
-0.1096578030036369
 10
0.7437260951284089
 20
0.4735374948226645
 42
-0.1371553684287215
 10
0.7249061966426496
 20
0.540854824021424
 42
0.0
 10
0.7249061966426496
 20
0.9244912162288137
 42
0.2670772446390557
 10
0.6025768564859249
 20
1.084460353356814
 42
0.1085027846705556
 10
0.3760142324087567
 20
1.110518674336923
 42
0.3343505200399825
 10
0.1393178168393021
 20
0.9063951599926172
 42
0.0
 10
0.2804670554816368
 20
0.9063951599926172
 42
-0.2815324590939487
 10
0.370481759693746
 20
0.9970774848409313
 42
-0.1775171235246857
 10
0.539602580783992
 20
0.9845701229329858
 42
-0.2483479329952225
 10
0.5967861184903711
 20
0.888299103756417
 42
0.0
 10
0.4766283050820306
 20
0.8521069912840264
 42
0.0
 10
0.359727781796181
 20
0.8260486703038981
 42
0.113500075695427
 10
0.1978875142896257
 20
0.77249506361993
 42
0.335029435887291
 97
        0
 92
       22
 72
     1
 73
     1
 93
        8
 10
0.2869816357266757
 20
0.6928616964054842
 42
-0.1190249358109779
 10
0.3687758099142826
 20
0.7261584398800891
 42
-0.0006545690929014
 10
0.4932766768193205
 20
0.7514929186107651
 42
0.0310147153369478
 10
0.5967861184903711
 20
0.7768273973414419
 42
0.0
 10
0.5967861184903711
 20
0.658841110681435
 42
-0.2004737922071577
 10
0.430302401117352
 20
0.5415786662708722
 42
-0.1115040980661369
 10
0.3072492187112061
 20
0.5404929028967014
 42
-0.2738586692622027
 10
0.251513365503726
 20
0.6002098884761536
 42
-0.289643054085014
 97
        0
 92
        7
 72
     1
 73
     1
 93
       10
 10
1.490731296558529
 20
0.9717250567569255
 42
0.0
 10
1.490731296558529
 20
1.101108725094102
 42
0.0
 10
0.9246866574902696
 20
1.101108725094102
 42
0.0
 10
0.9246866574902767
 20
0.9648744605637409
 42
0.0
 10
1.298313112053691
 20
0.9648744605637409
 42
0.0
 10
0.8993521787595994
 20
0.5408548240214275
 42
0.0
 10
0.8993521787595994
 20
0.4395169090987241
 42
-0.1473109550280885
 10
1.52402804003313
 20
0.4395169090987184
 42
0.0
 10
1.52402804003313
 20
0.581774738538516
 42
0.0747823019347494
 10
1.16328520907988
 20
0.6214717791056393
 42
0.0
 97
        0
 92
        7
 72
     1
 73
     1
 93
        2
 10
1.658662698430447
 20
0.7829800564617493
 42
1.0
 10
2.353551257900427
 20
0.7829800564617493
 42
1.0
 97
        0
 92
       22
 72
     1
 73
     1
 93
        2
 10
2.212041370259932
 20
0.7829800564617493
 42
-1.0
 10
1.800172586070949
 20
0.7829800564617493
 42
-1.0
 97
        0
 92
        7
 72
     1
 73
     1
 93
       15
 10
2.520758817522896
 20
0.4395169090987201
 42
0.0
 10
2.649602737924617
 20
0.4395169090987201
 42
0.0
 10
2.649602737924617
 20
0.7753797128425455
 42
-0.1884880930389393
 10
2.726330016366098
 20
0.9404157457166672
 42
-0.0825504763720134
 10
2.808124190553712
 20
1.002666179169187
 42
-0.1879859195515259
 10
2.9333488997082
 20
1.010628443913113
 42
-0.3400688989443128
 10
3.022381496390295
 20
0.8948632846375158
 42
0.0
 10
3.022381496390295
 20
0.4395169090987201
 42
0.0
 10
3.151225416792009
 20
0.4395169090987201
 42
0.0
 10
3.151225416792023
 20
0.9382442189683235
 42
0.3709832727766776
 10
2.952118968473769
 20
1.109868265359158
 42
0.160618198198489
 10
2.773379762580219
 20
1.083012668857902
 42
0.0920112842116662
 10
2.649602737924617
 20
0.9831224384341012
 42
0.0
 10
2.649602737924631
 20
1.101108725094101
 42
0.0
 10
2.520758817522896
 20
1.1011087250941
 42
0.0
 97
        0
 75
     0
 76
     1
 47
0.0079344138681199
 98
        9
 10
-1.376638647914745
 20
0.8943652481782571
 10
-1.376638647914745
 20
0.8943652481782571
 10
-1.008011843667617
 20
0.7810537369378041
 10
0.2295103337683244
 20
0.706616395506853
 10
0.2295103337683244
 20
0.706616395506853
 10
1.173803717490862
 20
0.7215039733471374
 10
1.736822720547962
 20
0.9152585806937842
 10
1.736822720547962
 20
0.9152585806937842
 10
2.581717008623201
 20
0.8854836988984509
450
        0
451
        0
460
0.0
461
0.0
452
        0
462
0.0
453
        0
470

1001
ACAD
1010
0.0
1020
0.0
1030
0.0
  0
TEXT
  5
40F
330
409
100
AcDbEntity
  8
0
 62
   150
100
AcDbText
 10
3.411151618523078
 20
0.4239129498757777
 30
0.0
 40
1.05
  1
supply
 41
1.08
  7
style2
100
AcDbText
  0
HATCH
  5
410
330
409
100
AcDbEntity
  8
0
100
AcDbHatch
 10
0.0
 20
0.0
 30
0.0
210
0.0
220
0.0
230
0.9999999999999998
  2
SOLID
 70
     1
 71
     0
 91
        1
 92
        7
 72
     1
 73
     1
 93
        2
 10
-1.177902949885989
 20
0.4051926481048067
 42
0.3081272588713221
 10
1.212164975232198
 20
0.2933070771634125
 42
-0.177724595219735
 97
        0
 75
     0
 76
     1
 47
0.0009928164167271
 98
        1
 10
0.1755697210077258
 20
0.0593374821502257
450
        0
451
        0
460
0.0
461
0.0
452
        0
462
0.0
453
        0
470

1001
ACAD
1010
0.0
1020
0.0
1030
0.0
  0
ENDBLK
  5
411
330
409
100
AcDbEntity
  8
0
100
AcDbBlockEnd
  0
BLOCK
  5
B31
330
B30
100
AcDbEntity
  8
0
100
AcDbBlockBegin
  2
amazon block
 70
     0
 10
0.0
 20
0.0
 30
0.0
  3
amazon block
  1

  0
HATCH
  5
B32
330
B30
100
AcDbEntity
  8
0
100
AcDbHatch
 10
0.0
 20
0.0
 30
0.0
210
0.0
220
0.0
230
1.0
  2
SOLID
 70
     1
 71
     0
 91
        1
 92
        7
 72
     1
 73
     1
 93
        2
 10
0.1428560650202613
 20
0.0268249692297831
 42
0.3005568377796329
 10
0.6100026189360293
 20
0.0009915743964171
 42
-0.1486648242730099
 97
        0
 75
     0
 76
     1
 47
0.0083360314226261
 98
        1
 10
0.3681872109149253
 20
-0.0332769951503647
450
        0
451
        0
460
0.0
461
0.0
452
        0
462
0.0
453
        0
470

1001
ACAD
1010
0.0
1020
0.0
1030
0.0
  0
HATCH
  5
B33
330
B30
100
AcDbEntity
  8
0
100
AcDbHatch
 10
0.0
 20
0.0
 30
0.0
210
0.0
220
0.0
230
1.0
  2
SOLID
 70
     1
 71
     0
 91
        1
 92
        5
 93
        1
 72
     4
 94
        3
 73
     0
 74
     0
 95
       18
 96
       14
 40
0.0
 40
0.0
 40
0.0
 40
0.0
 40
0.3060284443094571
 40
0.531197286149225
 40
0.8695236589091486
 40
1.026135711767838
 40
1.14741598223591
 40
1.315500460348882
 40
1.413679231894078
 40
1.543957423309552
 40
1.719337158993241
 40
1.76919128251474
 40
1.852441399548553
 40
1.852441399548553
 40
1.852441399548553
 40
1.852441399548553
 10
0.5476248318910955
 20
0.0189472839500944
 10
0.5671265702171127
 20
0.0228674694218305
 10
0.5967407336623403
 20
0.0267937023518194
 10
0.6730410215606746
 20
0.0260155775369224
 10
0.6340109953118472
 20
-0.0267925718215847
 10
0.5802183818763105
 20
-0.0637796196110996
 10
0.6122605658026537
 20
-0.030937261100445
 10
0.624929189918916
 20
-0.0180757154749651
 10
0.6383573330340191
 20
0.013562833138125
 10
0.6020518241954172
 20
0.0146147000415664
 10
0.5794789444548947
 20
0.0158864032827642
 10
0.5641956865595646
 20
0.0167018526831093
 10
0.5423196975867733
 20
0.017880860532975
 10
0.5476248318910955
 20
0.0189472839500944
 97
        0
 75
     0
 76
     1
 47
0.0083360314226261
 98
        1
 10
0.644363460657651
 20
0.0075847933888076
450
        0
451
        0
460
0.0
461
0.0
452
        0
462
0.0
453
        0
470

1001
ACAD
1010
0.0
1020
0.0
1030
0.0
  0
HATCH
  5
B34
330
B30
100
AcDbEntity
  8
0
100
AcDbHatch
 10
0.0
 20
0.0
 30
0.0
210
0.0
220
0.0
230
1.0
  2
SOLID
 70
     1
 71
     0
 91
        9
 92
        7
 72
     1
 73
     1
 93
       20
 10
0.1000542808940033
 20
0.1169245515333142
 42
0.0
 10
0.076623507279372
 20
0.1098670896011966
 42
0.0
 10
0.0538279052386379
 20
0.1047857170100728
 42
0.113500075695427
 10
0.0222690530748579
 20
0.0943427637066989
 42
0.335029435887297
 10
0.0055338996991239
 20
0.0540936540010777
 42
0.2523749963765925
 10
0.0336435641127828
 20
0.0294825981943836
 42
0.1008759599722844
 10
0.0633554788469937
 20
0.0279299565693179
 42
0.1558313267708922
 10
0.1000872116508269
 20
0.0445146262124951
 42
0.0
 10
0.1000542808940033
 20
0.0415508580983044
 42
0.1600174655974661
 10
0.1049945042464841
 20
0.029412023575063
 42
0.0
 10
0.1350592920773046
 20
0.029412023575063
 42
-0.1096578030042886
 10
0.128707576338396
 20
0.0360460377912819
 42
-0.1371553684281488
 10
0.125037696133699
 20
0.0491729169849902
 42
0.0
 10
0.125037696133699
 20
0.1239820134654312
 42
0.267077244638994
 10
0.1011834748031433
 20
0.1551759952053882
 42
0.1085027846705916
 10
0.0570037631080815
 20
0.1602573677965124
 42
0.3343505200399534
 10
0.0108479620720452
 20
0.1204532824993727
 42
0.0
 10
0.0383720636073015
 20
0.1204532824993727
 42
-0.2815324590939715
 10
0.0559249309286685
 20
0.1381363358447958
 42
-0.1775171235246243
 10
0.0889034910412541
 20
0.1356974002727478
 42
-0.2483479329952881
 97
        0
 92
       22
 72
     1
 73
     1
 93
        8
 10
0.1000542808940033
 20
0.0951875687823911
 42
0.0
 10
0.1000542808940033
 20
0.0721802428836922
 42
-0.2004737922071577
 10
0.0675899560062661
 20
0.0493140662236327
 42
-0.1115040980661369
 10
0.0435945854370701
 20
0.0491023423656691
 42
-0.2738586692622027
 10
0.0327260940616085
 20
0.0607471545536624
 42
-0.289643054085014
 10
0.0396424067550818
 20
0.0788142570998818
 42
-0.1190249358109779
 10
0.0555922707216681
 20
0.0853071220774298
 42
-0.0006545690929014
 10
0.0798699397681482
 20
0.090247345429912
 42
0.031014715336947
 97
        0
 92
        7
 72
     1
 73
     1
 93
       27
 10
0.1652652291467689
 20
0.029412023575063
 42
0.0
 10
0.190248644386461
 20
0.029412023575063
 42
0.0
 10
0.190248644386461
 20
0.1101493880784821
 42
-0.1716644096531924
 10
0.201540583477847
 20
0.1296279830111251
 42
-0.1448545784781812
 10
0.2204545814559218
 20
0.1386615342842345
 42
-0.1340090766267909
 10
0.2387334078601029
 20
0.1364737210852782
 42
-0.2563461470910333
 10
0.251789712434519
 20
0.1191829393515924
 42
0.0
 10
0.251789712434519
 20
0.029412023575063
 42
0.0
 10
0.2769142769128621
 20
0.029412023575063
 42
0.0
 10
0.2769142769128585
 20
0.1122248338667866
 42
-0.1830801363087423
 10
0.290394029203199
 20
0.1313217738748333
 42
-0.1206854715101709
 10
0.3079671094141716
 20
0.1382380865683075
 42
-0.2157527517618656
 10
0.3302955423434426
 20
0.1343051372786799
 42
-0.2679983488848178
 10
0.33845534496092
 20
0.1204532824994029
 42
0.0
 10
0.3384553449609164
 20
0.029412023575063
 42
0.0
 10
0.3634387602006122
 20
0.029412023575063
 42
0.0
 10
0.3634387602006122
 20
0.1204532824993727
 42
0.0
 10
0.3634387602006122
 20
0.1262404012837086
 42
0.2784603970195297
 10
0.3398668373473406
 20
0.1571520845463814
 42
0.1495326253440701
 10
0.3038737814935466
 20
0.1587047261714471
 42
0.1796241607690637
 10
0.2743735906172944
 20
0.1366854449432417
 42
0.1190036376854939
 10
0.259270622082564
 20
0.1530587566257537
 42
0.1510696384071214
 10
0.2256771032856868
 20
0.1606808155124395
 42
0.122416550902687
 10
0.2069042545462558
 20
0.154611398250819
 42
0.0903817772246913
 10
0.190248644386461
 20
0.1389438327615187
 42
0.0
 10
0.190248644386461
 20
0.1584224276941626
 42
0.0
 10
0.1652652291467689
 20
0.1584224276941626
 42
0.0
 97
        0
 92
        7
 72
     1
 73
     1
 93
       20
 10
0.394400052158776
 20
0.0540936540010786
 42
0.2523749963765703
 10
0.4225097165724279
 20
0.0294825981943845
 42
0.100875959972303
 10
0.4522216313066459
 20
0.0279299565693183
 42
0.1558313267708855
 10
0.4889533641104756
 20
0.0445146262124951
 42
0.0
 10
0.4889204333536519
 20
0.0415508580983044
 42
0.1600174655974661
 10
0.4938606567061364
 20
0.029412023575063
 42
0.0
 10
0.5239254445369533
 20
0.029412023575063
 42
-0.1096578030036369
 10
0.5175737287980695
 20
0.0360460377912322
 42
-0.1371553684287215
 10
0.5139038485933476
 20
0.0491729169849902
 42
0.0
 10
0.5139038485933476
 20
0.1239820134654312
 42
0.2670772446390557
 10
0.4900496272627848
 20
0.1551759952053913
 42
0.1085027846705556
 10
0.4458699155677373
 20
0.1602573677965129
 42
0.3343505200399825
 10
0.3997141145316938
 20
0.1204532824993727
 42
0.0
 10
0.4272382160669502
 20
0.1204532824993727
 42
-0.2815324590939487
 10
0.44479108338831
 20
0.138136335844794
 42
-0.1775171235246857
 10
0.4777696435009098
 20
0.1356974002727447
 42
-0.2483479329952225
 10
0.4889204333536519
 20
0.1169245515333142
 42
0.0
 10
0.4654896597390277
 20
0.1098670896011979
 42
0.0
 10
0.4426940576982866
 20
0.1047857170100728
 42
0.113500075695427
 10
0.4111352055345066
 20
0.0943427637066989
 42
0.335029435887291
 97
        0
 92
       22
 72
     1
 73
     1
 93
        8
 10
0.428508559214734
 20
0.0788142570998818
 42
-0.1190249358109779
 10
0.4444584231813167
 20
0.0853071220774298
 42
-0.0006545690929014
 10
0.4687360922277968
 20
0.090247345429912
 42
0.0310147153369478
 10
0.4889204333536519
 20
0.0951875687823938
 42
0.0
 10
0.4889204333536519
 20
0.0721802428836922
 42
-0.2004737922071577
 10
0.4564561084659147
 20
0.0493140662236327
 42
-0.1115040980661369
 10
0.4324607378967152
 20
0.0491023423656691
 42
-0.2738586692622027
 10
0.4215922465212572
 20
0.0607471545536624
 42
-0.289643054085014
 97
        0
 92
        7
 72
     1
 73
     1
 93
       10
 10
0.663239743076943
 20
0.1331926123684131
 42
0.0
 10
0.663239743076943
 20
0.1584224276941626
 42
0.0
 10
0.5528610384586337
 20
0.1584224276941626
 42
0.0
 10
0.5528610384586337
 20
0.131856746110742
 42
0.0
 10
0.6257181970985002
 20
0.131856746110742
 42
0.0
 10
0.5479208151061528
 20
0.0491729169849911
 42
0.0
 10
0.5479208151061528
 20
0.0294120235750635
 42
-0.1473109550280885
 10
0.6697326080544919
 20
0.0294120235750626
 42
0.0
 10
0.6697326080544919
 20
0.0571523003158232
 42
0.0747823019347494
 10
0.5993877560186079
 20
0.0648932232264121
 42
0.0
 97
        0
 92
        7
 72
     1
 73
     1
 93
        2
 10
0.6959863664419679
 20
0.0963873373108535
 42
1.0
 10
0.8314896355386132
 20
0.0963873373108535
 42
1.0
 97
        0
 92
       22
 72
     1
 73
     1
 93
        2
 10
0.8038952074487184
 20
0.0963873373108535
 42
-1.0
 10
0.7235807945318662
 20
0.0963873373108535
 42
-1.0
 97
        0
 92
        7
 72
     1
 73
     1
 93
       15
 10
0.8640951096649978
 20
0.029412023575063
 42
0.0
 10
0.8892196741433302
 20
0.029412023575063
 42
0.0
 10
0.8892196741433302
 20
0.0949052703051088
 42
-0.1884880930389393
 10
0.9041814934394203
 20
0.1270872967155627
 42
-0.0825504763720134
 10
0.9201313574060066
 20
0.1392261312388041
 42
-0.1879859195515259
 10
0.9445501756911305
 20
0.1407787728638694
 42
-0.3400688989443128
 10
0.9619115320441373
 20
0.1182045668051281
 42
0.0
 10
0.9619115320441373
 20
0.029412023575063
 42
0.0
 10
0.9870360965224733
 20
0.029412023575063
 42
0.0
 10
0.9870360965224769
 20
0.1266638489996357
 42
0.3709832727766776
 10
0.9482103391004166
 20
0.1601305380458484
 42
0.160618198198489
 10
0.9133561939511736
 20
0.1548936967281036
 42
0.0920112842116662
 10
0.8892196741433302
 20
0.1354151017954623
 42
0.0
 10
0.8892196741433338
 20
0.1584224276941626
 42
0.0
 10
0.8640951096649978
 20
0.1584224276941621
 42
0.0
 97
        0
 75
     0
 76
     1
 47
0.0079344138681199
 98
        9
 10
0.1041026039046571
 20
0.1181074496955725
 10
0.1041026039046571
 20
0.1181074496955725
 10
0.175984830732844
 20
0.0960117050036842
 10
0.4173016553328531
 20
0.0814964234246487
 10
0.4173016553328531
 20
0.0814964234246487
 10
0.6014388651587482
 20
0.0843995011035044
 10
0.7112275707548826
 20
0.1221816495361003
 10
0.7112275707548826
 20
0.1221816495361003
 10
0.8759819569295572
 20
0.1163755475860104
450
        0
451
        0
460
0.0
461
0.0
452
        0
462
0.0
453
        0
470

1001
ACAD
1010
0.0
1020
0.0
1030
0.0
  0
HATCH
  5
B35
330
B30
100
AcDbEntity
  8
0
 62
   150
100
AcDbHatch
 10
0.0
 20
0.0
 30
0.0
210
0.0
220
0.0
230
1.0
  2
SOLID
 70
     1
 71
     0
 91
        8
 92
        7
 72
     1
 73
     1
 93
       22
 10
1.131716859301388
 20
0.0982802106585603
 42
0.0484183422992068
 10
1.088571435005292
 20
0.1135920246412381
 42
-0.1024497749852004
 10
1.063583383368957
 20
0.125237861247649
 42
-0.5197370575112227
 10
1.065952625421378
 20
0.1500864950045506
 42
-0.1784163181567931
 10
1.097462280584622
 20
0.1562497626075707
 42
-0.1611556671223822
 10
1.130948711999153
 20
0.1417059730721331
 42
0.0
 10
1.143877562730139
 20
0.1560685971400009
 42
0.0879608039459819
 10
1.125754289819187
 20
0.1671964668262178
 42
0.096844267443967
 10
1.086490181797579
 20
0.1727441735534061
 42
0.1289645081611661
 10
1.053342092127955
 20
0.1633533786648891
 42
0.2520599057044872
 10
1.037629278411372
 20
0.1399706628121899
 42
0.2998873610886212
 10
1.050463850241648
 20
0.1096908005921695
 42
0.087968247036807
 10
1.088782354168369
 20
0.0932096049078468
 42
-0.0908267507933147
 10
1.119928772767817
 20
0.0811747820304691
 42
-0.4466858316882535
 10
1.125453128485816
 20
0.0540976492614389
 42
-0.2058443735084833
 10
1.094059901125532
 20
0.0433269295271455
 42
-0.2322683613354944
 10
1.04833474053288
 20
0.0635860005622337
 42
0.0
 10
1.033442870302863
 20
0.0487121861500608
 42
0.0897498636939959
 10
1.054992265021407
 20
0.0336893058402592
 42
0.1162784600455089
 10
1.100093060274716
 20
0.0271838680846326
 42
0.1305494116801128
 10
1.134902795650507
 20
0.0379471166909786
 42
0.2700443324603339
 10
1.150563716135536
 20
0.0687356163070478
 42
0.2747552069495999
 97
        0
 92
        7
 72
     1
 73
     1
 93
       17
 10
1.204964925758659
 20
0.0711619205531866
 42
0.0
 10
1.204964925758659
 20
0.1705032481376225
 42
0.0
 10
1.182530424786222
 20
0.1705032481376221
 42
0.0
 10
1.182530424786222
 20
0.068114123580882
 42
0.231056446390574
 10
1.200275679141658
 20
0.0337787716591849
 42
0.1033983125445035
 10
1.222016181175408
 20
0.0271400549874108
 42
0.1113661879093152
 10
1.256252700835137
 20
0.0321455417860066
 42
0.060456799039856
 10
1.280359576718197
 20
0.0437750658039402
 42
0.0
 10
1.282436740080608
 20
0.0292528824702614
 42
0.0
 10
1.305008011852606
 20
0.0292528824702614
 42
0.0
 10
1.303035750365566
 20
0.045573054697837
 42
0.0
 10
1.303035750365566
 20
0.1704535782767582
 42
0.0
 10
1.280726706724607
 20
0.1704535782767582
 42
0.0
 10
1.280726706724607
 20
0.0603385752977079
 42
-0.0926529444633646
 10
1.271406905425951
 20
0.0542136206901671
 42
-0.0664344377826394
 10
1.252018117536273
 20
0.0470706779667407
 42
-0.0713593701437487
 10
1.22596399727168
 20
0.0462232117768133
 42
-0.3666103947779491
 97
        0
 92
        7
 72
     1
 73
     1
 93
       12
 10
1.34888971452673
 20
-0.0300855190343001
 42
0.0
 10
1.37158389411627
 20
-0.0300855190342997
 42
0.0
 10
1.37158389411627
 20
0.0381322242109672
 42
0.2065475696655794
 10
1.43316687203049
 20
0.0295489681525751
 42
0.2194428372319613
 10
1.471434120104095
 20
0.0681246169490031
 42
0.1323036971285341
 10
1.475462458348772
 20
0.1210354643912233
 42
0.1641390880683366
 10
1.453695611337639
 20
0.1611617476764042
 42
0.205639974219759
 10
1.404711616991345
 20
0.1717914749112652
 42
0.0657328919071964
 10
1.371062306057382
 20
0.1603071107053626
 42
0.0
 10
1.369185970032088
 20
0.1704922854774775
 42
0.0
 10
1.347893491957236
 20
0.1704922854774775
 42
0.0
 10
1.348889714526734
 20
0.1571025974974671
 42
0.0
 97
        0
 92
       22
 72
     1
 73
     1
 93
        8
 10
1.37158389411627
 20
0.1447873628418232
 42
-0.1242339830404592
 10
1.408127279067805
 20
0.1549128436768488
 42
-0.229840994742505
 10
1.439329608924591
 20
0.143501077402358
 42
-0.1934262502536381
 10
1.452032531529923
 20
0.1169919663469652
 42
-0.1013985410677669
 10
1.45007247035501
 20
0.0757878280977211
 42
-0.2083357761076617
 10
1.426144858393048
 20
0.0470888301796872
 42
-0.1496858148879605
 10
1.383365488627418
 20
0.0497243925890185
 42
-0.0899155484976542
 10
1.37158389411627
 20
0.0564933659367366
 42
0.0
 97
        0
 92
        7
 72
     1
 73
     1
 93
       12
 10
1.536384209201344
 20
0.0381322242109672
 42
0.2065475696655794
 10
1.597967187115564
 20
0.0295489681525751
 42
0.2194428372319613
 10
1.63623443518917
 20
0.0681246169490031
 42
0.1323036971285341
 10
1.640262773433846
 20
0.1210354643912233
 42
0.1641390880683366
 10
1.618495926422713
 20
0.1611617476764042
 42
0.205639974219759
 10
1.569511932076419
 20
0.1717914749112652
 42
0.0657328919071964
 10
1.535862621142456
 20
0.1603071107053626
 42
0.0
 10
1.533986285117165
 20
0.1704922854774775
 42
0.0
 10
1.51269380704231
 20
0.1704922854774775
 42
0.0
 10
1.513690029611812
 20
0.1571025974974671
 42
0.0
 10
1.513690029611804
 20
-0.0300855190343001
 42
0.0
 10
1.536384209201344
 20
-0.0300855190342997
 42
0.0
 97
        0
 92
       22
 72
     1
 73
     1
 93
        8
 10
1.53638420920134
 20
0.0564933659367348
 42
0.0
 10
1.536384209201344
 20
0.1447873628418232
 42
-0.1242339830404592
 10
1.572927594152879
 20
0.1549128436768488
 42
-0.229840994742505
 10
1.604129924009665
 20
0.143501077402358
 42
-0.1934262502536381
 10
1.616832846614997
 20
0.1169919663469652
 42
-0.1013985410677669
 10
1.614872785440084
 20
0.0757878280977211
 42
-0.2083357761076617
 10
1.590945173478122
 20
0.0470888301796872
 42
-0.1496858148879605
 10
1.548165803712493
 20
0.0497243925890185
 42
-0.0899155484976689
 97
        0
 92
        7
 72
     1
 73
     1
 93
        9
 10
1.700061888317705
 20
0.2342426883985293
 42
0.0
 10
1.677630680467434
 20
0.2342426883985293
 42
0.0
 10
1.67763068046743
 20
0.0525526462764159
 42
0.3003574180393968
 10
1.689763445472692
 20
0.0294232917661481
 42
0.1772930531369512
 10
1.716213749579594
 20
0.0296692382956376
 42
0.0
 10
1.726340843842322
 20
0.0328930300171466
 42
0.0
 10
1.722947015877874
 20
0.0450847282577249
 42
0.0
 10
1.715478639728772
 20
0.0445718860057287
 42
-0.4033750267256485
 10
1.700061888317705
 20
0.0551463102997136
 42
0.0
 97
        0
 92
        7
 72
     1
 73
     1
 93
       13
 10
1.756550300014353
 20
0.1705037737446156
 42
0.0
 10
1.733158403445031
 20
0.1705037737446147
 42
0.0
 10
1.789004390745333
 20
0.0387212794769898
 42
-0.1248046720339364
 10
1.779651976914252
 20
0.0098440558334927
 42
-0.2041270254703542
 10
1.758338890268429
 20
-0.0108879300937863
 42
-0.1582846410265598
 10
1.728104948139659
 20
-0.0088290148710986
 42
0.0
 10
1.723524002749954
 20
-0.0288461752875353
 42
0.0503996825504031
 10
1.752727303871125
 20
-0.0310194851179708
 42
0.1573307408029109
 10
1.778748174224848
 20
-0.02185783610684
 42
0.1379639421479074
 10
1.7998397718477
 20
0.0061205808064937
 42
0.0
 10
1.863932002621172
 20
0.1705037737446151
 42
0.0
 10
1.84037943355916
 20
0.1705037737446147
 42
0.0
 10
1.801429340670335
 20
0.0575527643750102
 42
0.0
 97
        0
 75
     0
 76
     1
 47
0.0008892483299936
 98
        8
 10
1.136466178840407
 20
0.0806040287034282
 10
1.218376325116423
 20
0.039698608137611
 10
1.365280380260387
 20
0.0654868019383397
 10
1.365280380260387
 20
0.0654868019383397
 10
1.532067085388874
 20
0.0510462190903649
 10
1.532067085388874
 20
0.0510462190903649
 10
1.692326025665067
 20
0.0661634458554534
 10
1.78937173321124
 20
0.0643849607353548
450
        0
451
        0
460
0.0
461
0.0
452
        0
462
0.0
453
        0
470

1001
ACAD
1010
0.0
1020
0.0
1030
0.0
  0
ENDBLK
  5
B36
330
B30
100
AcDbEntity
  8
0
100
AcDbBlockEnd
  0
BLOCK
  5
BC1
330
BC0
100
AcDbEntity
  8
0
100
AcDbBlockBegin
  2
SW_CENTERMARKSYMBOL_0
 70
     0
 10
0.0
 20
0.0
 30
0.0
  3
SW_CENTERMARKSYMBOL_0
  1

  0
LINE
  5
BC2
330
BC0
100
AcDbEntity
  8
0
  6
Continuous
 62
     0
370
     0
100
AcDbLine
 10
0.0
 20
0.0
 30
0.0
 11
0.0
 21
0.0999999999999995
 31
0.0
  0
LINE
  5
BC3
330
BC0
100
AcDbEntity
  8
0
  6
Continuous
 62
     0
370
     0
100
AcDbLine
 10
0.0
 20
0.0
 30
0.0
 11
-0.0999999999999995
 21
0.0
 31
0.0
  0
LINE
  5
BC4
330
BC0
100
AcDbEntity
  8
0
  6
Continuous
 62
     0
370
     0
100
AcDbLine
 10
0.0
 20
0.0
 30
0.0
 11
0.0
 21
-0.0999999999999995
 31
0.0
  0
LINE
  5
BC5
330
BC0
100
AcDbEntity
  8
0
  6
Continuous
 62
     0
370
     0
100
AcDbLine
 10
0.0
 20
0.0
 30
0.0
 11
0.0999999999999995
 21
0.0
 31
0.0
  0
LINE
  5
BC6
330
BC0
100
AcDbEntity
  8
0
  6
Continuous
 62
     0
370
     0
100
AcDbLine
 10
0.0
 20
0.199999999999999
 30
0.0
 11
0.0
 21
0.2261999999999988
 31
0.0
  0
LINE
  5
BC7
330
BC0
100
AcDbEntity
  8
0
  6
Continuous
 62
     0
370
     0
100
AcDbLine
 10
-0.199999999999999
 20
0.0
 30
0.0
 11
-0.2261999999999988
 21
0.0
 31
0.0
  0
LINE
  5
BC8
330
BC0
100
AcDbEntity
  8
0
  6
Continuous
 62
     0
370
     0
100
AcDbLine
 10
0.0
 20
-0.2000000000000033
 30
0.0
 11
0.0
 21
-0.226200000000001
 31
0.0
  0
LINE
  5
BC9
330
BC0
100
AcDbEntity
  8
0
  6
Continuous
 62
     0
370
     0
100
AcDbLine
 10
0.199999999999999
 20
0.0
 30
0.0
 11
0.2261999999999988
 21
0.0
 31
0.0
  0
ENDBLK
  5
BCA
330
BC0
100
AcDbEntity
  8
0
100
AcDbBlockEnd
  0
BLOCK
  5
BCC
330
BCB
100
AcDbEntity
  8
0
100
AcDbBlockBegin
  2
SW_CENTERMARKSYMBOL_3
 70
     0
 10
0.0
 20
0.0
 30
0.0
  3
SW_CENTERMARKSYMBOL_3
  1

  0
LINE
  5
BCD
330
BCB
100
AcDbEntity
  8
0
  6
Continuous
 62
     0
370
     0
100
AcDbLine
 10
0.0
 20
0.0
 30
0.0
 11
0.0
 21
0.0999999999999995
 31
0.0
  0
LINE
  5
BCE
330
BCB
100
AcDbEntity
  8
0
  6
Continuous
 62
     0
370
     0
100
AcDbLine
 10
0.0
 20
0.0
 30
0.0
 11
-0.0999999999999995
 21
0.0
 31
0.0
  0
LINE
  5
BCF
330
BCB
100
AcDbEntity
  8
0
  6
Continuous
 62
     0
370
     0
100
AcDbLine
 10
0.0
 20
0.0
 30
0.0
 11
0.0
 21
-0.0999999999999995
 31
0.0
  0
LINE
  5
BD0
330
BCB
100
AcDbEntity
  8
0
  6
Continuous
 62
     0
370
     0
100
AcDbLine
 10
0.0
 20
0.0
 30
0.0
 11
0.0999999999999995
 21
0.0
 31
0.0
  0
LINE
  5
BD1
330
BCB
100
AcDbEntity
  8
0
  6
Continuous
 62
     0
370
     0
100
AcDbLine
 10
0.0
 20
0.199999999999999
 30
0.0
 11
0.0
 21
0.85
 31
0.0
  0
LINE
  5
BD2
330
BCB
100
AcDbEntity
  8
0
  6
Continuous
 62
     0
370
     0
100
AcDbLine
 10
-0.199999999999999
 20
0.0
 30
0.0
 11
-0.85
 21
0.0
 31
0.0
  0
LINE
  5
BD3
330
BCB
100
AcDbEntity
  8
0
  6
Continuous
 62
     0
370
     0
100
AcDbLine
 10
0.0
 20
-0.199999999999999
 30
0.0
 11
0.0
 21
-0.85
 31
0.0
  0
LINE
  5
BD4
330
BCB
100
AcDbEntity
  8
0
  6
Continuous
 62
     0
370
     0
100
AcDbLine
 10
0.199999999999999
 20
0.0
 30
0.0
 11
0.85
 21
0.0
 31
0.0
  0
ENDBLK
  5
BD5
330
BCB
100
AcDbEntity
  8
0
100
AcDbBlockEnd
  0
BLOCK
  5
CD7
330
CD6
100
AcDbEntity
  8
0
100
AcDbBlockBegin
  2
*D9
 70
     1
 10
0.0
 20
0.0
 30
0.0
  3
*D9
  1

  0
LINE
  5
D09
330
CD6
100
AcDbEntity
  8
DIM
 62
     0
370
    -2
100
AcDbLine
 10
2.207010058250655
 20
2.896072818302814
 30
0.0
 11
2.409902578964193
 21
2.896072818302814
 31
0.0
  0
LINE
  5
D0A
330
CD6
100
AcDbEntity
  8
DIM
 62
     0
370
    -2
100
AcDbLine
 10
2.207010058250655
 20
1.426072818302815
 30
0.0
 11
2.409902578964193
 21
1.426072818302815
 31
0.0
  0
LINE
  5
D0B
330
CD6
100
AcDbEntity
  8
DIM
 62
     0
370
    -2
100
AcDbLine
 10
2.369902578964193
 20
2.826072818302814
 30
0.0
 11
2.369902578964193
 21
1.496072818302815
 31
0.0
  0
SOLID
  5
D0C
330
CD6
100
AcDbEntity
  8
DIM
 62
     0
100
AcDbTrace
 10
2.358235912297526
 20
2.826072818302814
 30
0.0
 11
2.38156924563086
 21
2.826072818302814
 31
0.0
 12
2.369902578964193
 22
2.896072818302814
 32
0.0
 13
2.369902578964193
 23
2.896072818302814
 33
0.0
  0
SOLID
  5
D0D
330
CD6
100
AcDbEntity
  8
DIM
 62
     0
100
AcDbTrace
 10
2.358235912297526
 20
1.496072818302815
 30
0.0
 11
2.38156924563086
 21
1.496072818302815
 31
0.0
 12
2.369902578964193
 22
1.426072818302815
 32
0.0
 13
2.369902578964193
 23
1.426072818302815
 33
0.0
  0
MTEXT
  5
D0E
330
CD6
100
AcDbEntity
  8
DIM
 62
     0
100
AcDbMText
 10
2.266381164960114
 20
2.269712736606544
 30
0.0
 40
0.07
 41
0.0
 71
     2
 72
     1
  1
\A1;1.470
 11
0.0000000000000001
 21
1.0
 31
0.0
 73
     1
 44
1.0
  0
POINT
  5
D0F
330
CD6
100
AcDbEntity
  8
Defpoints
 62
     0
100
AcDbPoint
 10
2.157010058250655
 20
2.896072818302814
 30
0.0
  0
POINT
  5
D10
330
CD6
100
AcDbEntity
  8
Defpoints
 62
     0
100
AcDbPoint
 10
2.157010058250655
 20
1.426072818302815
 30
0.0
  0
POINT
  5
D11
330
CD6
100
AcDbEntity
  8
Defpoints
 62
     0
100
AcDbPoint
 10
2.369902578964193
 20
1.426072818302815
 30
0.0
  0
ENDBLK
  5
CD8
330
CD6
100
AcDbEntity
  8
0
100
AcDbBlockEnd
  0
BLOCK
  5
D14
330
D13
100
AcDbEntity
  8
0
100
AcDbBlockBegin
  2
*D10
 70
     1
 10
0.0
 20
0.0
 30
0.0
  3
*D10
  1

  0
LINE
  5
D1F
330
D13
100
AcDbEntity
  8
DIM
 62
     0
370
    -2
100
AcDbLine
 10
2.192010058250654
 20
1.411072818302814
 30
0.0
 11
2.576230137524128
 21
1.411072818302814
 31
0.0
  0
LINE
  5
D20
330
D13
100
AcDbEntity
  8
DIM
 62
     0
370
    -2
100
AcDbLine
 10
2.192010058250654
 20
2.911072818302814
 30
0.0
 11
2.576230137524128
 21
2.911072818302814
 31
0.0
  0
LINE
  5
D21
330
D13
100
AcDbEntity
  8
DIM
 62
     0
370
    -2
100
AcDbLine
 10
2.536230137524128
 20
1.481072818302814
 30
0.0
 11
2.536230137524128
 21
2.841072818302814
 31
0.0
  0
SOLID
  5
D22
330
D13
100
AcDbEntity
  8
DIM
 62
     0
100
AcDbTrace
 10
2.524563470857462
 20
1.481072818302814
 30
0.0
 11
2.547896804190795
 21
1.481072818302814
 31
0.0
 12
2.536230137524128
 22
1.411072818302814
 32
0.0
 13
2.536230137524128
 23
1.411072818302814
 33
0.0
  0
SOLID
  5
D23
330
D13
100
AcDbEntity
  8
DIM
 62
     0
100
AcDbTrace
 10
2.524563470857462
 20
2.841072818302814
 30
0.0
 11
2.547896804190795
 21
2.841072818302814
 31
0.0
 12
2.536230137524128
 22
2.911072818302814
 32
0.0
 13
2.536230137524128
 23
2.911072818302814
 33
0.0
  0
MTEXT
  5
D24
330
D13
100
AcDbEntity
  8
DIM
 62
     0
100
AcDbMText
 10
2.469469430522088
 20
2.161072818302815
 30
0.0
 40
0.07
 41
0.0
 71
     5
 72
     1
  1
\A1;1.500
 11
0.0000000000000001
 21
1.0
 31
0.0
 73
     1
 44
1.0
  0
POINT
  5
D25
330
D13
100
AcDbEntity
  8
Defpoints
 62
     0
100
AcDbPoint
 10
2.142010058250654
 20
1.411072818302814
 30
0.0
  0
POINT
  5
D26
330
D13
100
AcDbEntity
  8
Defpoints
 62
     0
100
AcDbPoint
 10
2.142010058250654
 20
2.911072818302814
 30
0.0
  0
POINT
  5
D27
330
D13
100
AcDbEntity
  8
Defpoints
 62
     0
100
AcDbPoint
 10
2.536230137524128
 20
2.911072818302814
 30
0.0
  0
ENDBLK
  5
D15
330
D13
100
AcDbEntity
  8
0
100
AcDbBlockEnd
  0
BLOCK
  5
D2A
330
D29
100
AcDbEntity
  8
0
100
AcDbBlockBegin
  2
*D11
 70
     1
 10
0.0
 20
0.0
 30
0.0
  3
*D11
  1

  0
LINE
  5
D8A
330
D29
100
AcDbEntity
  8
DIM
 62
     0
370
    -2
100
AcDbLine
 10
1.594010058250656
 20
2.946072818302813
 30
0.0
 11
1.594010058250656
 21
3.062177697420513
 31
0.0
  0
LINE
  5
D8B
330
D29
100
AcDbEntity
  8
DIM
 62
     0
370
    -2
100
AcDbLine
 10
1.79788505825066
 20
2.961072818302814
 30
0.0
 11
1.79788505825066
 21
3.062177697420513
 31
0.0
  0
LINE
  5
D8C
330
D29
100
AcDbEntity
  8
DIM
 62
     0
370
    -2
100
AcDbLine
 10
1.72788505825066
 20
3.022177697420513
 30
0.0
 11
1.664010058250656
 21
3.022177697420513
 31
0.0
  0
LINE
  5
D8D
330
D29
100
AcDbEntity
  8
DIM
 62
     0
370
    -2
100
AcDbLine
 10
1.594010058250656
 20
3.022177697420513
 30
0.0
 11
1.22669530638118
 21
3.022177697420513
 31
0.0
  0
SOLID
  5
D8E
330
D29
100
AcDbEntity
  8
DIM
 62
     0
100
AcDbTrace
 10
1.72788505825066
 20
3.03384436408718
 30
0.0
 11
1.72788505825066
 21
3.010511030753846
 31
0.0
 12
1.79788505825066
 22
3.022177697420513
 32
0.0
 13
1.79788505825066
 23
3.022177697420513
 33
0.0
  0
SOLID
  5
D8F
330
D29
100
AcDbEntity
  8
DIM
 62
     0
100
AcDbTrace
 10
1.664010058250656
 20
3.03384436408718
 30
0.0
 11
1.664010058250656
 21
3.010511030753846
 31
0.0
 12
1.594010058250656
 22
3.022177697420513
 32
0.0
 13
1.594010058250656
 23
3.022177697420513
 33
0.0
  0
MTEXT
  5
D90
330
D29
100
AcDbEntity
  8
DIM
 62
     0
100
AcDbMText
 10
1.375352682315918
 20
3.088938404422552
 30
0.0
 40
0.07
 41
0.0
 71
     5
 72
     1
  1
\A1;0.204
 73
     1
 44
1.0
  0
POINT
  5
D91
330
D29
100
AcDbEntity
  8
Defpoints
 62
     0
100
AcDbPoint
 10
1.594010058250656
 20
2.896072818302814
 30
0.0
  0
POINT
  5
D92
330
D29
100
AcDbEntity
  8
Defpoints
 62
     0
100
AcDbPoint
 10
1.79788505825066
 20
2.911072818302814
 30
0.0
  0
POINT
  5
D93
330
D29
100
AcDbEntity
  8
Defpoints
 62
     0
100
AcDbPoint
 10
1.79788505825066
 20
3.022177697420513
 30
0.0
  0
ENDBLK
  5
D2B
330
D29
100
AcDbEntity
  8
0
100
AcDbBlockEnd
  0
BLOCK
  5
D38
330
D37
100
AcDbEntity
  8
0
100
AcDbBlockBegin
  2
*D12
 70
     1
 10
0.0
 20
0.0
 30
0.0
  3
*D12
  1

  0
LINE
  5
D7F
330
D37
100
AcDbEntity
  8
DIM
 62
     0
370
    -2
100
AcDbLine
 10
1.79788505825066
 20
2.961072818302814
 30
0.0
 11
1.79788505825066
 21
3.062177697420513
 31
0.0
  0
LINE
  5
D80
330
D37
100
AcDbEntity
  8
DIM
 62
     0
370
    -2
100
AcDbLine
 10
1.954135058250656
 20
2.961072818302814
 30
0.0
 11
1.954135058250656
 21
3.062177697420513
 31
0.0
  0
LINE
  5
D81
330
D37
100
AcDbEntity
  8
DIM
 62
     0
370
    -2
100
AcDbLine
 10
1.72788505825066
 20
3.022177697420513
 30
0.0
 11
1.65788505825066
 21
3.022177697420513
 31
0.0
  0
LINE
  5
D82
330
D37
100
AcDbEntity
  8
DIM
 62
     0
370
    -2
100
AcDbLine
 10
2.024135058250656
 20
3.022177697420513
 30
0.0
 11
2.094135058250656
 21
3.022177697420513
 31
0.0
  0
LINE
  5
D83
330
D37
100
AcDbEntity
  8
DIM
 62
     0
370
    -2
100
AcDbLine
 10
1.79788505825066
 20
3.022177697420513
 30
0.0
 11
1.954135058250656
 21
3.022177697420513
 31
0.0
  0
SOLID
  5
D84
330
D37
100
AcDbEntity
  8
DIM
 62
     0
100
AcDbTrace
 10
1.72788505825066
 20
3.03384436408718
 30
0.0
 11
1.72788505825066
 21
3.010511030753846
 31
0.0
 12
1.79788505825066
 22
3.022177697420513
 32
0.0
 13
1.79788505825066
 23
3.022177697420513
 33
0.0
  0
SOLID
  5
D85
330
D37
100
AcDbEntity
  8
DIM
 62
     0
100
AcDbTrace
 10
2.024135058250656
 20
3.03384436408718
 30
0.0
 11
2.024135058250656
 21
3.010511030753846
 31
0.0
 12
1.954135058250656
 22
3.022177697420513
 32
0.0
 13
1.954135058250656
 23
3.022177697420513
 33
0.0
  0
MTEXT
  5
D86
330
D37
100
AcDbEntity
  8
DIM
 62
     0
100
AcDbMText
 10
1.876010058250658
 20
3.088938404422552
 30
0.0
 40
0.07
 41
0.0
 71
     5
 72
     1
  1
\A1;0.156
 73
     1
 44
1.0
  0
POINT
  5
D87
330
D37
100
AcDbEntity
  8
Defpoints
 62
     0
100
AcDbPoint
 10
1.79788505825066
 20
2.911072818302814
 30
0.0
  0
POINT
  5
D88
330
D37
100
AcDbEntity
  8
Defpoints
 62
     0
100
AcDbPoint
 10
1.954135058250656
 20
2.911072818302814
 30
0.0
  0
POINT
  5
D89
330
D37
100
AcDbEntity
  8
Defpoints
 62
     0
100
AcDbPoint
 10
1.954135058250656
 20
3.022177697420513
 30
0.0
  0
ENDBLK
  5
D39
330
D37
100
AcDbEntity
  8
0
100
AcDbBlockEnd
  0
BLOCK
  5
D4A
330
D49
100
AcDbEntity
  8
0
100
AcDbBlockBegin
  2
*D13
 70
     1
 10
0.0
 20
0.0
 30
0.0
  3
*D13
  1

  0
LINE
  5
D57
330
D49
100
AcDbEntity
  8
DIM
 62
     0
370
    -2
100
AcDbLine
 10
1.954135058250656
 20
2.961072818302814
 30
0.0
 11
1.954135058250656
 21
3.062177697420513
 31
0.0
  0
LINE
  5
D58
330
D49
100
AcDbEntity
  8
DIM
 62
     0
370
    -2
100
AcDbLine
 10
2.157010058250659
 20
2.946072818302813
 30
0.0
 11
2.157010058250659
 21
3.062177697420513
 31
0.0
  0
LINE
  5
D59
330
D49
100
AcDbEntity
  8
DIM
 62
     0
370
    -2
100
AcDbLine
 10
2.024135058250656
 20
3.022177697420513
 30
0.0
 11
2.087010058250659
 21
3.022177697420513
 31
0.0
  0
LINE
  5
D5A
330
D49
100
AcDbEntity
  8
DIM
 62
     0
370
    -2
100
AcDbLine
 10
2.157010058250659
 20
3.022177697420513
 30
0.0
 11
2.523182729902596
 21
3.022177697420513
 31
0.0
  0
SOLID
  5
D5B
330
D49
100
AcDbEntity
  8
DIM
 62
     0
100
AcDbTrace
 10
2.024135058250656
 20
3.03384436408718
 30
0.0
 11
2.024135058250656
 21
3.010511030753846
 31
0.0
 12
1.954135058250656
 22
3.022177697420513
 32
0.0
 13
1.954135058250656
 23
3.022177697420513
 33
0.0
  0
SOLID
  5
D5C
330
D49
100
AcDbEntity
  8
DIM
 62
     0
100
AcDbTrace
 10
2.087010058250659
 20
3.03384436408718
 30
0.0
 11
2.087010058250659
 21
3.010511030753846
 31
0.0
 12
2.157010058250659
 22
3.022177697420513
 32
0.0
 13
2.157010058250659
 23
3.022177697420513
 33
0.0
  0
MTEXT
  5
D5D
330
D49
100
AcDbEntity
  8
DIM
 62
     0
100
AcDbMText
 10
2.375096394076627
 20
3.088938404422552
 30
0.0
 40
0.07
 41
0.0
 71
     5
 72
     1
  1
\A1;0.203
 73
     1
 44
1.0
  0
POINT
  5
D5E
330
D49
100
AcDbEntity
  8
Defpoints
 62
     0
100
AcDbPoint
 10
1.954135058250656
 20
2.911072818302814
 30
0.0
  0
POINT
  5
D5F
330
D49
100
AcDbEntity
  8
Defpoints
 62
     0
100
AcDbPoint
 10
2.157010058250659
 20
2.896072818302814
 30
0.0
  0
POINT
  5
D60
330
D49
100
AcDbEntity
  8
Defpoints
 62
     0
100
AcDbPoint
 10
2.157010058250659
 20
3.022177697420513
 30
0.0
  0
ENDBLK
  5
D4B
330
D49
100
AcDbEntity
  8
0
100
AcDbBlockEnd
  0
BLOCK
  5
D97
330
D96
100
AcDbEntity
  8
0
100
AcDbBlockBegin
  2
*D14
 70
     1
 10
0.0
 20
0.0
 30
0.0
  3
*D14
  1

  0
LINE
  5
E32
330
D96
100
AcDbEntity
  8
DIM
 62
     0
370
    -2
100
AcDbLine
 10
3.755513537936136
 20
2.638610169018954
 30
0.0
 11
4.10344011849358
 21
2.638610169018955
 31
0.0
  0
LINE
  5
E33
330
D96
100
AcDbEntity
  8
DIM
 62
     0
370
    -2
100
AcDbLine
 10
4.10344011849358
 20
2.638610169018955
 30
0.0
 11
4.55532759206201
 21
2.398896804434358
 31
0.0
  0
LINE
  5
E34
330
D96
100
AcDbEntity
  8
DIM
 62
     0
370
    -2
100
AcDbLine
 10
5.451979144495839
 20
1.923248832171268
 30
0.0
 11
5.513817182594725
 21
1.89044552373933
 31
0.0
  0
MTEXT
  5
E35
102
{ACAD_XDICTIONARY
360
167B
102
}
330
D96
100
AcDbEntity
  8
DIM
 62
     0
100
AcDbMText
 10
3.914476828214858
 20
2.707559863104611
 30
0.0
 40
0.07
 41
0.0
 71
     5
 72
     1
  1
\A1;\U+22050.875
 73
     1
 44
1.0
  0
LINE
  5
E36
330
D96
100
AcDbEntity
  8
DIM
 62
     0
370
    -2
100
AcDbLine
 10
5.390141106396955
 20
1.956052140603206
 30
0.0
 11
4.617165630160895
 21
2.366093496002421
 31
0.0
  0
SOLID
  5
E37
330
D96
100
AcDbEntity
  8
DIM
 62
     0
100
AcDbTrace
 10
5.457446362567829
 20
1.933555171854415
 30
0.0
 11
5.44651192642385
 21
1.91294249248812
 31
0.0
 12
5.390141106396955
 22
1.956052140603206
 32
0.0
 13
5.390141106396955
 23
1.956052140603206
 33
0.0
  0
SOLID
  5
E38
330
D96
100
AcDbEntity
  8
DIM
 62
     0
100
AcDbTrace
 10
4.560794810134
 20
2.409203144117506
 30
0.0
 11
4.54986037399002
 21
2.388590464751211
 31
0.0
 12
4.617165630160895
 22
2.366093496002421
 32
0.0
 13
4.617165630160895
 23
2.366093496002421
 33
0.0
  0
POINT
  5
E39
330
D96
100
AcDbEntity
  8
Defpoints
 62
     0
100
AcDbPoint
 10
4.617165630160895
 20
2.366093496002421
 30
0.0
  0
POINT
  5
E3A
330
D96
100
AcDbEntity
  8
Defpoints
 62
     0
100
AcDbPoint
 10
5.390141106396955
 20
1.956052140603206
 30
0.0
  0
ENDBLK
  5
D98
330
D96
100
AcDbEntity
  8
0
100
AcDbBlockEnd
  0
BLOCK
  5
DA3
330
DA2
100
AcDbEntity
  8
0
100
AcDbBlockBegin
  2
*D15
 70
     1
 10
0.0
 20
0.0
 30
0.0
  3
*D15
  1

  0
LINE
  5
E3B
330
DA2
100
AcDbEntity
  8
DIM
 62
     0
370
    -2
100
AcDbLine
 10
1.609010058250657
 20
3.999711414909643
 30
0.0
 11
1.609010058250657
 21
3.849201168896773
 31
0.0
  0
LINE
  5
E3C
330
DA2
100
AcDbEntity
  8
DIM
 62
     0
370
    -2
100
AcDbLine
 10
2.142010058250654
 20
3.999711414909643
 30
0.0
 11
2.142010058250654
 21
3.849201168896773
 31
0.0
  0
LINE
  5
E3D
330
DA2
100
AcDbEntity
  8
DIM
 62
     0
370
    -2
100
AcDbLine
 10
1.679010058250657
 20
3.889201168896773
 30
0.0
 11
2.072010058250655
 21
3.889201168896773
 31
0.0
  0
SOLID
  5
E3E
330
DA2
100
AcDbEntity
  8
DIM
 62
     0
100
AcDbTrace
 10
1.679010058250657
 20
3.90086783556344
 30
0.0
 11
1.679010058250657
 21
3.877534502230107
 31
0.0
 12
1.609010058250657
 22
3.889201168896773
 32
0.0
 13
1.609010058250657
 23
3.889201168896773
 33
0.0
  0
SOLID
  5
E3F
330
DA2
100
AcDbEntity
  8
DIM
 62
     0
100
AcDbTrace
 10
2.072010058250655
 20
3.90086783556344
 30
0.0
 11
2.072010058250655
 21
3.877534502230107
 31
0.0
 12
2.142010058250654
 22
3.889201168896773
 32
0.0
 13
2.142010058250654
 23
3.889201168896773
 33
0.0
  0
MTEXT
  5
E40
330
DA2
100
AcDbEntity
  8
DIM
 62
     0
100
AcDbMText
 10
1.875510058250656
 20
3.955961875898813
 30
0.0
 40
0.07
 41
0.0
 71
     5
 72
     1
  1
\A1;0.533
 73
     1
 44
1.0
  0
POINT
  5
E41
330
DA2
100
AcDbEntity
  8
Defpoints
 62
     0
100
AcDbPoint
 10
1.609010058250657
 20
4.049711414909642
 30
0.0
  0
POINT
  5
E42
330
DA2
100
AcDbEntity
  8
Defpoints
 62
     0
100
AcDbPoint
 10
2.142010058250654
 20
4.049711414909642
 30
0.0
  0
POINT
  5
E43
330
DA2
100
AcDbEntity
  8
Defpoints
 62
     0
100
AcDbPoint
 10
2.142010058250654
 20
3.889201168896773
 30
0.0
  0
ENDBLK
  5
DA4
330
DA2
100
AcDbEntity
  8
0
100
AcDbBlockEnd
  0
BLOCK
  5
DB0
330
DAF
100
AcDbEntity
  8
0
100
AcDbBlockBegin
  2
*D16
 70
     1
 10
0.0
 20
0.0
 30
0.0
  3
*D16
  1

  0
LINE
  5
E44
330
DAF
100
AcDbEntity
  8
DIM
 62
     0
370
    -2
100
AcDbLine
 10
1.594010058250656
 20
4.014711414909643
 30
0.0
 11
1.594010058250656
 21
3.677643849870615
 31
0.0
  0
LINE
  5
E45
330
DAF
100
AcDbEntity
  8
DIM
 62
     0
370
    -2
100
AcDbLine
 10
2.157010058250655
 20
4.014711414909643
 30
0.0
 11
2.157010058250655
 21
3.677643849870615
 31
0.0
  0
LINE
  5
E46
330
DAF
100
AcDbEntity
  8
DIM
 62
     0
370
    -2
100
AcDbLine
 10
1.664010058250656
 20
3.717643849870615
 30
0.0
 11
2.087010058250655
 21
3.717643849870615
 31
0.0
  0
SOLID
  5
E47
330
DAF
100
AcDbEntity
  8
DIM
 62
     0
100
AcDbTrace
 10
1.664010058250656
 20
3.729310516537282
 30
0.0
 11
1.664010058250656
 21
3.705977183203948
 31
0.0
 12
1.594010058250656
 22
3.717643849870615
 32
0.0
 13
1.594010058250656
 23
3.717643849870615
 33
0.0
  0
SOLID
  5
E48
330
DAF
100
AcDbEntity
  8
DIM
 62
     0
100
AcDbTrace
 10
2.087010058250655
 20
3.729310516537282
 30
0.0
 11
2.087010058250655
 21
3.705977183203948
 31
0.0
 12
2.157010058250655
 22
3.717643849870615
 32
0.0
 13
2.157010058250655
 23
3.717643849870615
 33
0.0
  0
MTEXT
  5
E49
330
DAF
100
AcDbEntity
  8
DIM
 62
     0
100
AcDbMText
 10
1.875510058250656
 20
3.784404556872654
 30
0.0
 40
0.07
 41
0.0
 71
     5
 72
     1
  1
\A1;0.563
 73
     1
 44
1.0
  0
POINT
  5
E4A
330
DAF
100
AcDbEntity
  8
Defpoints
 62
     0
100
AcDbPoint
 10
1.594010058250656
 20
4.064711414909643
 30
0.0
  0
POINT
  5
E4B
330
DAF
100
AcDbEntity
  8
Defpoints
 62
     0
100
AcDbPoint
 10
2.157010058250655
 20
4.064711414909643
 30
0.0
  0
POINT
  5
E4C
330
DAF
100
AcDbEntity
  8
Defpoints
 62
     0
100
AcDbPoint
 10
2.157010058250655
 20
3.717643849870615
 30
0.0
  0
ENDBLK
  5
DB1
330
DAF
100
AcDbEntity
  8
0
100
AcDbBlockEnd
  0
BLOCK
  5
DBD
330
DBC
100
AcDbEntity
  8
0
100
AcDbBlockBegin
  2
*D17
 70
     1
 10
0.0
 20
0.0
 30
0.0
  3
*D17
  1

  0
LINE
  5
E4D
330
DBC
100
AcDbEntity
  8
DIM
 62
     0
370
    -2
100
AcDbLine
 10
2.207010058250655
 20
4.064711414909643
 30
0.0
 11
2.426040834952218
 21
4.064711414909643
 31
0.0
  0
LINE
  5
E4E
330
DBC
100
AcDbEntity
  8
DIM
 62
     0
370
    -2
100
AcDbLine
 10
2.192010058250654
 20
4.362211414909642
 30
0.0
 11
2.426040834952218
 21
4.362211414909642
 31
0.0
  0
LINE
  5
E4F
330
DBC
100
AcDbEntity
  8
DIM
 62
     0
370
    -2
100
AcDbLine
 10
2.386040834952218
 20
4.134711414909643
 30
0.0
 11
2.386040834952218
 21
4.292211414909642
 31
0.0
  0
SOLID
  5
E50
330
DBC
100
AcDbEntity
  8
DIM
 62
     0
100
AcDbTrace
 10
2.374374168285552
 20
4.134711414909643
 30
0.0
 11
2.397707501618885
 21
4.134711414909643
 31
0.0
 12
2.386040834952218
 22
4.064711414909643
 32
0.0
 13
2.386040834952218
 23
4.064711414909643
 33
0.0
  0
SOLID
  5
E51
330
DBC
100
AcDbEntity
  8
DIM
 62
     0
100
AcDbTrace
 10
2.374374168285552
 20
4.292211414909642
 30
0.0
 11
2.397707501618885
 21
4.292211414909642
 31
0.0
 12
2.386040834952218
 22
4.362211414909642
 32
0.0
 13
2.386040834952218
 23
4.362211414909642
 33
0.0
  0
MTEXT
  5
E52
330
DBC
100
AcDbEntity
  8
DIM
 62
     0
100
AcDbMText
 10
2.319280127950178
 20
4.213461414909644
 30
0.0
 40
0.07
 41
0.0
 71
     5
 72
     1
  1
\A1;0.298
 11
0.0000000000000001
 21
1.0
 31
0.0
 73
     1
 44
1.0
  0
POINT
  5
E53
330
DBC
100
AcDbEntity
  8
Defpoints
 62
     0
100
AcDbPoint
 10
2.157010058250655
 20
4.064711414909643
 30
0.0
  0
POINT
  5
E54
330
DBC
100
AcDbEntity
  8
Defpoints
 62
     0
100
AcDbPoint
 10
2.142010058250654
 20
4.362211414909642
 30
0.0
  0
POINT
  5
E55
330
DBC
100
AcDbEntity
  8
Defpoints
 62
     0
100
AcDbPoint
 10
2.386040834952218
 20
4.362211414909642
 30
0.0
  0
ENDBLK
  5
DBE
330
DBC
100
AcDbEntity
  8
0
100
AcDbBlockEnd
  0
BLOCK
  5
DCA
330
DC9
100
AcDbEntity
  8
0
100
AcDbBlockBegin
  2
*D18
 70
     1
 10
0.0
 20
0.0
 30
0.0
  3
*D18
  1

  0
LINE
  5
E56
330
DC9
100
AcDbEntity
  8
DIM
 62
     0
370
    -2
100
AcDbLine
 10
2.192010058250654
 20
4.362211414909642
 30
0.0
 11
2.426040834952218
 21
4.362211414909642
 31
0.0
  0
LINE
  5
E57
330
DC9
100
AcDbEntity
  8
DIM
 62
     0
370
    -2
100
AcDbLine
 10
2.207010058250658
 20
5.252211414909647
 30
0.0
 11
2.426040834952219
 21
5.252211414909647
 31
0.0
  0
LINE
  5
E58
330
DC9
100
AcDbEntity
  8
DIM
 62
     0
370
    -2
100
AcDbLine
 10
2.386040834952218
 20
4.432211414909643
 30
0.0
 11
2.386040834952219
 21
5.182211414909646
 31
0.0
  0
SOLID
  5
E59
330
DC9
100
AcDbEntity
  8
DIM
 62
     0
100
AcDbTrace
 10
2.374374168285552
 20
4.432211414909643
 30
0.0
 11
2.397707501618885
 21
4.432211414909643
 31
0.0
 12
2.386040834952218
 22
4.362211414909642
 32
0.0
 13
2.386040834952218
 23
4.362211414909642
 33
0.0
  0
SOLID
  5
E5A
330
DC9
100
AcDbEntity
  8
DIM
 62
     0
100
AcDbTrace
 10
2.374374168285552
 20
5.182211414909646
 30
0.0
 11
2.397707501618886
 21
5.182211414909646
 31
0.0
 12
2.386040834952219
 22
5.252211414909647
 32
0.0
 13
2.386040834952219
 23
5.252211414909647
 33
0.0
  0
MTEXT
  5
E5B
330
DC9
100
AcDbEntity
  8
DIM
 62
     0
100
AcDbMText
 10
2.319280127950178
 20
4.807211414909645
 30
0.0
 40
0.07
 41
0.0
 71
     5
 72
     1
  1
\A1;0.890
 11
0.0000000000000001
 21
1.0
 31
0.0
 73
     1
 44
1.0
  0
POINT
  5
E5C
330
DC9
100
AcDbEntity
  8
Defpoints
 62
     0
100
AcDbPoint
 10
2.142010058250654
 20
4.362211414909642
 30
0.0
  0
POINT
  5
E5D
330
DC9
100
AcDbEntity
  8
Defpoints
 62
     0
100
AcDbPoint
 10
2.157010058250659
 20
5.252211414909647
 30
0.0
  0
POINT
  5
E5E
330
DC9
100
AcDbEntity
  8
Defpoints
 62
     0
100
AcDbPoint
 10
2.386040834952219
 20
5.252211414909647
 30
0.0
  0
ENDBLK
  5
DCB
330
DC9
100
AcDbEntity
  8
0
100
AcDbBlockEnd
  0
BLOCK
  5
DD7
330
DD6
100
AcDbEntity
  8
0
100
AcDbBlockBegin
  2
*D19
 70
     1
 10
0.0
 20
0.0
 30
0.0
  3
*D19
  1

  0
LINE
  5
E5F
330
DD6
100
AcDbEntity
  8
DIM
 62
     0
370
    -2
100
AcDbLine
 10
2.207010058250658
 20
5.252211414909647
 30
0.0
 11
2.426040834952219
 21
5.252211414909647
 31
0.0
  0
LINE
  5
E60
330
DD6
100
AcDbEntity
  8
DIM
 62
     0
370
    -2
100
AcDbLine
 10
2.192010058250654
 20
5.549711414909646
 30
0.0
 11
2.426040834952219
 21
5.549711414909646
 31
0.0
  0
LINE
  5
E61
330
DD6
100
AcDbEntity
  8
DIM
 62
     0
370
    -2
100
AcDbLine
 10
2.386040834952219
 20
5.322211414909647
 30
0.0
 11
2.386040834952219
 21
5.479711414909646
 31
0.0
  0
SOLID
  5
E62
330
DD6
100
AcDbEntity
  8
DIM
 62
     0
100
AcDbTrace
 10
2.374374168285552
 20
5.322211414909647
 30
0.0
 11
2.397707501618886
 21
5.322211414909647
 31
0.0
 12
2.386040834952219
 22
5.252211414909647
 32
0.0
 13
2.386040834952219
 23
5.252211414909647
 33
0.0
  0
SOLID
  5
E63
330
DD6
100
AcDbEntity
  8
DIM
 62
     0
100
AcDbTrace
 10
2.374374168285552
 20
5.479711414909646
 30
0.0
 11
2.397707501618886
 21
5.479711414909646
 31
0.0
 12
2.386040834952219
 22
5.549711414909646
 32
0.0
 13
2.386040834952219
 23
5.549711414909646
 33
0.0
  0
MTEXT
  5
E64
330
DD6
100
AcDbEntity
  8
DIM
 62
     0
100
AcDbMText
 10
2.319280127950178
 20
5.400961414909647
 30
0.0
 40
0.07
 41
0.0
 71
     5
 72
     1
  1
\A1;0.298
 11
0.0000000000000001
 21
1.0
 31
0.0
 73
     1
 44
1.0
  0
POINT
  5
E65
330
DD6
100
AcDbEntity
  8
Defpoints
 62
     0
100
AcDbPoint
 10
2.157010058250659
 20
5.252211414909647
 30
0.0
  0
POINT
  5
E66
330
DD6
100
AcDbEntity
  8
Defpoints
 62
     0
100
AcDbPoint
 10
2.142010058250654
 20
5.549711414909646
 30
0.0
  0
POINT
  5
E67
330
DD6
100
AcDbEntity
  8
Defpoints
 62
     0
100
AcDbPoint
 10
2.386040834952219
 20
5.549711414909646
 30
0.0
  0
ENDBLK
  5
DD8
330
DD6
100
AcDbEntity
  8
0
100
AcDbBlockEnd
  0
BLOCK
  5
E6C
330
E6B
100
AcDbEntity
  8
0
100
AcDbBlockBegin
  2
*D20
 70
     1
 10
0.0
 20
0.0
 30
0.0
  3
*D20
  1

  0
LINE
  5
E77
330
E6B
100
AcDbEntity
  8
DIM
 62
     0
370
    -2
100
AcDbLine
 10
1.091058530522043
 20
5.110450208630212
 30
0.0
 11
1.439698911215448
 21
5.110450208630211
 31
0.0
  0
LINE
  5
E78
330
E6B
100
AcDbEntity
  8
DIM
 62
     0
370
    -2
100
AcDbLine
 10
1.439698911215448
 20
5.110450208630211
 30
0.0
 11
1.716197704325179
 21
4.913529038910064
 31
0.0
  0
LINE
  5
E79
330
E6B
100
AcDbEntity
  8
DIM
 62
     0
370
    -2
100
AcDbLine
 10
2.035822412176133
 20
4.685893790909211
 30
0.0
 11
2.092840071578473
 21
4.645286075924511
 31
0.0
  0
MTEXT
  5
E7A
102
{ACAD_XDICTIONARY
360
167D
102
}
330
E6B
100
AcDbEntity
  8
DIM
 62
     0
100
AcDbMText
 10
1.250378720868746
 20
5.179399902715869
 30
0.0
 40
0.07
 41
0.0
 71
     5
 72
     1
  1
\A1;\U+22050.252
 73
     1
 44
1.0
  0
LINE
  5
E7B
330
E6B
100
AcDbEntity
  8
DIM
 62
     0
370
    -2
100
AcDbLine
 10
1.978804752773792
 20
4.726501505893913
 30
0.0
 11
1.77321536372752
 21
4.872921323925363
 31
0.0
  0
SOLID
  5
E7C
330
E6B
100
AcDbEntity
  8
DIM
 62
     0
100
AcDbTrace
 10
2.042590364673583
 20
4.695396734142935
 30
0.0
 11
2.029054459678683
 21
4.676390847675488
 31
0.0
 12
1.978804752773792
 22
4.726501505893913
 32
0.0
 13
1.978804752773792
 23
4.726501505893913
 33
0.0
  0
SOLID
  5
E7D
330
E6B
100
AcDbEntity
  8
DIM
 62
     0
100
AcDbTrace
 10
1.72296565682263
 20
4.923031982143788
 30
0.0
 11
1.709429751827729
 21
4.904026095676341
 31
0.0
 12
1.77321536372752
 22
4.872921323925363
 32
0.0
 13
1.77321536372752
 23
4.872921323925363
 33
0.0
  0
POINT
  5
E7E
330
E6B
100
AcDbEntity
  8
Defpoints
 62
     0
100
AcDbPoint
 10
1.77321536372752
 20
4.872921323925363
 30
0.0
  0
POINT
  5
E7F
330
E6B
100
AcDbEntity
  8
Defpoints
 62
     0
100
AcDbPoint
 10
1.978804752773792
 20
4.726501505893913
 30
0.0
  0
ENDBLK
  5
E6D
330
E6B
100
AcDbEntity
  8
0
100
AcDbBlockEnd
  0
ENDSEC
  0
SECTION
  2
ENTITIES
  0
LWPOLYLINE
  5
43D
330
1F
100
AcDbEntity
  8
FORMAT
370
    15
100
AcDbPolyline
 90
        4
 70
     1
 43
0.0
 10
0.0
 20
0.0
 10
7.817532181279499
 20
0.0
 10
7.817532181279499
 20
5.920072913978676
 10
0.0
 20
5.920072913978676
  0
LINE
  5
43E
330
1F
100
AcDbEntity
  8
FORMAT
370
    15
100
AcDbLine
 10
3.082140968351494
 20
0.9200729139786767
 30
0.0
 11
7.817532181279499
 21
0.9200729139786767
 31
0.0
  0
LINE
  5
43F
330
1F
100
AcDbEntity
  8
FORMAT
370
    15
100
AcDbLine
 10
0.0
 20
0.9200729139786767
 30
0.0
 11
3.082140968351494
 21
0.9200729139786767
 31
0.0
  0
LINE
  5
440
330
1F
100
AcDbEntity
  8
FORMAT
370
    15
100
AcDbLine
 10
4.534705884173073
 20
0.4824823583890561
 30
0.0
 11
3.082140968351494
 21
0.4824823583890561
 31
0.0
  0
LINE
  5
441
330
1F
100
AcDbEntity
  8
FORMAT
370
    15
100
AcDbLine
 10
4.534705884173073
 20
0.9200729139786767
 30
0.0
 11
4.534705884173073
 21
0.0
 31
0.0
  0
LINE
  5
442
330
1F
100
AcDbEntity
  8
FORMAT
370
    15
100
AcDbLine
 10
6.662113250276226
 20
0.9200729139786767
 30
0.0
 11
6.662113250276226
 21
0.4824823583890561
 31
0.0
  0
LINE
  5
443
330
1F
100
AcDbEntity
  8
FORMAT
370
    15
100
AcDbLine
 10
7.817532181279499
 20
0.2876474825925048
 30
0.0
 11
6.203342078121128
 21
0.2876474825925048
 31
0.0
  0
LINE
  5
444
330
1F
100
AcDbEntity
  8
FORMAT
370
    15
100
AcDbLine
 10
6.203342078121128
 20
0.0
 30
0.0
 11
6.203342078121128
 21
0.4824823583890561
 31
0.0
  0
LINE
  5
445
330
1F
100
AcDbEntity
  8
FORMAT
370
    15
100
AcDbLine
 10
6.648150604513871
 20
5.920072913978676
 30
0.0
 11
6.648150604513871
 21
5.713512965581298
 31
0.0
  0
LINE
  5
446
330
1F
100
AcDbEntity
  8
FORMAT
370
    15
100
AcDbLine
 10
7.817532181279499
 20
0.4824823583890561
 30
0.0
 11
4.534705884173073
 21
0.4824823583890561
 31
0.0
  0
LINE
  5
447
330
1F
100
AcDbEntity
  8
FORMAT
370
    15
100
AcDbLine
 10
6.648150604513871
 20
5.713512965581298
 30
0.0
 11
7.817532181279499
 21
5.713512965581298
 31
0.0
  0
LINE
  5
448
330
1F
100
AcDbEntity
  8
FORMAT
370
    15
100
AcDbLine
 10
3.082140968351494
 20
0.9200729139786767
 30
0.0
 11
3.082140968351494
 21
0.0
 31
0.0
  0
MTEXT
  5
449
330
1F
100
AcDbEntity
  8
0
  6
Continuous
 62
   160
370
     0
100
AcDbMText
 10
6.289167025593215
 20
0.450815748205473
 30
0.0
 40
0.0632486422433626
 41
0.0
 71
     1
 72
     1
  1
http://www.amazonsupply.com
  7
SLDTEXTSTYLE0
 73
     1
 44
1.0
1001
PE_URL
1000
http://www.amazonsupply.com/
1002
{
1000
http://www.amazonsupply.com/
1002
{
1071
        1
1002
}
1002
}
  0
INSERT
  5
44A
330
1F
100
AcDbEntity
  8
0
  6
Continuous
 62
     7
100
AcDbBlockReference
  2
Block2
 10
-0.3468127978931141
 20
-0.9182794672710128
 30
0.0
 41
0.7589837069203722
 42
0.7589837069203403
 43
0.7589837069203434
  0
TEXT
  5
44B
330
1F
100
AcDbEntity
  8
FORMAT
 62
     7
100
AcDbText
 10
4.564384258699726
 20
0.8091831855881503
 30
0.0
 40
0.0758983706920343
  1
MATERIAL :
 41
0.9
  7
SLDTEXTSTYLE1
100
AcDbText
  0
TEXT
  5
44C
330
1F
100
AcDbEntity
  8
FORMAT
 62
     7
100
AcDbText
 10
3.34125075734437
 20
0.5998565856360666
 30
0.0
 40
0.0948729633650429
  1
B000IL6AK0
 41
0.9
  7
SLDTEXTSTYLE1
100
AcDbText
  0
TEXT
  5
44E
330
1F
100
AcDbEntity
  8
FORMAT
 62
     7
100
AcDbText
 10
3.342193177479275
 20
0.1406363096822567
 30
0.0
 40
0.0948729633650429
  1
Climax Metal 
 41
0.9
  7
SLDTEXTSTYLE1
100
AcDbText
  0
TEXT
  5
44F
330
1F
100
AcDbEntity
  8
FORMAT
 62
     0
100
AcDbText
 10
4.932849920050552
 20
0.6223794032377923
 30
0.0
 40
0.0948729633650439
  1
303 Stainless Steel 
 41
0.9
  7
SLDTEXTSTYLE1
100
AcDbText
  0
TEXT
  5
450
330
1F
100
AcDbEntity
  8
FORMAT
 62
     7
100
AcDbText
 10
0.078176610197247
 20
0.7128331563650347
 30
0.0
 40
0.0758983706920343
  1
ITEM NAME:
 41
0.9
  7
SLDTEXTSTYLE1
100
AcDbText
  0
TEXT
  5
451
330
1F
100
AcDbEntity
  8
FORMAT
 62
     7
100
AcDbText
 10
3.141546560644255
 20
0.7728910164568463
 30
0.0
 40
0.0758983706920343
  1
ASIN :
 41
0.9
  7
SLDTEXTSTYLE1
100
AcDbText
  0
TEXT
  5
453
330
1F
100
AcDbEntity
  8
FORMAT
 62
     0
100
AcDbText
 10
4.593368872834695
 20
0.3549923676293416
 30
0.0
 40
0.047436481682522
  1
# UNLESS OTHERWISE SPECIFIED
 41
0.95
  7
SLDTEXTSTYLE1
100
AcDbText
  0
TEXT
  5
454
330
1F
100
AcDbEntity
  8
FORMAT
 62
     0
100
AcDbText
 10
4.66464452452659
 20
0.2833237162468096
 30
0.0
 40
0.047436481682522
  1
DIMENSIONS ARE IN INCHES
 41
0.95
  7
SLDTEXTSTYLE1
100
AcDbText
  0
TEXT
  5
455
330
1F
100
AcDbEntity
  8
FORMAT
 62
     0
100
AcDbText
 10
4.593368872834695
 20
0.1437932992455799
 30
0.0
 40
0.047436481682522
  1
# INFORMATION IN THIS DRAWING IS PROVIDED FOR
 41
0.95
  7
SLDTEXTSTYLE1
100
AcDbText
  0
TEXT
  5
456
330
1F
100
AcDbEntity
  8
FORMAT
 62
     0
100
AcDbText
 10
4.664451037857594
 20
0.0721246478630482
 30
0.0
 40
0.047436481682522
  1
REFERENCE ONLY
 41
0.95
  7
SLDTEXTSTYLE1
100
AcDbText
  0
TEXT
  5
457
330
1F
100
AcDbEntity
  8
FORMAT
 62
     7
100
AcDbText
 10
3.124175072515578
 20
0.3274243238521903
 30
0.0
 40
0.0758983706920343
  1
BRAND :
 41
0.9
  7
SLDTEXTSTYLE1
100
AcDbText
  0
MTEXT
  5
50B
330
1F
100
AcDbEntity
  8
FORMAT
 62
     7
100
AcDbMText
 10
0.2891165747955244
 20
0.6327204922072316
 30
0.0
 40
0.0948729633650429
 41
2.583008039319199
 71
     1
 72
     1
  1
{\fCalibri|b0|i0|c0|p34;\H0.91667x;\C256;Climax Metal C-087-S Shaft Collar, One Piece, Set Screw Style, Stainless Steel, 7/8" Bore, 1-1/2" OD, 9/16" Width, With 5/16-18 Set Screw}
  7
SLDTEXTSTYLE1
 73
     1
 44
1.0
  0
TEXT
  5
A8B
330
1F
100
AcDbEntity
  8
FORMAT
 62
     7
100
AcDbText
 10
1.682048323558845
 20
1.085599517094201
 30
0.0
 40
0.1
  1
FRONT
 41
0.9
  7
SLDTEXTSTYLE1
100
AcDbText
  0
INSERT
  5
B40
330
1F
100
AcDbEntity
  8
0
100
AcDbBlockReference
  2
amazon block
 10
6.286976216279747
 20
0.0786364949805145
 30
0.0
 41
0.7717303722539058
 42
0.7717303722539058
 43
0.7717303722539058
  0
SPLINE
  5
C59
330
1F
100
AcDbEntity
  8
0
  6
Continuous
 62
     7
370
    15
100
AcDbSpline
210
0.0
220
0.0
230
1.0
 70
    24
 71
     1
 72
     4
 73
     2
 74
     0
 42
0.0000000001
 43
0.0000000001
 40
0.0
 40
0.0
 40
1.0
 40
1.0
 10
1.719760058252298
 20
2.911072818302814
 30
0.0
 10
1.609010058250657
 20
2.911072818302814
 30
0.0
  0
SPLINE
  5
C5A
330
1F
100
AcDbEntity
  8
0
  6
Continuous
 62
     7
370
    15
100
AcDbSpline
210
0.0
220
0.0
230
1.0
 70
    24
 71
     1
 72
     4
 73
     2
 74
     0
 42
0.0000000001
 43
0.0000000001
 40
0.0
 40
0.0
 40
1.0
 40
1.0
 10
2.142010058250654
 20
2.911072818302814
 30
0.0
 10
2.032260058249072
 20
2.911072818302814
 30
0.0
  0
SPLINE
  5
C5B
330
1F
100
AcDbEntity
  8
0
  6
Continuous
 62
     7
370
    15
100
AcDbSpline
210
0.0
220
0.0
230
1.0
 70
    24
 71
     1
 72
     4
 73
     2
 74
     0
 42
0.0000000001
 43
0.0000000001
 40
0.0
 40
0.0
 40
1.0
 40
1.0
 10
1.609010058250657
 20
1.411072818302814
 30
0.0
 10
2.142010058250654
 20
1.411072818302814
 30
0.0
  0
SPLINE
  5
C5C
330
1F
100
AcDbEntity
  8
0
  6
Continuous
 62
     7
370
    15
100
AcDbSpline
210
0.0
220
0.0
230
1.0
 70
    24
 71
     1
 72
     4
 73
     2
 74
     0
 42
0.0000000001
 43
0.0000000001
 40
0.0
 40
0.0
 40
1.0
 40
1.0
 10
2.142010058250654
 20
1.411072818302814
 30
0.0
 10
2.157010058250659
 20
1.426072818302815
 30
0.0
  0
SPLINE
  5
C5D
330
1F
100
AcDbEntity
  8
0
  6
Continuous
 62
     7
370
    15
100
AcDbSpline
210
0.0
220
0.0
230
1.0
 70
    24
 71
     1
 72
     4
 73
     2
 74
     0
 42
0.0000000001
 43
0.0000000001
 40
0.0
 40
0.0
 40
1.0
 40
1.0
 10
2.157010058250659
 20
2.896072818302814
 30
0.0
 10
2.142010058250654
 20
2.911072818302814
 30
0.0
  0
SPLINE
  5
C5E
330
1F
100
AcDbEntity
  8
0
  6
Continuous
 62
     7
370
    15
100
AcDbSpline
210
0.0
220
0.0
230
1.0
 70
    24
 71
     1
 72
     4
 73
     2
 74
     0
 42
0.0000000001
 43
0.0000000001
 40
0.0
 40
0.0
 40
1.0
 40
1.0
 10
1.609010058250657
 20
2.911072818302814
 30
0.0
 10
1.594010058250656
 20
2.896072818302814
 30
0.0
  0
SPLINE
  5
C5F
330
1F
100
AcDbEntity
  8
0
  6
Continuous
 62
     7
370
    15
100
AcDbSpline
210
0.0
220
0.0
230
1.0
 70
    24
 71
     1
 72
     4
 73
     2
 74
     0
 42
0.0000000001
 43
0.0000000001
 40
0.0
 40
0.0
 40
1.0
 40
1.0
 10
1.594010058250656
 20
1.426072818302815
 30
0.0
 10
1.609010058250657
 20
1.411072818302814
 30
0.0
  0
SPLINE
  5
C60
330
1F
100
AcDbEntity
  8
0
  6
Continuous
 62
     7
370
    15
100
AcDbSpline
210
0.0
220
0.0
230
1.0
 70
    24
 71
     1
 72
     4
 73
     2
 74
     0
 42
0.0000000001
 43
0.0000000001
 40
0.0
 40
0.0
 40
1.0
 40
1.0
 10
2.006313991284567
 20
2.906968885268787
 30
0.0
 10
2.002210058251428
 20
2.911072818302534
 30
0.0
  0
SPLINE
  5
C61
330
1F
100
AcDbEntity
  8
0
  6
Continuous
 62
     7
370
    15
100
AcDbSpline
210
0.0
220
0.0
230
1.0
 70
    24
 71
     1
 72
     4
 73
     2
 74
     0
 42
0.0000000001
 43
0.0000000001
 40
0.0
 40
0.0
 40
1.0
 40
1.0
 10
1.749810058249885
 20
2.911072818302534
 30
0.0
 10
1.74570687409362
 20
2.906969634145655
 30
0.0
  0
ARC
  5
C62
330
1F
100
AcDbEntity
  8
0
  6
Continuous
 62
     7
370
    15
100
AcDbCircle
 10
1.876010058251054
 20
3.804875232699265
 30
0.0
 40
0.9073570512649951
100
AcDbArc
 50
260.0840438616723
 51
279.9159561382821
  0
LINE
  5
C63
330
1F
100
AcDbEntity
  8
0
  6
Continuous
 62
     7
370
    15
100
AcDbLine
 10
2.142010058250654
 20
1.411072818302814
 30
0.0
 11
2.142010058250654
 21
2.911072818302807
 31
0.0
  0
LINE
  5
C64
330
1F
100
AcDbEntity
  8
0
  6
Continuous
 62
     7
370
    15
100
AcDbLine
 10
1.609010058250657
 20
2.911072818302814
 30
0.0
 11
1.609010058250657
 21
1.411072818302821
 31
0.0
  0
LINE
  5
C65
330
1F
100
AcDbEntity
  8
0
  6
Continuous
 62
     7
370
    15
100
AcDbLine
 10
2.157010058250655
 20
2.161072818302814
 30
0.0
 11
2.157010058250659
 21
2.896072818302814
 31
0.0
  0
LINE
  5
C66
330
1F
100
AcDbEntity
  8
0
  6
Continuous
 62
     7
370
    15
100
AcDbLine
 10
2.157010058250659
 20
1.426072818302815
 30
0.0
 11
2.157010058250655
 21
2.161072818302814
 31
0.0
  0
LINE
  5
C67
330
1F
100
AcDbEntity
  8
0
  6
Continuous
 62
     7
370
    15
100
AcDbLine
 10
1.594010058250656
 20
2.896072818302814
 30
0.0
 11
1.594010058250656
 21
1.426072818302815
 31
0.0
  0
LINE
  5
C68
330
1F
100
AcDbEntity
  8
0
  6
Continuous
 62
     7
370
    15
100
AcDbLine
 10
2.002210058251428
 20
2.911072818302534
 30
0.0
 11
1.749810058249885
 21
2.911072818302534
 31
0.0
  0
SPLINE
  5
C69
330
1F
100
AcDbEntity
  8
0
  6
HIDDEN
 62
     7
370
     0
100
AcDbSpline
210
0.0
220
0.0
230
1.0
 70
     8
 71
     3
 72
    28
 73
    24
 74
     0
 42
0.0000000001
 43
0.0000000001
 40
0.0
 40
0.0
 40
0.0
 40
0.0
 40
0.049667490573617
 40
0.1008108124906284
 40
0.1504687612706081
 40
0.201503693260178
 40
0.2523618948363321
 40
0.3046345790167789
 40
0.3564676668957784
 40
0.4098801691929041
 40
0.4460432165106564
 40
0.4827654982447101
 40
0.5323826489725234
 40
0.5834789513871912
 40
0.6330852417154329
 40
0.684060734967636
 40
0.734979730748006
 40
0.787318720016908
 40
0.8391351554469867
 40
0.8925327252576254
 40
0.9287523865038632
 40
0.9655309428215781
 40
1.0
 40
1.0
 40
1.0
 40
1.0
 10
2.002210058250657
 20
2.598572818302814
 30
0.0
 10
2.001887902198856
 20
2.598479335747649
 30
0.0
 10
2.001234017475546
 20
2.598289592874975
 30
0.0
 10
1.995985847482408
 20
2.596802067022098
 30
0.0
 10
1.98772027125873
 20
2.594581904877037
 30
0.0
 10
1.97644549650402
 20
2.591788542652485
 30
0.0
 10
1.962270242008649
 20
2.588676066358322
 30
0.0
 10
1.945605034039726
 20
2.58559587610185
 30
0.0
 10
1.926630705405056
 20
2.582869544915984
 30
0.0
 10
1.908186284850973
 20
2.581079892054296
 30
0.0
 10
1.891087020305754
 20
2.580158491045112
 30
0.0
 10
1.874238259554822
 20
2.579851401913684
 30
0.0
 10
1.855320319532296
 20
2.580318131295639
 30
0.0
 10
1.835231035328355
 20
2.581804370341354
 30
0.0
 10
1.816140331847826
 20
2.584104076632444
 30
0.0
 10
1.798725483181165
 20
2.586941922205218
 30
0.0
 10
1.783143555617186
 20
2.590069335332275
 30
0.0
 10
1.7700470845717
 20
2.593120619116747
 30
0.0
 10
1.759757726916422
 20
2.595781290261081
 30
0.0
 10
1.753499310095751
 20
2.597517071293738
 30
0.0
 10
1.750462631146923
 20
2.598384151127222
 30
0.0
 10
1.749346608473221
 20
2.598706061183255
 30
0.0
 10
1.750435941185177
 20
2.598393487513709
 30
0.0
 10
1.750962952121998
 20
2.598242266733683
 30
0.0
  0
LINE
  5
C6A
330
1F
100
AcDbEntity
  8
0
  6
HIDDEN
 62
     7
370
     0
100
AcDbLine
 10
1.734785058252384
 20
2.896047818302671
 30
0.0
 11
2.017235058248928
 21
2.896047818302671
 31
0.0
  0
LINE
  5
C6B
330
1F
100
AcDbEntity
  8
0
  6
HIDDEN
 62
     7
370
     0
100
AcDbLine
 10
2.002210058250657
 20
2.613165675445673
 30
0.0
 11
1.749810058250655
 21
2.613165675445673
 31
0.0
  0
LINE
  5
C6C
330
1F
100
AcDbEntity
  8
0
  6
HIDDEN
 62
     7
370
     0
100
AcDbLine
 10
1.764402915396033
 20
2.598572818301532
 30
0.0
 11
1.98761720110528
 21
2.598572818301532
 31
0.0
  0
LINE
  5
C6D
330
1F
100
AcDbEntity
  8
0
  6
HIDDEN
 62
     7
370
     0
100
AcDbLine
 10
1.876010058250656
 20
2.851572818302814
 30
0.0
 11
1.954135058250656
 21
2.851572818302814
 31
0.0
  0
LINE
  5
C6E
330
1F
100
AcDbEntity
  8
0
  6
HIDDEN
 62
     7
370
     0
100
AcDbLine
 10
1.876010058250656
 20
2.911072818302814
 30
0.0
 11
1.876010058250656
 21
2.851572818302814
 31
0.0
  0
LINE
  5
C6F
330
1F
100
AcDbEntity
  8
0
  6
HIDDEN
 62
     7
370
     0
100
AcDbLine
 10
1.79788505825066
 20
2.851572818302814
 30
0.0
 11
1.876010058250656
 21
2.851572818302814
 31
0.0
  0
LINE
  5
C70
330
1F
100
AcDbEntity
  8
0
  6
HIDDEN
 62
     7
370
     0
100
AcDbLine
 10
1.954135058250656
 20
2.851572818302814
 30
0.0
 11
1.954135058250656
 21
2.911072818302814
 31
0.0
  0
LINE
  5
C71
330
1F
100
AcDbEntity
  8
0
  6
HIDDEN
 62
     7
370
     0
100
AcDbLine
 10
1.79788505825066
 20
2.851572818302814
 30
0.0
 11
1.79788505825066
 21
2.911072818302814
 31
0.0
  0
SPLINE
  5
C72
330
1F
100
AcDbEntity
  8
0
  6
HIDDEN
 62
     7
370
     0
100
AcDbSpline
210
0.0
220
0.0
230
1.0
 70
    24
 71
     1
 72
     4
 73
     2
 74
     0
 42
0.0000000001
 43
0.0000000001
 40
0.0
 40
0.0
 40
1.0
 40
1.0
 10
1.594010058250656
 20
1.708572818302814
 30
0.0
 10
1.609010058250657
 20
1.723572818302814
 30
0.0
  0
SPLINE
  5
C73
330
1F
100
AcDbEntity
  8
0
  6
HIDDEN
 62
     7
370
     0
100
AcDbSpline
210
0.0
220
0.0
230
1.0
 70
    24
 71
     1
 72
     4
 73
     2
 74
     0
 42
0.0000000001
 43
0.0000000001
 40
0.0
 40
0.0
 40
1.0
 40
1.0
 10
1.609010058250657
 20
2.598572818302814
 30
0.0
 10
1.594010058250656
 20
2.613572818302815
 30
0.0
  0
SPLINE
  5
C74
330
1F
100
AcDbEntity
  8
0
  6
HIDDEN
 62
     7
370
     0
100
AcDbSpline
210
0.0
220
0.0
230
1.0
 70
    24
 71
     1
 72
     4
 73
     2
 74
     0
 42
0.0000000001
 43
0.0000000001
 40
0.0
 40
0.0
 40
1.0
 40
1.0
 10
2.157010058250659
 20
2.613572818302815
 30
0.0
 10
2.142010058250654
 20
2.598572818302814
 30
0.0
  0
SPLINE
  5
C75
330
1F
100
AcDbEntity
  8
0
  6
HIDDEN
 62
     7
370
     0
100
AcDbSpline
210
0.0
220
0.0
230
1.0
 70
    24
 71
     1
 72
     4
 73
     2
 74
     0
 42
0.0000000001
 43
0.0000000001
 40
0.0
 40
0.0
 40
1.0
 40
1.0
 10
2.142010058250654
 20
1.723572818302814
 30
0.0
 10
2.157010058250659
 20
1.708572818302814
 30
0.0
  0
SPLINE
  5
C76
330
1F
100
AcDbEntity
  8
0
  6
HIDDEN
 62
     7
370
     0
100
AcDbSpline
210
0.0
220
0.0
230
1.0
 70
    24
 71
     1
 72
     4
 73
     2
 74
     0
 42
0.0000000001
 43
0.0000000001
 40
0.0
 40
0.0
 40
1.0
 40
1.0
 10
1.609010058250657
 20
1.723572818302814
 30
0.0
 10
2.142010058250654
 20
1.723572818302814
 30
0.0
  0
SPLINE
  5
C77
330
1F
100
AcDbEntity
  8
0
  6
HIDDEN
 62
     7
370
     0
100
AcDbSpline
210
0.0
220
0.0
230
1.0
 70
    24
 71
     1
 72
     4
 73
     2
 74
     0
 42
0.0000000001
 43
0.0000000001
 40
0.0
 40
0.0
 40
1.0
 40
1.0
 10
1.749810058250655
 20
2.598572818302814
 30
0.0
 10
1.609010058250657
 20
2.598572818302814
 30
0.0
  0
SPLINE
  5
C78
330
1F
100
AcDbEntity
  8
0
  6
HIDDEN
 62
     7
370
     0
100
AcDbSpline
210
0.0
220
0.0
230
1.0
 70
    24
 71
     1
 72
     4
 73
     2
 74
     0
 42
0.0000000001
 43
0.0000000001
 40
0.0
 40
0.0
 40
1.0
 40
1.0
 10
2.142010058250654
 20
2.598572818302814
 30
0.0
 10
2.002210058250657
 20
2.598572818302814
 30
0.0
  0
SPLINE
  5
C79
330
1F
100
AcDbEntity
  8
0
  6
HIDDEN
 62
     7
370
     0
100
AcDbSpline
210
0.0
220
0.0
230
1.0
 70
    24
 71
     1
 72
     4
 73
     2
 74
     0
 42
0.0000000001
 43
0.0000000001
 40
0.0
 40
0.0
 40
1.0
 40
1.0
 10
1.719760058252244
 20
2.911072818302814
 30
0.0
 10
1.734785058252384
 20
2.896047818302671
 30
0.0
  0
SPLINE
  5
C7A
330
1F
100
AcDbEntity
  8
0
  6
HIDDEN
 62
     7
370
     0
100
AcDbSpline
210
0.0
220
0.0
230
1.0
 70
    24
 71
     1
 72
     4
 73
     2
 74
     0
 42
0.0000000001
 43
0.0000000001
 40
0.0
 40
0.0
 40
1.0
 40
1.0
 10
2.017235058248928
 20
2.896047818302671
 30
0.0
 10
2.032260058249072
 20
2.911072818302814
 30
0.0
  0
SPLINE
  5
C7B
330
1F
100
AcDbEntity
  8
0
  6
HIDDEN
 62
     7
370
     0
100
AcDbSpline
210
0.0
220
0.0
230
1.0
 70
    24
 71
     1
 72
     4
 73
     2
 74
     0
 42
0.0000000001
 43
0.0000000001
 40
0.0
 40
0.0
 40
1.0
 40
1.0
 10
2.017235058249056
 20
2.896047818302671
 30
0.0
 10
2.006313991284567
 20
2.906968885268787
 30
0.0
  0
SPLINE
  5
C7C
330
1F
100
AcDbEntity
  8
0
  6
HIDDEN
 62
     7
370
     0
100
AcDbSpline
210
0.0
220
0.0
230
1.0
 70
    24
 71
     1
 72
     4
 73
     2
 74
     0
 42
0.0000000001
 43
0.0000000001
 40
0.0
 40
0.0
 40
1.0
 40
1.0
 10
1.74570687409362
 20
2.906969634145655
 30
0.0
 10
1.734785058252256
 20
2.896047818302671
 30
0.0
  0
SPLINE
  5
C7D
330
1F
100
AcDbEntity
  8
0
  6
HIDDEN
 62
     7
370
     0
100
AcDbSpline
210
0.0
220
0.0
230
1.0
 70
    24
 71
     1
 72
     4
 73
     2
 74
     0
 42
0.0000000001
 43
0.0000000001
 40
0.0
 40
0.0
 40
1.0
 40
1.0
 10
2.002210058250657
 20
2.598572818302814
 30
0.0
 10
2.002210058250657
 20
2.613165675445673
 30
0.0
  0
SPLINE
  5
C7E
330
1F
100
AcDbEntity
  8
0
  6
HIDDEN
 62
     7
370
     0
100
AcDbSpline
210
0.0
220
0.0
230
1.0
 70
    24
 71
     1
 72
     4
 73
     2
 74
     0
 42
0.0000000001
 43
0.0000000001
 40
0.0
 40
0.0
 40
1.0
 40
1.0
 10
1.749810058250655
 20
2.613165675445673
 30
0.0
 10
1.749810058250655
 20
2.598572818302814
 30
0.0
  0
SPLINE
  5
C7F
330
1F
100
AcDbEntity
  8
0
  6
HIDDEN
 62
     7
370
     0
100
AcDbSpline
210
0.0
220
0.0
230
1.0
 70
    24
 71
     1
 72
     4
 73
     2
 74
     0
 42
0.0000000001
 43
0.0000000001
 40
0.0
 40
0.0
 40
1.0
 40
1.0
 10
1.749810058251895
 20
2.613165675445673
 30
0.0
 10
1.764402915396033
 20
2.598572818301532
 30
0.0
  0
SPLINE
  5
C80
330
1F
100
AcDbEntity
  8
0
  6
HIDDEN
 62
     7
370
     0
100
AcDbSpline
210
0.0
220
0.0
230
1.0
 70
    24
 71
     1
 72
     4
 73
     2
 74
     0
 42
0.0000000001
 43
0.0000000001
 40
0.0
 40
0.0
 40
1.0
 40
1.0
 10
1.98761720110528
 20
2.598572818301532
 30
0.0
 10
2.002210058249424
 20
2.613165675445673
 30
0.0
  0
DIMENSION
  5
C81
330
1F
100
AcDbEntity
  8
DIM
100
AcDbDimension
  2
*D9
 10
2.369902578964193
 20
1.426072818302815
 30
0.0
 11
2.369902578964193
 21
2.269712736606544
 31
0.0
 70
   160
 71
     2
 42
1.469999999999998
  3
Standard
100
AcDbAlignedDimension
 13
2.157010058250655
 23
2.896072818302814
 33
0.0
 14
2.157010058250655
 24
1.426072818302815
 34
0.0
 50
90.00000000000019
100
AcDbRotatedDimension
  0
SPLINE
  5
C82
330
1F
100
AcDbEntity
  8
0
  6
Continuous
 62
     7
370
    15
100
AcDbSpline
210
0.0
220
0.0
230
1.0
 70
    24
 71
     1
 72
     4
 73
     2
 74
     0
 42
0.0000000001
 43
0.0000000001
 40
0.0
 40
0.0
 40
1.0
 40
1.0
 10
2.142010058250654
 20
5.549711414909646
 30
0.0
 10
1.609010058250657
 20
5.549711414909646
 30
0.0
  0
SPLINE
  5
C83
330
1F
100
AcDbEntity
  8
0
  6
Continuous
 62
     7
370
    15
100
AcDbSpline
210
0.0
220
0.0
230
1.0
 70
    24
 71
     1
 72
     4
 73
     2
 74
     0
 42
0.0000000001
 43
0.0000000001
 40
0.0
 40
0.0
 40
1.0
 40
1.0
 10
1.609010058250657
 20
4.049711414909642
 30
0.0
 10
2.142010058250654
 20
4.049711414909642
 30
0.0
  0
SPLINE
  5
C84
330
1F
100
AcDbEntity
  8
0
  6
Continuous
 62
     7
370
    15
100
AcDbSpline
210
0.0
220
0.0
230
1.0
 70
    24
 71
     1
 72
     4
 73
     2
 74
     0
 42
0.0000000001
 43
0.0000000001
 40
0.0
 40
0.0
 40
1.0
 40
1.0
 10
1.609010058250657
 20
5.549711414909646
 30
0.0
 10
1.594010058250656
 20
5.534711414909645
 30
0.0
  0
SPLINE
  5
C85
330
1F
100
AcDbEntity
  8
0
  6
Continuous
 62
     7
370
    15
100
AcDbSpline
210
0.0
220
0.0
230
1.0
 70
    24
 71
     1
 72
     4
 73
     2
 74
     0
 42
0.0000000001
 43
0.0000000001
 40
0.0
 40
0.0
 40
1.0
 40
1.0
 10
1.594010058250656
 20
4.064711414909643
 30
0.0
 10
1.609010058250657
 20
4.049711414909642
 30
0.0
  0
SPLINE
  5
C86
330
1F
100
AcDbEntity
  8
0
  6
Continuous
 62
     7
370
    15
100
AcDbSpline
210
0.0
220
0.0
230
1.0
 70
    24
 71
     1
 72
     4
 73
     2
 74
     0
 42
0.0000000001
 43
0.0000000001
 40
0.0
 40
0.0
 40
1.0
 40
1.0
 10
2.142010058250654
 20
4.049711414909642
 30
0.0
 10
2.157010058250655
 20
4.064711414909643
 30
0.0
  0
SPLINE
  5
C87
330
1F
100
AcDbEntity
  8
0
  6
Continuous
 62
     7
370
    15
100
AcDbSpline
210
0.0
220
0.0
230
1.0
 70
    24
 71
     1
 72
     4
 73
     2
 74
     0
 42
0.0000000001
 43
0.0000000001
 40
0.0
 40
0.0
 40
1.0
 40
1.0
 10
2.157010058250659
 20
5.534711414909645
 30
0.0
 10
2.142010058250654
 20
5.549711414909646
 30
0.0
  0
SPLINE
  5
C88
330
1F
100
AcDbEntity
  8
0
  6
Continuous
 62
     7
370
    15
100
AcDbSpline
210
0.0
220
0.0
230
1.0
 70
    11
 71
     3
 72
    66
 73
    62
 74
     0
 42
0.0000000001
 43
0.0000000001
 40
0.0
 40
0.0
 40
0.0
 40
0.0
 40
0.0312499999999999
 40
0.0312499999999999
 40
0.0624999999999998
 40
0.0624999999999998
 40
0.0937499999999997
 40
0.0937499999999997
 40
0.1249999999999996
 40
0.1249999999999996
 40
0.1562499999999995
 40
0.1562499999999995
 40
0.1874999999999994
 40
0.1874999999999994
 40
0.2187499999999993
 40
0.2187499999999993
 40
0.2499999999999992
 40
0.2499999999999992
 40
0.2812499999999991
 40
0.2812499999999991
 40
0.3124999999999989
 40
0.3124999999999989
 40
0.3437499999999988
 40
0.3437499999999988
 40
0.3749999999999988
 40
0.3749999999999988
 40
0.4374999999999988
 40
0.4374999999999988
 40
0.4687499999999988
 40
0.4687499999999988
 40
0.4999999999999988
 40
0.4999999999999988
 40
0.5312499999999988
 40
0.5312499999999988
 40
0.5624999999999988
 40
0.5624999999999988
 40
0.5937499999999988
 40
0.5937499999999988
 40
0.6249999999999988
 40
0.6249999999999988
 40
0.6562499999999988
 40
0.6562499999999988
 40
0.6874999999999988
 40
0.6874999999999988
 40
0.7187499999999988
 40
0.7187499999999988
 40
0.749999999999999
 40
0.749999999999999
 40
0.7812499999999992
 40
0.7812499999999992
 40
0.8124999999999992
 40
0.8124999999999992
 40
0.8437499999999992
 40
0.8437499999999992
 40
0.8749999999999994
 40
0.8749999999999994
 40
0.9374999999999996
 40
0.9374999999999996
 40
0.9687499999999998
 40
0.9687499999999998
 40
1.0
 40
1.0
 40
1.0
 40
1.0
 10
1.719760058252298
 20
4.799711414909642
 30
0.0
 10
1.719760058252298
 20
4.809615777947252
 30
0.0
 10
1.720885556321615
 20
4.819309676501015
 30
0.0
 10
1.725249347131754
 20
4.838303061652228
 30
0.0
 10
1.728551828433769
 20
4.847705229803851
 30
0.0
 10
1.736988371078172
 20
4.865342067424494
 30
0.0
 10
1.742109516886195
 20
4.873638607617595
 30
0.0
 10
1.754099029349255
 20
4.889229477367448
 30
0.0
 10
1.760834416196271
 20
4.896338551201891
 30
0.0
 10
1.775511791184801
 20
4.909132984320345
 30
0.0
 10
1.783565327562403
 20
4.914892351926932
 30
0.0
 10
1.80044544637435
 20
4.924747318042248
 30
0.0
 10
1.809266150790659
 20
4.92886640537417
 30
0.0
 10
1.827648261902982
 20
4.935544458202651
 30
0.0
 10
1.837247529305269
 20
4.93809171774407
 30
0.0
 10
1.856476762579145
 20
4.941442962814248
 30
0.0
 10
1.866192180587926
 20
4.942285176646079
 30
0.0
 10
1.885827139828581
 20
4.942285222571191
 30
0.0
 10
1.895697257873184
 20
4.941424134081723
 30
0.0
 10
1.914889636806606
 20
4.938063211409703
 30
0.0
 10
1.92430523031005
 20
4.935566643940477
 30
0.0
 10
1.94276064937452
 20
4.928865988972278
 30
0.0
 10
1.951679825886778
 20
4.924689459152959
 30
0.0
 10
1.968436445578308
 20
4.914899509572821
 30
0.0
 10
1.976349234066933
 20
4.909261568863469
 30
0.0
 10
1.998577781109986
 20
4.889914805860358
 30
0.0
 10
2.010636708711281
 20
4.874461276798827
 30
0.0
 10
2.023424126851043
 20
4.847831388922761
 30
0.0
 10
2.026662854744589
 20
4.838650033939051
 30
0.0
 10
2.031078789452738
 20
4.819670651363994
 30
0.0
 10
2.032247706672301
 20
4.809781696736651
 30
0.0
 10
2.032272212166809
 20
4.789960878919318
 30
0.0
 10
2.031156710812386
 20
4.780255571688121
 30
0.0
 10
2.02681011552865
 20
4.761245659256532
 30
0.0
 10
2.023514782443985
 20
4.751834588774942
 30
0.0
 10
2.01508731134082
 20
4.734177371657951
 30
0.0
 10
2.009969149215194
 20
4.725871552525452
 30
0.0
 10
1.997983462431967
 20
4.710263382209729
 30
0.0
 10
1.991246452666096
 20
4.703143949976981
 30
0.0
 10
1.976566047474364
 20
4.69033350365529
 30
0.0
 10
1.968510025337469
 20
4.684566943284471
 30
0.0
 10
1.951621662171255
 20
4.674698754933709
 30
0.0
 10
1.942796264335434
 20
4.670574284425276
 30
0.0
 10
1.92440380844205
 20
4.663887496923971
 30
0.0
 10
1.914798360142246
 20
4.66133676314517
 30
0.0
 10
1.895556472127957
 20
4.657980996174005
 30
0.0
 10
1.885834589704309
 20
4.65713765626223
 30
0.0
 10
1.866186429363398
 20
4.657137604159329
 30
0.0
 10
1.856309762127178
 20
4.657999842168033
 30
0.0
 10
1.837104967959412
 20
4.661365235267593
 30
0.0
 10
1.827683405822764
 20
4.663865119563931
 30
0.0
 10
1.809216597045868
 20
4.670574911833712
 30
0.0
 10
1.800293377902121
 20
4.674756653525092
 30
0.0
 10
1.783529287002341
 20
4.684559244309285
 30
0.0
 10
1.775613396236153
 20
4.690204529519951
 30
0.0
 10
1.753378113239214
 20
4.709577532079935
 30
0.0
 10
1.741320931193165
 20
4.725052044715363
 30
0.0
 10
1.728549958083785
 20
4.751707290230731
 30
0.0
 10
1.72531784321756
 20
4.760897442330433
 30
0.0
 10
1.720918556424074
 20
4.779895452681509
 30
0.0
 10
1.719760058252298
 20
4.789807051872033
 30
0.0
 10
1.719760058252298
 20
4.799711414909642
 30
0.0
  0
LINE
  5
C89
330
1F
100
AcDbEntity
  8
0
  6
Continuous
 62
     7
370
    15
100
AcDbLine
 10
2.142010058250654
 20
4.049711414909642
 30
0.0
 11
2.142010058250654
 21
5.549711414909646
 31
0.0
  0
LINE
  5
C8A
330
1F
100
AcDbEntity
  8
0
  6
Continuous
 62
     7
370
    15
100
AcDbLine
 10
1.609010058250657
 20
5.549711414909646
 30
0.0
 11
1.609010058250657
 21
4.04971141490965
 31
0.0
  0
LINE
  5
C8B
330
1F
100
AcDbEntity
  8
0
  6
Continuous
 62
     7
370
    15
100
AcDbLine
 10
1.594010058250656
 20
5.534711414909645
 30
0.0
 11
1.594010058250656
 21
4.064711414909643
 31
0.0
  0
LINE
  5
C8C
330
1F
100
AcDbEntity
  8
0
  6
Continuous
 62
     7
370
    15
100
AcDbLine
 10
2.157010058250655
 20
4.064711414909643
 30
0.0
 11
2.157010058250659
 21
5.534711414909645
 31
0.0
  0
CIRCLE
  5
C8D
330
1F
100
AcDbEntity
  8
0
  6
Continuous
 62
     7
370
    15
100
AcDbCircle
 10
1.876010058250656
 20
4.799711414909639
 30
0.0
 40
0.141224999998272
  0
LINE
  5
C8E
330
1F
100
AcDbEntity
  8
0
  6
Continuous
 62
     7
370
    15
100
AcDbLine
 10
1.876010058250656
 20
4.889922394470522
 30
0.0
 11
1.954135058250656
 21
4.844816904690082
 31
0.0
  0
LINE
  5
C8F
330
1F
100
AcDbEntity
  8
0
  6
Continuous
 62
     7
370
    15
100
AcDbLine
 10
1.79788505825066
 20
4.844816904690082
 30
0.0
 11
1.876010058250656
 21
4.889922394470522
 31
0.0
  0
LINE
  5
C90
330
1F
100
AcDbEntity
  8
0
  6
Continuous
 62
     7
370
    15
100
AcDbLine
 10
1.79788505825066
 20
4.754605925129203
 30
0.0
 11
1.79788505825066
 21
4.844816904690082
 31
0.0
  0
LINE
  5
C91
330
1F
100
AcDbEntity
  8
0
  6
Continuous
 62
     7
370
    15
100
AcDbLine
 10
1.876010058250656
 20
4.709500435348763
 30
0.0
 11
1.79788505825066
 21
4.754605925129203
 31
0.0
  0
LINE
  5
C92
330
1F
100
AcDbEntity
  8
0
  6
Continuous
 62
     7
370
    15
100
AcDbLine
 10
1.954135058250656
 20
4.754605925129203
 30
0.0
 11
1.876010058250656
 21
4.709500435348763
 31
0.0
  0
LINE
  5
C93
330
1F
100
AcDbEntity
  8
0
  6
Continuous
 62
     7
370
    15
100
AcDbLine
 10
1.954135058250656
 20
4.844816904690082
 30
0.0
 11
1.954135058250656
 21
4.754605925129203
 31
0.0
  0
CIRCLE
  5
C94
330
1F
100
AcDbEntity
  8
0
  6
Continuous
 62
     7
370
    15
100
AcDbCircle
 10
1.876010058250656
 20
4.799711414909639
 30
0.0
 40
0.1262000000007752
  0
CIRCLE
  5
C95
330
1F
100
AcDbEntity
  8
0
  6
HIDDEN
 62
     7
370
     0
100
AcDbCircle
 10
1.876010058250656
 20
4.799711414909646
 30
0.0
 40
0.1116071428546235
  0
SPLINE
  5
C96
330
1F
100
AcDbEntity
  8
0
  6
HIDDEN
 62
     7
370
     0
100
AcDbSpline
210
0.0
220
0.0
230
1.0
 70
    24
 71
     1
 72
     4
 73
     2
 74
     0
 42
0.0000000001
 43
0.0000000001
 40
0.0
 40
0.0
 40
1.0
 40
1.0
 10
1.594010058250656
 20
4.347211414909645
 30
0.0
 10
1.609010058250657
 20
4.362211414909642
 30
0.0
  0
SPLINE
  5
C97
330
1F
100
AcDbEntity
  8
0
  6
HIDDEN
 62
     7
370
     0
100
AcDbSpline
210
0.0
220
0.0
230
1.0
 70
    24
 71
     1
 72
     4
 73
     2
 74
     0
 42
0.0000000001
 43
0.0000000001
 40
0.0
 40
0.0
 40
1.0
 40
1.0
 10
1.609010058250657
 20
5.237211414909642
 30
0.0
 10
1.594010058250656
 20
5.252211414909647
 30
0.0
  0
SPLINE
  5
C98
330
1F
100
AcDbEntity
  8
0
  6
HIDDEN
 62
     7
370
     0
100
AcDbSpline
210
0.0
220
0.0
230
1.0
 70
    24
 71
     1
 72
     4
 73
     2
 74
     0
 42
0.0000000001
 43
0.0000000001
 40
0.0
 40
0.0
 40
1.0
 40
1.0
 10
2.157010058250659
 20
5.252211414909647
 30
0.0
 10
2.142010058250654
 20
5.237211414909642
 30
0.0
  0
SPLINE
  5
C99
330
1F
100
AcDbEntity
  8
0
  6
HIDDEN
 62
     7
370
     0
100
AcDbSpline
210
0.0
220
0.0
230
1.0
 70
    24
 71
     1
 72
     4
 73
     2
 74
     0
 42
0.0000000001
 43
0.0000000001
 40
0.0
 40
0.0
 40
1.0
 40
1.0
 10
2.142010058250654
 20
4.362211414909642
 30
0.0
 10
2.157010058250659
 20
4.347211414909645
 30
0.0
  0
SPLINE
  5
C9A
330
1F
100
AcDbEntity
  8
0
  6
HIDDEN
 62
     7
370
     0
100
AcDbSpline
210
0.0
220
0.0
230
1.0
 70
    24
 71
     1
 72
     4
 73
     2
 74
     0
 42
0.0000000001
 43
0.0000000001
 40
0.0
 40
0.0
 40
1.0
 40
1.0
 10
1.609010058250657
 20
4.362211414909642
 30
0.0
 10
2.142010058250654
 20
4.362211414909642
 30
0.0
  0
SPLINE
  5
C9B
330
1F
100
AcDbEntity
  8
0
  6
HIDDEN
 62
     7
370
     0
100
AcDbSpline
210
0.0
220
0.0
230
1.0
 70
    24
 71
     1
 72
     4
 73
     2
 74
     0
 42
0.0000000001
 43
0.0000000001
 40
0.0
 40
0.0
 40
1.0
 40
1.0
 10
2.142010058250654
 20
5.237211414909642
 30
0.0
 10
1.609010058250657
 20
5.237211414909642
 30
0.0
  0
INSERT
  5
C9C
330
1F
100
AcDbEntity
  8
0
  6
Continuous
 62
     7
370
     0
100
AcDbBlockReference
  2
SW_CENTERMARKSYMBOL_0
 10
1.876010058250656
 20
4.799711414909646
 30
0.0
  0
SPLINE
  5
C9D
330
1F
100
AcDbEntity
  8
0
  6
Continuous
 62
     7
370
    15
100
AcDbSpline
210
0.0
220
0.0
230
1.0
 70
    24
 71
     1
 72
     4
 73
     2
 74
     0
 42
0.0000000001
 43
0.0000000001
 40
0.0
 40
0.0
 40
1.0
 40
1.0
 10
5.142891544017167
 20
2.898034642563127
 30
0.0
 10
5.1298533682797
 20
2.911072818302534
 30
0.0
  0
SPLINE
  5
C9E
330
1F
100
AcDbEntity
  8
0
  6
Continuous
 62
     7
370
    15
100
AcDbSpline
210
0.0
220
0.0
230
1.0
 70
    24
 71
     1
 72
     4
 73
     2
 74
     0
 42
0.0000000001
 43
0.0000000001
 40
0.0
 40
0.0
 40
1.0
 40
1.0
 10
4.877453368278153
 20
2.911072818302534
 30
0.0
 10
4.864415192540683
 20
2.898034642563127
 30
0.0
  0
CIRCLE
  5
C9F
330
1F
100
AcDbEntity
  8
0
  6
Continuous
 62
     7
370
    15
100
AcDbCircle
 10
5.003653368278925
 20
2.161072818302814
 30
0.0
 40
0.4524999999999971
  0
CIRCLE
  5
CA0
330
1F
100
AcDbEntity
  8
0
  6
Continuous
 62
     7
370
    15
100
AcDbCircle
 10
5.003653368278925
 20
2.161072818302814
 30
0.0
 40
0.7349999999999995
  0
CIRCLE
  5
CA1
330
1F
100
AcDbEntity
  8
0
  6
Continuous
 62
     7
370
    15
100
AcDbCircle
 10
5.003653368278925
 20
2.161072818302814
 30
0.0
 40
0.75
  0
CIRCLE
  5
CA2
330
1F
100
AcDbEntity
  8
0
  6
Continuous
 62
     7
370
    15
100
AcDbCircle
 10
5.003653368278925
 20
2.161072818302814
 30
0.0
 40
0.4374999999999965
  0
LINE
  5
CA3
330
1F
100
AcDbEntity
  8
0
  6
Continuous
 62
     7
370
    15
100
AcDbLine
 10
5.1298533682797
 20
2.911072818302534
 30
0.0
 11
4.877453368278153
 21
2.911072818302534
 31
0.0
  0
LINE
  5
CA4
330
1F
100
AcDbEntity
  8
0
  6
HIDDEN
 62
     7
370
     0
100
AcDbLine
 10
4.862428368280653
 20
2.896047818302671
 30
0.0
 11
5.144878368277197
 21
2.896047818302671
 31
0.0
  0
LINE
  5
CA5
330
1F
100
AcDbEntity
  8
0
  6
HIDDEN
 62
     7
370
     0
100
AcDbLine
 10
5.129853368278926
 20
2.613165675445673
 30
0.0
 11
4.877453368278928
 21
2.613165675445673
 31
0.0
  0
LINE
  5
CA6
330
1F
100
AcDbEntity
  8
0
  6
HIDDEN
 62
     7
370
     0
100
AcDbLine
 10
4.892046225424302
 20
2.598572818301532
 30
0.0
 11
5.115260511133548
 21
2.598572818301532
 31
0.0
  0
LINE
  5
CA7
330
1F
100
AcDbEntity
  8
0
  6
HIDDEN
 62
     7
370
     0
100
AcDbLine
 10
5.048758858059361
 20
2.851572818302814
 30
0.0
 11
5.093864347839804
 21
2.851572818302814
 31
0.0
  0
LINE
  5
CA8
330
1F
100
AcDbEntity
  8
0
  6
HIDDEN
 62
     7
370
     0
100
AcDbLine
 10
5.048758858059361
 20
2.851572818302814
 30
0.0
 11
5.048758858059368
 21
2.911072818302814
 31
0.0
  0
LINE
  5
CA9
330
1F
100
AcDbEntity
  8
0
  6
HIDDEN
 62
     7
370
     0
100
AcDbLine
 10
4.958547878498485
 20
2.851572818302814
 30
0.0
 11
5.048758858059361
 21
2.851572818302814
 31
0.0
  0
LINE
  5
CAA
330
1F
100
AcDbEntity
  8
0
  6
HIDDEN
 62
     7
370
     0
100
AcDbLine
 10
4.958547878498485
 20
2.851572818302814
 30
0.0
 11
4.958547878498485
 21
2.911072818302814
 31
0.0
  0
LINE
  5
CAB
330
1F
100
AcDbEntity
  8
0
  6
HIDDEN
 62
     7
370
     0
100
AcDbLine
 10
4.913442388718049
 20
2.851572818302814
 30
0.0
 11
4.958547878498485
 21
2.851572818302814
 31
0.0
  0
LINE
  5
CAC
330
1F
100
AcDbEntity
  8
0
  6
HIDDEN
 62
     7
370
     0
100
AcDbLine
 10
5.093864347839804
 20
2.851572818302814
 30
0.0
 11
5.093864347839804
 21
2.911072818302814
 31
0.0
  0
LINE
  5
CAD
330
1F
100
AcDbEntity
  8
0
  6
HIDDEN
 62
     7
370
     0
100
AcDbLine
 10
4.913442388718049
 20
2.911072818302814
 30
0.0
 11
4.913442388718049
 21
2.851572818302814
 31
0.0
  0
SPLINE
  5
CAE
330
1F
100
AcDbEntity
  8
0
  6
HIDDEN
 62
     7
370
     0
100
AcDbSpline
210
0.0
220
0.0
230
1.0
 70
    24
 71
     1
 72
     4
 73
     2
 74
     0
 42
0.0000000001
 43
0.0000000001
 40
0.0
 40
0.0
 40
1.0
 40
1.0
 10
4.86126037834726
 20
2.897215808236063
 30
0.0
 10
4.862428368280653
 20
2.896047818302671
 30
0.0
  0
SPLINE
  5
CAF
330
1F
100
AcDbEntity
  8
0
  6
HIDDEN
 62
     7
370
     0
100
AcDbSpline
210
0.0
220
0.0
230
1.0
 70
    24
 71
     1
 72
     4
 73
     2
 74
     0
 42
0.0000000001
 43
0.0000000001
 40
0.0
 40
0.0
 40
1.0
 40
1.0
 10
5.144878368277197
 20
2.896047818302671
 30
0.0
 10
5.14604635821059
 20
2.897215808236063
 30
0.0
  0
SPLINE
  5
CB0
330
1F
100
AcDbEntity
  8
0
  6
HIDDEN
 62
     7
370
     0
100
AcDbSpline
210
0.0
220
0.0
230
1.0
 70
    24
 71
     1
 72
     4
 73
     2
 74
     0
 42
0.0000000001
 43
0.0000000001
 40
0.0
 40
0.0
 40
1.0
 40
1.0
 10
5.144878368277325
 20
2.896047818302671
 30
0.0
 10
5.142891544017167
 20
2.898034642563127
 30
0.0
  0
SPLINE
  5
CB1
330
1F
100
AcDbEntity
  8
0
  6
HIDDEN
 62
     7
370
     0
100
AcDbSpline
210
0.0
220
0.0
230
1.0
 70
    24
 71
     1
 72
     4
 73
     2
 74
     0
 42
0.0000000001
 43
0.0000000001
 40
0.0
 40
0.0
 40
1.0
 40
1.0
 10
4.864415192540683
 20
2.898034642563127
 30
0.0
 10
4.862428368280525
 20
2.896047818302671
 30
0.0
  0
SPLINE
  5
CB2
330
1F
100
AcDbEntity
  8
0
  6
HIDDEN
 62
     7
370
     0
100
AcDbSpline
210
0.0
220
0.0
230
1.0
 70
    24
 71
     1
 72
     4
 73
     2
 74
     0
 42
0.0000000001
 43
0.0000000001
 40
0.0
 40
0.0
 40
1.0
 40
1.0
 10
5.129853368278926
 20
2.580110535462035
 30
0.0
 10
5.129853368278926
 20
2.613165675445673
 30
0.0
  0
SPLINE
  5
CB3
330
1F
100
AcDbEntity
  8
0
  6
HIDDEN
 62
     7
370
     0
100
AcDbSpline
210
0.0
220
0.0
230
1.0
 70
    24
 71
     1
 72
     4
 73
     2
 74
     0
 42
0.0000000001
 43
0.0000000001
 40
0.0
 40
0.0
 40
1.0
 40
1.0
 10
4.877453368278928
 20
2.613165675445673
 30
0.0
 10
4.877453368278928
 20
2.579975921657277
 30
0.0
  0
SPLINE
  5
CB4
330
1F
100
AcDbEntity
  8
0
  6
HIDDEN
 62
     7
370
     0
100
AcDbSpline
210
0.0
220
0.0
230
1.0
 70
    24
 71
     1
 72
     4
 73
     2
 74
     0
 42
0.0000000001
 43
0.0000000001
 40
0.0
 40
0.0
 40
1.0
 40
1.0
 10
4.877453368280164
 20
2.613165675445673
 30
0.0
 10
4.892046225424302
 20
2.598572818301532
 30
0.0
  0
SPLINE
  5
CB5
330
1F
100
AcDbEntity
  8
0
  6
HIDDEN
 62
     7
370
     0
100
AcDbSpline
210
0.0
220
0.0
230
1.0
 70
    24
 71
     1
 72
     4
 73
     2
 74
     0
 42
0.0000000001
 43
0.0000000001
 40
0.0
 40
0.0
 40
1.0
 40
1.0
 10
5.115260511133548
 20
2.598572818301532
 30
0.0
 10
5.129853368277689
 20
2.613165675445673
 30
0.0
  0
INSERT
  5
CB6
330
1F
100
AcDbEntity
  8
0
  6
Continuous
 62
     7
370
     0
100
AcDbBlockReference
  2
SW_CENTERMARKSYMBOL_3
 10
5.003653368278925
 20
2.161072818302814
 30
0.0
  0
SPLINE
  5
CB7
330
1F
100
AcDbEntity
  8
0
  6
Continuous
 62
     7
370
    15
100
AcDbSpline
210
0.0
220
0.0
230
1.0
 70
    24
 71
     1
 72
     4
 73
     2
 74
     0
 42
0.0000000001
 43
0.0000000001
 40
0.0
 40
0.0
 40
1.0
 40
1.0
 10
5.029223641563234
 20
4.168236286075524
 30
0.0
 10
5.039828519409962
 20
4.174360342083785
 30
0.0
  0
SPLINE
  5
CB8
330
1F
100
AcDbEntity
  8
0
  6
Continuous
 62
     7
370
    15
100
AcDbSpline
210
0.0
220
0.0
230
1.0
 70
    24
 71
     1
 72
     4
 73
     2
 74
     0
 42
0.0000000001
 43
0.0000000001
 40
0.0
 40
0.0
 40
1.0
 40
1.0
 10
5.559467533899457
 20
5.07449904867814
 30
0.0
 10
5.559467533899457
 20
5.086745170355483
 30
0.0
  0
SPLINE
  5
CB9
330
1F
100
AcDbEntity
  8
0
  6
Continuous
 62
     7
370
    15
100
AcDbSpline
210
0.0
220
0.0
230
1.0
 70
    24
 71
     1
 72
     4
 73
     2
 74
     0
 42
0.0000000001
 43
0.0000000001
 40
0.0
 40
0.0
 40
1.0
 40
1.0
 10
5.404106972748071
 20
5.430128775207476
 30
0.0
 10
5.027219058375639
 20
5.647701537008225
 30
0.0
  0
SPLINE
  5
CBA
330
1F
100
AcDbEntity
  8
0
  6
Continuous
 62
     7
370
    15
100
AcDbSpline
210
0.0
220
0.0
230
1.0
 70
    24
 71
     1
 72
     4
 73
     2
 74
     0
 42
0.0000000001
 43
0.0000000001
 40
0.0
 40
0.0
 40
1.0
 40
1.0
 10
4.277280008898593
 20
4.348628243437206
 30
0.0
 10
4.654167923271021
 20
4.131055481636456
 30
0.0
  0
SPLINE
  5
CBB
330
1F
100
AcDbEntity
  8
0
  6
Continuous
 62
     7
370
    15
100
AcDbSpline
210
0.0
220
0.0
230
1.0
 70
    24
 71
     1
 72
     4
 73
     2
 74
     0
 42
0.0000000001
 43
0.0000000001
 40
0.0
 40
0.0
 40
1.0
 40
1.0
 10
4.652163340083422
 20
5.610520732569154
 30
0.0
 10
4.641558462236698
 20
5.604396676560897
 30
0.0
  0
SPLINE
  5
CBC
330
1F
100
AcDbEntity
  8
0
  6
Continuous
 62
     7
370
    15
100
AcDbSpline
210
0.0
220
0.0
230
1.0
 70
    24
 71
     1
 72
     4
 73
     2
 74
     0
 42
0.0000000001
 43
0.0000000001
 40
0.0
 40
0.0
 40
1.0
 40
1.0
 10
4.121919447747206
 20
4.704257969966546
 30
0.0
 10
4.121919447747206
 20
4.692011848289206
 30
0.0
  0
SPLINE
  5
CBD
330
1F
100
AcDbEntity
  8
0
  6
Continuous
 62
     7
370
    15
100
AcDbSpline
210
0.0
220
0.0
230
1.0
 70
    24
 71
     1
 72
     4
 73
     2
 74
     0
 42
0.0000000001
 43
0.0000000001
 40
0.0
 40
0.0
 40
1.0
 40
1.0
 10
4.940924425691154
 20
5.546950739536447
 30
0.0
 10
4.930298419980587
 20
5.553086996043949
 30
0.0
  0
SPLINE
  5
CBE
330
1F
100
AcDbEntity
  8
0
  6
Continuous
 62
     7
370
    15
100
AcDbSpline
210
0.0
220
0.0
230
1.0
 70
    24
 71
     1
 72
     4
 73
     2
 74
     0
 42
0.0000000001
 43
0.0000000001
 40
0.0
 40
0.0
 40
1.0
 40
1.0
 10
4.751795668447268
 20
5.553086996043949
 30
0.0
 10
4.741169662736698
 20
5.546950739536447
 30
0.0
  0
LWPOLYLINE
  5
CBF
330
1F
100
AcDbEntity
  8
0
  6
Continuous
 62
     7
370
    15
100
AcDbPolyline
 90
      108
 70
   128
 43
0.0
 10
5.029223641563234
 20
4.168236286075524
 10
5.029137448009546
 20
4.168186519507655
 10
5.005344278676318
 20
4.155067666917913
 10
4.981599025619676
 20
4.143208537347204
 10
4.957949508619183
 20
4.132633013504234
 10
4.934443354654749
 20
4.12336239308661
 10
4.911127901992191
 20
4.115415345890083
 10
4.88805010485029
 20
4.108807876210105
 10
4.865256438841235
 20
4.103553290611268
 10
4.842792807374934
 20
4.09966217112967
 10
4.820704449215632
 20
4.097142353962111
 10
4.799035847377094
 20
4.09599891368502
 10
4.777830639539704
 20
4.096234153034947
 10
4.757131530169996
 20
4.097847598271139
 10
4.736980204519557
 20
4.100836000129623
 10
4.717417244676454
 20
4.105193340366755
 10
4.698482047838322
 20
4.11091084387918
 10
4.680212746971637
 20
4.117976996375729
 10
4.662646134017034
 20
4.126377567565656
 10
4.645817585795178
 20
4.136095639816554
 10
4.629760992762609
 20
4.147111642224215
 10
4.614508690760839
 20
4.159403390025831
 10
4.600091395896281
 20
4.172946129277148
 10
4.586538142682105
 20
4.187712586703609
 10
4.573876225566575
 20
4.203673024625127
 10
4.562131143965693
 20
4.22079530084378
 10
4.551326550910719
 20
4.239044933373941
 10
4.541484205414175
 20
4.258385169884407
 10
4.532623928650043
 20
4.278777061712689
 10
4.524763564036579
 20
4.300179542302457
 10
4.517918941302028
 20
4.322549509906098
 10
4.51210384460569
 20
4.345841914385916
 10
4.507329984778408
 20
4.370009847939099
 10
4.503606975738573
 20
4.39500463956381
 10
4.50094231513091
 20
4.420775953076079
 10
4.499341369227266
 20
4.447271888480214
 10
4.498807362119634
 20
4.474439086488454
 10
4.499341369227266
 20
4.502222835979504
 10
4.50094231513091
 20
4.530567184179409
 10
4.503606975738573
 20
4.559415049343042
 10
4.507329984778415
 20
4.588708335709116
 10
4.512103844605693
 20
4.618388050497314
 10
4.517918941302035
 20
4.648394422711904
 10
4.524763564036582
 20
4.678667023512579
 10
4.532623928650046
 20
4.709144887910076
 10
4.541484205414178
 20
4.739766637541583
 10
4.551326550910726
 20
4.770470604278555
 10
4.562131143965697
 20
4.801194954418155
 10
4.573876225566582
 20
4.831877813208079
 10
4.586538142682108
 20
4.862457389454073
 10
4.600091395896289
 20
4.892872099959193
 10
4.614508690760846
 20
4.923060693544153
 10
4.629760992762616
 20
4.952962374399051
 10
4.645817585795185
 20
4.982516924518032
 10
4.662646134017037
 20
5.011664824970358
 10
4.680212746971648
 20
5.040347375763603
 10
4.698482047838325
 20
5.068506814057604
 10
4.717417244676465
 20
5.096086430491185
 10
4.736980204519568
 20
5.123030683387211
 10
4.757131530170006
 20
5.149285310606158
 10
4.777830639539708
 20
5.174797438822841
 10
4.799035847377101
 20
5.19951569000626
 10
4.820704449215643
 20
5.223390284888099
 10
4.842792807374941
 20
5.246373143211551
 10
4.865256438841242
 20
5.268417980558583
 10
4.888050104850297
 20
5.289480401560561
 10
4.911127901992195
 20
5.309517989304621
 10
4.934443354654753
 20
5.328490390755712
 10
4.95794950861919
 20
5.346359398022203
 10
4.981599025619683
 20
5.363089025301517
 10
5.005344278676325
 20
5.378645581350733
 10
5.029137448009549
 20
5.392997737336278
 10
5.052930617342777
 20
5.406116589926012
 10
5.076675870399423
 20
5.417975719496725
 10
5.100325387399912
 20
5.428551243339692
 10
5.123831541364346
 20
5.437821863757323
 10
5.147146994026904
 20
5.445768910953843
 10
5.170224791168806
 20
5.45237638063382
 10
5.19301845717786
 20
5.457630966232661
 10
5.215482088644161
 20
5.461522085714259
 10
5.237570446803463
 20
5.464041902881815
 10
5.259239048641997
 20
5.465185343158905
 10
5.280444256479395
 20
5.464950103808982
 10
5.301143365849096
 20
5.463336658572787
 10
5.321294691499538
 20
5.460348256714306
 10
5.340857651342641
 20
5.455990916477174
 10
5.359792848180777
 20
5.450273412964749
 10
5.378062149047455
 20
5.443207260468197
 10
5.395628762002061
 20
5.43480668927827
 10
5.412457310223913
 20
5.425088617027371
 10
5.428513903256487
 20
5.41407261461971
 10
5.443766205258256
 20
5.401780866818095
 10
5.45818350012281
 20
5.388238127566781
 10
5.471736753336987
 20
5.373471670140316
 10
5.484398670452517
 20
5.357511232218799
 10
5.496143752053399
 20
5.340388956000142
 10
5.506948345108373
 20
5.322139323469981
 10
5.516790690604917
 20
5.302799086959522
 10
5.525650967369049
 20
5.282407195131233
 10
5.533511331982513
 20
5.261004714541465
 10
5.540355954717057
 20
5.238634746937824
 10
5.546171051413402
 20
5.215342342458006
 10
5.550944911240677
 20
5.191174408904823
 10
5.554667920280518
 20
5.166179617280116
 10
5.557332580888179
 20
5.140408303767843
 10
5.558933526791825
 20
5.113912368363711
 10
5.559467533899457
 20
5.086745170355483
 10
5.559467533899457
 20
5.086745170355483
  0
LWPOLYLINE
  5
CC0
330
1F
100
AcDbEntity
  8
0
  6
Continuous
 62
     7
370
    15
100
AcDbPolyline
 90
      140
 70
   128
 43
0.0
 10
4.520020565555228
 20
4.47443908648845
 10
4.520551448204219
 20
4.501865103283241
 10
4.522143011588354
 20
4.529848034356875
 10
4.524792004234839
 20
4.558330712184586
 10
4.528493014403476
 20
4.587254948287641
 10
4.533238481142568
 20
4.616561652109036
 10
4.539018709735483
 20
4.646190951732135
 10
4.545821891506406
 20
4.676082316195584
 10
4.553634127944807
 20
4.706174679154544
 10
4.562439459099287
 20
4.736406563635794
 10
4.572219896182833
 20
4.766716207631626
 10
4.582955458322913
 20
4.797041690276101
 10
4.594624213381219
 20
4.827321058345825
 10
4.607202322759786
 20
4.857492452826845
 10
4.620664090101879
 20
4.887494235289056
 10
4.634982013788182
 20
4.917265113809991
 10
4.650126843121018
 20
4.946744268190707
 10
4.666067638081869
 20
4.975871474207965
 10
4.682771832540026
 20
5.004587226648853
 10
4.700205300783366
 20
5.032832860876558
 10
4.718332427235214
 20
5.060550672678827
 10
4.737116179214908
 20
5.087684036154376
 10
4.75651818259346
 20
5.114177519396372
 10
4.77649880018971
 20
5.139976997736626
 10
4.797017212746798
 20
5.165029764319202
 10
4.818031502323574
 20
5.189284637777499
 10
4.839498737930554
 20
5.212692066794849
 10
4.861375063235467
 20
5.235204231335009
 10
4.883615786159229
 20
5.256775140335774
 10
4.906175470179302
 20
5.277360725666076
 10
4.929008027153905
 20
5.296918932154634
 10
4.952066811477443
 20
5.315409803506286
 10
4.975304715374814
 20
5.33279556393038
 10
4.998674265139893
 20
5.349040695314572
 10
5.022127718121584
 20
5.364112009786305
 10
5.045617160259325
 20
5.377978717513689
 10
5.069094603968782
 20
5.390612489607404
 10
5.092512086177709
 20
5.40198751599498
 10
5.115821766311778
 20
5.412080558149293
 10
5.138976024030128
 20
5.420870996563559
 10
5.161927556510971
 20
5.428340872875784
 10
5.184629475088581
 20
5.43447492655669
 10
5.207035401044119
 20
5.439260626086083
 10
5.229099560354722
 20
5.442688194554053
 10
5.250776877207194
 20
5.44475062963462
 10
5.272023066085321
 20
5.445443717891086
 10
5.292794722242629
 20
5.444766043383863
 10
5.313049410375803
 20
5.442718990563134
 10
5.332745751317588
 20
5.439306741440512
 10
5.351843506572038
 20
5.434536267045443
 10
5.370303660519471
 20
5.428417313183766
 10
5.388088500123139
 20
5.420962380527589
 10
5.405161691974814
 20
5.41218669907718
 10
5.421488356521823
 20
5.402108197046887
 10
5.43703513932402
 20
5.390747464238854
 10
5.451770279194981
 20
5.378127709979247
 10
5.465663673088261
 20
5.364274715702899
 10
5.47868693759624
 20
5.349216782283336
 10
5.490813466935751
 20
5.332984672215721
 10
5.502018487302208
 20
5.315611546770826
 10
5.512279107481056
 20
5.29713289824844
 10
5.521574365613197
 20
5.277586477468675
 10
5.529885272018891
 20
5.257012216649171
 10
5.537194847992562
 20
5.235452147825876
 10
5.543488160489339
 20
5.212950316984004
 10
5.548752352632398
 20
5.189552694074604
 10
5.552976669978825
 20
5.165307079100601
 10
5.556152482490336
 20
5.140263004464111
 10
5.558273302163946
 20
5.114471633774586
 10
5.559334796286588
 20
5.087985657324496
 10
5.559334796286588
 20
5.060859184446092
 10
5.558273302163946
 20
5.033147632969102
 10
5.556152482490336
 20
5.004907616005324
 10
5.552976669978821
 20
4.976196826291266
 10
5.548752352632394
 20
4.947073918325179
 10
5.543488160489335
 20
4.917598388539294
 10
5.537194847992559
 20
4.887830453752011
 10
5.529885272018887
 20
4.857830928148407
 10
5.521574365613194
 20
4.827661099040303
 10
5.512279107481056
 20
4.797382601659842
 10
5.502018487302205
 20
4.767057293242205
 10
5.490813466935748
 20
4.736747126654853
 10
5.478686937596233
 20
4.706514023831347
 10
5.465663673088258
 20
4.676419749268406
 10
5.451770279194978
 20
4.646525783844543
 10
5.437035139324017
 20
4.616893199218202
 10
5.421488356521816
 20
4.587582533061825
 10
5.405161691974804
 20
4.558653665386868
 10
5.388088500123135
 20
4.530165696212359
 10
5.370303660519468
 20
4.502176824826969
 10
5.351843506572031
 20
4.474744230891163
 10
5.332745751317577
 20
4.447923957622469
 10
5.313049410375793
 20
4.421770797302373
 10
5.292794722242618
 20
4.396338179338831
 10
5.27202306608531
 20
4.371678061113046
 10
5.250776877207186
 20
4.347840821833534
 10
5.229099560354715
 20
4.324875159614267
 10
5.207035401044109
 20
4.30282799198722
 10
5.184629475088573
 20
4.281744360052554
 10
5.161927556510963
 20
4.261667336462222
 10
5.138976024030121
 20
4.242637937424996
 10
5.115821766311775
 20
4.224695038912733
 10
5.092512086177698
 20
4.207875297238961
 10
5.069094603968771
 20
4.192213074172142
 10
5.045617160259318
 20
4.177740366736562
 10
5.022127718121573
 20
4.164486741844219
 10
4.998674265139886
 20
4.152479275891343
 10
4.975304715374811
 20
4.141742499442839
 10
4.952066811477433
 20
4.132298347117776
 10
4.929008027153894
 20
4.124166112778206
 10
4.906175470179292
 20
4.117362410112901
 10
4.883615786159218
 20
4.111901138696561
 10
4.86137506323546
 20
4.107793455593759
 10
4.839498737930551
 20
4.105047752565697
 10
4.818031502323567
 20
4.103669638926332
 10
4.797017212746791
 20
4.10366193008287
 10
4.776498800189703
 20
4.105024641784028
 10
4.756518182593453
 20
4.107754990087896
 10
4.737116179214904
 20
4.111847397049329
 10
4.71833242723521
 20
4.1172935021154
 10
4.700205300783363
 20
4.124082179205524
 10
4.682771832540023
 20
4.132199559441398
 10
4.666067638081866
 20
4.141629059480328
 10
4.650126843121014
 20
4.152351415394038
 10
4.634982013788178
 20
4.164344722023797
 10
4.620664090101875
 20
4.17758447773137
 10
4.607202322759778
 20
4.19204363445449
 10
4.594624213381212
 20
4.20769265296448
 10
4.58295545832291
 20
4.224499563213212
 10
4.572219896182833
 20
4.242430029646088
 10
4.56243945909928
 20
4.261447421347606
 10
4.553634127944807
 20
4.281512886876212
 10
4.545821891506406
 20
4.302585433635583
 10
4.539018709735483
 20
4.324622011620148
 10
4.533238481142568
 20
4.347577601363783
 10
4.528493014403476
 20
4.371405305912
 10
4.524792004234839
 20
4.39605644662973
 10
4.522143011588354
 20
4.421480662649011
 10
4.520551448204219
 20
4.447626013753309
 10
4.520020565555228
 20
4.47443908648845
  0
SPLINE
  5
CC1
330
1F
100
AcDbEntity
  8
0
  6
Continuous
 62
     7
370
    15
100
AcDbSpline
210
0.0
220
0.0
230
1.0
 70
    11
 71
     3
 72
    66
 73
    62
 74
     0
 42
0.0000000001
 43
0.0000000001
 40
0.0
 40
0.0
 40
0.0
 40
0.0
 40
0.0312499999999999
 40
0.0312499999999999
 40
0.0624999999999998
 40
0.0624999999999998
 40
0.0937499999999997
 40
0.0937499999999997
 40
0.1249999999999996
 40
0.1249999999999996
 40
0.1562499999999995
 40
0.1562499999999995
 40
0.1874999999999994
 40
0.1874999999999994
 40
0.2187499999999993
 40
0.2187499999999993
 40
0.2499999999999992
 40
0.2499999999999992
 40
0.2812499999999991
 40
0.2812499999999991
 40
0.3124999999999989
 40
0.3124999999999989
 40
0.3437499999999988
 40
0.3437499999999988
 40
0.3749999999999988
 40
0.3749999999999988
 40
0.4374999999999988
 40
0.4374999999999988
 40
0.4687499999999988
 40
0.4687499999999988
 40
0.4999999999999988
 40
0.4999999999999988
 40
0.5312499999999988
 40
0.5312499999999988
 40
0.5624999999999988
 40
0.5624999999999988
 40
0.5937499999999988
 40
0.5937499999999988
 40
0.6249999999999988
 40
0.6249999999999988
 40
0.6562499999999988
 40
0.6562499999999988
 40
0.6874999999999988
 40
0.6874999999999988
 40
0.7187499999999988
 40
0.7187499999999988
 40
0.749999999999999
 40
0.749999999999999
 40
0.7812499999999992
 40
0.7812499999999992
 40
0.8124999999999992
 40
0.8124999999999992
 40
0.8437499999999992
 40
0.8437499999999992
 40
0.8749999999999994
 40
0.8749999999999994
 40
0.9374999999999996
 40
0.9374999999999996
 40
0.9687499999999998
 40
0.9687499999999998
 40
1.0
 40
1.0
 40
1.0
 40
1.0
 10
4.730561609654685
 20
5.565361899944283
 30
0.0
 10
4.737565051921912
 20
5.569404901107452
 30
0.0
 10
4.745215520642439
 20
5.57274261993257
 30
0.0
 10
4.761731538154077
 20
5.578112386481857
 30
0.0
 10
4.770715081935346
 20
5.580151826019294
 30
0.0
 10
4.789151745929217
 20
5.582813394841723
 30
0.0
 10
4.798639482688443
 20
5.583467463541586
 30
0.0
 10
4.818141757978914
 20
5.583542074415595
 30
0.0
 10
4.827931270008644
 20
5.582957810408556
 30
0.0
 10
4.847356771812542
 20
5.580740366815662
 30
0.0
 10
4.857123969887645
 20
5.579082452039228
 30
0.0
 10
4.876028529735311
 20
5.574909226086658
 30
0.0
 10
4.885178344227622
 20
5.572404278181641
 30
0.0
 10
4.902898556087812
 20
5.566647938726893
 30
0.0
 10
4.91148744765757
 20
5.563377772162018
 30
0.0
 10
4.927454257017089
 20
5.556376159009969
 30
0.0
 10
4.934919630084859
 20
5.552619717185281
 30
0.0
 10
4.948803675386209
 20
5.544604658671365
 30
0.0
 10
4.955174021276551
 20
5.540361475586179
 30
0.0
 10
4.966368551355046
 20
5.531676691108609
 30
0.0
 10
4.971261041583048
 20
5.527197935386221
 30
0.0
 10
4.979572914986764
 20
5.517911215035235
 30
0.0
 10
4.982926472624118
 20
5.513158925665498
 30
0.0
 10
4.987852652302173
 20
5.503619144588297
 30
0.0
 10
4.989461212593067
 20
5.498795077346779
 30
0.0
 10
4.991498941629622
 20
5.48401632686521
 30
0.0
 10
4.98909859591766
 20
5.474262245800799
 30
0.0
 10
4.979310491698754
 20
5.459829209341995
 30
0.0
 10
4.975108419785236
 20
5.455201072730714
 30
0.0
 10
4.964810507041086
 20
5.446259989630108
 30
0.0
 10
4.958644509457844
 20
5.441912165433135
 30
0.0
 10
4.944646402771891
 20
5.433814673918869
 30
0.0
 10
4.936994935643074
 20
5.430149745725854
 30
0.0
 10
4.920479390652737
 20
5.423564285861486
 30
0.0
 10
4.911494606526545
 20
5.420618182570143
 30
0.0
 10
4.893049946600935
 20
5.415757340597325
 30
0.0
 10
4.883557758422789
 20
5.413814096580354
 30
0.0
 10
4.86404595494903
 20
5.410939718978456
 30
0.0
 10
4.854247970848689
 20
5.410046247652838
 30
0.0
 10
4.834809003322956
 20
5.409359681501227
 30
0.0
 10
4.825034961498243
 20
5.4095721737807
 30
0.0
 10
4.806115222479423
 20
5.411130889367138
 30
0.0
 10
4.796958282757724
 20
5.412463418707302
 30
0.0
 10
4.77922457968631
 20
5.416261847539113
 30
0.0
 10
4.770628860905194
 20
5.418749584090837
 30
0.0
 10
4.754649905826063
 20
5.424713520374842
 30
0.0
 10
4.747179165467944
 20
5.42820323225075
 30
0.0
 10
4.733285781210732
 20
5.436223661486698
 30
0.0
 10
4.726911617175428
 20
5.440744850034922
 30
0.0
 10
4.715711469270168
 20
5.450480337407723
 30
0.0
 10
4.710817103932097
 20
5.455731052778181
 30
0.0
 10
4.702503637833387
 20
5.466991570320731
 30
0.0
 10
4.699150906973979
 20
5.4729351502392
 30
0.0
 10
4.694228383035014
 20
5.485077759413629
 30
0.0
 10
4.692622822449308
 20
5.491321566755528
 30
0.0
 10
4.69059888454268
 20
5.510500542040913
 30
0.0
 10
4.693015302175986
 20
5.52321630512265
 30
0.0
 10
4.7028329653461
 20
5.540965949483135
 30
0.0
 10
4.707045933876454
 20
5.546477783660682
 30
0.0
 10
4.717368790300692
 20
5.556635456090488
 30
0.0
 10
4.723558167387459
 20
5.561318898781115
 30
0.0
 10
4.730561609654685
 20
5.565361899944283
 30
0.0
  0
LWPOLYLINE
  5
CC2
330
1F
100
AcDbEntity
  8
0
  6
Continuous
 62
     7
370
    15
100
AcDbPolyline
 90
       72
 70
   128
 43
0.0
 10
5.027219058375639
 20
5.647701537008225
 10
5.018740847629629
 20
5.652379451079029
 10
5.001174234675023
 20
5.660780022268957
 10
4.982904933808342
 20
5.667846174765509
 10
4.963969736970206
 20
5.673563678277934
 10
4.944406777127102
 20
5.677921018515062
 10
4.924255451476664
 20
5.680909420373543
 10
4.903556342106959
 20
5.682522865609742
 10
4.882351134269566
 20
5.682758104959665
 10
4.860682532431027
 20
5.681614664682575
 10
4.838594174271726
 20
5.679094847515015
 10
4.816130542805424
 20
5.675203728033414
 10
4.79333687679637
 20
5.669949142434576
 10
4.770259079654472
 20
5.663341672754595
 10
4.74694362699191
 20
5.655394625558072
 10
4.723437473027477
 20
5.646124005140444
 10
4.699787956026984
 20
5.635548481297474
 10
4.676042702970342
 20
5.623689351726765
 10
4.652249533637114
 20
5.610570499137027
 10
4.62845636430389
 20
5.596218343151482
 10
4.604711111247247
 20
5.580661787102267
 10
4.581061594246754
 20
5.563932159822952
 10
4.557555440282317
 20
5.546063152556461
 10
4.534239987619759
 20
5.527090751105371
 10
4.511162190477861
 20
5.507053163361307
 10
4.488368524468807
 20
5.485990742359328
 10
4.465904893002505
 20
5.463945905012296
 10
4.443816534843204
 20
5.440963046688844
 10
4.422147933004666
 20
5.417088451807005
 10
4.400942725167276
 20
5.392370200623586
 10
4.380243615797567
 20
5.3668580724069
 10
4.360092290147129
 20
5.340603445187953
 10
4.340529330304025
 20
5.313659192291931
 10
4.32159413346589
 20
5.286079575858353
 10
4.303324832599209
 20
5.257920137564346
 10
4.285758219644602
 20
5.2292375867711
 10
4.26892967142275
 20
5.200089686318774
 10
4.25287307839018
 20
5.170535136199793
 10
4.237620776388407
 20
5.140633455344898
 10
4.223203481523853
 20
5.110444861759935
 10
4.209650228309676
 20
5.080030151254815
 10
4.196988311194147
 20
5.049450575008821
 10
4.185243229593258
 20
5.018767716218897
 10
4.17443863653829
 20
4.988043366079297
 10
4.164596291041746
 20
4.957339399342325
 10
4.155736014277614
 20
4.926717649710818
 10
4.14787564966415
 20
4.896239785313321
 10
4.141031026929599
 20
4.865967184512646
 10
4.135215930233261
 20
4.835960812298056
 10
4.13044207040598
 20
4.806281097509858
 10
4.126719061366145
 20
4.776987811143785
 10
4.124054400758481
 20
4.748139945980151
 10
4.122453454854838
 20
4.719795597780246
 10
4.121919447747206
 20
4.692011848289199
 10
4.122453454854838
 20
4.664844650280956
 10
4.124054400758481
 20
4.638348714876821
 10
4.126719061366145
 20
4.612577401364552
 10
4.130442070405987
 20
4.587582609739845
 10
4.135215930233261
 20
4.563414676186662
 10
4.141031026929606
 20
4.540122271706847
 10
4.14787564966415
 20
4.517752304103202
 10
4.155736014277618
 20
4.496349823513435
 10
4.164596291041753
 20
4.475957931685153
 10
4.174438636538297
 20
4.456617695174687
 10
4.185243229593268
 20
4.438368062644526
 10
4.196988311194154
 20
4.421245786425876
 10
4.20965022830968
 20
4.405285348504358
 10
4.223203481523857
 20
4.390518891077894
 10
4.237620776388418
 20
4.37697615182658
 10
4.252873078390187
 20
4.364684404024965
 10
4.268929671422753
 20
4.353668401617303
 10
4.277280008898593
 20
4.348628243437206
  0
LWPOLYLINE
  5
CC3
330
1F
100
AcDbEntity
  8
0
  6
Continuous
 62
     7
370
    15
100
AcDbPolyline
 90
      110
 70
   128
 43
0.0
 10
5.35970986821426
 20
4.95918140288318
 10
5.359178421078564
 20
4.937587857421098
 10
5.357585845085427
 20
4.915452447743343
 10
5.354937430612135
 20
4.892848705454811
 10
5.351241975425228
 20
4.869851717914214
 10
5.346511755455203
 20
4.846537878801457
 10
5.340762484017098
 20
4.822984634345489
 10
5.334013259612454
 20
4.799270226055748
 10
5.326286502486002
 20
4.775473430811709
 10
5.317607880147864
 20
4.751673299174035
 10
5.308006222108673
 20
4.727948892786537
 10
5.297513424110842
 20
4.704379021741376
 10
5.286164342174103
 20
4.681041982779836
 10
5.273996676807318
 20
4.65801529919844
 10
5.26105084777118
 20
4.635375463324352
 10
5.247369859807843
 20
4.613197682415544
 10
5.232999159783489
 20
4.591555628829874
 10
5.21798648571838
 20
4.570521195292895
 10
5.202381708206011
 20
4.550164256077485
 10
5.186236664747969
 20
4.530552434888493
 10
5.169604987554986
 20
4.511750880223635
 10
5.152541925386103
 20
4.49382204895671
 10
5.135104160017899
 20
4.476825498862163
 10
5.117349617953276
 20
4.460817690770136
 10
5.099337277995481
 20
4.445851801009267
 10
5.081126975326416
 20
4.431977544760291
 10
5.06277920274022
 20
4.419241010907184
 10
5.044354909692266
 20
4.407684508934552
 10
5.025915299831204
 20
4.397346428379753
 10
5.007521627686593
 20
4.388261111306741
 10
4.98923499518753
 20
4.380458738225152
 10
4.971116148688164
 20
4.373965227833716
 10
4.953225277174428
 20
4.368802150920926
 10
4.935621812322278
 20
4.364986658709051
 10
4.918364231071652
 20
4.362531425879522
 10
4.901509861371934
 20
4.361444608468881
 10
4.885114691744295
 20
4.361729816775264
 10
4.869233185293449
 20
4.363386103365373
 10
4.853918098786685
 20
4.366407966221702
 10
4.839220307401202
 20
4.370785367019758
 10
4.82518863572189
 20
4.376503764474295
 10
4.81186969555096
 20
4.383544162644055
 10
4.799307731068232
 20
4.391883174034324
 10
4.787544471856413
 20
4.401493097287898
 10
4.776618994279616
 20
4.412342009206158
 10
4.766567591675624
 20
4.424393870794732
 10
4.757423653793065
 20
4.437608646981436
 10
4.749217555874018
 20
4.451942439608727
 10
4.741976557750504
 20
4.467347633258993
 10
4.735724713290107
 20
4.48377305342816
 10
4.730482790491397
 20
4.501164136522268
 10
4.72626820249475
 20
4.519463111112218
 10
4.723094949737649
 20
4.538609189844683
 10
4.720973573446634
 20
4.558538771371546
 10
4.719911120620405
 20
4.579185651627218
 10
4.719911120620405
 20
4.600481243751856
 10
4.720973573446634
 20
4.622354805930028
 10
4.723094949737649
 20
4.64473367638792
 10
4.72626820249475
 20
4.667543514768413
 10
4.730482790491397
 20
4.690708549082296
 10
4.73572471329011
 20
4.714151827415198
 10
4.741976557750508
 20
4.737795473554085
 10
4.749217555874018
 20
4.761560945684221
 10
4.757423653793068
 20
4.785369297297195
 10
4.766567591675627
 20
4.80914143944325
 10
4.776618994279616
 20
4.832798403456839
 10
4.787544471856413
 20
4.856261603282598
 10
4.799307731068235
 20
4.879453096530292
 10
4.811869695550967
 20
4.902295843391639
 10
4.825188635721897
 20
4.924713962558753
 10
4.839220307401209
 20
4.946632983294259
 10
4.853918098786685
 20
4.967980092815581
 10
4.869233185293452
 20
4.988684378171681
 10
4.885114691744298
 20
5.008677061808748
 10
4.901509861371938
 20
5.027891730042322
 10
4.918364231071656
 20
5.046264553676865
 10
4.935621812322285
 20
5.063734500039943
 10
4.953225277174432
 20
5.080243535726621
 10
4.971116148688167
 20
5.095736819380592
 10
4.989234995187537
 20
5.110162883871653
 10
5.0075216276866
 20
5.12347380726433
 10
5.025915299831208
 20
5.135625372009739
 10
5.04435490969227
 20
5.14657721183183
 10
5.062779202740223
 20
5.156292945820093
 10
5.081126975326419
 20
5.164740299283289
 10
5.099337277995484
 20
5.171891210962728
 10
5.11734961795328
 20
5.177721926248951
 10
5.135104160017903
 20
5.182213076092144
 10
5.15254192538611
 20
5.185349741344184
 10
5.169604987554986
 20
5.187121502318555
 10
5.186236664747976
 20
5.187522473403467
 10
5.202381708206015
 20
5.186551322613306
 10
5.217986485718384
 20
5.184211276013327
 10
5.232999159783489
 20
5.180510107003017
 10
5.247369859807847
 20
5.175460110493604
 10
5.261050847771183
 20
5.169078062065645
 10
5.273996676807318
 20
5.161385162242195
 10
5.286164342174103
 20
5.152406966062828
 10
5.297513424110842
 20
5.142173298192352
 10
5.308006222108677
 20
5.130718153846276
 10
5.317607880147864
 20
5.118079585862121
 10
5.326286502486002
 20
5.104299578291721
 10
5.334013259612458
 20
5.089423906934426
 10
5.340762484017105
 20
5.073501987274502
 10
5.346511755455207
 20
5.056586710327861
 10
5.351241975425228
 20
5.03873426694342
 10
5.354937430612135
 20
5.020003961142753
 10
5.357585845085427
 20
5.0004580131181
 10
5.359178421078564
 20
4.98016135254315
 10
5.35970986821426
 20
4.95918140288318
  0
ARC
  5
CC4
330
1F
100
AcDbEntity
  8
0
  6
Continuous
 62
     7
370
    15
100
AcDbCircle
 10
5.248974272211818
 20
4.653683031146085
 30
0.0
 40
1.128188992051265
100
AcDbArc
 50
122.5747172933522
 51
177.4306592393473
  0
LWPOLYLINE
  5
CC5
330
1F
100
AcDbEntity
  8
0
  6
Continuous
 62
     7
370
    15
100
AcDbPolyline
 90
       81
 70
   128
 43
0.0
 10
4.719822913799401
 20
4.595957193970066
 10
4.720311443894189
 20
4.58134530612182
 10
4.721909243760986
 20
4.561374603355625
 10
4.72456612289368
 20
4.542159588811765
 10
4.728272922479494
 20
4.523766500625976
 10
4.733016864412352
 20
4.506258743583577
 10
4.738781595341649
 20
4.48969667055003
 10
4.745547243045642
 20
4.474137374422104
 10
4.75329048493511
 20
4.459634491316831
 10
4.761984628451166
 20
4.446238015676724
 10
4.771599703080013
 20
4.433994127928544
 10
4.782102563667535
 20
4.422945035289822
 10
4.793457004677495
 20
4.413128826271821
 10
4.805623884999526
 20
4.404579339380584
 10
4.818561262876663
 20
4.397326046468533
 10
4.832224540487221
 20
4.391393951138949
 10
4.846566617682778
 20
4.386803502553332
 10
4.86153805435212
 20
4.383570524938916
 10
4.877087240851533
 20
4.381706163039295
 10
4.893160575913974
 20
4.381216843696153
 10
4.909702651423692
 20
4.38210425369464
 10
4.926656443419535
 20
4.384365333948649
 10
4.943963508668318
 20
4.38799229004614
 10
4.961564186130761
 20
4.392972619118074
 10
4.979397802625488
 20
4.399289152938417
 10
4.997402881981987
 20
4.406920117106531
 10
5.015517356961765
 20
4.415839206108108
 10
5.033678783216938
 20
4.426015673995655
 10
5.051824554548865
 20
4.437414440376192
 10
5.069892118724656
 20
4.449996211340623
 10
5.087819193107698
 20
4.463717614917973
 10
5.105543979358781
 20
4.478531350587564
 10
5.123005376467823
 20
4.494386352333711
 10
5.140143191381643
 20
4.511227964680847
 10
5.156898346501947
 20
4.528998131102282
 10
5.173213083338008
 20
4.547635594153058
 10
5.18903116161217
 20
4.567076106637079
 10
5.204298053131726
 20
4.587252653080492
 10
5.218961129758898
 20
4.608095680747902
 10
5.232969844830918
 20
4.629533339405062
 10
5.246275907404879
 20
4.651491729001525
 10
5.258833448726576
 20
4.673895154419421
 10
5.270599180349641
 20
4.696666386410205
 10
5.281532543359752
 20
4.719726927819889
 10
5.291595848189654
 20
4.742997284184971
 10
5.30075440454286
 20
4.766397237766343
 10
5.308976640978329
 20
4.789846124076438
 10
5.316234213743729
 20
4.813263109946442
 10
5.322502104482254
 20
4.83656747217496
 10
5.327758706476057
 20
4.859678875797628
 10
5.331985899129104
 20
4.882517651018366
 10
5.335169110432605
 20
4.905005067847669
 10
5.337297367197763
 20
4.927063607501205
 10
5.338363332882614
 20
4.948617229623105
 10
5.338363332882614
 20
4.969591634412831
 10
5.337297367197763
 20
4.989914518751996
 10
5.335169110432605
 20
5.009515825448149
 10
5.331985899129104
 20
5.028327984736487
 10
5.327758706476057
 20
5.046286147206776
 10
5.322502104482254
 20
5.06332840735275
 10
5.316234213743726
 20
5.079396016973182
 10
5.308976640978325
 20
5.094433587689119
 10
5.30075440454286
 20
5.108389281879103
 10
5.291595848189651
 20
5.121214991374172
 10
5.281532543359752
 20
5.132866503296709
 10
5.270599180349634
 20
5.143303652471368
 10
5.258833448726573
 20
5.152490459882779
 10
5.246275907404875
 20
5.16039525670263
 10
5.232969844830918
 20
5.166990793458717
 10
5.218961129758895
 20
5.172254333969503
 10
5.204298053131722
 20
5.176167733720445
 10
5.189031161612167
 20
5.17871750241189
 10
5.173213083338001
 20
5.179894850462948
 10
5.156898346501943
 20
5.179695719310993
 10
5.140143191381636
 20
5.178120795402344
 10
5.123005376467819
 20
5.175175507825992
 10
5.105543979358781
 20
5.170870009598351
 10
5.087819193107691
 20
5.165219142663753
 10
5.069892118724652
 20
5.158242386731162
 10
5.051824554548861
 20
5.149963792123587
 10
5.03434492480105
 20
5.140784330279364
  0
ARC
  5
CC6
330
1F
100
AcDbEntity
  8
0
  6
Continuous
 62
     7
370
    15
100
AcDbCircle
 10
4.250492017724706
 20
5.230094567396958
 30
0.0
 40
0.7168497868423014
100
AcDbArc
 50
312.2298738761421
 51
347.7755026565595
  0
LWPOLYLINE
  5
CC7
330
1F
100
AcDbEntity
  8
0
  6
Continuous
 62
     7
370
    15
100
AcDbPolyline
 90
       17
 70
   128
 43
0.0
 10
4.741185889042075
 20
5.546960108305372
 10
4.731294605808511
 20
5.540618381717559
 10
4.722605793257283
 20
5.533714526093023
 10
4.715214647836962
 20
5.526324181518701
 10
4.709202148483473
 20
5.51852831815629
 10
4.70463416939792
 20
5.510412349116167
 10
4.701560758315082
 20
5.502065194653516
 10
4.700015588169936
 20
5.493578307939388
 10
4.700015588169936
 20
5.48504467308061
 10
4.701560758315082
 20
5.476557786366482
 10
4.70463416939792
 20
5.468210631903831
 10
4.709202148483473
 20
5.460094662863708
 10
4.715214647836962
 20
5.452298799501297
 10
4.722605793257283
 20
5.444908454926972
 10
4.731294605808511
 20
5.438004599302436
 10
4.741185889042075
 20
5.431662872714623
 10
4.741169662751655
 20
5.431672241475014
  0
LWPOLYLINE
  5
CC8
330
1F
100
AcDbEntity
  8
0
  6
Continuous
 62
     7
370
    15
100
AcDbPolyline
 90
       17
 70
   128
 43
0.0
 10
4.943934641624135
 20
5.433464631521525
 10
4.950799482619345
 20
5.438004599302436
 10
4.959488295170569
 20
5.444908454926972
 10
4.966879440590886
 20
5.452298799501297
 10
4.972891939944382
 20
5.460094662863708
 10
4.977459919029932
 20
5.468210631903831
 10
4.980533330112766
 20
5.476557786366482
 10
4.982078500257912
 20
5.48504467308061
 10
4.982078500257912
 20
5.493578307939388
 10
4.980533330112766
 20
5.502065194653516
 10
4.977459919029932
 20
5.510412349116167
 10
4.972891939944375
 20
5.51852831815629
 10
4.966879440590886
 20
5.526324181518701
 10
4.959488295170565
 20
5.533714526093023
 10
4.950799482619341
 20
5.540618381717559
 10
4.940908199385773
 20
5.546960108305372
 10
4.940924425691154
 20
5.546950739536447
  0
LWPOLYLINE
  5
CC9
330
1F
100
AcDbEntity
  8
0
  6
Continuous
 62
     7
370
    15
100
AcDbPolyline
 90
       58
 70
   128
 43
0.0
 10
4.930283920000213
 20
5.5530953680648
 10
4.939559102558249
 20
5.547115592559707
 10
4.947638482175953
 20
5.540583076841832
 10
4.954423986129391
 20
5.533577116802819
 10
4.959833247592442
 20
5.52618275530701
 10
4.963800605458541
 20
5.518489749886297
 10
4.966277901377509
 20
5.510591483205269
 10
4.967235064332726
 20
5.502583829522153
 10
4.966660475662521
 20
5.494563990905218
 10
4.96456111009499
 20
5.486629317331297
 10
4.96096245108426
 20
5.478876124988998
 10
4.955908181475834
 20
5.471398527130597
 10
4.94945965325607
 20
5.464287291664666
 10
4.941695142822144
 20
5.457628739356641
 10
4.932708900812642
 20
5.451503696011611
 10
4.922610008032474
 20
5.445986511358599
 10
4.91152105135967
 20
5.441144156545499
 10
4.899576635706736
 20
5.437035411200129
 10
4.886921750099361
 20
5.43371014992512
 10
4.873710007706062
 20
5.43120873688783
 10
4.86010178118239
 20
5.429561535854036
 10
4.846262255964155
 20
5.428788541612922
 10
4.832359425139983
 20
5.428899137267455
 10
4.81856205024281
 20
5.429891980336206
 10
4.805037612713466
 20
5.431755019049257
 10
4.791950280902867
 20
5.434465638640373
 10
4.779458917290629
 20
5.437990935859621
 10
4.767715150109751
 20
5.442288118374252
 10
4.756861532785279
 20
5.447305024209656
 10
4.747029813528836
 20
5.452980754925077
 10
4.738339336093794
 20
5.459246414838171
 10
4.730895591103784
 20
5.466025947325286
 10
4.724788935539415
 20
5.473237058045826
 10
4.720093495926953
 20
5.48079221388407
 10
4.716866268542673
 20
5.488599705482629
 10
4.715146427555303
 20
5.496564760469803
 10
4.714954849504675
 20
5.504590693867806
 10
4.716293859888804
 20
5.51258008171739
 10
4.719147204935499
 20
5.520435943672781
 10
4.723480248901132
 20
5.528062920211668
 10
4.729240394501665
 20
5.535368430170654
 10
4.736357721372403
 20
5.542263794555138
 10
4.744745834806519
 20
5.548665312982199
 10
4.754302914469768
 20
5.554495279689858
 10
4.764912950361399
 20
5.559682926779769
 10
4.77644715101842
 20
5.564165283243633
 10
4.788765506869506
 20
5.567887939345942
 10
4.801718489761501
 20
5.570805707084454
 10
4.815148868028682
 20
5.572883168711337
 10
4.828893615072146
 20
5.574095106656644
 10
4.842785888281923
 20
5.574426809635452
 10
4.856657054280216
 20
5.573874251222948
 10
4.87033873590218
 20
5.572444138729723
 10
4.88366485606663
 20
5.570153831784184
 10
4.896473653726808
 20
5.567031131610102
 10
4.90860964743037
 20
5.563113943557477
 10
4.91992552265361
 20
5.558449816982902
 10
4.930283920000213
 20
5.5530953680648
  0
LINE
  5
CCA
330
1F
100
AcDbEntity
  8
0
  6
Continuous
 62
     7
370
    15
100
AcDbLine
 10
4.904835839598902
 20
5.538404503953183
 30
0.0
 11
4.928184159186614
 21
5.488101318212864
 31
0.0
  0
LINE
  5
CCB
330
1F
100
AcDbEntity
  8
0
  6
Continuous
 62
     7
370
    15
100
AcDbLine
 10
4.817698724626215
 20
5.551883201949019
 30
0.0
 11
4.904835839598902
 21
5.538404503953183
 31
0.0
  0
LINE
  5
CCC
330
1F
100
AcDbEntity
  8
0
  6
Continuous
 62
     7
370
    15
100
AcDbLine
 10
4.753909929241235
 20
5.515058714204529
 30
0.0
 11
4.817698724626215
 21
5.551883201949019
 31
0.0
  0
LINE
  5
CCD
330
1F
100
AcDbEntity
  8
0
  6
Continuous
 62
     7
370
    15
100
AcDbLine
 10
4.777258248828946
 20
5.464755528464211
 30
0.0
 11
4.753909929241235
 21
5.515058714204529
 31
0.0
  0
LINE
  5
CCE
330
1F
100
AcDbEntity
  8
0
  6
Continuous
 62
     7
370
    15
100
AcDbLine
 10
4.864395363801634
 20
5.451276830468378
 30
0.0
 11
4.777258248828946
 21
5.464755528464211
 31
0.0
  0
LINE
  5
CCF
330
1F
100
AcDbEntity
  8
0
  6
Continuous
 62
     7
370
    15
100
AcDbLine
 10
4.928184159186614
 20
5.488101318212864
 30
0.0
 11
4.864395363801634
 21
5.451276830468378
 31
0.0
  0
LINE
  5
CD0
330
1F
100
AcDbEntity
  8
0
  6
Continuous
 62
     7
370
    15
100
AcDbLine
 10
4.817698724626215
 20
5.503299023641814
 30
0.0
 11
4.771694899762259
 21
5.47674158083892
 31
0.0
  0
LINE
  5
CD1
330
1F
100
AcDbEntity
  8
0
  6
Continuous
 62
     7
370
    15
100
AcDbLine
 10
4.904835839598902
 20
5.489820325645984
 30
0.0
 11
4.817698724626215
 21
5.503299023641814
 31
0.0
  0
LINE
  5
CD2
330
1F
100
AcDbEntity
  8
0
  6
Continuous
 62
     7
370
    15
100
AcDbLine
 10
4.910399188665589
 20
5.477834273271279
 30
0.0
 11
4.904835839598902
 21
5.489820325645984
 31
0.0
  0
LINE
  5
CD3
330
1F
100
AcDbEntity
  8
0
  6
Continuous
 62
     7
370
    15
100
AcDbLine
 10
4.904835839598902
 20
5.489820325645984
 30
0.0
 11
4.904835839598902
 21
5.538404503953183
 31
0.0
  0
LINE
  5
CD4
330
1F
100
AcDbEntity
  8
0
  6
Continuous
 62
     7
370
    15
100
AcDbLine
 10
4.817698724626215
 20
5.503299023641814
 30
0.0
 11
4.817698724626215
 21
5.551883201949019
 31
0.0
  0
ARC
  5
CD5
330
1F
100
AcDbEntity
  8
0
  6
Continuous
 62
     7
370
    15
100
AcDbCircle
 10
4.222619830554805
 20
5.2461848385591
 30
0.0
 40
0.7454014422469161
100
AcDbArc
 50
313.2248614102143
 51
346.7805151224862
  0
DIMENSION
  5
D12
330
1F
100
AcDbEntity
  8
DIM
100
AcDbDimension
  2
*D10
 10
2.536230137524128
 20
2.911072818302814
 30
0.0
 11
2.469469430522088
 21
2.161072818302815
 31
0.0
 70
    32
 71
     5
 42
1.5
  3
Standard
100
AcDbAlignedDimension
 13
2.142010058250654
 23
1.411072818302814
 33
0.0
 14
2.142010058250654
 24
2.911072818302814
 34
0.0
 50
90.0
100
AcDbRotatedDimension
  0
DIMENSION
  5
D28
330
1F
100
AcDbEntity
  8
DIM
100
AcDbDimension
  2
*D11
 10
1.79788505825066
 20
3.022177697420513
 30
0.0
 11
1.375352682315918
 21
3.022177697420513
 31
0.0
 70
   160
 71
     5
 42
0.2038750000000036
  3
Standard
100
AcDbAlignedDimension
 13
1.594010058250656
 23
2.896072818302814
 33
0.0
 14
1.79788505825066
 24
2.911072818302814
 34
0.0
100
AcDbRotatedDimension
  0
DIMENSION
  5
D36
330
1F
100
AcDbEntity
  8
DIM
100
AcDbDimension
  2
*D12
 10
1.954135058250656
 20
3.022177697420513
 30
0.0
 11
1.876010058250658
 21
3.022177697420513
 31
0.0
 70
   160
 71
     5
 42
0.1562499999999964
  3
Standard
100
AcDbAlignedDimension
 13
1.79788505825066
 23
2.911072818302814
 33
0.0
 14
1.954135058250656
 24
2.911072818302814
 34
0.0
100
AcDbRotatedDimension
  0
DIMENSION
  5
D48
330
1F
100
AcDbEntity
  8
DIM
100
AcDbDimension
  2
*D13
 10
2.157010058250659
 20
3.022177697420513
 30
0.0
 11
2.375096394076627
 21
3.088938404422552
 31
0.0
 70
    32
 71
     5
 42
0.2028750000000024
  3
Standard
100
AcDbAlignedDimension
 13
1.954135058250656
 23
2.911072818302814
 33
0.0
 14
2.157010058250659
 24
2.896072818302814
 34
0.0
100
AcDbRotatedDimension
  0
DIMENSION
  5
D95
330
1F
100
AcDbEntity
  8
DIM
100
AcDbDimension
  2
*D14
 10
5.390141106396955
 20
1.956052140603206
 30
0.0
 11
3.914476828214858
 21
2.638610169018955
 31
0.0
 70
   163
 71
     5
 42
0.8749999999999937
  3
Standard
100
AcDbDiametricDimension
 15
4.617165630160895
 25
2.366093496002421
 35
0.0
 40
0.0
1001
ACAD_DSTYLE_DIMRADIAL_EXTENSION
1070
   387
1070
     1
1070
   388
1040
0.0
1070
   390
1040
0.0
1001
ACAD
1000
DSTYLE
1002
{
1070
    74
1070
     1
1002
}
  0
DIMENSION
  5
DA1
330
1F
100
AcDbEntity
  8
DIM
100
AcDbDimension
  2
*D15
 10
2.142010058250654
 20
3.889201168896773
 30
0.0
 11
1.875510058250656
 21
3.955961875898813
 31
0.0
 70
    32
 71
     5
 42
0.5329999999999977
  3
Standard
100
AcDbAlignedDimension
 13
1.609010058250657
 23
4.049711414909642
 33
0.0
 14
2.142010058250654
 24
4.049711414909642
 34
0.0
100
AcDbRotatedDimension
  0
DIMENSION
  5
DAE
330
1F
100
AcDbEntity
  8
DIM
100
AcDbDimension
  2
*D16
 10
2.157010058250655
 20
3.717643849870615
 30
0.0
 11
1.875510058250656
 21
3.784404556872654
 31
0.0
 70
    32
 71
     5
 42
0.5629999999999989
  3
Standard
100
AcDbAlignedDimension
 13
1.594010058250656
 23
4.064711414909643
 33
0.0
 14
2.157010058250655
 24
4.064711414909643
 34
0.0
100
AcDbRotatedDimension
  0
DIMENSION
  5
DBB
330
1F
100
AcDbEntity
  8
DIM
100
AcDbDimension
  2
*D17
 10
2.386040834952218
 20
4.362211414909642
 30
0.0
 11
2.319280127950178
 21
4.213461414909644
 31
0.0
 70
    32
 71
     5
 42
0.2974999999999994
  3
Standard
100
AcDbAlignedDimension
 13
2.157010058250655
 23
4.064711414909643
 33
0.0
 14
2.142010058250654
 24
4.362211414909642
 34
0.0
 50
90.0
100
AcDbRotatedDimension
  0
DIMENSION
  5
DC8
330
1F
100
AcDbEntity
  8
DIM
100
AcDbDimension
  2
*D18
 10
2.386040834952219
 20
5.252211414909647
 30
0.0
 11
2.319280127950178
 21
4.807211414909645
 31
0.0
 70
    32
 71
     5
 42
0.8900000000000041
  3
Standard
100
AcDbAlignedDimension
 13
2.142010058250654
 23
4.362211414909642
 33
0.0
 14
2.157010058250659
 24
5.252211414909647
 34
0.0
 50
90.0
100
AcDbRotatedDimension
  0
DIMENSION
  5
DD5
330
1F
100
AcDbEntity
  8
DIM
100
AcDbDimension
  2
*D19
 10
2.386040834952219
 20
5.549711414909646
 30
0.0
 11
2.319280127950178
 21
5.400961414909647
 31
0.0
 70
    32
 71
     5
 42
0.2974999999999994
  3
Standard
100
AcDbAlignedDimension
 13
2.157010058250659
 23
5.252211414909647
 33
0.0
 14
2.142010058250654
 24
5.549711414909646
 34
0.0
 50
90.0
100
AcDbRotatedDimension
  0
TEXT
  5
E68
330
1F
100
AcDbEntity
  8
FORMAT
 62
     7
100
AcDbText
 10
1.785326654933591
 20
3.43016532371748
 30
0.0
 40
0.1
  1
TOP
 41
0.9
  7
SLDTEXTSTYLE1
100
AcDbText
  0
TEXT
  5
E69
330
1F
100
AcDbEntity
  8
FORMAT
 62
     7
100
AcDbText
 10
4.911843285506726
 20
1.085599517094201
 30
0.0
 40
0.1
  1
SIDE
 41
0.9
  7
SLDTEXTSTYLE1
100
AcDbText
  0
DIMENSION
  5
E6A
330
1F
100
AcDbEntity
  8
DIM
100
AcDbDimension
  2
*D20
 10
1.978804752773792
 20
4.726501505893913
 30
0.0
 11
1.250378720868746
 21
5.110450208630212
 31
0.0
 70
   163
 71
     5
 42
0.2524000000015505
  3
Standard
100
AcDbDiametricDimension
 15
1.77321536372752
 25
4.872921323925363
 35
0.0
 40
0.0
1001
ACAD_DSTYLE_DIMRADIAL_EXTENSION
1070
   387
1070
     1
1070
   388
1040
0.0
1070
   390
1040
0.0
1001
ACAD
1000
DSTYLE
1002
{
1070
    74
1070
     1
1002
}
  0
TEXT
  5
F4D
330
1F
100
AcDbEntity
  8
FORMAT
 62
     7
100
AcDbText
 10
6.758598175100617
 20
5.770997648197916
 30
0.0
 40
0.0948729633650429
  1
B000IL6AK0
 41
0.9
  7
SLDTEXTSTYLE1
100
AcDbText
  0
ENDSEC
  0
SECTION
  2
OBJECTS
  0
DICTIONARY
  5
C
330
0
100
AcDbDictionary
281
     1
  3
ACAD_COLOR
350
FC
  3
ACAD_GROUP
350
D
  3
ACAD_LAYOUT
350
1A
  3
ACAD_MATERIAL
350
E7
  3
ACAD_MLEADERSTYLE
350
BB0
  3
ACAD_MLINESTYLE
350
17
  3
ACAD_PLOTSETTINGS
350
19
  3
ACAD_PLOTSTYLENAME
350
E
  3
ACAD_SCALELIST
350
B8E
  3
ACAD_TABLESTYLE
350
FD
  3
ACAD_VISUALSTYLE
350
EB
  3
ACDB_RECOMPOSE_DATA
350
164D
  3
AcDbVariableDictionary
350
3CB
  0
DICTIONARY
  5
4DC
330
8
100
AcDbDictionary
280
     1
281
     1
  0
DICTIONARY
  5
61E
330
2
100
AcDbDictionary
280
     1
281
     1
  3
ACAD_LAYERFILTERS
360
622
  3
ACLYDICTIONARY
360
621
  0
DICTIONARY
  5
E80
330
10
100
AcDbDictionary
280
     1
281
     1
  3
ADSK_XREC_LAYER_RECONCILED
360
E81
  0
DICTIONARY
  5
E82
330
44
100
AcDbDictionary
280
     1
281
     1
  3
ADSK_XREC_LAYER_RECONCILED
360
E83
  0
DICTIONARY
  5
E84
330
61C
100
AcDbDictionary
280
     1
281
     1
  3
ADSK_XREC_LAYER_RECONCILED
360
E85
  0
DICTIONARY
  5
40A
330
409
100
AcDbDictionary
280
     1
281
     1
  3
ACAD_SORTENTS
360
40B
  0
DICTIONARY
  5
167B
330
E35
100
AcDbDictionary
280
     1
281
     1
  3
ACAD_MTEXT_2008_RT
360
167C
  0
DICTIONARY
  5
167D
330
E7A
100
AcDbDictionary
280
     1
281
     1
  3
ACAD_MTEXT_2008_RT
360
167E
  0
DICTIONARY
  5
FC
102
{ACAD_REACTORS
330
C
102
}
330
C
100
AcDbDictionary
281
     1
  0
DICTIONARY
  5
D
102
{ACAD_REACTORS
330
C
102
}
330
C
100
AcDbDictionary
281
     1
  0
DICTIONARY
  5
1A
102
{ACAD_REACTORS
330
C
102
}
330
C
100
AcDbDictionary
281
     1
  3
Layout1
350
1E
  3
Layout2
350
26
  3
Model
350
22
  0
DICTIONARY
  5
E7
102
{ACAD_REACTORS
330
C
102
}
330
C
100
AcDbDictionary
281
     1
  3
ByBlock
350
E9
  3
ByLayer
350
E8
  3
Global
350
EA
  0
DICTIONARY
  5
BB0
102
{ACAD_REACTORS
330
C
102
}
330
C
100
AcDbDictionary
281
     1
  3
Standard
350
BB1
  0
DICTIONARY
  5
17
102
{ACAD_REACTORS
330
C
102
}
330
C
100
AcDbDictionary
281
     1
  3
Standard
350
18
  0
DICTIONARY
  5
19
102
{ACAD_REACTORS
330
C
102
}
330
C
100
AcDbDictionary
281
     1
  3
JPG
350
B7B
  3
PDF
350
B72
  0
ACDBDICTIONARYWDFLT
  5
E
102
{ACAD_REACTORS
330
C
102
}
330
C
100
AcDbDictionary
281
     1
  3
Normal
350
F
100
AcDbDictionaryWithDefault
340
F
  0
DICTIONARY
  5
B8E
102
{ACAD_REACTORS
330
C
102
}
330
C
100
AcDbDictionary
281
     1
  3
A0
350
B8F
  3
A1
350
B90
  3
A2
350
B91
  3
A3
350
B92
  3
A4
350
B93
  3
A5
350
B94
  3
A6
350
B95
  3
A7
350
B96
  3
A8
350
B97
  3
A9
350
B98
  3
B0
350
B99
  3
B1
350
B9A
  3
B2
350
B9B
  3
B3
350
B9C
  3
B4
350
B9D
  3
B5
350
B9E
  3
B6
350
B9F
  3
B7
350
BA0
  3
B8
350
BA1
  3
B9
350
BA2
  3
C0
350
BA3
  3
C1
350
BA4
  3
C2
350
BA5
  3
C3
350
BA6
  3
C4
350
BA7
  3
C5
350
BA8
  3
C6
350
BA9
  3
C7
350
BAA
  3
C8
350
BAB
  3
C9
350
BAC
  3
D0
350
BAD
  3
D1
350
BAE
  3
D2
350
BAF
  0
DICTIONARY
  5
FD
102
{ACAD_REACTORS
330
C
102
}
330
C
100
AcDbDictionary
281
     1
  3
Standard
350
FE
  0
DICTIONARY
  5
EB
102
{ACAD_REACTORS
330
C
102
}
330
C
100
AcDbDictionary
281
     1
  3
2dWireframe
350
F1
  3
3D Hidden
350
F3
  3
3dWireframe
350
F2
  3
Basic
350
F0
  3
Brighten
350
F7
  3
ColorChange
350
FB
  3
Conceptual
350
F4
  3
Dim
350
F6
  3
EdgeColorOff
350
B8D
  3
Facepattern
350
FA
  3
Flat
350
EC
  3
FlatWithEdges
350
ED
  3
Gouraud
350
EE
  3
GouraudWithEdges
350
EF
  3
JitterOff
350
B8B
  3
Linepattern
350
F9
  3
OverhangOff
350
B8C
  3
Realistic
350
F5
  3
Thicken
350
F8
  0
XRECORD
  5
164D
102
{ACAD_REACTORS
330
C
102
}
330
C
100
AcDbXrecord
280
     1
 90
        1
330
FE
  0
DICTIONARY
  5
3CB
102
{ACAD_REACTORS
330
C
102
}
330
C
100
AcDbDictionary
281
     1
  3
CANNOSCALE
350
F17
  3
CMLEADERSTYLE
350
F16
  3
CTABLESTYLE
350
3CC
  3
DIMASSOC
350
15AD
  3
INDEXCTL
350
15AB
  3
SORTENTS
350
15AA
  3
XCLIPFRAME
350
164B
  0
DICTIONARY
  5
622
102
{ACAD_REACTORS
330
61E
102
}
330
61E
100
AcDbDictionary
281
     1
  0
DICTIONARY
  5
621
102
{ACAD_REACTORS
330
61E
102
}
330
61E
100
AcDbDictionary
281
     1
1001
ACAD
1000
<All
  0
XRECORD
  5
E81
102
{ACAD_REACTORS
330
E80
102
}
330
E80
100
AcDbXrecord
280
     1
290
     1
  0
XRECORD
  5
E83
102
{ACAD_REACTORS
330
E82
102
}
330
E82
100
AcDbXrecord
280
     1
290
     1
  0
XRECORD
  5
E85
102
{ACAD_REACTORS
330
E84
102
}
330
E84
100
AcDbXrecord
280
     1
290
     1
  0
SORTENTSTABLE
  5
40B
102
{ACAD_REACTORS
330
40A
102
}
330
40A
100
AcDbSortentsTable
330
409
331
410
  5
69
331
40E
  5
6B
331
40F
  5
6D
331
40D
  5
6A
  0
XRECORD
  5
167C
102
{ACAD_REACTORS
330
167B
102
}
330
167B
100
AcDbXrecord
280
     1
 40
7420.0
  1
\A1;\U+22050.875
  0
XRECORD
  5
167E
102
{ACAD_REACTORS
330
167D
102
}
330
167D
100
AcDbXrecord
280
     1
 40
7258.0
  1
\A1;\U+22050.252
  0
LAYOUT
  5
1E
102
{ACAD_REACTORS
330
1A
102
}
330
1A
100
AcDbPlotSettings
  1

  2
none_device
  4

  6

 40
0.0
 41
0.0
 42
0.0
 43
0.0
 44
0.0
 45
0.0
 46
0.0
 47
0.0
 48
0.0
 49
0.0
140
0.0
141
0.0
142
1.0
143
1.0
 70
   688
 72
     0
 73
     0
 74
     5
  7

 75
    16
147
1.0
 76
     0
 77
     2
 78
   300
148
0.0
149
0.0
100
AcDbLayout
  1
Layout1
 70
     1
 71
     1
 10
0.0
 20
0.0
 11
12.0
 21
9.0
 12
0.0
 22
0.0
 32
0.0
 14
1.000000000000000E+20
 24
1.000000000000000E+20
 34
1.000000000000000E+20
 15
-1.000000000000000E+20
 25
-1.000000000000000E+20
 35
-1.000000000000000E+20
146
0.0
 13
0.0
 23
0.0
 33
0.0
 16
1.0
 26
0.0
 36
0.0
 17
0.0
 27
1.0
 37
0.0
 76
     0
330
1B
  0
LAYOUT
  5
26
102
{ACAD_REACTORS
330
1A
102
}
330
1A
100
AcDbPlotSettings
  1

  2
none_device
  4

  6

 40
0.0
 41
0.0
 42
0.0
 43
0.0
 44
0.0
 45
0.0
 46
0.0
 47
0.0
 48
0.0
 49
0.0
140
0.0
141
0.0
142
1.0
143
1.0
 70
   688
 72
     0
 73
     0
 74
     5
  7

 75
    16
147
1.0
 76
     0
 77
     2
 78
   300
148
0.0
149
0.0
100
AcDbLayout
  1
Layout2
 70
     1
 71
     2
 10
0.0
 20
0.0
 11
0.0
 21
0.0
 12
0.0
 22
0.0
 32
0.0
 14
0.0
 24
0.0
 34
0.0
 15
0.0
 25
0.0
 35
0.0
146
0.0
 13
0.0
 23
0.0
 33
0.0
 16
1.0
 26
0.0
 36
0.0
 17
0.0
 27
1.0
 37
0.0
 76
     0
330
23
  0
LAYOUT
  5
22
102
{ACAD_REACTORS
330
1A
102
}
330
1A
100
AcDbPlotSettings
  1

  2
none_device
  4
Letter_(8.50_x_11.00_Inches)
  6

 40
6.349999904632568
 41
6.349999904632568
 42
6.350006103515625
 43
6.350006103515625
 44
215.8999938964844
 45
279.3999938964844
 46
0.0
 47
0.0
 48
0.0
 49
0.0
140
0.0
141
0.0
142
1.0
143
2.383658744906425
 70
 11952
 72
     0
 73
     1
 74
     0
  7

 75
     0
147
0.4195231394329716
 76
     0
 77
     2
 78
   300
148
135.2900774710282
149
-27.52084133435472
100
AcDbLayout
  1
Model
 70
     1
 71
     0
 10
0.0
 20
0.0
 11
16.53543307086614
 21
11.69291338582677
 12
0.0
 22
0.0
 32
0.0
 14
0.0
 24
0.0
 34
0.0
 15
16.53543307086614
 25
11.69291338582677
 35
0.0
146
0.0
 13
0.0
 23
0.0
 33
0.0
 16
1.0
 26
0.0
 36
0.0
 17
0.0
 27
1.0
 37
0.0
 76
     0
330
1F
331
29
1001
ACAD_PSEXT
1000
None
1000
None
1000
Not applicable
1000
The layout will not be plotted unless a new plotter configuration name is selected.
1070
     0
  0
MATERIAL
  5
E9
102
{ACAD_XDICTIONARY
360
1650
102
}
102
{ACAD_REACTORS
330
E7
102
}
330
E7
100
AcDbMaterial
  1
ByBlock
 73
     1
 78
     1
172
     1
176
     1
270
     1
274
     1
  0
MATERIAL
  5
E8
102
{ACAD_XDICTIONARY
360
164E
102
}
102
{ACAD_REACTORS
330
E7
102
}
330
E7
100
AcDbMaterial
  1
ByLayer
 73
     1
 78
     1
172
     1
176
     1
270
     1
274
     1
  0
MATERIAL
  5
EA
102
{ACAD_XDICTIONARY
360
1652
102
}
102
{ACAD_REACTORS
330
E7
102
}
330
E7
100
AcDbMaterial
  1
Global
 73
     1
 78
     1
172
     1
176
     1
270
     1
274
     1
  0
MLEADERSTYLE
  5
BB1
102
{ACAD_REACTORS
330
BB0
102
}
330
BB0
100
AcDbMLeaderStyle
170
     2
171
     1
172
     0
 90
        2
 40
0.0
 41
0.0
173
     1
 91
-1056964608
340
14
 92
       -2
290
     1
 42
0.09
291
     1
 43
0.36
  3
Standard
 44
0.18
300

342
11
174
     1
178
     6
175
     1
176
     0
 93
-1056964608
 45
0.18
292
     0
297
     0
 46
0.18
 94
-1056964608
 47
1.0
 49
1.0
140
1.0
293
     1
141
0.0
294
     1
177
     0
142
1.0
295
     0
296
     0
143
0.125
1001
ACAD_MLEADERVER
1070
     2
  0
MLINESTYLE
  5
18
102
{ACAD_REACTORS
330
17
102
}
330
17
100
AcDbMlineStyle
  2
STANDARD
 70
     0
  3

 62
   256
 51
90.0
 52
90.0
 71
     2
 49
0.5
 62
   256
  6
BYLAYER
 49
-0.5
 62
   256
  6
BYLAYER
  0
PLOTSETTINGS
  5
B7B
102
{ACAD_REACTORS
330
19
102
}
330
19
100
AcDbPlotSettings
  1
JPG
  2
PublishToWeb JPG.pc3
  4
User-1
  6

 40
75.0
 41
75.0
 42
75.000244140625
 43
75.000244140625
 44
2550.0
 45
3300.0
 46
7.281523769336217
 47
0.0
 48
0.0
 49
0.0
140
7.817532181279499
141
5.920072913978676
142
1.0
143
0.0024817564403737
 70
 11956
 72
     2
 73
     1
 74
     4
  7

 75
     0
147
402.9404270829381
 76
     0
 77
     2
 78
   300
148
0.0
149
0.0
1001
ACAD_PSEXT
1000
PublishToWeb JPG.pc3
1000
Independent JPEG Group JFIF (JPEG Compression)
1000
File
1000

1070
     0
  0
PLOTSETTINGS
  5
B72
102
{ACAD_REACTORS
330
19
102
}
330
19
100
AcDbPlotSettings
  1
PDF
  2
DWG To PDF.pc3
  4
ISO_expand_A1_(841.00_x_594.00_MM)
  6

 40
5.793749809265136
 41
10.79374980926513
 42
5.79376220703125
 43
10.79376220703125
 44
841.0
 45
594.0
 46
36.76722948979278
 47
0.0
 48
0.0
 49
0.0
140
7.817532181279499
141
5.920072913978676
142
1.0
143
0.0103423196353243
 70
 11956
 72
     1
 73
     0
 74
     4
  7

 75
     0
147
96.69010775730546
 76
     0
 77
     2
 78
   300
148
0.0
149
0.0
1001
ACAD_PSEXT
1000
DWG To PDF.pc3
1000
PDF
1000
File
1000

1070
     0
  0
ACDBPLACEHOLDER
  5
F
102
{ACAD_REACTORS
330
E
102
}
330
E
  0
SCALE
  5
B8F
102
{ACAD_REACTORS
330
B8E
102
}
330
B8E
100
AcDbScale
 70
     0
300
1:1
140
1.0
141
1.0
290
     1
  0
SCALE
  5
B90
102
{ACAD_REACTORS
330
B8E
102
}
330
B8E
100
AcDbScale
 70
     0
300
1:2
140
1.0
141
2.0
290
     0
  0
SCALE
  5
B91
102
{ACAD_REACTORS
330
B8E
102
}
330
B8E
100
AcDbScale
 70
     0
300
1:4
140
1.0
141
4.0
290
     0
  0
SCALE
  5
B92
102
{ACAD_REACTORS
330
B8E
102
}
330
B8E
100
AcDbScale
 70
     0
300
1:5
140
1.0
141
5.0
290
     0
  0
SCALE
  5
B93
102
{ACAD_REACTORS
330
B8E
102
}
330
B8E
100
AcDbScale
 70
     0
300
1:8
140
1.0
141
8.0
290
     0
  0
SCALE
  5
B94
102
{ACAD_REACTORS
330
B8E
102
}
330
B8E
100
AcDbScale
 70
     0
300
1:10
140
1.0
141
10.0
290
     0
  0
SCALE
  5
B95
102
{ACAD_REACTORS
330
B8E
102
}
330
B8E
100
AcDbScale
 70
     0
300
1:16
140
1.0
141
16.0
290
     0
  0
SCALE
  5
B96
102
{ACAD_REACTORS
330
B8E
102
}
330
B8E
100
AcDbScale
 70
     0
300
1:20
140
1.0
141
20.0
290
     0
  0
SCALE
  5
B97
102
{ACAD_REACTORS
330
B8E
102
}
330
B8E
100
AcDbScale
 70
     0
300
1:30
140
1.0
141
30.0
290
     0
  0
SCALE
  5
B98
102
{ACAD_REACTORS
330
B8E
102
}
330
B8E
100
AcDbScale
 70
     0
300
1:40
140
1.0
141
40.0
290
     0
  0
SCALE
  5
B99
102
{ACAD_REACTORS
330
B8E
102
}
330
B8E
100
AcDbScale
 70
     0
300
1:50
140
1.0
141
50.0
290
     0
  0
SCALE
  5
B9A
102
{ACAD_REACTORS
330
B8E
102
}
330
B8E
100
AcDbScale
 70
     0
300
1:100
140
1.0
141
100.0
290
     0
  0
SCALE
  5
B9B
102
{ACAD_REACTORS
330
B8E
102
}
330
B8E
100
AcDbScale
 70
     0
300
2:1
140
2.0
141
1.0
290
     0
  0
SCALE
  5
B9C
102
{ACAD_REACTORS
330
B8E
102
}
330
B8E
100
AcDbScale
 70
     0
300
4:1
140
4.0
141
1.0
290
     0
  0
SCALE
  5
B9D
102
{ACAD_REACTORS
330
B8E
102
}
330
B8E
100
AcDbScale
 70
     0
300
8:1
140
8.0
141
1.0
290
     0
  0
SCALE
  5
B9E
102
{ACAD_REACTORS
330
B8E
102
}
330
B8E
100
AcDbScale
 70
     0
300
10:1
140
10.0
141
1.0
290
     0
  0
SCALE
  5
B9F
102
{ACAD_REACTORS
330
B8E
102
}
330
B8E
100
AcDbScale
 70
     0
300
100:1
140
100.0
141
1.0
290
     0
  0
SCALE
  5
BA0
102
{ACAD_REACTORS
330
B8E
102
}
330
B8E
100
AcDbScale
 70
     0
300
1/128" = 1'-0"
140
0.0078125
141
12.0
290
     0
  0
SCALE
  5
BA1
102
{ACAD_REACTORS
330
B8E
102
}
330
B8E
100
AcDbScale
 70
     0
300
1/64" = 1'-0"
140
0.015625
141
12.0
290
     0
  0
SCALE
  5
BA2
102
{ACAD_REACTORS
330
B8E
102
}
330
B8E
100
AcDbScale
 70
     0
300
1/32" = 1'-0"
140
0.03125
141
12.0
290
     0
  0
SCALE
  5
BA3
102
{ACAD_REACTORS
330
B8E
102
}
330
B8E
100
AcDbScale
 70
     0
300
1/16" = 1'-0"
140
0.0625
141
12.0
290
     0
  0
SCALE
  5
BA4
102
{ACAD_REACTORS
330
B8E
102
}
330
B8E
100
AcDbScale
 70
     0
300
3/32" = 1'-0"
140
0.09375
141
12.0
290
     0
  0
SCALE
  5
BA5
102
{ACAD_REACTORS
330
B8E
102
}
330
B8E
100
AcDbScale
 70
     0
300
1/8" = 1'-0"
140
0.125
141
12.0
290
     0
  0
SCALE
  5
BA6
102
{ACAD_REACTORS
330
B8E
102
}
330
B8E
100
AcDbScale
 70
     0
300
3/16" = 1'-0"
140
0.1875
141
12.0
290
     0
  0
SCALE
  5
BA7
102
{ACAD_REACTORS
330
B8E
102
}
330
B8E
100
AcDbScale
 70
     0
300
1/4" = 1'-0"
140
0.25
141
12.0
290
     0
  0
SCALE
  5
BA8
102
{ACAD_REACTORS
330
B8E
102
}
330
B8E
100
AcDbScale
 70
     0
300
3/8" = 1'-0"
140
0.375
141
12.0
290
     0
  0
SCALE
  5
BA9
102
{ACAD_REACTORS
330
B8E
102
}
330
B8E
100
AcDbScale
 70
     0
300
1/2" = 1'-0"
140
0.5
141
12.0
290
     0
  0
SCALE
  5
BAA
102
{ACAD_REACTORS
330
B8E
102
}
330
B8E
100
AcDbScale
 70
     0
300
3/4" = 1'-0"
140
0.75
141
12.0
290
     0
  0
SCALE
  5
BAB
102
{ACAD_REACTORS
330
B8E
102
}
330
B8E
100
AcDbScale
 70
     0
300
1" = 1'-0"
140
1.0
141
12.0
290
     0
  0
SCALE
  5
BAC
102
{ACAD_REACTORS
330
B8E
102
}
330
B8E
100
AcDbScale
 70
     0
300
1-1/2" = 1'-0"
140
1.5
141
12.0
290
     0
  0
SCALE
  5
BAD
102
{ACAD_REACTORS
330
B8E
102
}
330
B8E
100
AcDbScale
 70
     0
300
3" = 1'-0"
140
3.0
141
12.0
290
     0
  0
SCALE
  5
BAE
102
{ACAD_REACTORS
330
B8E
102
}
330
B8E
100
AcDbScale
 70
     0
300
6" = 1'-0"
140
6.0
141
12.0
290
     0
  0
SCALE
  5
BAF
102
{ACAD_REACTORS
330
B8E
102
}
330
B8E
100
AcDbScale
 70
     0
300
1'-0" = 1'-0"
140
12.0
141
12.0
290
     0
  0
TABLESTYLE
  5
FE
102
{ACAD_XDICTIONARY
360
155D
102
}
102
{ACAD_REACTORS
330
FD
102
}
330
FD
100
AcDbTableStyle
  3
Standard
 70
     0
 71
     0
 40
0.06
 41
0.06
280
     0
281
     0
  7
Standard
140
0.18
170
     2
 62
     0
 63
     7
283
     0
274
    -2
284
     1
 64
     0
275
    -2
285
     1
 65
     0
276
    -2
286
     1
 66
     0
277
    -2
287
     1
 67
     0
278
    -2
288
     1
 68
     0
279
    -2
289
     1
 69
     0
  7
Standard
140
0.25
170
     5
 62
     0
 63
     7
283
     0
274
    -2
284
     1
 64
     0
275
    -2
285
     1
 65
     0
276
    -2
286
     1
 66
     0
277
    -2
287
     1
 67
     0
278
    -2
288
     1
 68
     0
279
    -2
289
     1
 69
     0
  7
Standard
140
0.18
170
     5
 62
     0
 63
     7
283
     0
274
    -2
284
     1
 64
     0
275
    -2
285
     1
 65
     0
276
    -2
286
     1
 66
     0
277
    -2
287
     1
 67
     0
278
    -2
288
     1
 68
     0
279
    -2
289
     1
 69
     0
  0
VISUALSTYLE
  5
F1
102
{ACAD_XDICTIONARY
360
165E
102
}
102
{ACAD_REACTORS
330
EB
102
}
330
EB
100
AcDbVisualStyle
  2
2dWireframe
 70
     4
 71
     0
 72
     2
 73
     0
 90
        0
 40
-0.6
 41
-30.0
 62
     5
 63
     7
 74
     1
 91
        4
 64
     7
 65
   257
 75
     1
175
     1
 42
1.0
 92
        0
 66
   257
 43
1.0
 76
     1
 77
     6
 78
     2
 67
     7
 79
     5
170
     0
171
     0
290
     0
174
     0
 93
        1
 44
0.0
173
     0
291
     0
 45
0.0
1001
ACAD
1000
AcDbSavedByObjectVersion
1070
     0
  0
VISUALSTYLE
  5
F3
102
{ACAD_XDICTIONARY
360
1662
102
}
102
{ACAD_REACTORS
330
EB
102
}
330
EB
100
AcDbVisualStyle
  2
3D Hidden
 70
     6
 71
     1
 72
     2
 73
     2
 90
        0
 40
-0.6
 41
-30.0
 62
     5
 63
     7
 74
     2
 91
        2
 64
     7
 65
   257
 75
     2
175
     1
 42
40.0
 92
        0
 66
   257
 43
1.0
 76
     1
 77
     6
 78
     2
 67
     7
 79
     3
170
     0
171
     0
290
     0
174
     0
 93
        1
 44
0.0
173
     0
291
     0
 45
0.0
1001
ACAD
1000
AcDbSavedByObjectVersion
1070
     0
  0
VISUALSTYLE
  5
F2
102
{ACAD_XDICTIONARY
360
1660
102
}
102
{ACAD_REACTORS
330
EB
102
}
330
EB
100
AcDbVisualStyle
  2
3dWireframe
 70
     5
 71
     0
 72
     2
 73
     0
 90
        0
 40
-0.6
 41
-30.0
 62
     5
 63
     7
 74
     1
 91
        4
 64
     7
 65
   257
 75
     1
175
     1
 42
1.0
 92
        0
 66
   257
 43
1.0
 76
     1
 77
     6
 78
     2
 67
     7
 79
     5
170
     0
171
     0
290
     0
174
     0
 93
        1
 44
0.0
173
     0
291
     0
 45
0.0
1001
ACAD
1000
AcDbSavedByObjectVersion
1070
     0
  0
VISUALSTYLE
  5
F0
102
{ACAD_XDICTIONARY
360
165C
102
}
102
{ACAD_REACTORS
330
EB
102
}
330
EB
100
AcDbVisualStyle
  2
Basic
 70
     7
 71
     1
 72
     0
 73
     1
 90
        0
 40
-0.6
 41
-30.0
 62
     5
 63
     7
 74
     0
 91
        4
 64
     7
 65
   257
 75
     1
175
     1
 42
1.0
 92
        8
 66
     7
 43
1.0
 76
     1
 77
     6
 78
     2
 67
     7
 79
     5
170
     0
171
     0
290
     0
174
     0
 93
        1
 44
0.0
173
     0
291
     1
 45
0.0
1001
ACAD
1000
AcDbSavedByObjectVersion
1070
     0
  0
VISUALSTYLE
  5
F7
102
{ACAD_XDICTIONARY
360
166A
102
}
102
{ACAD_REACTORS
330
EB
102
}
330
EB
100
AcDbVisualStyle
  2
Brighten
 70
    12
 71
     2
 72
     2
 73
     0
 90
        0
 40
-0.6
 41
-30.0
 62
     5
 63
     7
 74
     1
 91
        4
 64
     7
 65
   257
 75
     1
175
     1
 42
1.0
 92
        8
 66
     7
 43
1.0
 76
     1
 77
     6
 78
     2
 67
     7
 79
     5
170
     0
171
     0
290
     0
174
     0
 93
        1
 44
50.0
173
     0
291
     1
 45
0.0
1001
ACAD
1000
AcDbSavedByObjectVersion
1070
     0
  0
VISUALSTYLE
  5
FB
102
{ACAD_XDICTIONARY
360
1672
102
}
102
{ACAD_REACTORS
330
EB
102
}
330
EB
100
AcDbVisualStyle
  2
ColorChange
 70
    16
 71
     2
 72
     2
 73
     3
 90
        0
 40
-0.6
 41
-30.0
 62
     5
 63
     8
 74
     1
 91
        4
 64
     7
 65
   257
 75
     1
175
     1
 42
1.0
 92
        8
 66
     8
 43
1.0
 76
     1
 77
     6
 78
     2
 67
     7
 79
     5
170
     0
171
     0
290
     0
174
     0
 93
        1
 44
0.0
173
     0
291
     1
 45
0.0
1001
ACAD
1000
AcDbSavedByObjectVersion
1070
     0
  0
VISUALSTYLE
  5
F4
102
{ACAD_XDICTIONARY
360
1664
102
}
102
{ACAD_REACTORS
330
EB
102
}
330
EB
100
AcDbVisualStyle
  2
Conceptual
 70
     9
 71
     3
 72
     2
 73
     0
 90
        0
 40
-0.6
 41
-30.0
 62
     5
 63
     7
 74
     2
 91
        2
 64
     7
 65
   257
 75
     1
175
     1
 42
40.0
 92
        8
 66
     7
 43
1.0
 76
     1
 77
     6
 78
     2
 67
     7
 79
     3
170
     0
171
     0
290
     0
174
     0
 93
        1
 44
0.0
173
     0
291
     0
 45
0.0
1001
ACAD
1000
AcDbSavedByObjectVersion
1070
     0
  0
VISUALSTYLE
  5
F6
102
{ACAD_XDICTIONARY
360
1668
102
}
102
{ACAD_REACTORS
330
EB
102
}
330
EB
100
AcDbVisualStyle
  2
Dim
 70
    11
 71
     2
 72
     2
 73
     0
 90
        0
 40
-0.6
 41
-30.0
 62
     5
 63
     7
 74
     1
 91
        4
 64
     7
 65
   257
 75
     1
175
     1
 42
1.0
 92
        8
 66
     7
 43
1.0
 76
     1
 77
     6
 78
     2
 67
     7
 79
     5
170
     0
171
     0
290
     0
174
     0
 93
        1
 44
-50.0
173
     0
291
     1
 45
0.0
1001
ACAD
1000
AcDbSavedByObjectVersion
1070
     0
  0
VISUALSTYLE
  5
B8D
102
{ACAD_XDICTIONARY
360
1679
102
}
102
{ACAD_REACTORS
330
EB
102
}
330
EB
100
AcDbVisualStyle
  2
EdgeColorOff
 70
    22
 71
     2
 72
     2
 73
     0
 90
        0
 40
-0.6
 41
-30.0
 62
     5
 63
     7
 74
     1
 91
        4
 64
     7
 65
   257
 75
     1
175
     1
 42
1.0
 92
        8
 66
     7
 43
1.0
 76
     1
 77
     6
 78
     2
 67
     7
 79
     5
170
     0
171
     0
290
     0
174
     0
 93
        1
 44
0.0
173
     0
291
     1
 45
0.0
1001
ACAD
1000
AcDbSavedByObjectVersion
1070
     0
  0
VISUALSTYLE
  5
FA
102
{ACAD_XDICTIONARY
360
1670
102
}
102
{ACAD_REACTORS
330
EB
102
}
330
EB
100
AcDbVisualStyle
  2
Facepattern
 70
    15
 71
     2
 72
     2
 73
     0
 90
        0
 40
-0.6
 41
-30.0
 62
     5
 63
     7
 74
     1
 91
        4
 64
     7
 65
   257
 75
     1
175
     1
 42
1.0
 92
        8
 66
     7
 43
1.0
 76
     1
 77
     6
 78
     2
 67
     7
 79
     5
170
     0
171
     0
290
     0
174
     0
 93
        1
 44
0.0
173
     0
291
     1
 45
0.0
1001
ACAD
1000
AcDbSavedByObjectVersion
1070
     0
  0
VISUALSTYLE
  5
EC
102
{ACAD_XDICTIONARY
360
1654
102
}
102
{ACAD_REACTORS
330
EB
102
}
330
EB
100
AcDbVisualStyle
  2
Flat
 70
     0
 71
     2
 72
     1
 73
     1
 90
        2
 40
-0.6
 41
30.0
 62
     5
 63
     7
 74
     0
 91
        4
 64
     7
 65
   257
 75
     1
175
     1
 42
1.0
 92
        8
 66
     7
 43
1.0
 76
     1
 77
     6
 78
     2
 67
     7
 79
     5
170
     0
171
     0
290
     0
174
     0
 93
       13
 44
0.0
173
     0
291
     1
 45
0.0
1001
ACAD
1000
AcDbSavedByObjectVersion
1070
     0
  0
VISUALSTYLE
  5
ED
102
{ACAD_XDICTIONARY
360
1656
102
}
102
{ACAD_REACTORS
330
EB
102
}
330
EB
100
AcDbVisualStyle
  2
FlatWithEdges
 70
     1
 71
     2
 72
     1
 73
     1
 90
        2
 40
-0.6
 41
30.0
 62
     5
 63
     7
 74
     1
 91
        4
 64
     7
 65
   257
 75
     1
175
     1
 42
1.0
 92
        0
 66
   257
 43
1.0
 76
     1
 77
     6
 78
     2
 67
     7
 79
     5
170
     0
171
     0
290
     0
174
     0
 93
       13
 44
0.0
173
     0
291
     1
 45
0.0
1001
ACAD
1000
AcDbSavedByObjectVersion
1070
     0
  0
VISUALSTYLE
  5
EE
102
{ACAD_XDICTIONARY
360
1658
102
}
102
{ACAD_REACTORS
330
EB
102
}
330
EB
100
AcDbVisualStyle
  2
Gouraud
 70
     2
 71
     2
 72
     2
 73
     1
 90
        2
 40
-0.6
 41
30.0
 62
     5
 63
     7
 74
     0
 91
        4
 64
     7
 65
   257
 75
     1
175
     1
 42
1.0
 92
        0
 66
     7
 43
1.0
 76
     1
 77
     6
 78
     2
 67
     7
 79
     5
170
     0
171
     0
290
     0
174
     0
 93
       13
 44
0.0
173
     0
291
     1
 45
0.0
1001
ACAD
1000
AcDbSavedByObjectVersion
1070
     0
  0
VISUALSTYLE
  5
EF
102
{ACAD_XDICTIONARY
360
165A
102
}
102
{ACAD_REACTORS
330
EB
102
}
330
EB
100
AcDbVisualStyle
  2
GouraudWithEdges
 70
     3
 71
     2
 72
     2
 73
     1
 90
        2
 40
-0.6
 41
30.0
 62
     5
 63
     7
 74
     1
 91
        4
 64
     7
 65
   257
 75
     1
175
     1
 42
1.0
 92
        0
 66
   257
 43
1.0
 76
     1
 77
     6
 78
     2
 67
     7
 79
     5
170
     0
171
     0
290
     0
174
     0
 93
       13
 44
0.0
173
     0
291
     1
 45
0.0
1001
ACAD
1000
AcDbSavedByObjectVersion
1070
     0
  0
VISUALSTYLE
  5
B8B
102
{ACAD_XDICTIONARY
360
1675
102
}
102
{ACAD_REACTORS
330
EB
102
}
330
EB
100
AcDbVisualStyle
  2
JitterOff
 70
    20
 71
     2
 72
     2
 73
     0
 90
        0
 40
-0.6
 41
-30.0
 62
     5
 63
     7
 74
     1
 91
        4
 64
     7
 65
   257
 75
     1
175
     1
 42
1.0
 92
       10
 66
     7
 43
1.0
 76
     1
 77
     6
 78
     2
 67
     7
 79
     5
170
     0
171
     0
290
     0
174
     0
 93
        1
 44
0.0
173
     0
291
     1
 45
0.0
1001
ACAD
1000
AcDbSavedByObjectVersion
1070
     0
  0
VISUALSTYLE
  5
F9
102
{ACAD_XDICTIONARY
360
166E
102
}
102
{ACAD_REACTORS
330
EB
102
}
330
EB
100
AcDbVisualStyle
  2
Linepattern
 70
    14
 71
     2
 72
     2
 73
     0
 90
        0
 40
-0.6
 41
-30.0
 62
     5
 63
     7
 74
     1
 91
        4
 64
     7
 65
   257
 75
     7
175
     7
 42
1.0
 92
        8
 66
     7
 43
1.0
 76
     1
 77
     6
 78
     2
 67
     7
 79
     5
170
     0
171
     0
290
     0
174
     0
 93
        1
 44
0.0
173
     0
291
     1
 45
0.0
1001
ACAD
1000
AcDbSavedByObjectVersion
1070
     0
  0
VISUALSTYLE
  5
B8C
102
{ACAD_XDICTIONARY
360
1677
102
}
102
{ACAD_REACTORS
330
EB
102
}
330
EB
100
AcDbVisualStyle
  2
OverhangOff
 70
    21
 71
     2
 72
     2
 73
     0
 90
        0
 40
-0.6
 41
-30.0
 62
     5
 63
     7
 74
     1
 91
        4
 64
     7
 65
   257
 75
     1
175
     1
 42
1.0
 92
        9
 66
     7
 43
1.0
 76
     1
 77
     6
 78
     2
 67
     7
 79
     5
170
     0
171
     0
290
     0
174
     0
 93
        1
 44
0.0
173
     0
291
     1
 45
0.0
1001
ACAD
1000
AcDbSavedByObjectVersion
1070
     0
  0
VISUALSTYLE
  5
F5
102
{ACAD_XDICTIONARY
360
1666
102
}
102
{ACAD_REACTORS
330
EB
102
}
330
EB
100
AcDbVisualStyle
  2
Realistic
 70
     8
 71
     2
 72
     2
 73
     0
 90
        0
 40
-0.6
 41
-30.0
 62
     5
 63
     7
 74
     1
 91
        0
 64
     7
 65
   257
 75
     1
175
     1
 42
1.0
 92
        8
 66
     8
 43
1.0
 76
     1
 77
     6
 78
     2
 67
     7
 79
     5
170
     0
171
     0
290
     0
174
     0
 93
       13
 44
0.0
173
     0
291
     0
 45
0.0
1001
ACAD
1000
AcDbSavedByObjectVersion
1070
     0
  0
VISUALSTYLE
  5
F8
102
{ACAD_XDICTIONARY
360
166C
102
}
102
{ACAD_REACTORS
330
EB
102
}
330
EB
100
AcDbVisualStyle
  2
Thicken
 70
    13
 71
     2
 72
     2
 73
     0
 90
        0
 40
-0.6
 41
-30.0
 62
     5
 63
     7
 74
     1
 91
        4
 64
     7
 65
   257
 75
     1
175
     1
 42
1.0
 92
       12
 66
     7
 43
1.0
 76
     1
 77
     6
 78
     2
 67
     7
 79
     5
170
     0
171
     0
290
     0
174
     0
 93
        1
 44
0.0
173
     0
291
     1
 45
0.0
1001
ACAD
1000
AcDbSavedByObjectVersion
1070
     0
  0
DICTIONARYVAR
  5
F17
102
{ACAD_REACTORS
330
3CB
102
}
330
3CB
100
DictionaryVariables
280
     0
  1
1:1
  0
DICTIONARYVAR
  5
F16
102
{ACAD_REACTORS
330
3CB
102
}
330
3CB
100
DictionaryVariables
280
     0
  1
STANDARD
  0
DICTIONARYVAR
  5
3CC
102
{ACAD_REACTORS
330
3CB
102
}
330
3CB
100
DictionaryVariables
280
     0
  1
STANDARD
  0
DICTIONARYVAR
  5
15AD
102
{ACAD_REACTORS
330
3CB
102
}
330
3CB
100
DictionaryVariables
280
     0
  1
1
  0
DICTIONARYVAR
  5
15AB
102
{ACAD_REACTORS
330
3CB
102
}
330
3CB
100
DictionaryVariables
280
     0
  1
0
  0
DICTIONARYVAR
  5
15AA
102
{ACAD_REACTORS
330
3CB
102
}
330
3CB
100
DictionaryVariables
280
     0
  1
127
  0
DICTIONARYVAR
  5
164B
102
{ACAD_REACTORS
330
3CB
102
}
330
3CB
100
DictionaryVariables
280
     0
  1
2
  0
DICTIONARY
  5
1650
330
E9
100
AcDbDictionary
280
     1
281
     1
  3
ACAD_XREC_ROUNDTRIP
360
1651
  0
DICTIONARY
  5
164E
330
E8
100
AcDbDictionary
280
     1
281
     1
  3
ACAD_XREC_ROUNDTRIP
360
164F
  0
DICTIONARY
  5
1652
330
EA
100
AcDbDictionary
280
     1
281
     1
  3
ACAD_XREC_ROUNDTRIP
360
1653
  0
DICTIONARY
  5
155D
330
FE
100
AcDbDictionary
280
     1
281
     1
  3
ACAD_ROUNDTRIP_2008_TABLESTYLE_CELLSTYLEMAP
360
164C
  3
ACAD_XREC_ROUNDTRIP
360
1674
  0
DICTIONARY
  5
165E
330
F1
100
AcDbDictionary
280
     1
281
     1
  3
ACAD_XREC_ROUNDTRIP
360
165F
  0
DICTIONARY
  5
1662
330
F3
100
AcDbDictionary
280
     1
281
     1
  3
ACAD_XREC_ROUNDTRIP
360
1663
  0
DICTIONARY
  5
1660
330
F2
100
AcDbDictionary
280
     1
281
     1
  3
ACAD_XREC_ROUNDTRIP
360
1661
  0
DICTIONARY
  5
165C
330
F0
100
AcDbDictionary
280
     1
281
     1
  3
ACAD_XREC_ROUNDTRIP
360
165D
  0
DICTIONARY
  5
166A
330
F7
100
AcDbDictionary
280
     1
281
     1
  3
ACAD_XREC_ROUNDTRIP
360
166B
  0
DICTIONARY
  5
1672
330
FB
100
AcDbDictionary
280
     1
281
     1
  3
ACAD_XREC_ROUNDTRIP
360
1673
  0
DICTIONARY
  5
1664
330
F4
100
AcDbDictionary
280
     1
281
     1
  3
ACAD_XREC_ROUNDTRIP
360
1665
  0
DICTIONARY
  5
1668
330
F6
100
AcDbDictionary
280
     1
281
     1
  3
ACAD_XREC_ROUNDTRIP
360
1669
  0
DICTIONARY
  5
1679
330
B8D
100
AcDbDictionary
280
     1
281
     1
  3
ACAD_XREC_ROUNDTRIP
360
167A
  0
DICTIONARY
  5
1670
330
FA
100
AcDbDictionary
280
     1
281
     1
  3
ACAD_XREC_ROUNDTRIP
360
1671
  0
DICTIONARY
  5
1654
330
EC
100
AcDbDictionary
280
     1
281
     1
  3
ACAD_XREC_ROUNDTRIP
360
1655
  0
DICTIONARY
  5
1656
330
ED
100
AcDbDictionary
280
     1
281
     1
  3
ACAD_XREC_ROUNDTRIP
360
1657
  0
DICTIONARY
  5
1658
330
EE
100
AcDbDictionary
280
     1
281
     1
  3
ACAD_XREC_ROUNDTRIP
360
1659
  0
DICTIONARY
  5
165A
330
EF
100
AcDbDictionary
280
     1
281
     1
  3
ACAD_XREC_ROUNDTRIP
360
165B
  0
DICTIONARY
  5
1675
330
B8B
100
AcDbDictionary
280
     1
281
     1
  3
ACAD_XREC_ROUNDTRIP
360
1676
  0
DICTIONARY
  5
166E
330
F9
100
AcDbDictionary
280
     1
281
     1
  3
ACAD_XREC_ROUNDTRIP
360
166F
  0
DICTIONARY
  5
1677
330
B8C
100
AcDbDictionary
280
     1
281
     1
  3
ACAD_XREC_ROUNDTRIP
360
1678
  0
DICTIONARY
  5
1666
330
F5
100
AcDbDictionary
280
     1
281
     1
  3
ACAD_XREC_ROUNDTRIP
360
1667
  0
DICTIONARY
  5
166C
330
F8
100
AcDbDictionary
280
     1
281
     1
  3
ACAD_XREC_ROUNDTRIP
360
166D
  0
XRECORD
  5
1651
102
{ACAD_REACTORS
330
1650
102
}
330
1650
100
AcDbXrecord
280
     1
102
MATERIAL
148
0.0
149
0.0
149
0.0
 93
        0
 94
       63
282
     0
 72
     1
 77
     1
171
     1
175
     1
179
     1
273
     0
  0
XRECORD
  5
164F
102
{ACAD_REACTORS
330
164E
102
}
330
164E
100
AcDbXrecord
280
     1
102
MATERIAL
148
0.0
149
0.0
149
0.0
 93
        0
 94
       63
282
     0
 72
     1
 77
     1
171
     1
175
     1
179
     1
273
     0
  0
XRECORD
  5
1653
102
{ACAD_REACTORS
330
1652
102
}
330
1652
100
AcDbXrecord
280
     1
102
MATERIAL
148
0.0
149
0.0
149
0.0
 93
        0
 94
       63
282
     0
 72
     1
 77
     1
171
     1
175
     1
179
     1
273
     0
  0
CELLSTYLEMAP
  5
164C
102
{ACAD_REACTORS
330
155D
102
}
330
155D
100
AcDbCellStyleMap
 90
        3
300
CELLSTYLE
  1
TABLEFORMAT_BEGIN
 90
        5
170
     1
 91
        0
 92
    32768
 62
   257
 93
        1
300
CONTENTFORMAT
  1
CONTENTFORMAT_BEGIN
 90
        0
 91
        0
 92
      512
 93
        0
300

 40
0.0
140
1.0
 94
        5
 62
     0
340
11
144
0.25
309
CONTENTFORMAT_END
171
     0
 94
        6
 95
        1
302
GRIDFORMAT
  1
GRIDFORMAT_BEGIN
 90
        0
 91
        1
 62
     0
 92
       -2
340
0
 93
        0
 40
0.045
309
GRIDFORMAT_END
 95
        2
302
GRIDFORMAT
  1
GRIDFORMAT_BEGIN
 90
        0
 91
        1
 62
     0
 92
       -2
340
0
 93
        0
 40
0.045
309
GRIDFORMAT_END
 95
        4
302
GRIDFORMAT
  1
GRIDFORMAT_BEGIN
 90
        0
 91
        1
 62
     0
 92
       -2
340
0
 93
        0
 40
0.045
309
GRIDFORMAT_END
 95
        8
302
GRIDFORMAT
  1
GRIDFORMAT_BEGIN
 90
        0
 91
        1
 62
     0
 92
       -2
340
0
 93
        0
 40
0.045
309
GRIDFORMAT_END
 95
       16
302
GRIDFORMAT
  1
GRIDFORMAT_BEGIN
 90
        0
 91
        1
 62
     0
 92
       -2
340
0
 93
        0
 40
0.045
309
GRIDFORMAT_END
 95
       32
302
GRIDFORMAT
  1
GRIDFORMAT_BEGIN
 90
        0
 91
        1
 62
     0
 92
       -2
340
0
 93
        0
 40
0.045
309
GRIDFORMAT_END
309
TABLEFORMAT_END
  1
CELLSTYLE_BEGIN
 90
        1
 91
        1
300
_TITLE
309
CELLSTYLE_END
300
CELLSTYLE
  1
TABLEFORMAT_BEGIN
 90
        5
170
     1
 91
        0
 92
        0
 62
   257
 93
        1
300
CONTENTFORMAT
  1
CONTENTFORMAT_BEGIN
 90
        0
 91
        0
 92
      512
 93
        0
300

 40
0.0
140
1.0
 94
        5
 62
     0
340
11
144
0.18
309
CONTENTFORMAT_END
171
     0
 94
        6
 95
        1
302
GRIDFORMAT
  1
GRIDFORMAT_BEGIN
 90
        0
 91
        1
 62
     0
 92
       -2
340
0
 93
        0
 40
0.045
309
GRIDFORMAT_END
 95
        2
302
GRIDFORMAT
  1
GRIDFORMAT_BEGIN
 90
        0
 91
        1
 62
     0
 92
       -2
340
0
 93
        0
 40
0.045
309
GRIDFORMAT_END
 95
        4
302
GRIDFORMAT
  1
GRIDFORMAT_BEGIN
 90
        0
 91
        1
 62
     0
 92
       -2
340
0
 93
        0
 40
0.045
309
GRIDFORMAT_END
 95
        8
302
GRIDFORMAT
  1
GRIDFORMAT_BEGIN
 90
        0
 91
        1
 62
     0
 92
       -2
340
0
 93
        0
 40
0.045
309
GRIDFORMAT_END
 95
       16
302
GRIDFORMAT
  1
GRIDFORMAT_BEGIN
 90
        0
 91
        1
 62
     0
 92
       -2
340
0
 93
        0
 40
0.045
309
GRIDFORMAT_END
 95
       32
302
GRIDFORMAT
  1
GRIDFORMAT_BEGIN
 90
        0
 91
        1
 62
     0
 92
       -2
340
0
 93
        0
 40
0.045
309
GRIDFORMAT_END
309
TABLEFORMAT_END
  1
CELLSTYLE_BEGIN
 90
        2
 91
        1
300
_HEADER
309
CELLSTYLE_END
300
CELLSTYLE
  1
TABLEFORMAT_BEGIN
 90
        5
170
     1
 91
        0
 92
        0
 62
   257
 93
        1
300
CONTENTFORMAT
  1
CONTENTFORMAT_BEGIN
 90
        0
 91
        0
 92
      512
 93
        0
300

 40
0.0
140
1.0
 94
        2
 62
     0
340
11
144
0.18
309
CONTENTFORMAT_END
171
     0
 94
        6
 95
        1
302
GRIDFORMAT
  1
GRIDFORMAT_BEGIN
 90
        0
 91
        1
 62
     0
 92
       -2
340
0
 93
        0
 40
0.045
309
GRIDFORMAT_END
 95
        2
302
GRIDFORMAT
  1
GRIDFORMAT_BEGIN
 90
        0
 91
        1
 62
     0
 92
       -2
340
0
 93
        0
 40
0.045
309
GRIDFORMAT_END
 95
        4
302
GRIDFORMAT
  1
GRIDFORMAT_BEGIN
 90
        0
 91
        1
 62
     0
 92
       -2
340
0
 93
        0
 40
0.045
309
GRIDFORMAT_END
 95
        8
302
GRIDFORMAT
  1
GRIDFORMAT_BEGIN
 90
        0
 91
        1
 62
     0
 92
       -2
340
0
 93
        0
 40
0.045
309
GRIDFORMAT_END
 95
       16
302
GRIDFORMAT
  1
GRIDFORMAT_BEGIN
 90
        0
 91
        1
 62
     0
 92
       -2
340
0
 93
        0
 40
0.045
309
GRIDFORMAT_END
 95
       32
302
GRIDFORMAT
  1
GRIDFORMAT_BEGIN
 90
        0
 91
        1
 62
     0
 92
       -2
340
0
 93
        0
 40
0.045
309
GRIDFORMAT_END
309
TABLEFORMAT_END
  1
CELLSTYLE_BEGIN
 90
        3
 91
        2
300
_DATA
309
CELLSTYLE_END
  0
XRECORD
  5
1674
102
{ACAD_REACTORS
330
155D
102
}
330
155D
100
AcDbXrecord
280
     1
102
ACAD_ROUNDTRIP_PRE2007_TABLESTYLE
 90
      512
 91
        0
  1

 92
      512
 93
        0
  2

 94
      512
 95
        0
  3

  0
XRECORD
  5
165F
102
{ACAD_REACTORS
330
165E
102
}
330
165E
100
AcDbXrecord
280
     1
102
RTVSPropertyOp0
 70
     1
102
RTVSPropertyOp1
 70
     1
102
RTVSPropertyOp2
 70
     1
102
RTVSPropertyOp3
 70
     1
102
RTVSPropertyOp4
 70
     1
102
RTVSPropertyOp5
 70
     1
102
RTVSPropertyOp6
 70
     1
102
RTVSPropertyOp7
 70
     1
102
RTVSPropertyOp8
 70
     1
102
RTVSPropertyOp9
 70
     1
102
RTVSPropertyOp10
 70
     1
102
RTVSPropertyOp11
 70
     1
102
RTVSPropertyOp12
 70
     1
102
RTVSPropertyOp13
 70
     1
102
RTVSPropertyOp14
 70
     1
102
RTVSPropertyOp15
 70
     1
102
RTVSPropertyOp16
 70
     1
102
RTVSPropertyOp17
 70
     1
102
RTVSPropertyOp18
 70
     1
102
RTVSPropertyOp19
 70
     1
102
RTVSPropertyOp20
 70
     1
102
RTVSPropertyOp21
 70
     1
102
RTVSPropertyOp22
 70
     1
102
RTVSPropertyOp23
 70
     1
102
RTVSPropertyOp24
 70
     1
102
RTVSPropertyOp25
 70
     1
102
RTVSPropertyOp26
 70
     1
102
RTVSPropertyOp27
 70
     1
  0
XRECORD
  5
1663
102
{ACAD_REACTORS
330
1662
102
}
330
1662
100
AcDbXrecord
280
     1
102
RTVSPropertyOp0
 70
     1
102
RTVSPropertyOp1
 70
     1
102
RTVSPropertyOp2
 70
     1
102
RTVSPropertyOp3
 70
     1
102
RTVSPropertyOp4
 70
     1
102
RTVSPropertyOp5
 70
     1
102
RTVSPropertyOp6
 70
     1
102
RTVSPropertyOp7
 70
     1
102
RTVSPropertyOp8
 70
     1
102
RTVSPropertyOp9
 70
     1
102
RTVSPropertyOp10
 70
     1
102
RTVSPropertyOp11
 70
     1
102
RTVSPropertyOp12
 70
     1
102
RTVSPropertyOp13
 70
     1
102
RTVSPropertyOp14
 70
     1
102
RTVSPropertyOp15
 70
     1
102
RTVSPropertyOp16
 70
     1
102
RTVSPropertyOp17
 70
     1
102
RTVSPropertyOp18
 70
     1
102
RTVSPropertyOp19
 70
     1
102
RTVSPropertyOp20
 70
     1
102
RTVSPropertyOp21
 70
     1
102
RTVSPropertyOp22
 70
     1
102
RTVSPropertyOp23
 70
     1
102
RTVSPropertyOp24
 70
     1
102
RTVSPropertyOp25
 70
     1
102
RTVSPropertyOp26
 70
     1
102
RTVSPropertyOp27
 70
     1
  0
XRECORD
  5
1661
102
{ACAD_REACTORS
330
1660
102
}
330
1660
100
AcDbXrecord
280
     1
102
RTVSPropertyOp0
 70
     1
102
RTVSPropertyOp1
 70
     1
102
RTVSPropertyOp2
 70
     1
102
RTVSPropertyOp3
 70
     1
102
RTVSPropertyOp4
 70
     1
102
RTVSPropertyOp5
 70
     1
102
RTVSPropertyOp6
 70
     1
102
RTVSPropertyOp7
 70
     1
102
RTVSPropertyOp8
 70
     1
102
RTVSPropertyOp9
 70
     1
102
RTVSPropertyOp10
 70
     1
102
RTVSPropertyOp11
 70
     1
102
RTVSPropertyOp12
 70
     1
102
RTVSPropertyOp13
 70
     1
102
RTVSPropertyOp14
 70
     1
102
RTVSPropertyOp15
 70
     1
102
RTVSPropertyOp16
 70
     1
102
RTVSPropertyOp17
 70
     1
102
RTVSPropertyOp18
 70
     1
102
RTVSPropertyOp19
 70
     1
102
RTVSPropertyOp20
 70
     1
102
RTVSPropertyOp21
 70
     1
102
RTVSPropertyOp22
 70
     1
102
RTVSPropertyOp23
 70
     1
102
RTVSPropertyOp24
 70
     1
102
RTVSPropertyOp25
 70
     1
102
RTVSPropertyOp26
 70
     1
102
RTVSPropertyOp27
 70
     1
  0
XRECORD
  5
165D
102
{ACAD_REACTORS
330
165C
102
}
330
165C
100
AcDbXrecord
280
     1
102
RTVSPropertyOp0
 70
     1
102
RTVSPropertyOp1
 70
     1
102
RTVSPropertyOp2
 70
     1
102
RTVSPropertyOp3
 70
     1
102
RTVSPropertyOp4
 70
     1
102
RTVSPropertyOp5
 70
     1
102
RTVSPropertyOp6
 70
     1
102
RTVSPropertyOp7
 70
     1
102
RTVSPropertyOp8
 70
     1
102
RTVSPropertyOp9
 70
     1
102
RTVSPropertyOp10
 70
     1
102
RTVSPropertyOp11
 70
     1
102
RTVSPropertyOp12
 70
     1
102
RTVSPropertyOp13
 70
     1
102
RTVSPropertyOp14
 70
     1
102
RTVSPropertyOp15
 70
     1
102
RTVSPropertyOp16
 70
     1
102
RTVSPropertyOp17
 70
     1
102
RTVSPropertyOp18
 70
     1
102
RTVSPropertyOp19
 70
     1
102
RTVSPropertyOp20
 70
     1
102
RTVSPropertyOp21
 70
     1
102
RTVSPropertyOp22
 70
     1
102
RTVSPropertyOp23
 70
     1
102
RTVSPropertyOp24
 70
     1
102
RTVSPropertyOp25
 70
     1
102
RTVSPropertyOp26
 70
     1
102
RTVSPropertyOp27
 70
     1
  0
XRECORD
  5
166B
102
{ACAD_REACTORS
330
166A
102
}
330
166A
100
AcDbXrecord
280
     1
102
RTVSPropertyOp0
 70
     1
102
RTVSPropertyOp1
 70
     1
102
RTVSPropertyOp2
 70
     1
102
RTVSPropertyOp3
 70
     1
102
RTVSPropertyOp4
 70
     1
102
RTVSPropertyOp5
 70
     1
102
RTVSPropertyOp6
 70
     1
102
RTVSPropertyOp7
 70
     1
102
RTVSPropertyOp8
 70
     1
102
RTVSPropertyOp9
 70
     1
102
RTVSPropertyOp10
 70
     1
102
RTVSPropertyOp11
 70
     1
102
RTVSPropertyOp12
 70
     1
102
RTVSPropertyOp13
 70
     1
102
RTVSPropertyOp14
 70
     1
102
RTVSPropertyOp15
 70
     1
102
RTVSPropertyOp16
 70
     1
102
RTVSPropertyOp17
 70
     1
102
RTVSPropertyOp18
 70
     1
102
RTVSPropertyOp19
 70
     1
102
RTVSPropertyOp20
 70
     1
102
RTVSPropertyOp21
 70
     1
102
RTVSPropertyOp22
 70
     1
102
RTVSPropertyOp23
 70
     1
102
RTVSPropertyOp24
 70
     1
102
RTVSPropertyOp25
 70
     1
102
RTVSPropertyOp26
 70
     1
102
RTVSPropertyOp27
 70
     1
  0
XRECORD
  5
1673
102
{ACAD_REACTORS
330
1672
102
}
330
1672
100
AcDbXrecord
280
     1
102
RTVSPropertyOp0
 70
     1
102
RTVSPropertyOp1
 70
     1
102
RTVSPropertyOp2
 70
     1
102
RTVSPropertyOp3
 70
     1
102
RTVSPropertyOp4
 70
     1
102
RTVSPropertyOp5
 70
     1
102
RTVSPropertyOp6
 70
     1
102
RTVSPropertyOp7
 70
     1
102
RTVSPropertyOp8
 70
     1
102
RTVSPropertyOp9
 70
     1
102
RTVSPropertyOp10
 70
     1
102
RTVSPropertyOp11
 70
     1
102
RTVSPropertyOp12
 70
     1
102
RTVSPropertyOp13
 70
     1
102
RTVSPropertyOp14
 70
     1
102
RTVSPropertyOp15
 70
     1
102
RTVSPropertyOp16
 70
     1
102
RTVSPropertyOp17
 70
     1
102
RTVSPropertyOp18
 70
     1
102
RTVSPropertyOp19
 70
     1
102
RTVSPropertyOp20
 70
     1
102
RTVSPropertyOp21
 70
     1
102
RTVSPropertyOp22
 70
     1
102
RTVSPropertyOp23
 70
     1
102
RTVSPropertyOp24
 70
     1
102
RTVSPropertyOp25
 70
     1
102
RTVSPropertyOp26
 70
     1
102
RTVSPropertyOp27
 70
     1
  0
XRECORD
  5
1665
102
{ACAD_REACTORS
330
1664
102
}
330
1664
100
AcDbXrecord
280
     1
102
RTVSPropertyOp0
 70
     1
102
RTVSPropertyOp1
 70
     1
102
RTVSPropertyOp2
 70
     1
102
RTVSPropertyOp3
 70
     1
102
RTVSPropertyOp4
 70
     1
102
RTVSPropertyOp5
 70
     1
102
RTVSPropertyOp6
 70
     1
102
RTVSPropertyOp7
 70
     1
102
RTVSPropertyOp8
 70
     1
102
RTVSPropertyOp9
 70
     1
102
RTVSPropertyOp10
 70
     1
102
RTVSPropertyOp11
 70
     1
102
RTVSPropertyOp12
 70
     1
102
RTVSPropertyOp13
 70
     1
102
RTVSPropertyOp14
 70
     1
102
RTVSPropertyOp15
 70
     1
102
RTVSPropertyOp16
 70
     1
102
RTVSPropertyOp17
 70
     1
102
RTVSPropertyOp18
 70
     1
102
RTVSPropertyOp19
 70
     1
102
RTVSPropertyOp20
 70
     1
102
RTVSPropertyOp21
 70
     1
102
RTVSPropertyOp22
 70
     1
102
RTVSPropertyOp23
 70
     1
102
RTVSPropertyOp24
 70
     1
102
RTVSPropertyOp25
 70
     1
102
RTVSPropertyOp26
 70
     1
102
RTVSPropertyOp27
 70
     1
  0
XRECORD
  5
1669
102
{ACAD_REACTORS
330
1668
102
}
330
1668
100
AcDbXrecord
280
     1
102
RTVSPropertyOp0
 70
     1
102
RTVSPropertyOp1
 70
     1
102
RTVSPropertyOp2
 70
     1
102
RTVSPropertyOp3
 70
     1
102
RTVSPropertyOp4
 70
     1
102
RTVSPropertyOp5
 70
     1
102
RTVSPropertyOp6
 70
     1
102
RTVSPropertyOp7
 70
     1
102
RTVSPropertyOp8
 70
     1
102
RTVSPropertyOp9
 70
     1
102
RTVSPropertyOp10
 70
     1
102
RTVSPropertyOp11
 70
     1
102
RTVSPropertyOp12
 70
     1
102
RTVSPropertyOp13
 70
     1
102
RTVSPropertyOp14
 70
     1
102
RTVSPropertyOp15
 70
     1
102
RTVSPropertyOp16
 70
     1
102
RTVSPropertyOp17
 70
     1
102
RTVSPropertyOp18
 70
     1
102
RTVSPropertyOp19
 70
     1
102
RTVSPropertyOp20
 70
     1
102
RTVSPropertyOp21
 70
     1
102
RTVSPropertyOp22
 70
     1
102
RTVSPropertyOp23
 70
     1
102
RTVSPropertyOp24
 70
     1
102
RTVSPropertyOp25
 70
     1
102
RTVSPropertyOp26
 70
     1
102
RTVSPropertyOp27
 70
     1
  0
XRECORD
  5
167A
102
{ACAD_REACTORS
330
1679
102
}
330
1679
100
AcDbXrecord
280
     1
102
RTVSPropertyOp0
 70
     0
102
RTVSPropertyOp1
 70
     0
102
RTVSPropertyOp2
 70
     0
102
RTVSPropertyOp3
 70
     0
102
RTVSPropertyOp4
 70
     0
102
RTVSPropertyOp5
 70
     0
102
RTVSPropertyOp6
 70
     0
102
RTVSPropertyOp7
 70
     0
102
RTVSPropertyOp8
 70
     0
102
RTVSPropertyOp9
 70
     0
102
RTVSPropertyOp10
 70
     0
102
RTVSPropertyOp11
 70
     0
102
RTVSPropertyOp12
 70
     0
102
RTVSPropertyOp13
 70
     0
102
RTVSPropertyOp14
 70
     2
102
RTVSPropertyOp15
 70
     0
102
RTVSPropertyOp16
 70
     0
102
RTVSPropertyOp17
 70
     0
102
RTVSPropertyOp18
 70
     0
102
RTVSPropertyOp19
 70
     0
102
RTVSPropertyOp20
 70
     0
102
RTVSPropertyOp21
 70
     0
102
RTVSPropertyOp22
 70
     0
102
RTVSPropertyOp23
 70
     0
102
RTVSPropertyOp24
 70
     0
102
RTVSPropertyOp25
 70
     0
102
RTVSPropertyOp26
 70
     0
102
RTVSPropertyOp27
 70
     0
  0
XRECORD
  5
1671
102
{ACAD_REACTORS
330
1670
102
}
330
1670
100
AcDbXrecord
280
     1
102
RTVSPropertyOp0
 70
     1
102
RTVSPropertyOp1
 70
     1
102
RTVSPropertyOp2
 70
     1
102
RTVSPropertyOp3
 70
     1
102
RTVSPropertyOp4
 70
     1
102
RTVSPropertyOp5
 70
     1
102
RTVSPropertyOp6
 70
     1
102
RTVSPropertyOp7
 70
     1
102
RTVSPropertyOp8
 70
     1
102
RTVSPropertyOp9
 70
     1
102
RTVSPropertyOp10
 70
     1
102
RTVSPropertyOp11
 70
     1
102
RTVSPropertyOp12
 70
     1
102
RTVSPropertyOp13
 70
     1
102
RTVSPropertyOp14
 70
     1
102
RTVSPropertyOp15
 70
     1
102
RTVSPropertyOp16
 70
     1
102
RTVSPropertyOp17
 70
     1
102
RTVSPropertyOp18
 70
     1
102
RTVSPropertyOp19
 70
     1
102
RTVSPropertyOp20
 70
     1
102
RTVSPropertyOp21
 70
     1
102
RTVSPropertyOp22
 70
     1
102
RTVSPropertyOp23
 70
     1
102
RTVSPropertyOp24
 70
     1
102
RTVSPropertyOp25
 70
     1
102
RTVSPropertyOp26
 70
     1
102
RTVSPropertyOp27
 70
     1
  0
XRECORD
  5
1655
102
{ACAD_REACTORS
330
1654
102
}
330
1654
100
AcDbXrecord
280
     1
102
RTVSPropertyOp0
 70
     1
102
RTVSPropertyOp1
 70
     1
102
RTVSPropertyOp2
 70
     1
102
RTVSPropertyOp3
 70
     1
102
RTVSPropertyOp4
 70
     1
102
RTVSPropertyOp5
 70
     1
102
RTVSPropertyOp6
 70
     1
102
RTVSPropertyOp7
 70
     1
102
RTVSPropertyOp8
 70
     1
102
RTVSPropertyOp9
 70
     1
102
RTVSPropertyOp10
 70
     1
102
RTVSPropertyOp11
 70
     1
102
RTVSPropertyOp12
 70
     1
102
RTVSPropertyOp13
 70
     1
102
RTVSPropertyOp14
 70
     1
102
RTVSPropertyOp15
 70
     1
102
RTVSPropertyOp16
 70
     1
102
RTVSPropertyOp17
 70
     1
102
RTVSPropertyOp18
 70
     1
102
RTVSPropertyOp19
 70
     1
102
RTVSPropertyOp20
 70
     1
102
RTVSPropertyOp21
 70
     1
102
RTVSPropertyOp22
 70
     1
102
RTVSPropertyOp23
 70
     1
102
RTVSPropertyOp24
 70
     1
102
RTVSPropertyOp25
 70
     1
102
RTVSPropertyOp26
 70
     1
102
RTVSPropertyOp27
 70
     1
  0
XRECORD
  5
1657
102
{ACAD_REACTORS
330
1656
102
}
330
1656
100
AcDbXrecord
280
     1
102
RTVSPropertyOp0
 70
     1
102
RTVSPropertyOp1
 70
     1
102
RTVSPropertyOp2
 70
     1
102
RTVSPropertyOp3
 70
     1
102
RTVSPropertyOp4
 70
     1
102
RTVSPropertyOp5
 70
     1
102
RTVSPropertyOp6
 70
     1
102
RTVSPropertyOp7
 70
     1
102
RTVSPropertyOp8
 70
     1
102
RTVSPropertyOp9
 70
     1
102
RTVSPropertyOp10
 70
     1
102
RTVSPropertyOp11
 70
     1
102
RTVSPropertyOp12
 70
     1
102
RTVSPropertyOp13
 70
     1
102
RTVSPropertyOp14
 70
     1
102
RTVSPropertyOp15
 70
     1
102
RTVSPropertyOp16
 70
     1
102
RTVSPropertyOp17
 70
     1
102
RTVSPropertyOp18
 70
     1
102
RTVSPropertyOp19
 70
     1
102
RTVSPropertyOp20
 70
     1
102
RTVSPropertyOp21
 70
     1
102
RTVSPropertyOp22
 70
     1
102
RTVSPropertyOp23
 70
     1
102
RTVSPropertyOp24
 70
     1
102
RTVSPropertyOp25
 70
     1
102
RTVSPropertyOp26
 70
     1
102
RTVSPropertyOp27
 70
     1
  0
XRECORD
  5
1659
102
{ACAD_REACTORS
330
1658
102
}
330
1658
100
AcDbXrecord
280
     1
102
RTVSPropertyOp0
 70
     1
102
RTVSPropertyOp1
 70
     1
102
RTVSPropertyOp2
 70
     1
102
RTVSPropertyOp3
 70
     1
102
RTVSPropertyOp4
 70
     1
102
RTVSPropertyOp5
 70
     1
102
RTVSPropertyOp6
 70
     1
102
RTVSPropertyOp7
 70
     1
102
RTVSPropertyOp8
 70
     1
102
RTVSPropertyOp9
 70
     1
102
RTVSPropertyOp10
 70
     1
102
RTVSPropertyOp11
 70
     1
102
RTVSPropertyOp12
 70
     1
102
RTVSPropertyOp13
 70
     1
102
RTVSPropertyOp14
 70
     1
102
RTVSPropertyOp15
 70
     1
102
RTVSPropertyOp16
 70
     1
102
RTVSPropertyOp17
 70
     1
102
RTVSPropertyOp18
 70
     1
102
RTVSPropertyOp19
 70
     1
102
RTVSPropertyOp20
 70
     1
102
RTVSPropertyOp21
 70
     1
102
RTVSPropertyOp22
 70
     1
102
RTVSPropertyOp23
 70
     1
102
RTVSPropertyOp24
 70
     1
102
RTVSPropertyOp25
 70
     1
102
RTVSPropertyOp26
 70
     1
102
RTVSPropertyOp27
 70
     1
  0
XRECORD
  5
165B
102
{ACAD_REACTORS
330
165A
102
}
330
165A
100
AcDbXrecord
280
     1
102
RTVSPropertyOp0
 70
     1
102
RTVSPropertyOp1
 70
     1
102
RTVSPropertyOp2
 70
     1
102
RTVSPropertyOp3
 70
     1
102
RTVSPropertyOp4
 70
     1
102
RTVSPropertyOp5
 70
     1
102
RTVSPropertyOp6
 70
     1
102
RTVSPropertyOp7
 70
     1
102
RTVSPropertyOp8
 70
     1
102
RTVSPropertyOp9
 70
     1
102
RTVSPropertyOp10
 70
     1
102
RTVSPropertyOp11
 70
     1
102
RTVSPropertyOp12
 70
     1
102
RTVSPropertyOp13
 70
     1
102
RTVSPropertyOp14
 70
     1
102
RTVSPropertyOp15
 70
     1
102
RTVSPropertyOp16
 70
     1
102
RTVSPropertyOp17
 70
     1
102
RTVSPropertyOp18
 70
     1
102
RTVSPropertyOp19
 70
     1
102
RTVSPropertyOp20
 70
     1
102
RTVSPropertyOp21
 70
     1
102
RTVSPropertyOp22
 70
     1
102
RTVSPropertyOp23
 70
     1
102
RTVSPropertyOp24
 70
     1
102
RTVSPropertyOp25
 70
     1
102
RTVSPropertyOp26
 70
     1
102
RTVSPropertyOp27
 70
     1
  0
XRECORD
  5
1676
102
{ACAD_REACTORS
330
1675
102
}
330
1675
100
AcDbXrecord
280
     1
102
RTVSPropertyOp0
 70
     0
102
RTVSPropertyOp1
 70
     0
102
RTVSPropertyOp2
 70
     0
102
RTVSPropertyOp3
 70
     0
102
RTVSPropertyOp4
 70
     0
102
RTVSPropertyOp5
 70
     0
102
RTVSPropertyOp6
 70
     0
102
RTVSPropertyOp7
 70
     0
102
RTVSPropertyOp8
 70
     0
102
RTVSPropertyOp9
 70
     0
102
RTVSPropertyOp10
 70
     0
102
RTVSPropertyOp11
 70
     0
102
RTVSPropertyOp12
 70
     0
102
RTVSPropertyOp13
 70
     0
102
RTVSPropertyOp14
 70
     2
102
RTVSPropertyOp15
 70
     0
102
RTVSPropertyOp16
 70
     0
102
RTVSPropertyOp17
 70
     0
102
RTVSPropertyOp18
 70
     0
102
RTVSPropertyOp19
 70
     0
102
RTVSPropertyOp20
 70
     0
102
RTVSPropertyOp21
 70
     0
102
RTVSPropertyOp22
 70
     0
102
RTVSPropertyOp23
 70
     0
102
RTVSPropertyOp24
 70
     0
102
RTVSPropertyOp25
 70
     0
102
RTVSPropertyOp26
 70
     0
102
RTVSPropertyOp27
 70
     0
  0
XRECORD
  5
166F
102
{ACAD_REACTORS
330
166E
102
}
330
166E
100
AcDbXrecord
280
     1
102
RTVSPropertyOp0
 70
     1
102
RTVSPropertyOp1
 70
     1
102
RTVSPropertyOp2
 70
     1
102
RTVSPropertyOp3
 70
     1
102
RTVSPropertyOp4
 70
     1
102
RTVSPropertyOp5
 70
     1
102
RTVSPropertyOp6
 70
     1
102
RTVSPropertyOp7
 70
     1
102
RTVSPropertyOp8
 70
     1
102
RTVSPropertyOp9
 70
     1
102
RTVSPropertyOp10
 70
     1
102
RTVSPropertyOp11
 70
     1
102
RTVSPropertyOp12
 70
     1
102
RTVSPropertyOp13
 70
     1
102
RTVSPropertyOp14
 70
     1
102
RTVSPropertyOp15
 70
     1
102
RTVSPropertyOp16
 70
     1
102
RTVSPropertyOp17
 70
     1
102
RTVSPropertyOp18
 70
     1
102
RTVSPropertyOp19
 70
     1
102
RTVSPropertyOp20
 70
     1
102
RTVSPropertyOp21
 70
     1
102
RTVSPropertyOp22
 70
     1
102
RTVSPropertyOp23
 70
     1
102
RTVSPropertyOp24
 70
     1
102
RTVSPropertyOp25
 70
     1
102
RTVSPropertyOp26
 70
     1
102
RTVSPropertyOp27
 70
     1
  0
XRECORD
  5
1678
102
{ACAD_REACTORS
330
1677
102
}
330
1677
100
AcDbXrecord
280
     1
102
RTVSPropertyOp0
 70
     0
102
RTVSPropertyOp1
 70
     0
102
RTVSPropertyOp2
 70
     0
102
RTVSPropertyOp3
 70
     0
102
RTVSPropertyOp4
 70
     0
102
RTVSPropertyOp5
 70
     0
102
RTVSPropertyOp6
 70
     0
102
RTVSPropertyOp7
 70
     0
102
RTVSPropertyOp8
 70
     0
102
RTVSPropertyOp9
 70
     0
102
RTVSPropertyOp10
 70
     0
102
RTVSPropertyOp11
 70
     0
102
RTVSPropertyOp12
 70
     0
102
RTVSPropertyOp13
 70
     0
102
RTVSPropertyOp14
 70
     2
102
RTVSPropertyOp15
 70
     0
102
RTVSPropertyOp16
 70
     0
102
RTVSPropertyOp17
 70
     0
102
RTVSPropertyOp18
 70
     0
102
RTVSPropertyOp19
 70
     0
102
RTVSPropertyOp20
 70
     0
102
RTVSPropertyOp21
 70
     0
102
RTVSPropertyOp22
 70
     0
102
RTVSPropertyOp23
 70
     0
102
RTVSPropertyOp24
 70
     0
102
RTVSPropertyOp25
 70
     0
102
RTVSPropertyOp26
 70
     0
102
RTVSPropertyOp27
 70
     0
  0
XRECORD
  5
1667
102
{ACAD_REACTORS
330
1666
102
}
330
1666
100
AcDbXrecord
280
     1
102
RTVSPropertyOp0
 70
     1
102
RTVSPropertyOp1
 70
     1
102
RTVSPropertyOp2
 70
     1
102
RTVSPropertyOp3
 70
     1
102
RTVSPropertyOp4
 70
     1
102
RTVSPropertyOp5
 70
     1
102
RTVSPropertyOp6
 70
     1
102
RTVSPropertyOp7
 70
     1
102
RTVSPropertyOp8
 70
     1
102
RTVSPropertyOp9
 70
     1
102
RTVSPropertyOp10
 70
     1
102
RTVSPropertyOp11
 70
     1
102
RTVSPropertyOp12
 70
     1
102
RTVSPropertyOp13
 70
     1
102
RTVSPropertyOp14
 70
     1
102
RTVSPropertyOp15
 70
     1
102
RTVSPropertyOp16
 70
     1
102
RTVSPropertyOp17
 70
     1
102
RTVSPropertyOp18
 70
     1
102
RTVSPropertyOp19
 70
     1
102
RTVSPropertyOp20
 70
     1
102
RTVSPropertyOp21
 70
     1
102
RTVSPropertyOp22
 70
     1
102
RTVSPropertyOp23
 70
     1
102
RTVSPropertyOp24
 70
     1
102
RTVSPropertyOp25
 70
     1
102
RTVSPropertyOp26
 70
     1
102
RTVSPropertyOp27
 70
     1
  0
XRECORD
  5
166D
102
{ACAD_REACTORS
330
166C
102
}
330
166C
100
AcDbXrecord
280
     1
102
RTVSPropertyOp0
 70
     1
102
RTVSPropertyOp1
 70
     1
102
RTVSPropertyOp2
 70
     1
102
RTVSPropertyOp3
 70
     1
102
RTVSPropertyOp4
 70
     1
102
RTVSPropertyOp5
 70
     1
102
RTVSPropertyOp6
 70
     1
102
RTVSPropertyOp7
 70
     1
102
RTVSPropertyOp8
 70
     1
102
RTVSPropertyOp9
 70
     1
102
RTVSPropertyOp10
 70
     1
102
RTVSPropertyOp11
 70
     1
102
RTVSPropertyOp12
 70
     1
102
RTVSPropertyOp13
 70
     1
102
RTVSPropertyOp14
 70
     1
102
RTVSPropertyOp15
 70
     1
102
RTVSPropertyOp16
 70
     1
102
RTVSPropertyOp17
 70
     1
102
RTVSPropertyOp18
 70
     1
102
RTVSPropertyOp19
 70
     1
102
RTVSPropertyOp20
 70
     1
102
RTVSPropertyOp21
 70
     1
102
RTVSPropertyOp22
 70
     1
102
RTVSPropertyOp23
 70
     1
102
RTVSPropertyOp24
 70
     1
102
RTVSPropertyOp25
 70
     1
102
RTVSPropertyOp26
 70
     1
102
RTVSPropertyOp27
 70
     1
  0
ENDSEC
  0
EOF
